  0
SECTION
  2
HEADER
  9
$ACADVER
  1
AC1027
  9
$ACADMAINTVER
 70
   125
  9
$DWGCODEPAGE
  3
ANSI_1252
  9
$LASTSAVEDBY
  1
Mark
  9
$REQUIREDVERSIONS
160
                 0
  9
$INSBASE
 10
0.0
 20
0.0
 30
0.0
  9
$EXTMIN
 10
-236.2434735171119
 20
71.84796382548046
 30
0.0
  9
$EXTMAX
 10
488.4467175050102
 20
450.5274912824596
 30
0.0
  9
$LIMMIN
 10
0.0
 20
0.0
  9
$LIMMAX
 10
420.0
 20
297.0
  9
$ORTHOMODE
 70
     0
  9
$REGENMODE
 70
     1
  9
$FILLMODE
 70
     1
  9
$QTEXTMODE
 70
     0
  9
$MIRRTEXT
 70
     0
  9
$LTSCALE
 40
1.0
  9
$ATTMODE
 70
     1
  9
$TEXTSIZE
 40
10.0
  9
$TRACEWID
 40
1.0
  9
$TEXTSTYLE
  7
special
  9
$CLAYER
  8
hulp
  9
$CELTYPE
  6
ByLayer
  9
$CECOLOR
 62
   256
  9
$CELTSCALE
 40
1.0
  9
$DISPSILH
 70
     0
  9
$DIMSCALE
 40
1.0
  9
$DIMASZ
 40
2.5
  9
$DIMEXO
 40
0.625
  9
$DIMDLI
 40
3.75
  9
$DIMRND
 40
0.0
  9
$DIMDLE
 40
0.0
  9
$DIMEXE
 40
1.25
  9
$DIMTP
 40
0.0
  9
$DIMTM
 40
0.0
  9
$DIMTXT
 40
2.5
  9
$DIMCEN
 40
2.5
  9
$DIMTSZ
 40
0.0
  9
$DIMTOL
 70
     0
  9
$DIMLIM
 70
     0
  9
$DIMTIH
 70
     0
  9
$DIMTOH
 70
     0
  9
$DIMSE1
 70
     0
  9
$DIMSE2
 70
     0
  9
$DIMTAD
 70
     1
  9
$DIMZIN
 70
     8
  9
$DIMBLK
  1

  9
$DIMASO
 70
     1
  9
$DIMSHO
 70
     1
  9
$DIMPOST
  1

  9
$DIMAPOST
  1

  9
$DIMALT
 70
     0
  9
$DIMALTD
 70
     3
  9
$DIMALTF
 40
0.03937007874016
  9
$DIMLFAC
 40
1.0
  9
$DIMTOFL
 70
     1
  9
$DIMTVP
 40
0.0
  9
$DIMTIX
 70
     0
  9
$DIMSOXD
 70
     0
  9
$DIMSAH
 70
     0
  9
$DIMBLK1
  1

  9
$DIMBLK2
  1

  9
$DIMSTYLE
  2
ISO-25
  9
$DIMCLRD
 70
     0
  9
$DIMCLRE
 70
     0
  9
$DIMCLRT
 70
     0
  9
$DIMTFAC
 40
1.0
  9
$DIMGAP
 40
0.625
  9
$DIMJUST
 70
     0
  9
$DIMSD1
 70
     0
  9
$DIMSD2
 70
     0
  9
$DIMTOLJ
 70
     0
  9
$DIMTZIN
 70
     8
  9
$DIMALTZ
 70
     0
  9
$DIMALTTZ
 70
     0
  9
$DIMUPT
 70
     0
  9
$DIMDEC
 70
     2
  9
$DIMTDEC
 70
     2
  9
$DIMALTU
 70
     2
  9
$DIMALTTD
 70
     3
  9
$DIMTXSTY
  7
Standard
  9
$DIMAUNIT
 70
     0
  9
$DIMADEC
 70
     0
  9
$DIMALTRND
 40
0.0
  9
$DIMAZIN
 70
     0
  9
$DIMDSEP
 70
    44
  9
$DIMATFIT
 70
     3
  9
$DIMFRAC
 70
     0
  9
$DIMLDRBLK
  1

  9
$DIMLUNIT
 70
     2
  9
$DIMLWD
 70
    -2
  9
$DIMLWE
 70
    -2
  9
$DIMTMOVE
 70
     0
  9
$DIMFXL
 40
1.0
  9
$DIMFXLON
 70
     0
  9
$DIMJOGANG
 40
0.7853981633974483
  9
$DIMTFILL
 70
     0
  9
$DIMTFILLCLR
 70
     0
  9
$DIMARCSYM
 70
     0
  9
$DIMLTYPE
  6

  9
$DIMLTEX1
  6

  9
$DIMLTEX2
  6

  9
$DIMTXTDIRECTION
 70
     0
  9
$LUNITS
 70
     2
  9
$LUPREC
 70
     4
  9
$SKETCHINC
 40
1.0
  9
$FILLETRAD
 40
0.0
  9
$AUNITS
 70
     0
  9
$AUPREC
 70
     0
  9
$MENU
  1
.
  9
$ELEVATION
 40
0.0
  9
$PELEVATION
 40
0.0
  9
$THICKNESS
 40
0.0
  9
$LIMCHECK
 70
     0
  9
$CHAMFERA
 40
0.0
  9
$CHAMFERB
 40
0.0
  9
$CHAMFERC
 40
0.0
  9
$CHAMFERD
 40
0.0
  9
$SKPOLY
 70
     0
  9
$TDCREATE
 40
2459216.827638889
  9
$TDUCREATE
 40
2459216.785972222
  9
$TDUPDATE
 40
2459229.731898148
  9
$TDUUPDATE
 40
2459229.690231482
  9
$TDINDWG
 40
0.4361689815
  9
$TDUSRTIMER
 40
0.4361689815
  9
$USRTIMER
 70
     1
  9
$ANGBASE
 50
0.0
  9
$ANGDIR
 70
     0
  9
$PDMODE
 70
     0
  9
$PDSIZE
 40
0.0
  9
$PLINEWID
 40
0.0
  9
$SPLFRAME
 70
     0
  9
$SPLINETYPE
 70
     6
  9
$SPLINESEGS
 70
     8
  9
$HANDSEED
  5
18AC
  9
$SURFTAB1
 70
     6
  9
$SURFTAB2
 70
     6
  9
$SURFTYPE
 70
     6
  9
$SURFU
 70
     6
  9
$SURFV
 70
     6
  9
$UCSBASE
  2

  9
$UCSNAME
  2

  9
$UCSORG
 10
-191.1790853579043
 20
74.08903528322219
 30
0.0
  9
$UCSXDIR
 10
1.0
 20
0.0
 30
0.0
  9
$UCSYDIR
 10
0.0
 20
1.0
 30
0.0
  9
$UCSORTHOREF
  2

  9
$UCSORTHOVIEW
 70
     0
  9
$UCSORGTOP
 10
0.0
 20
0.0
 30
0.0
  9
$UCSORGBOTTOM
 10
0.0
 20
0.0
 30
0.0
  9
$UCSORGLEFT
 10
0.0
 20
0.0
 30
0.0
  9
$UCSORGRIGHT
 10
0.0
 20
0.0
 30
0.0
  9
$UCSORGFRONT
 10
0.0
 20
0.0
 30
0.0
  9
$UCSORGBACK
 10
0.0
 20
0.0
 30
0.0
  9
$PUCSBASE
  2

  9
$PUCSNAME
  2

  9
$PUCSORG
 10
0.0
 20
0.0
 30
0.0
  9
$PUCSXDIR
 10
1.0
 20
0.0
 30
0.0
  9
$PUCSYDIR
 10
0.0
 20
1.0
 30
0.0
  9
$PUCSORTHOREF
  2

  9
$PUCSORTHOVIEW
 70
     0
  9
$PUCSORGTOP
 10
0.0
 20
0.0
 30
0.0
  9
$PUCSORGBOTTOM
 10
0.0
 20
0.0
 30
0.0
  9
$PUCSORGLEFT
 10
0.0
 20
0.0
 30
0.0
  9
$PUCSORGRIGHT
 10
0.0
 20
0.0
 30
0.0
  9
$PUCSORGFRONT
 10
0.0
 20
0.0
 30
0.0
  9
$PUCSORGBACK
 10
0.0
 20
0.0
 30
0.0
  9
$USERI1
 70
     0
  9
$USERI2
 70
     0
  9
$USERI3
 70
     0
  9
$USERI4
 70
     0
  9
$USERI5
 70
     0
  9
$USERR1
 40
0.0
  9
$USERR2
 40
0.0
  9
$USERR3
 40
0.0
  9
$USERR4
 40
0.0
  9
$USERR5
 40
0.0
  9
$WORLDVIEW
 70
     1
  9
$SHADEDGE
 70
     3
  9
$SHADEDIF
 70
    70
  9
$TILEMODE
 70
     1
  9
$MAXACTVP
 70
    64
  9
$PINSBASE
 10
0.0
 20
0.0
 30
0.0
  9
$PLIMCHECK
 70
     0
  9
$PEXTMIN
 10
0.0
 20
0.0
 30
0.0
  9
$PEXTMAX
 10
0.0
 20
0.0
 30
0.0
  9
$PLIMMIN
 10
0.0
 20
0.0
  9
$PLIMMAX
 10
12.0
 20
9.0
  9
$UNITMODE
 70
     0
  9
$VISRETAIN
 70
     1
  9
$PLINEGEN
 70
     0
  9
$PSLTSCALE
 70
     1
  9
$TREEDEPTH
 70
  3020
  9
$CMLSTYLE
  2
Standard
  9
$CMLJUST
 70
     0
  9
$CMLSCALE
 40
20.0
  9
$PROXYGRAPHICS
 70
     1
  9
$MEASUREMENT
 70
     1
  9
$CELWEIGHT
370
    -1
  9
$ENDCAPS
280
     0
  9
$JOINSTYLE
280
     0
  9
$LWDISPLAY
290
     0
  9
$INSUNITS
 70
     4
  9
$HYPERLINKBASE
  1

  9
$STYLESHEET
  1

  9
$XEDIT
290
     1
  9
$CEPSNTYPE
380
     0
  9
$PSTYLEMODE
290
     1
  9
$FINGERPRINTGUID
  2
{CB2D4C1B-7FF4-F14A-A022-9D452640264F}
  9
$VERSIONGUID
  2
{E14D2F69-18A5-EB41-AF40-50D964660C37}
  9
$EXTNAMES
290
     1
  9
$PSVPSCALE
 40
0.0
  9
$OLESTARTUP
290
     0
  9
$SORTENTS
280
   127
  9
$INDEXCTL
280
     0
  9
$HIDETEXT
280
     1
  9
$XCLIPFRAME
280
     2
  9
$HALOGAP
280
     0
  9
$OBSCOLOR
 70
   257
  9
$OBSLTYPE
280
     0
  9
$INTERSECTIONDISPLAY
280
     0
  9
$INTERSECTIONCOLOR
 70
   257
  9
$DIMASSOC
280
     2
  9
$PROJECTNAME
  1

  9
$CAMERADISPLAY
290
     0
  9
$LENSLENGTH
 40
50.0
  9
$CAMERAHEIGHT
 40
0.0
  9
$STEPSPERSEC
 40
2.0
  9
$STEPSIZE
 40
6.0
  9
$3DDWFPREC
 40
2.0
  9
$PSOLWIDTH
 40
5.0
  9
$PSOLHEIGHT
 40
80.0
  9
$LOFTANG1
 40
1.570796326794896
  9
$LOFTANG2
 40
1.570796326794896
  9
$LOFTMAG1
 40
0.0
  9
$LOFTMAG2
 40
0.0
  9
$LOFTPARAM
 70
     7
  9
$LOFTNORMALS
280
     1
  9
$LATITUDE
 40
37.795
  9
$LONGITUDE
 40
-122.394
  9
$NORTHDIRECTION
 40
0.0
  9
$TIMEZONE
 70
 -8000
  9
$LIGHTGLYPHDISPLAY
280
     1
  9
$TILEMODELIGHTSYNCH
280
     1
  9
$CMATERIAL
347
EC
  9
$SOLIDHIST
280
     0
  9
$SHOWHIST
280
     1
  9
$DWFFRAME
280
     2
  9
$DGNFRAME
280
     0
  9
$REALWORLDSCALE
290
     1
  9
$INTERFERECOLOR
 62
     1
  9
$INTERFEREOBJVS
345
F9
  9
$INTERFEREVPVS
346
F6
  9
$CSHADOW
280
     0
  9
$SHADOWPLANELOCATION
 40
0.0
  0
ENDSEC
  0
SECTION
  2
CLASSES
  0
CLASS
  1
ACDBDICTIONARYWDFLT
  2
AcDbDictionaryWithDefault
  3
ObjectDBX Classes
 90
        0
 91
        1
280
     0
281
     0
  0
CLASS
  1
DICTIONARYVAR
  2
AcDbDictionaryVar
  3
ObjectDBX Classes
 90
        0
 91
       11
280
     0
281
     0
  0
CLASS
  1
TABLESTYLE
  2
AcDbTableStyle
  3
ObjectDBX Classes
 90
     4095
 91
        1
280
     0
281
     0
  0
CLASS
  1
MATERIAL
  2
AcDbMaterial
  3
ObjectDBX Classes
 90
     1153
 91
        3
280
     0
281
     0
  0
CLASS
  1
VISUALSTYLE
  2
AcDbVisualStyle
  3
ObjectDBX Classes
 90
     4095
 91
       24
280
     0
281
     0
  0
CLASS
  1
SCALE
  2
AcDbScale
  3
ObjectDBX Classes
 90
     1153
 91
       17
280
     0
281
     0
  0
CLASS
  1
MLEADERSTYLE
  2
AcDbMLeaderStyle
  3
ACDB_MLEADERSTYLE_CLASS
 90
     4095
 91
        2
280
     0
281
     0
  0
CLASS
  1
CELLSTYLEMAP
  2
AcDbCellStyleMap
  3
ObjectDBX Classes
 90
     1152
 91
        1
280
     0
281
     0
  0
CLASS
  1
EXACXREFPANELOBJECT
  2
ExAcXREFPanelObject
  3
EXAC_ESW
 90
     1025
 91
        0
280
     0
281
     0
  0
CLASS
  1
NPOCOLLECTION
  2
AcDbImpNonPersistentObjectsCollection
  3
ObjectDBX Classes
 90
     1153
 91
        0
280
     0
281
     0
  0
CLASS
  1
LAYER_INDEX
  2
AcDbLayerIndex
  3
ObjectDBX Classes
 90
        0
 91
        0
280
     0
281
     0
  0
CLASS
  1
SPATIAL_INDEX
  2
AcDbSpatialIndex
  3
ObjectDBX Classes
 90
        0
 91
        0
280
     0
281
     0
  0
CLASS
  1
IDBUFFER
  2
AcDbIdBuffer
  3
ObjectDBX Classes
 90
        0
 91
        0
280
     0
281
     0
  0
CLASS
  1
ACDBSECTIONVIEWSTYLE
  2
AcDbSectionViewStyle
  3
ObjectDBX Classes
 90
     1025
 91
        1
280
     0
281
     0
  0
CLASS
  1
ACDBDETAILVIEWSTYLE
  2
AcDbDetailViewStyle
  3
ObjectDBX Classes
 90
     1025
 91
        1
280
     0
281
     0
  0
CLASS
  1
SORTENTSTABLE
  2
AcDbSortentsTable
  3
ObjectDBX Classes
 90
        0
 91
        2
280
     0
281
     0
  0
CLASS
  1
SOLID_BACKGROUND
  2
AcDbSolidBackground
  3
SCENEOE
 90
     4095
 91
        0
280
     0
281
     0
  0
CLASS
  1
ACARRAYJIGENTITY
  2
AcArrayJigEntity
  3
ACAD_ARRAY
 90
      129
 91
        0
280
     0
281
     1
  0
CLASS
  1
ACDBASSOCNETWORK
  2
AcDbAssocNetwork
  3
ObjectDBX Classes
 90
     1025
 91
        2
280
     0
281
     0
  0
CLASS
  1
ACDBASSOCACTION
  2
AcDbAssocAction
  3
ObjectDBX Classes
 90
     1025
 91
        2
280
     0
281
     0
  0
CLASS
  1
ACDBASSOCARRAYACTIONBODY
  2
AcDbAssocArrayActionBody
  3
ObjectDBX Classes
 90
     1025
 91
        2
280
     0
281
     0
  0
CLASS
  1
ACDBASSOCVERTEXACTIONPARAM
  2
AcDbAssocVertexActionParam
  3
ObjectDBX Classes
 90
     1025
 91
        6
280
     0
281
     0
  0
CLASS
  1
ACDBASSOCDEPENDENCY
  2
AcDbAssocDependency
  3
ObjectDBX Classes
 90
     1025
 91
        6
280
     0
281
     0
  0
CLASS
  1
ACDBASSOCARRAYPOLARPARAMETERS
  2
AcDbAssocArrayPolarParameters
  3
ObjectDBX Classes
 90
     1025
 91
        0
280
     0
281
     0
  0
CLASS
  1
RAPIDRTRENDERSETTINGS
  2
AcDbRapidRTRenderSettings
  3
ObjectDBX Classes
 90
     1024
 91
        1
280
     0
281
     0
  0
CLASS
  1
ACDB_TEXTOBJECTCONTEXTDATA_CLASS
  2
AcDbTextObjectContextData
  3
ObjectDBX Classes
 90
     1153
 91
        0
280
     0
281
     0
  0
CLASS
  1
DIMASSOC
  2
AcDbDimAssoc
  3
"AcDbDimAssoc|Product Desc:     AcDim ARX App For Dimension|Company:          Autodesk, Inc.|WEB Address:      www.autodesk.com"
 90
        0
 91
        4
280
     0
281
     0
  0
CLASS
  1
ACDB_MTEXTOBJECTCONTEXTDATA_CLASS
  2
AcDbMTextObjectContextData
  3
ObjectDBX Classes
 90
     1153
 91
        0
280
     0
281
     0
  0
CLASS
  1
MENTALRAYRENDERSETTINGS
  2
AcDbMentalRayRenderSettings
  3
SCENEOE
 90
     1024
 91
        1
280
     0
281
     0
  0
ENDSEC
  0
SECTION
  2
TABLES
  0
TABLE
  2
VPORT
  5
8
330
0
100
AcDbSymbolTable
 70
     1
1001
ACAD
1000
DbSaveVer
1071
      105
  0
VPORT
  5
EA
330
8
100
AcDbSymbolTableRecord
100
AcDbViewportTableRecord
  2
*Active
 70
     0
 10
0.0
 20
0.0
 11
1.0
 21
1.0
 12
-159.6948971309738
 22
295.9941964039259
 13
0.0
 23
0.0
 14
5.0
 24
5.0
 15
10.0
 25
10.0
 16
0.0
 26
0.0
 36
1.0
 17
0.0
 27
0.0
 37
0.0
 40
926.1152588505623
 41
2.005224660397074
 42
50.0
 43
0.0
 44
0.0
 50
0.0
 51
0.0
 71
     0
 72
  1000
 73
     1
 74
     3
 75
     0
 76
     1
 77
     0
 78
     0
281
     0
 65
     1
110
-191.1790853579043
120
74.08903528322219
130
0.0
111
1.0
121
0.0
131
0.0
112
0.0
122
1.0
132
0.0
 79
     0
146
0.0
348
F5
 60
     3
 61
     5
292
     1
282
     1
141
0.0
142
0.0
 63
   250
421
  3355443
1001
ACAD_NAV_VCDISPLAY
1070
     3
  0
ENDTAB
  0
TABLE
  2
LTYPE
  5
5
330
0
100
AcDbSymbolTable
 70
     1
  0
LTYPE
  5
14
330
5
100
AcDbSymbolTableRecord
100
AcDbLinetypeTableRecord
  2
ByBlock
 70
     0
  3

 72
    65
 73
     0
 40
0.0
  0
LTYPE
  5
15
330
5
100
AcDbSymbolTableRecord
100
AcDbLinetypeTableRecord
  2
ByLayer
 70
     0
  3

 72
    65
 73
     0
 40
0.0
  0
LTYPE
  5
16
330
5
100
AcDbSymbolTableRecord
100
AcDbLinetypeTableRecord
  2
Continuous
 70
     0
  3
Solid line
 72
    65
 73
     0
 40
0.0
  0
ENDTAB
  0
TABLE
  2
LAYER
  5
2
102
{ACAD_XDICTIONARY
360
1FF
102
}
330
0
100
AcDbSymbolTable
 70
     5
  0
LAYER
  5
10
102
{ACAD_XDICTIONARY
360
13C
102
}
330
2
100
AcDbSymbolTableRecord
100
AcDbLayerTableRecord
  2
0
 70
     0
 62
     7
  6
Continuous
370
    -3
390
F
347
EE
348
0
  0
LAYER
  5
2E8
330
2
100
AcDbSymbolTableRecord
100
AcDbLayerTableRecord
  2
hulp
 70
     0
 62
   -94
  6
Continuous
370
    -3
390
F
347
EE
348
0
1001
AcAecLayerStandard
1000

1000

1001
AcCmTransparency
1071
        0
  0
LAYER
  5
375
330
2
100
AcDbSymbolTableRecord
100
AcDbLayerTableRecord
  2
frees
 70
     0
 62
    12
  6
Continuous
370
    -3
390
F
347
EE
348
0
1001
AcAecLayerStandard
1000

1000

1001
AcCmTransparency
1071
        0
  0
LAYER
  5
11E5
330
2
100
AcDbSymbolTableRecord
100
AcDbLayerTableRecord
  2
Defpoints
 70
     0
 62
     7
  6
Continuous
290
     0
370
    -3
390
F
347
EE
348
0
  0
LAYER
  5
16D8
330
2
100
AcDbSymbolTableRecord
100
AcDbLayerTableRecord
  2
material
 70
     0
 62
   -50
  6
Continuous
370
    -3
390
F
347
EE
348
0
1001
AcAecLayerStandard
1000

1000

1001
AcCmTransparency
1071
        0
  0
ENDTAB
  0
TABLE
  2
STYLE
  5
3
330
0
100
AcDbSymbolTable
 70
     3
  0
STYLE
  5
11
330
3
100
AcDbSymbolTableRecord
100
AcDbTextStyleTableRecord
  2
Standard
 70
     0
 40
0.0
 41
1.0
 50
0.0
 71
     0
 42
17.62372340186516
  3

  4

1001
ACAD
1000
Laser Script
1071
 16777282
  0
STYLE
  5
132
330
3
100
AcDbSymbolTableRecord
100
AcDbTextStyleTableRecord
  2
Annotative
 70
     0
 40
0.0
 41
1.0
 50
0.0
 71
     0
 42
2.5
  3
arial.ttf
  4

1001
AcadAnnotative
1000
AnnotativeData
1002
{
1070
     1
1070
     1
1002
}
1001
ACAD
1000
Arial
1071
       34
  0
STYLE
  5
11DC
330
3
100
AcDbSymbolTableRecord
100
AcDbTextStyleTableRecord
  2
special
 70
     0
 40
0.0
 41
1.0
 50
0.0
 71
     0
 42
10.0
  3
arial.ttf
  4

1001
ACAD
1000
Arial
1071
       34
  0
ENDTAB
  0
TABLE
  2
VIEW
  5
6
330
0
100
AcDbSymbolTable
 70
     1
  0
ENDTAB
  0
TABLE
  2
UCS
  5
7
330
0
100
AcDbSymbolTable
 70
     0
  0
ENDTAB
  0
TABLE
  2
APPID
  5
9
330
0
100
AcDbSymbolTable
 70
    12
  0
APPID
  5
12
330
9
100
AcDbSymbolTableRecord
100
AcDbRegAppTableRecord
  2
ACAD
 70
     0
  0
APPID
  5
9E
330
9
100
AcDbSymbolTableRecord
100
AcDbRegAppTableRecord
  2
ACAD_PSEXT
 70
     0
  0
APPID
  5
133
330
9
100
AcDbSymbolTableRecord
100
AcDbRegAppTableRecord
  2
AcadAnnoPO
 70
     0
  0
APPID
  5
134
330
9
100
AcDbSymbolTableRecord
100
AcDbRegAppTableRecord
  2
AcadAnnotative
 70
     0
  0
APPID
  5
135
330
9
100
AcDbSymbolTableRecord
100
AcDbRegAppTableRecord
  2
ACAD_DSTYLE_DIMJAG
 70
     0
  0
APPID
  5
136
330
9
100
AcDbSymbolTableRecord
100
AcDbRegAppTableRecord
  2
ACAD_DSTYLE_DIMTALN
 70
     0
  0
APPID
  5
165
330
9
100
AcDbSymbolTableRecord
100
AcDbRegAppTableRecord
  2
ACAD_MLEADERVER
 70
     0
  0
APPID
  5
217
330
9
100
AcDbSymbolTableRecord
100
AcDbRegAppTableRecord
  2
ACAD_NAV_VCDISPLAY
 70
     0
  0
APPID
  5
27F
330
9
100
AcDbSymbolTableRecord
100
AcDbRegAppTableRecord
  2
ACAD_EXEMPT_FROM_CAD_STANDARDS
 70
     0
  0
APPID
  5
2E9
330
9
100
AcDbSymbolTableRecord
100
AcDbRegAppTableRecord
  2
AcAecLayerStandard
 70
     0
  0
APPID
  5
2EA
330
9
100
AcDbSymbolTableRecord
100
AcDbRegAppTableRecord
  2
AcCmTransparency
 70
     0
  0
APPID
  5
1741
330
9
100
AcDbSymbolTableRecord
100
AcDbRegAppTableRecord
  2
AcadAnnoMonitorAlertIconDisabled
 70
     0
  0
ENDTAB
  0
TABLE
  2
DIMSTYLE
  5
A
330
0
100
AcDbSymbolTable
 70
     3
100
AcDbDimStyleTable
 71
     2
340
27
340
137
  0
DIMSTYLE
105
1B0
330
A
100
AcDbSymbolTableRecord
100
AcDbDimStyleTableRecord
  2
Standard
 70
     0
340
11
  0
DIMSTYLE
105
137
330
A
100
AcDbSymbolTableRecord
100
AcDbDimStyleTableRecord
  2
Annotative
 70
     0
 40
0.0
 41
2.5
 42
0.625
 43
3.75
 44
1.25
 73
     0
 74
     0
 77
     1
 78
     8
140
2.5
141
2.5
143
0.03937007874016
147
0.625
171
     3
172
     1
271
     2
272
     2
274
     3
278
    44
283
     0
284
     8
340
11
1001
AcadAnnotative
1000
AnnotativeData
1002
{
1070
     1
1070
     1
1002
}
1001
ACAD_DSTYLE_DIMJAG
1070
   388
1040
1.5
1001
ACAD_DSTYLE_DIMTALN
1070
   392
1070
     0
  0
DIMSTYLE
105
27
102
{ACAD_REACTORS
330
1711
330
1729
330
16E1
330
16F9
102
}
330
A
100
AcDbSymbolTableRecord
100
AcDbDimStyleTableRecord
  2
ISO-25
 70
     0
 41
2.5
 42
0.625
 43
3.75
 44
1.25
 73
     0
 74
     0
 77
     1
 78
     8
140
2.5
141
2.5
143
0.03937007874016
147
0.625
171
     3
172
     1
271
     2
272
     2
274
     3
278
    44
283
     0
284
     8
340
11
  0
ENDTAB
  0
TABLE
  2
BLOCK_RECORD
  5
1
330
0
100
AcDbSymbolTable
 70
    11
  0
BLOCK_RECORD
  5
1F
102
{ACAD_XDICTIONARY
360
1CE
102
}
330
1
100
AcDbSymbolTableRecord
100
AcDbBlockTableRecord
  2
*Model_Space
340
22
 70
     0
280
     1
281
     0
  0
BLOCK_RECORD
  5
D2
330
1
100
AcDbSymbolTableRecord
100
AcDbBlockTableRecord
  2
*Paper_Space
340
D3
 70
     0
280
     1
281
     0
  0
BLOCK_RECORD
  5
D6
330
1
100
AcDbSymbolTableRecord
100
AcDbBlockTableRecord
  2
*Paper_Space0
340
D7
 70
     0
280
     1
281
     0
  0
BLOCK_RECORD
  5
1153
102
{ACAD_REACTORS
330
1187
102
}
330
1
100
AcDbSymbolTableRecord
100
AcDbBlockTableRecord
  2
*U3
340
0
102
{BLKREFS
331
115B
331
115C
331
115D
331
115E
331
115F
331
1160
331
1161
331
1162
331
1163
331
1164
331
1165
331
1166
331
1167
331
1168
331
1169
331
116A
331
116B
331
116C
331
116D
331
116E
331
116F
331
1170
331
1171
331
1172
331
1173
331
1174
331
1175
331
1176
331
1177
331
1178
331
1179
331
117A
331
117B
331
117C
331
117D
331
117E
331
117F
331
1180
331
1181
331
1182
102
}
 70
     0
280
     1
281
     0
  0
BLOCK_RECORD
  5
1159
102
{ACAD_REACTORS
330
1186
102
}
330
1
100
AcDbSymbolTableRecord
100
AcDbBlockTableRecord
  2
*U4
340
0
102
{BLKREFS
331
DFA
102
}
 70
     0
280
     1
281
     1
  0
BLOCK_RECORD
  5
118C
102
{ACAD_REACTORS
330
11BE
102
}
330
1
100
AcDbSymbolTableRecord
100
AcDbBlockTableRecord
  2
*U5
340
0
102
{BLKREFS
331
1192
331
1193
331
1194
331
1195
331
1196
331
1197
331
1198
331
1199
331
119A
331
119B
331
119C
331
119D
331
119E
331
119F
331
11A0
331
11A1
331
11A2
331
11A3
331
11A4
331
11A5
331
11A6
331
11A7
331
11A8
331
11A9
331
11AA
331
11AB
331
11AC
331
11AD
331
11AE
331
11AF
331
11B0
331
11B1
331
11B2
331
11B3
331
11B4
331
11B5
331
11B6
331
11B7
331
11B8
331
11B9
102
}
 70
     0
280
     1
281
     0
  0
BLOCK_RECORD
  5
1190
102
{ACAD_REACTORS
330
11BD
102
}
330
1
100
AcDbSymbolTableRecord
100
AcDbBlockTableRecord
  2
*U6
340
0
102
{BLKREFS
331
E1D
102
}
 70
     0
280
     1
281
     1
  0
BLOCK_RECORD
  5
16E2
330
1
100
AcDbSymbolTableRecord
100
AcDbBlockTableRecord
  2
*D7
340
0
 70
     0
280
     1
281
     0
  0
BLOCK_RECORD
  5
16FA
330
1
100
AcDbSymbolTableRecord
100
AcDbBlockTableRecord
  2
*D8
340
0
 70
     0
280
     1
281
     0
  0
BLOCK_RECORD
  5
1712
330
1
100
AcDbSymbolTableRecord
100
AcDbBlockTableRecord
  2
*D9
340
0
 70
     0
280
     1
281
     0
  0
BLOCK_RECORD
  5
172A
330
1
100
AcDbSymbolTableRecord
100
AcDbBlockTableRecord
  2
*D10
340
0
 70
     0
280
     1
281
     0
  0
ENDTAB
  0
ENDSEC
  0
SECTION
  2
BLOCKS
  0
BLOCK
  5
20
330
1F
100
AcDbEntity
  8
0
100
AcDbBlockBegin
  2
*Model_Space
 70
     0
 10
0.0
 20
0.0
 30
0.0
  3
*Model_Space
  1

  0
ENDBLK
  5
21
330
1F
100
AcDbEntity
  8
0
100
AcDbBlockEnd
  0
BLOCK
  5
D4
330
D2
100
AcDbEntity
 67
     1
  8
0
100
AcDbBlockBegin
  2
*Paper_Space
 70
     0
 10
0.0
 20
0.0
 30
0.0
  3
*Paper_Space
  1

  0
ENDBLK
  5
D5
330
D2
100
AcDbEntity
 67
     1
  8
0
100
AcDbBlockEnd
  0
BLOCK
  5
D8
330
D6
100
AcDbEntity
 67
     1
  8
0
100
AcDbBlockBegin
  2
*Paper_Space0
 70
     0
 10
0.0
 20
0.0
 30
0.0
  3
*Paper_Space0
  1

  0
ENDBLK
  5
D9
330
D6
100
AcDbEntity
 67
     1
  8
0
100
AcDbBlockEnd
  0
BLOCK
  5
1154
330
1153
100
AcDbEntity
  8
0
100
AcDbBlockBegin
  2
*U3
 70
     1
 10
0.0
 20
0.0
 30
0.0
  3
*U3
  1

  0
CIRCLE
  5
1155
330
1153
100
AcDbEntity
  8
0
100
AcDbCircle
 10
1.0
 20
1.0
 30
0.0
 40
1.0
  0
ENDBLK
  5
1156
330
1153
100
AcDbEntity
  8
0
100
AcDbBlockEnd
  0
BLOCK
  5
115A
330
1159
100
AcDbEntity
  8
0
100
AcDbBlockBegin
  2
*U4
 70
     1
 10
0.0
 20
0.0
 30
0.0
  3
*U4
  1

  0
INSERT
  5
115B
330
1159
100
AcDbEntity
  8
frees
  6
ByBlock
347
ED
 62
     0
440
 16777216
370
    -2
380
     1
100
AcDbBlockReference
  2
*U3
 10
72.3989680553353
 20
417.2217788226543
 30
0.0
  0
INSERT
  5
115C
330
1159
100
AcDbEntity
  8
frees
  6
ByBlock
347
ED
 62
     0
440
 16777216
370
    -2
380
     1
100
AcDbBlockReference
  2
*U3
 10
70.27764771177565
 20
415.1004584790946
 30
0.0
  0
INSERT
  5
115D
330
1159
100
AcDbEntity
  8
frees
  6
ByBlock
347
ED
 62
     0
440
 16777216
370
    -2
380
     1
100
AcDbBlockReference
  2
*U3
 10
68.15632736821601
 20
412.979138135535
 30
0.0
  0
INSERT
  5
115E
330
1159
100
AcDbEntity
  8
frees
  6
ByBlock
347
ED
 62
     0
440
 16777216
370
    -2
380
     1
100
AcDbBlockReference
  2
*U3
 10
66.03500702465638
 20
410.8578177919754
 30
0.0
  0
INSERT
  5
115F
330
1159
100
AcDbEntity
  8
frees
  6
ByBlock
347
ED
 62
     0
440
 16777216
370
    -2
380
     1
100
AcDbBlockReference
  2
*U3
 10
63.91368668109674
 20
408.7364974484157
 30
0.0
  0
INSERT
  5
1160
330
1159
100
AcDbEntity
  8
frees
  6
ByBlock
347
ED
 62
     0
440
 16777216
370
    -2
380
     1
100
AcDbBlockReference
  2
*U3
 10
61.79236633753709
 20
406.6151771048561
 30
0.0
  0
INSERT
  5
1161
330
1159
100
AcDbEntity
  8
frees
  6
ByBlock
347
ED
 62
     0
440
 16777216
370
    -2
380
     1
100
AcDbBlockReference
  2
*U3
 10
59.67104599397744
 20
404.4938567612964
 30
0.0
  0
INSERT
  5
1162
330
1159
100
AcDbEntity
  8
frees
  6
ByBlock
347
ED
 62
     0
440
 16777216
370
    -2
380
     1
100
AcDbBlockReference
  2
*U3
 10
57.5497256504178
 20
402.3725364177368
 30
0.0
  0
INSERT
  5
1163
330
1159
100
AcDbEntity
  8
frees
  6
ByBlock
347
ED
 62
     0
440
 16777216
370
    -2
380
     1
100
AcDbBlockReference
  2
*U3
 10
55.42840530685816
 20
400.2512160741771
 30
0.0
  0
INSERT
  5
1164
330
1159
100
AcDbEntity
  8
frees
  6
ByBlock
347
ED
 62
     0
440
 16777216
370
    -2
380
     1
100
AcDbBlockReference
  2
*U3
 10
53.30708496329852
 20
398.1298957306175
 30
0.0
  0
INSERT
  5
1165
330
1159
100
AcDbEntity
  8
frees
  6
ByBlock
347
ED
 62
     0
440
 16777216
370
    -2
380
     1
100
AcDbBlockReference
  2
*U3
 10
77.45460507604789
 20
417.2217788226543
 30
0.0
 41
0.9999999999999998
 42
0.9999999999999998
 43
0.9999999999999998
 50
90.0
  0
INSERT
  5
1166
330
1159
100
AcDbEntity
  8
frees
  6
ByBlock
347
ED
 62
     0
440
 16777216
370
    -2
380
     1
100
AcDbBlockReference
  2
*U3
 10
79.57592541960754
 20
415.1004584790946
 30
0.0
 41
0.9999999999999998
 42
0.9999999999999998
 43
0.9999999999999998
 50
90.0
  0
INSERT
  5
1167
330
1159
100
AcDbEntity
  8
frees
  6
ByBlock
347
ED
 62
     0
440
 16777216
370
    -2
380
     1
100
AcDbBlockReference
  2
*U3
 10
81.69724576316719
 20
412.979138135535
 30
0.0
 41
0.9999999999999998
 42
0.9999999999999998
 43
0.9999999999999998
 50
90.0
  0
INSERT
  5
1168
330
1159
100
AcDbEntity
  8
frees
  6
ByBlock
347
ED
 62
     0
440
 16777216
370
    -2
380
     1
100
AcDbBlockReference
  2
*U3
 10
83.81856610672683
 20
410.8578177919754
 30
0.0
 41
0.9999999999999998
 42
0.9999999999999998
 43
0.9999999999999998
 50
90.0
  0
INSERT
  5
1169
330
1159
100
AcDbEntity
  8
frees
  6
ByBlock
347
ED
 62
     0
440
 16777216
370
    -2
380
     1
100
AcDbBlockReference
  2
*U3
 10
85.93988645028646
 20
408.7364974484157
 30
0.0
 41
0.9999999999999998
 42
0.9999999999999998
 43
0.9999999999999998
 50
90.0
  0
INSERT
  5
116A
330
1159
100
AcDbEntity
  8
frees
  6
ByBlock
347
ED
 62
     0
440
 16777216
370
    -2
380
     1
100
AcDbBlockReference
  2
*U3
 10
88.0612067938461
 20
406.6151771048561
 30
0.0
 41
0.9999999999999998
 42
0.9999999999999998
 43
0.9999999999999998
 50
90.0
  0
INSERT
  5
116B
330
1159
100
AcDbEntity
  8
frees
  6
ByBlock
347
ED
 62
     0
440
 16777216
370
    -2
380
     1
100
AcDbBlockReference
  2
*U3
 10
90.18252713740576
 20
404.4938567612964
 30
0.0
 41
0.9999999999999998
 42
0.9999999999999998
 43
0.9999999999999998
 50
90.0
  0
INSERT
  5
116C
330
1159
100
AcDbEntity
  8
frees
  6
ByBlock
347
ED
 62
     0
440
 16777216
370
    -2
380
     1
100
AcDbBlockReference
  2
*U3
 10
92.3038474809654
 20
402.3725364177368
 30
0.0
 41
0.9999999999999998
 42
0.9999999999999998
 43
0.9999999999999998
 50
90.0
  0
INSERT
  5
116D
330
1159
100
AcDbEntity
  8
frees
  6
ByBlock
347
ED
 62
     0
440
 16777216
370
    -2
380
     1
100
AcDbBlockReference
  2
*U3
 10
94.42516782452504
 20
400.2512160741771
 30
0.0
 41
0.9999999999999998
 42
0.9999999999999998
 43
0.9999999999999998
 50
90.0
  0
INSERT
  5
116E
330
1159
100
AcDbEntity
  8
frees
  6
ByBlock
347
ED
 62
     0
440
 16777216
370
    -2
380
     1
100
AcDbBlockReference
  2
*U3
 10
96.54648816808467
 20
398.1298957306175
 30
0.0
 41
0.9999999999999998
 42
0.9999999999999998
 43
0.9999999999999998
 50
90.0
  0
INSERT
  5
116F
330
1159
100
AcDbEntity
  8
frees
  6
ByBlock
347
ED
 62
     0
440
 16777216
370
    -2
380
     1
100
AcDbBlockReference
  2
*U3
 10
77.45460507604789
 20
422.2774158433668
 30
0.0
 41
0.9999999999999998
 42
0.9999999999999998
 43
0.9999999999999998
 50
180.0
  0
INSERT
  5
1170
330
1159
100
AcDbEntity
  8
frees
  6
ByBlock
347
ED
 62
     0
440
 16777216
370
    -2
380
     1
100
AcDbBlockReference
  2
*U3
 10
79.57592541960754
 20
424.3987361869264
 30
0.0
 41
0.9999999999999998
 42
0.9999999999999998
 43
0.9999999999999998
 50
180.0
  0
INSERT
  5
1171
330
1159
100
AcDbEntity
  8
frees
  6
ByBlock
347
ED
 62
     0
440
 16777216
370
    -2
380
     1
100
AcDbBlockReference
  2
*U3
 10
81.69724576316719
 20
426.520056530486
 30
0.0
 41
0.9999999999999998
 42
0.9999999999999998
 43
0.9999999999999998
 50
180.0
  0
INSERT
  5
1172
330
1159
100
AcDbEntity
  8
frees
  6
ByBlock
347
ED
 62
     0
440
 16777216
370
    -2
380
     1
100
AcDbBlockReference
  2
*U3
 10
83.81856610672683
 20
428.6413768740457
 30
0.0
 41
0.9999999999999998
 42
0.9999999999999998
 43
0.9999999999999998
 50
180.0
  0
INSERT
  5
1173
330
1159
100
AcDbEntity
  8
frees
  6
ByBlock
347
ED
 62
     0
440
 16777216
370
    -2
380
     1
100
AcDbBlockReference
  2
*U3
 10
85.93988645028646
 20
430.7626972176054
 30
0.0
 41
0.9999999999999998
 42
0.9999999999999998
 43
0.9999999999999998
 50
180.0
  0
INSERT
  5
1174
330
1159
100
AcDbEntity
  8
frees
  6
ByBlock
347
ED
 62
     0
440
 16777216
370
    -2
380
     1
100
AcDbBlockReference
  2
*U3
 10
88.0612067938461
 20
432.8840175611651
 30
0.0
 41
0.9999999999999998
 42
0.9999999999999998
 43
0.9999999999999998
 50
180.0
  0
INSERT
  5
1175
330
1159
100
AcDbEntity
  8
frees
  6
ByBlock
347
ED
 62
     0
440
 16777216
370
    -2
380
     1
100
AcDbBlockReference
  2
*U3
 10
90.18252713740574
 20
435.0053379047246
 30
0.0
 41
0.9999999999999998
 42
0.9999999999999998
 43
0.9999999999999998
 50
180.0
  0
INSERT
  5
1176
330
1159
100
AcDbEntity
  8
frees
  6
ByBlock
347
ED
 62
     0
440
 16777216
370
    -2
380
     1
100
AcDbBlockReference
  2
*U3
 10
92.30384748096538
 20
437.1266582482843
 30
0.0
 41
0.9999999999999998
 42
0.9999999999999998
 43
0.9999999999999998
 50
180.0
  0
INSERT
  5
1177
330
1159
100
AcDbEntity
  8
frees
  6
ByBlock
347
ED
 62
     0
440
 16777216
370
    -2
380
     1
100
AcDbBlockReference
  2
*U3
 10
94.42516782452504
 20
439.247978591844
 30
0.0
 41
0.9999999999999998
 42
0.9999999999999998
 43
0.9999999999999998
 50
180.0
  0
INSERT
  5
1178
330
1159
100
AcDbEntity
  8
frees
  6
ByBlock
347
ED
 62
     0
440
 16777216
370
    -2
380
     1
100
AcDbBlockReference
  2
*U3
 10
96.54648816808467
 20
441.3692989354037
 30
0.0
 41
0.9999999999999998
 42
0.9999999999999998
 43
0.9999999999999998
 50
180.0
  0
INSERT
  5
1179
330
1159
100
AcDbEntity
  8
frees
  6
ByBlock
347
ED
 62
     0
440
 16777216
370
    -2
380
     1
100
AcDbBlockReference
  2
*U3
 10
72.3989680553353
 20
422.2774158433668
 30
0.0
 41
0.9999999999999998
 42
0.9999999999999998
 43
0.9999999999999998
 50
270.0
  0
INSERT
  5
117A
330
1159
100
AcDbEntity
  8
frees
  6
ByBlock
347
ED
 62
     0
440
 16777216
370
    -2
380
     1
100
AcDbBlockReference
  2
*U3
 10
70.27764771177565
 20
424.3987361869264
 30
0.0
 41
0.9999999999999998
 42
0.9999999999999998
 43
0.9999999999999998
 50
270.0
  0
INSERT
  5
117B
330
1159
100
AcDbEntity
  8
frees
  6
ByBlock
347
ED
 62
     0
440
 16777216
370
    -2
380
     1
100
AcDbBlockReference
  2
*U3
 10
68.15632736821601
 20
426.520056530486
 30
0.0
 41
0.9999999999999998
 42
0.9999999999999998
 43
0.9999999999999998
 50
270.0
  0
INSERT
  5
117C
330
1159
100
AcDbEntity
  8
frees
  6
ByBlock
347
ED
 62
     0
440
 16777216
370
    -2
380
     1
100
AcDbBlockReference
  2
*U3
 10
66.03500702465638
 20
428.6413768740457
 30
0.0
 41
0.9999999999999998
 42
0.9999999999999998
 43
0.9999999999999998
 50
270.0
  0
INSERT
  5
117D
330
1159
100
AcDbEntity
  8
frees
  6
ByBlock
347
ED
 62
     0
440
 16777216
370
    -2
380
     1
100
AcDbBlockReference
  2
*U3
 10
63.91368668109674
 20
430.7626972176054
 30
0.0
 41
0.9999999999999998
 42
0.9999999999999998
 43
0.9999999999999998
 50
270.0
  0
INSERT
  5
117E
330
1159
100
AcDbEntity
  8
frees
  6
ByBlock
347
ED
 62
     0
440
 16777216
370
    -2
380
     1
100
AcDbBlockReference
  2
*U3
 10
61.79236633753709
 20
432.8840175611651
 30
0.0
 41
0.9999999999999998
 42
0.9999999999999998
 43
0.9999999999999998
 50
270.0
  0
INSERT
  5
117F
330
1159
100
AcDbEntity
  8
frees
  6
ByBlock
347
ED
 62
     0
440
 16777216
370
    -2
380
     1
100
AcDbBlockReference
  2
*U3
 10
59.67104599397745
 20
435.0053379047246
 30
0.0
 41
0.9999999999999998
 42
0.9999999999999998
 43
0.9999999999999998
 50
270.0
  0
INSERT
  5
1180
330
1159
100
AcDbEntity
  8
frees
  6
ByBlock
347
ED
 62
     0
440
 16777216
370
    -2
380
     1
100
AcDbBlockReference
  2
*U3
 10
57.5497256504178
 20
437.1266582482843
 30
0.0
 41
0.9999999999999998
 42
0.9999999999999998
 43
0.9999999999999998
 50
270.0
  0
INSERT
  5
1181
330
1159
100
AcDbEntity
  8
frees
  6
ByBlock
347
ED
 62
     0
440
 16777216
370
    -2
380
     1
100
AcDbBlockReference
  2
*U3
 10
55.42840530685817
 20
439.247978591844
 30
0.0
 41
0.9999999999999998
 42
0.9999999999999998
 43
0.9999999999999998
 50
270.0
  0
INSERT
  5
1182
330
1159
100
AcDbEntity
  8
frees
  6
ByBlock
347
ED
 62
     0
440
 16777216
370
    -2
380
     1
100
AcDbBlockReference
  2
*U3
 10
53.30708496329852
 20
441.3692989354036
 30
0.0
 41
0.9999999999999998
 42
0.9999999999999998
 43
0.9999999999999998
 50
270.0
  0
ENDBLK
  5
1183
330
1159
100
AcDbEntity
  8
0
100
AcDbBlockEnd
  0
BLOCK
  5
118D
330
118C
100
AcDbEntity
  8
0
100
AcDbBlockBegin
  2
*U5
 70
     1
 10
0.0
 20
0.0
 30
0.0
  3
*U5
  1

  0
CIRCLE
  5
118E
330
118C
100
AcDbEntity
  8
0
100
AcDbCircle
 10
1.0
 20
1.0
 30
0.0
 40
1.0
  0
ENDBLK
  5
118F
330
118C
100
AcDbEntity
  8
0
100
AcDbBlockEnd
  0
BLOCK
  5
1191
330
1190
100
AcDbEntity
  8
0
100
AcDbBlockBegin
  2
*U6
 70
     1
 10
0.0
 20
0.0
 30
0.0
  3
*U6
  1

  0
INSERT
  5
1192
330
1190
100
AcDbEntity
  8
frees
  6
ByBlock
347
ED
 62
     0
440
 16777216
370
    -2
380
     1
100
AcDbBlockReference
  2
*U5
 10
72.3989680553353
 20
417.2217788226543
 30
0.0
  0
INSERT
  5
1193
330
1190
100
AcDbEntity
  8
frees
  6
ByBlock
347
ED
 62
     0
440
 16777216
370
    -2
380
     1
100
AcDbBlockReference
  2
*U5
 10
70.27764771177565
 20
415.1004584790946
 30
0.0
  0
INSERT
  5
1194
330
1190
100
AcDbEntity
  8
frees
  6
ByBlock
347
ED
 62
     0
440
 16777216
370
    -2
380
     1
100
AcDbBlockReference
  2
*U5
 10
68.15632736821601
 20
412.979138135535
 30
0.0
  0
INSERT
  5
1195
330
1190
100
AcDbEntity
  8
frees
  6
ByBlock
347
ED
 62
     0
440
 16777216
370
    -2
380
     1
100
AcDbBlockReference
  2
*U5
 10
66.03500702465638
 20
410.8578177919754
 30
0.0
  0
INSERT
  5
1196
330
1190
100
AcDbEntity
  8
frees
  6
ByBlock
347
ED
 62
     0
440
 16777216
370
    -2
380
     1
100
AcDbBlockReference
  2
*U5
 10
63.91368668109674
 20
408.7364974484157
 30
0.0
  0
INSERT
  5
1197
330
1190
100
AcDbEntity
  8
frees
  6
ByBlock
347
ED
 62
     0
440
 16777216
370
    -2
380
     1
100
AcDbBlockReference
  2
*U5
 10
61.79236633753709
 20
406.6151771048561
 30
0.0
  0
INSERT
  5
1198
330
1190
100
AcDbEntity
  8
frees
  6
ByBlock
347
ED
 62
     0
440
 16777216
370
    -2
380
     1
100
AcDbBlockReference
  2
*U5
 10
59.67104599397744
 20
404.4938567612964
 30
0.0
  0
INSERT
  5
1199
330
1190
100
AcDbEntity
  8
frees
  6
ByBlock
347
ED
 62
     0
440
 16777216
370
    -2
380
     1
100
AcDbBlockReference
  2
*U5
 10
57.5497256504178
 20
402.3725364177368
 30
0.0
  0
INSERT
  5
119A
330
1190
100
AcDbEntity
  8
frees
  6
ByBlock
347
ED
 62
     0
440
 16777216
370
    -2
380
     1
100
AcDbBlockReference
  2
*U5
 10
55.42840530685816
 20
400.2512160741771
 30
0.0
  0
INSERT
  5
119B
330
1190
100
AcDbEntity
  8
frees
  6
ByBlock
347
ED
 62
     0
440
 16777216
370
    -2
380
     1
100
AcDbBlockReference
  2
*U5
 10
53.30708496329852
 20
398.1298957306175
 30
0.0
  0
INSERT
  5
119C
330
1190
100
AcDbEntity
  8
frees
  6
ByBlock
347
ED
 62
     0
440
 16777216
370
    -2
380
     1
100
AcDbBlockReference
  2
*U5
 10
77.45460507604789
 20
417.2217788226543
 30
0.0
 41
0.9999999999999998
 42
0.9999999999999998
 43
0.9999999999999998
 50
90.0
  0
INSERT
  5
119D
330
1190
100
AcDbEntity
  8
frees
  6
ByBlock
347
ED
 62
     0
440
 16777216
370
    -2
380
     1
100
AcDbBlockReference
  2
*U5
 10
79.57592541960754
 20
415.1004584790946
 30
0.0
 41
0.9999999999999998
 42
0.9999999999999998
 43
0.9999999999999998
 50
90.0
  0
INSERT
  5
119E
330
1190
100
AcDbEntity
  8
frees
  6
ByBlock
347
ED
 62
     0
440
 16777216
370
    -2
380
     1
100
AcDbBlockReference
  2
*U5
 10
81.69724576316719
 20
412.979138135535
 30
0.0
 41
0.9999999999999998
 42
0.9999999999999998
 43
0.9999999999999998
 50
90.0
  0
INSERT
  5
119F
330
1190
100
AcDbEntity
  8
frees
  6
ByBlock
347
ED
 62
     0
440
 16777216
370
    -2
380
     1
100
AcDbBlockReference
  2
*U5
 10
83.81856610672683
 20
410.8578177919754
 30
0.0
 41
0.9999999999999998
 42
0.9999999999999998
 43
0.9999999999999998
 50
90.0
  0
INSERT
  5
11A0
330
1190
100
AcDbEntity
  8
frees
  6
ByBlock
347
ED
 62
     0
440
 16777216
370
    -2
380
     1
100
AcDbBlockReference
  2
*U5
 10
85.93988645028646
 20
408.7364974484157
 30
0.0
 41
0.9999999999999998
 42
0.9999999999999998
 43
0.9999999999999998
 50
90.0
  0
INSERT
  5
11A1
330
1190
100
AcDbEntity
  8
frees
  6
ByBlock
347
ED
 62
     0
440
 16777216
370
    -2
380
     1
100
AcDbBlockReference
  2
*U5
 10
88.0612067938461
 20
406.6151771048561
 30
0.0
 41
0.9999999999999998
 42
0.9999999999999998
 43
0.9999999999999998
 50
90.0
  0
INSERT
  5
11A2
330
1190
100
AcDbEntity
  8
frees
  6
ByBlock
347
ED
 62
     0
440
 16777216
370
    -2
380
     1
100
AcDbBlockReference
  2
*U5
 10
90.18252713740576
 20
404.4938567612964
 30
0.0
 41
0.9999999999999998
 42
0.9999999999999998
 43
0.9999999999999998
 50
90.0
  0
INSERT
  5
11A3
330
1190
100
AcDbEntity
  8
frees
  6
ByBlock
347
ED
 62
     0
440
 16777216
370
    -2
380
     1
100
AcDbBlockReference
  2
*U5
 10
92.3038474809654
 20
402.3725364177368
 30
0.0
 41
0.9999999999999998
 42
0.9999999999999998
 43
0.9999999999999998
 50
90.0
  0
INSERT
  5
11A4
330
1190
100
AcDbEntity
  8
frees
  6
ByBlock
347
ED
 62
     0
440
 16777216
370
    -2
380
     1
100
AcDbBlockReference
  2
*U5
 10
94.42516782452504
 20
400.2512160741771
 30
0.0
 41
0.9999999999999998
 42
0.9999999999999998
 43
0.9999999999999998
 50
90.0
  0
INSERT
  5
11A5
330
1190
100
AcDbEntity
  8
frees
  6
ByBlock
347
ED
 62
     0
440
 16777216
370
    -2
380
     1
100
AcDbBlockReference
  2
*U5
 10
96.54648816808467
 20
398.1298957306175
 30
0.0
 41
0.9999999999999998
 42
0.9999999999999998
 43
0.9999999999999998
 50
90.0
  0
INSERT
  5
11A6
330
1190
100
AcDbEntity
  8
frees
  6
ByBlock
347
ED
 62
     0
440
 16777216
370
    -2
380
     1
100
AcDbBlockReference
  2
*U5
 10
77.45460507604789
 20
422.2774158433668
 30
0.0
 41
0.9999999999999998
 42
0.9999999999999998
 43
0.9999999999999998
 50
180.0
  0
INSERT
  5
11A7
330
1190
100
AcDbEntity
  8
frees
  6
ByBlock
347
ED
 62
     0
440
 16777216
370
    -2
380
     1
100
AcDbBlockReference
  2
*U5
 10
79.57592541960754
 20
424.3987361869264
 30
0.0
 41
0.9999999999999998
 42
0.9999999999999998
 43
0.9999999999999998
 50
180.0
  0
INSERT
  5
11A8
330
1190
100
AcDbEntity
  8
frees
  6
ByBlock
347
ED
 62
     0
440
 16777216
370
    -2
380
     1
100
AcDbBlockReference
  2
*U5
 10
81.69724576316719
 20
426.520056530486
 30
0.0
 41
0.9999999999999998
 42
0.9999999999999998
 43
0.9999999999999998
 50
180.0
  0
INSERT
  5
11A9
330
1190
100
AcDbEntity
  8
frees
  6
ByBlock
347
ED
 62
     0
440
 16777216
370
    -2
380
     1
100
AcDbBlockReference
  2
*U5
 10
83.81856610672683
 20
428.6413768740457
 30
0.0
 41
0.9999999999999998
 42
0.9999999999999998
 43
0.9999999999999998
 50
180.0
  0
INSERT
  5
11AA
330
1190
100
AcDbEntity
  8
frees
  6
ByBlock
347
ED
 62
     0
440
 16777216
370
    -2
380
     1
100
AcDbBlockReference
  2
*U5
 10
85.93988645028646
 20
430.7626972176054
 30
0.0
 41
0.9999999999999998
 42
0.9999999999999998
 43
0.9999999999999998
 50
180.0
  0
INSERT
  5
11AB
330
1190
100
AcDbEntity
  8
frees
  6
ByBlock
347
ED
 62
     0
440
 16777216
370
    -2
380
     1
100
AcDbBlockReference
  2
*U5
 10
88.0612067938461
 20
432.8840175611651
 30
0.0
 41
0.9999999999999998
 42
0.9999999999999998
 43
0.9999999999999998
 50
180.0
  0
INSERT
  5
11AC
330
1190
100
AcDbEntity
  8
frees
  6
ByBlock
347
ED
 62
     0
440
 16777216
370
    -2
380
     1
100
AcDbBlockReference
  2
*U5
 10
90.18252713740574
 20
435.0053379047246
 30
0.0
 41
0.9999999999999998
 42
0.9999999999999998
 43
0.9999999999999998
 50
180.0
  0
INSERT
  5
11AD
330
1190
100
AcDbEntity
  8
frees
  6
ByBlock
347
ED
 62
     0
440
 16777216
370
    -2
380
     1
100
AcDbBlockReference
  2
*U5
 10
92.30384748096538
 20
437.1266582482843
 30
0.0
 41
0.9999999999999998
 42
0.9999999999999998
 43
0.9999999999999998
 50
180.0
  0
INSERT
  5
11AE
330
1190
100
AcDbEntity
  8
frees
  6
ByBlock
347
ED
 62
     0
440
 16777216
370
    -2
380
     1
100
AcDbBlockReference
  2
*U5
 10
94.42516782452504
 20
439.247978591844
 30
0.0
 41
0.9999999999999998
 42
0.9999999999999998
 43
0.9999999999999998
 50
180.0
  0
INSERT
  5
11AF
330
1190
100
AcDbEntity
  8
frees
  6
ByBlock
347
ED
 62
     0
440
 16777216
370
    -2
380
     1
100
AcDbBlockReference
  2
*U5
 10
96.54648816808467
 20
441.3692989354037
 30
0.0
 41
0.9999999999999998
 42
0.9999999999999998
 43
0.9999999999999998
 50
180.0
  0
INSERT
  5
11B0
330
1190
100
AcDbEntity
  8
frees
  6
ByBlock
347
ED
 62
     0
440
 16777216
370
    -2
380
     1
100
AcDbBlockReference
  2
*U5
 10
72.3989680553353
 20
422.2774158433668
 30
0.0
 41
0.9999999999999998
 42
0.9999999999999998
 43
0.9999999999999998
 50
270.0
  0
INSERT
  5
11B1
330
1190
100
AcDbEntity
  8
frees
  6
ByBlock
347
ED
 62
     0
440
 16777216
370
    -2
380
     1
100
AcDbBlockReference
  2
*U5
 10
70.27764771177565
 20
424.3987361869264
 30
0.0
 41
0.9999999999999998
 42
0.9999999999999998
 43
0.9999999999999998
 50
270.0
  0
INSERT
  5
11B2
330
1190
100
AcDbEntity
  8
frees
  6
ByBlock
347
ED
 62
     0
440
 16777216
370
    -2
380
     1
100
AcDbBlockReference
  2
*U5
 10
68.15632736821601
 20
426.520056530486
 30
0.0
 41
0.9999999999999998
 42
0.9999999999999998
 43
0.9999999999999998
 50
270.0
  0
INSERT
  5
11B3
330
1190
100
AcDbEntity
  8
frees
  6
ByBlock
347
ED
 62
     0
440
 16777216
370
    -2
380
     1
100
AcDbBlockReference
  2
*U5
 10
66.03500702465638
 20
428.6413768740457
 30
0.0
 41
0.9999999999999998
 42
0.9999999999999998
 43
0.9999999999999998
 50
270.0
  0
INSERT
  5
11B4
330
1190
100
AcDbEntity
  8
frees
  6
ByBlock
347
ED
 62
     0
440
 16777216
370
    -2
380
     1
100
AcDbBlockReference
  2
*U5
 10
63.91368668109674
 20
430.7626972176054
 30
0.0
 41
0.9999999999999998
 42
0.9999999999999998
 43
0.9999999999999998
 50
270.0
  0
INSERT
  5
11B5
330
1190
100
AcDbEntity
  8
frees
  6
ByBlock
347
ED
 62
     0
440
 16777216
370
    -2
380
     1
100
AcDbBlockReference
  2
*U5
 10
61.79236633753709
 20
432.8840175611651
 30
0.0
 41
0.9999999999999998
 42
0.9999999999999998
 43
0.9999999999999998
 50
270.0
  0
INSERT
  5
11B6
330
1190
100
AcDbEntity
  8
frees
  6
ByBlock
347
ED
 62
     0
440
 16777216
370
    -2
380
     1
100
AcDbBlockReference
  2
*U5
 10
59.67104599397745
 20
435.0053379047246
 30
0.0
 41
0.9999999999999998
 42
0.9999999999999998
 43
0.9999999999999998
 50
270.0
  0
INSERT
  5
11B7
330
1190
100
AcDbEntity
  8
frees
  6
ByBlock
347
ED
 62
     0
440
 16777216
370
    -2
380
     1
100
AcDbBlockReference
  2
*U5
 10
57.5497256504178
 20
437.1266582482843
 30
0.0
 41
0.9999999999999998
 42
0.9999999999999998
 43
0.9999999999999998
 50
270.0
  0
INSERT
  5
11B8
330
1190
100
AcDbEntity
  8
frees
  6
ByBlock
347
ED
 62
     0
440
 16777216
370
    -2
380
     1
100
AcDbBlockReference
  2
*U5
 10
55.42840530685817
 20
439.247978591844
 30
0.0
 41
0.9999999999999998
 42
0.9999999999999998
 43
0.9999999999999998
 50
270.0
  0
INSERT
  5
11B9
330
1190
100
AcDbEntity
  8
frees
  6
ByBlock
347
ED
 62
     0
440
 16777216
370
    -2
380
     1
100
AcDbBlockReference
  2
*U5
 10
53.30708496329852
 20
441.3692989354036
 30
0.0
 41
0.9999999999999998
 42
0.9999999999999998
 43
0.9999999999999998
 50
270.0
  0
ENDBLK
  5
11BA
330
1190
100
AcDbEntity
  8
0
100
AcDbBlockEnd
  0
BLOCK
  5
16E3
330
16E2
100
AcDbEntity
  8
0
100
AcDbBlockBegin
  2
*D7
 70
     1
 10
0.0
 20
0.0
 30
0.0
  3
*D7
  1

  0
LINE
  5
17E4
330
16E2
100
AcDbEntity
  8
hulp
 62
     0
440
 16777216
370
    -2
100
AcDbLine
 10
-191.1790853579043
 20
416.6280294624812
 30
0.0
 11
-191.1790853579043
 21
437.8714641783226
 31
0.0
  0
LINE
  5
17E5
330
16E2
100
AcDbEntity
  8
hulp
 62
     0
440
 16777216
370
    -2
100
AcDbLine
 10
128.8209146420956
 20
416.6280294624812
 30
0.0
 11
128.8209146420956
 21
437.8714641783226
 31
0.0
  0
LINE
  5
17E6
330
16E2
100
AcDbEntity
  8
hulp
 62
     0
440
 16777216
370
    -2
100
AcDbLine
 10
-186.1790853579043
 20
436.6214641783226
 30
0.0
 11
123.8209146420956
 21
436.6214641783226
 31
0.0
  0
SOLID
  5
17E7
330
16E2
100
AcDbEntity
  8
hulp
 62
     0
440
 16777216
100
AcDbTrace
 10
-186.1790853579043
 20
437.4547975116559
 30
0.0
 11
-186.1790853579043
 21
435.7881308449893
 31
0.0
 12
-191.1790853579043
 22
436.6214641783226
 32
0.0
 13
-191.1790853579043
 23
436.6214641783226
 33
0.0
  0
SOLID
  5
17E8
330
16E2
100
AcDbEntity
  8
hulp
 62
     0
440
 16777216
100
AcDbTrace
 10
123.8209146420956
 20
437.4547975116559
 30
0.0
 11
123.8209146420956
 21
435.7881308449893
 31
0.0
 12
128.8209146420956
 22
436.6214641783226
 32
0.0
 13
128.8209146420956
 23
436.6214641783226
 33
0.0
  0
MTEXT
  5
17E9
330
16E2
100
AcDbEntity
  8
hulp
 62
     0
440
 16777216
100
AcDbMText
 10
-31.17908535790437
 20
442.3035255192641
 30
0.0
 40
10.0
 41
0.0
 46
0.0
 71
     5
 72
     1
  1
320
 73
     1
 44
1.0
  0
POINT
  5
17EA
330
16E2
100
AcDbEntity
  8
Defpoints
 62
     0
440
 16777216
100
AcDbPoint
 10
-191.1790853579043
 20
416.0030294624812
 30
0.0
  0
POINT
  5
17EB
330
16E2
100
AcDbEntity
  8
Defpoints
 62
     0
440
 16777216
100
AcDbPoint
 10
128.8209146420956
 20
416.0030294624812
 30
0.0
  0
POINT
  5
17EC
330
16E2
100
AcDbEntity
  8
Defpoints
 62
     0
440
 16777216
100
AcDbPoint
 10
128.8209146420956
 20
436.6214641783226
 30
0.0
  0
ENDBLK
  5
16E4
330
16E2
100
AcDbEntity
  8
0
100
AcDbBlockEnd
  0
BLOCK
  5
16FB
330
16FA
100
AcDbEntity
  8
0
100
AcDbBlockBegin
  2
*D8
 70
     1
 10
0.0
 20
0.0
 30
0.0
  3
*D8
  1

  0
LINE
  5
17ED
330
16FA
100
AcDbEntity
  8
hulp
 62
     0
440
 16777216
370
    -2
100
AcDbLine
 10
-191.8040853579044
 20
416.0030294624814
 30
0.0
 11
-221.7329528323759
 21
416.0030294624814
 31
0.0
  0
LINE
  5
17EE
330
16FA
100
AcDbEntity
  8
hulp
 62
     0
440
 16777216
370
    -2
100
AcDbLine
 10
-191.8040853579044
 20
74.08903528322221
 30
0.0
 11
-221.7329528323759
 21
74.08903528322221
 31
0.0
  0
LINE
  5
17EF
330
16FA
100
AcDbEntity
  8
hulp
 62
     0
440
 16777216
370
    -2
100
AcDbLine
 10
-220.482952832376
 20
411.0030294624814
 30
0.0
 11
-220.4829528323759
 21
79.08903528322221
 31
0.0
  0
SOLID
  5
17F0
330
16FA
100
AcDbEntity
  8
hulp
 62
     0
440
 16777216
100
AcDbTrace
 10
-221.3162861657093
 20
411.0030294624814
 30
0.0
 11
-219.6496194990426
 21
411.0030294624814
 31
0.0
 12
-220.482952832376
 22
416.0030294624814
 32
0.0
 13
-220.482952832376
 23
416.0030294624814
 33
0.0
  0
SOLID
  5
17F1
330
16FA
100
AcDbEntity
  8
hulp
 62
     0
440
 16777216
100
AcDbTrace
 10
-221.3162861657092
 20
79.08903528322221
 30
0.0
 11
-219.6496194990425
 21
79.08903528322221
 31
0.0
 12
-220.4829528323759
 22
74.08903528322221
 32
0.0
 13
-220.4829528323759
 23
74.08903528322221
 33
0.0
  0
MTEXT
  5
17F2
330
16FA
100
AcDbEntity
  8
hulp
 62
     0
440
 16777216
100
AcDbMText
 10
-227.0922609636168
 20
245.0460323728518
 30
0.0
 40
10.0
 41
0.0
 46
0.0
 71
     5
 72
     1
  1
341,91
 11
0.0000000000000001
 21
1.0
 31
0.0
 73
     1
 44
1.0
  0
POINT
  5
17F3
330
16FA
100
AcDbEntity
  8
Defpoints
 62
     0
440
 16777216
100
AcDbPoint
 10
-191.1790853579044
 20
416.0030294624814
 30
0.0
  0
POINT
  5
17F4
330
16FA
100
AcDbEntity
  8
Defpoints
 62
     0
440
 16777216
100
AcDbPoint
 10
-191.1790853579044
 20
74.08903528322221
 30
0.0
  0
POINT
  5
17F5
330
16FA
100
AcDbEntity
  8
Defpoints
 62
     0
440
 16777216
100
AcDbPoint
 10
-220.4829528323759
 20
74.08903528322221
 30
0.0
  0
ENDBLK
  5
16FC
330
16FA
100
AcDbEntity
  8
0
100
AcDbBlockEnd
  0
BLOCK
  5
1713
330
1712
100
AcDbEntity
  8
0
100
AcDbBlockBegin
  2
*D9
 70
     1
 10
0.0
 20
0.0
 30
0.0
  3
*D9
  1

  0
LINE
  5
17DB
330
1712
100
AcDbEntity
  8
hulp
 62
     0
440
 16777216
370
    -2
100
AcDbLine
 10
158.5364614134453
 20
395.8823994774211
 30
0.0
 11
158.5364614134453
 21
417.7739349075157
 31
0.0
  0
LINE
  5
17DC
330
1712
100
AcDbEntity
  8
hulp
 62
     0
440
 16777216
370
    -2
100
AcDbLine
 10
469.1652245062037
 20
395.8823994774211
 30
0.0
 11
469.1652245062037
 21
417.7739349075157
 31
0.0
  0
LINE
  5
17DD
330
1712
100
AcDbEntity
  8
hulp
 62
     0
440
 16777216
370
    -2
100
AcDbLine
 10
163.5364614134453
 20
416.5239349075156
 30
0.0
 11
464.1652245062037
 21
416.5239349075156
 31
0.0
  0
SOLID
  5
17DE
330
1712
100
AcDbEntity
  8
hulp
 62
     0
440
 16777216
100
AcDbTrace
 10
163.5364614134453
 20
417.3572682408489
 30
0.0
 11
163.5364614134453
 21
415.6906015741824
 31
0.0
 12
158.5364614134453
 22
416.5239349075156
 32
0.0
 13
158.5364614134453
 23
416.5239349075156
 33
0.0
  0
SOLID
  5
17DF
330
1712
100
AcDbEntity
  8
hulp
 62
     0
440
 16777216
100
AcDbTrace
 10
464.1652245062037
 20
417.3572682408489
 30
0.0
 11
464.1652245062037
 21
415.6906015741824
 31
0.0
 12
469.1652245062037
 22
416.5239349075156
 32
0.0
 13
469.1652245062037
 23
416.5239349075156
 33
0.0
  0
MTEXT
  5
17E0
330
1712
100
AcDbEntity
  8
hulp
 62
     0
440
 16777216
100
AcDbMText
 10
313.8508429598246
 20
423.1332430387568
 30
0.0
 40
10.0
 41
0.0
 46
0.0
 71
     5
 72
     1
  1
310,63
 73
     1
 44
1.0
  0
POINT
  5
17E1
330
1712
100
AcDbEntity
  8
Defpoints
 62
     0
440
 16777216
100
AcDbPoint
 10
158.5364614134453
 20
395.2573994774212
 30
0.0
  0
POINT
  5
17E2
330
1712
100
AcDbEntity
  8
Defpoints
 62
     0
440
 16777216
100
AcDbPoint
 10
469.1652245062037
 20
395.2573994774212
 30
0.0
  0
POINT
  5
17E3
330
1712
100
AcDbEntity
  8
Defpoints
 62
     0
440
 16777216
100
AcDbPoint
 10
469.1652245062037
 20
416.5239349075156
 30
0.0
  0
ENDBLK
  5
1714
330
1712
100
AcDbEntity
  8
0
100
AcDbBlockEnd
  0
BLOCK
  5
172B
330
172A
100
AcDbEntity
  8
0
100
AcDbBlockBegin
  2
*D10
 70
     1
 10
0.0
 20
0.0
 30
0.0
  3
*D10
  1

  0
LINE
  5
17F6
330
172A
100
AcDbEntity
  8
hulp
 62
     0
440
 16777216
370
    -2
100
AcDbLine
 10
469.790224506204
 20
395.2573994774214
 30
0.0
 11
488.0249985321143
 21
395.2573994774214
 31
0.0
  0
LINE
  5
17F7
330
172A
100
AcDbEntity
  8
hulp
 62
     0
440
 16777216
370
    -2
100
AcDbLine
 10
469.7902245062038
 20
71.84796382548049
 30
0.0
 11
488.0249985321145
 21
71.8479638254805
 31
0.0
  0
LINE
  5
17F8
330
172A
100
AcDbEntity
  8
hulp
 62
     0
440
 16777216
370
    -2
100
AcDbLine
 10
486.7749985321144
 20
390.2573994774213
 30
0.0
 11
486.7749985321145
 21
76.8479638254805
 31
0.0
  0
SOLID
  5
17F9
330
172A
100
AcDbEntity
  8
hulp
 62
     0
440
 16777216
100
AcDbTrace
 10
485.941665198781
 20
390.2573994774213
 30
0.0
 11
487.6083318654477
 21
390.2573994774213
 31
0.0
 12
486.7749985321144
 22
395.2573994774214
 32
0.0
 13
486.7749985321144
 23
395.2573994774214
 33
0.0
  0
SOLID
  5
17FA
330
172A
100
AcDbEntity
  8
hulp
 62
     0
440
 16777216
100
AcDbTrace
 10
485.9416651987812
 20
76.8479638254805
 30
0.0
 11
487.6083318654478
 21
76.8479638254805
 31
0.0
 12
486.7749985321145
 22
71.8479638254805
 32
0.0
 13
486.7749985321145
 23
71.8479638254805
 33
0.0
  0
MTEXT
  5
17FB
330
172A
100
AcDbEntity
  8
hulp
 62
     0
440
 16777216
100
AcDbMText
 10
480.1656904008733
 20
233.5526816514507
 30
0.0
 40
10.0
 41
0.0
 46
0.0
 71
     5
 72
     1
  1
323,41
 11
0.0000000000000001
 21
1.0
 31
0.0
 73
     1
 44
1.0
  0
POINT
  5
17FC
330
172A
100
AcDbEntity
  8
Defpoints
 62
     0
440
 16777216
100
AcDbPoint
 10
469.165224506204
 20
395.2573994774214
 30
0.0
  0
POINT
  5
17FD
330
172A
100
AcDbEntity
  8
Defpoints
 62
     0
440
 16777216
100
AcDbPoint
 10
469.1652245062037
 20
71.84796382548049
 30
0.0
  0
POINT
  5
17FE
330
172A
100
AcDbEntity
  8
Defpoints
 62
     0
440
 16777216
100
AcDbPoint
 10
486.7749985321145
 20
71.8479638254805
 30
0.0
  0
ENDBLK
  5
172C
330
172A
100
AcDbEntity
  8
0
100
AcDbBlockEnd
  0
ENDSEC
  0
SECTION
  2
ENTITIES
  0
LWPOLYLINE
  5
DF1
330
1F
100
AcDbEntity
  8
hulp
100
AcDbPolyline
 90
        4
 70
     1
 43
0.0
 10
-66.0662458941224
 20
112.7787833313341
 10
3.933754105877596
 20
112.7787833313341
 10
3.933754105877596
 20
162.7787833313341
 10
-66.0662458941224
 20
162.7787833313341
  0
LWPOLYLINE
  5
DF2
330
1F
100
AcDbEntity
  8
frees
100
AcDbPolyline
 90
        4
 70
     1
 43
0.0
 10
-181.0662458941224
 20
82.77878333133413
 10
118.9337541058776
 20
82.77878333133413
 10
118.9337541058776
 20
172.7787833313341
 10
-181.0662458941224
 20
172.7787833313341
  0
LWPOLYLINE
  5
DF3
330
1F
100
AcDbEntity
  8
hulp
100
AcDbPolyline
 90
        4
 70
     1
 43
0.0
 10
-176.0662458941224
 20
87.77878333133413
 10
113.9337541058776
 20
87.77878333133413
 10
113.9337541058776
 20
167.7787833313341
 10
-176.0662458941224
 20
167.7787833313341
  0
LWPOLYLINE
  5
DF4
330
1F
100
AcDbEntity
  8
hulp
100
AcDbPolyline
 90
        4
 70
     1
 43
0.0
 10
-86.06624589412239
 20
162.7787833313341
 10
13.9337541058776
 20
162.7787833313341
 10
13.9337541058776
 20
112.7787833313341
 10
-86.06624589412239
 20
112.7787833313341
  0
CIRCLE
  5
DF6
102
{ACAD_REACTORS
330
11C5
102
}
330
1F
100
AcDbEntity
  8
frees
100
AcDbCircle
 10
-109.903294990221
 20
153.941734235241
 30
0.0
 40
1.6
  0
CIRCLE
  5
DF7
102
{ACAD_REACTORS
330
11C5
102
}
330
1F
100
AcDbEntity
  8
frees
100
AcDbCircle
 10
-162.2291967980255
 20
153.941734235241
 30
0.0
 40
1.6
  0
CIRCLE
  5
DF8
102
{ACAD_REACTORS
330
11C5
102
}
330
1F
100
AcDbEntity
  8
frees
100
AcDbCircle
 10
-162.2291967980255
 20
101.6158324274365
 30
0.0
 40
1.6
  0
CIRCLE
  5
DF9
102
{ACAD_REACTORS
330
11C5
102
}
330
1F
100
AcDbEntity
  8
frees
100
AcDbCircle
 10
-109.903294990221
 20
101.6158324274365
 30
0.0
 40
1.6
  0
INSERT
  5
DFA
102
{ACAD_REACTORS
330
1188
330
11C5
102
}
330
1F
100
AcDbEntity
  8
frees
100
AcDbBlockReference
  2
*U4
 10
-210.9930324598149
 20
-291.9708140016718
 30
0.0
  0
LWPOLYLINE
  5
DFB
102
{ACAD_REACTORS
330
11C5
330
11C6
102
}
330
1F
100
AcDbEntity
  8
frees
100
AcDbPolyline
 90
        4
 70
     1
 43
0.0
 10
-116.6879786501402
 20
150.6803718924152
 42
0.3663078514478565
 10
-155.4445131381058
 20
150.6803718924144
 10
-154.0183927340652
 20
149.266464077218
 42
-0.3627599145760876
 10
-118.1140990541816
 20
149.2664640772183
  0
LWPOLYLINE
  5
DFC
102
{ACAD_REACTORS
330
11C5
330
11C6
102
}
330
1F
100
AcDbEntity
  8
frees
100
AcDbPolyline
 90
        4
 70
     1
 43
0.0
 10
-151.1767193707759
 20
146.4247907139302
 42
-0.3543232861423615
 10
-120.9557724174742
 20
146.4247907139256
 10
-119.5344226877489
 20
147.846140443651
 42
0.3588619847688312
 10
-152.5980691004973
 20
147.84614044365
  0
LWPOLYLINE
  5
DFD
102
{ACAD_REACTORS
330
11C5
330
11C6
102
}
330
1F
100
AcDbEntity
  8
frees
100
AcDbPolyline
 90
        4
 70
     1
 43
0.0
 10
-123.8027976466903
 20
143.5777654847097
 42
0.3425641599220376
 10
-148.3296941415597
 20
143.5777654847141
 10
-149.7540604572271
 20
145.0021318003804
 42
-0.348971087308142
 10
-122.3784313310188
 20
145.0021318003812
  0
LWPOLYLINE
  5
DFE
102
{ACAD_REACTORS
330
11C5
330
11C6
102
}
330
1F
100
AcDbEntity
  8
frees
100
AcDbPolyline
 90
        4
 70
     1
 43
0.0
 10
-145.4732272604705
 20
140.7212986036252
 42
-0.3250229386715951
 10
-126.6592645277791
 20
140.7212986036208
 10
-125.2294501811371
 20
142.1511129502629
 42
0.3347548922352437
 10
-146.9030416071127
 20
142.1511129502673
  0
LWPOLYLINE
  5
DFF
102
{ACAD_REACTORS
330
11C5
330
11C6
102
}
330
1F
100
AcDbEntity
  8
frees
100
AcDbPolyline
 90
        4
 70
     1
 43
0.0
 10
-129.5349165107438
 20
137.8456466206561
 42
0.2959790568214452
 10
-142.5975752775054
 20
137.8456466206603
 10
-144.0388588105428
 20
139.2869301536963
 42
-0.3125516319136023
 10
-128.0936329777035
 20
139.2869301536963
  0
LWPOLYLINE
  5
E00
102
{ACAD_REACTORS
330
11C5
330
11C6
102
}
330
1F
100
AcDbEntity
  8
frees
100
AcDbPolyline
 90
        4
 70
     1
 43
0.0
 10
-141.1450109099668
 20
136.3930822531278
 42
-0.2728421326628619
 10
-130.9874808782783
 20
136.3930822531216
 10
-132.4604665320419
 20
134.920096599358
 42
0.2403837636826641
 10
-139.7324697788844
 20
134.8892546537529
  0
LWPOLYLINE
  5
E01
102
{ACAD_REACTORS
330
11C5
330
11C6
102
}
330
1F
100
AcDbEntity
  8
frees
100
AcDbPolyline
 90
        3
 70
     1
 43
0.0
 10
-138.1552910962837
 20
133.4033624394471
 10
-136.0662458941185
 20
131.3143172372815
 10
-133.9772006919581
 20
133.4033624394419
 42
0.1797093196007574
  0
LWPOLYLINE
  5
E02
102
{ACAD_REACTORS
330
11C5
330
11C7
102
}
330
1F
100
AcDbEntity
  8
frees
100
AcDbPolyline
 90
        4
 70
     1
 43
0.0
 10
-113.1646573330467
 20
147.1570505753218
 42
-0.3663078514478565
 10
-113.1646573330476
 20
108.4005160873562
 10
-114.5785651482439
 20
109.8266364913968
 42
0.3627599145760876
 10
-114.5785651482437
 20
145.7309301712804
  0
LWPOLYLINE
  5
E03
102
{ACAD_REACTORS
330
11C5
330
11C7
102
}
330
1F
100
AcDbEntity
  8
frees
100
AcDbPolyline
 90
        4
 70
     1
 43
0.0
 10
-117.4202385115318
 20
112.6683098546861
 42
0.3543232861423615
 10
-117.4202385115363
 20
142.8892568079878
 10
-115.998888781811
 20
144.3106065377131
 42
-0.3588619847688312
 10
-115.998888781812
 20
111.2469601249646
  0
LWPOLYLINE
  5
E04
102
{ACAD_REACTORS
330
11C5
330
11C7
102
}
330
1F
100
AcDbEntity
  8
frees
100
AcDbPolyline
 90
        4
 70
     1
 43
0.0
 10
-120.2672637407523
 20
140.0422315787717
 42
-0.3425641599220376
 10
-120.2672637407478
 20
115.5153350839023
 10
-118.8428974250815
 20
114.0909687682349
 42
0.348971087308142
 10
-118.8428974250808
 20
141.4665978944432
  0
LWPOLYLINE
  5
E05
102
{ACAD_REACTORS
330
11C5
330
11C7
102
}
330
1F
100
AcDbEntity
  8
frees
100
AcDbPolyline
 90
        4
 70
     1
 43
0.0
 10
-123.1237306218368
 20
118.3718019649915
 42
0.3250229386715951
 10
-123.1237306218411
 20
137.1857646976828
 10
-121.6939162751991
 20
138.6155790443249
 42
-0.3347548922352437
 10
-121.6939162751947
 20
116.9419876183492
  0
LWPOLYLINE
  5
E06
102
{ACAD_REACTORS
330
11C5
330
11C7
102
}
330
1F
100
AcDbEntity
  8
frees
100
AcDbPolyline
 90
        4
 70
     1
 43
0.0
 10
-125.9993826048059
 20
134.3101127147181
 42
-0.2959790568214452
 10
-125.9993826048017
 20
121.2474539479566
 10
-124.5580990717656
 20
119.8061704149191
 42
0.3125516319136023
 10
-124.5580990717657
 20
135.7513962477584
  0
LWPOLYLINE
  5
E07
102
{ACAD_REACTORS
330
11C5
330
11C7
102
}
330
1F
100
AcDbEntity
  8
frees
100
AcDbPolyline
 90
        4
 70
     1
 43
0.0
 10
-127.4519469723341
 20
122.7000183154951
 42
0.2728421326628619
 10
-127.4519469723403
 20
132.8575483471836
 10
-128.9249326261039
 20
131.38456269342
 42
-0.2403837636826641
 10
-128.9557745717091
 20
124.1125594465776
  0
LWPOLYLINE
  5
E08
102
{ACAD_REACTORS
330
11C5
330
11C7
102
}
330
1F
100
AcDbEntity
  8
frees
100
AcDbPolyline
 90
        3
 70
     1
 43
0.0
 10
-130.4416667860149
 20
125.6897381291783
 10
-132.5307119881805
 20
127.7787833313435
 10
-130.4416667860201
 20
129.8678285335039
 42
-0.1797093196007574
  0
LWPOLYLINE
  5
E09
102
{ACAD_REACTORS
330
11C5
330
11C8
102
}
330
1F
100
AcDbEntity
  8
frees
100
AcDbPolyline
 90
        4
 70
     1
 43
0.0
 10
-158.9678344552061
 20
108.4005160873552
 42
-0.3663078514478565
 10
-158.9678344551998
 20
147.1570505753209
 10
-157.5539266400037
 20
145.73093017128
 42
0.3627599145760876
 10
-157.553926640009
 20
109.8266364913965
  0
LWPOLYLINE
  5
E0A
102
{ACAD_REACTORS
330
11C5
330
11C8
102
}
330
1F
100
AcDbEntity
  8
frees
100
AcDbPolyline
 90
        4
 70
     1
 43
0.0
 10
-154.7122532767162
 20
142.8892568079903
 42
0.3543232861423615
 10
-154.7122532767159
 20
112.6683098546886
 10
-156.1336030064415
 20
111.2469601249636
 42
-0.3588619847688312
 10
-156.1336030064358
 20
144.310606537712
  0
LWPOLYLINE
  5
E0B
102
{ACAD_REACTORS
330
11C5
330
11C8
102
}
330
1F
100
AcDbEntity
  8
frees
100
AcDbPolyline
 90
        4
 70
     1
 43
0.0
 10
-151.8652280474996
 20
115.5153350839043
 42
-0.3425641599220376
 10
-151.8652280475006
 20
140.0422315787737
 10
-153.2895943631667
 20
141.4665978944413
 42
0.348971087308142
 10
-153.2895943631712
 20
114.0909687682331
  0
LWPOLYLINE
  5
E0C
102
{ACAD_REACTORS
330
11C5
330
11C8
102
}
330
1F
100
AcDbEntity
  8
frees
100
AcDbPolyline
 90
        4
 70
     1
 43
0.0
 10
-149.008761166412
 20
137.1857646976841
 42
0.3250229386715951
 10
-149.0087611664103
 20
118.3718019649928
 10
-150.4385755130526
 20
116.9419876183509
 42
-0.3347548922352437
 10
-150.438575513054
 20
138.6155790443266
  0
LWPOLYLINE
  5
E0D
102
{ACAD_REACTORS
330
11C5
330
11C8
102
}
330
1F
100
AcDbEntity
  8
frees
100
AcDbPolyline
 90
        4
 70
     1
 43
0.0
 10
-146.1331091834452
 20
121.2474539479571
 42
-0.2959790568214452
 10
-146.1331091834475
 20
134.3101127147186
 10
-147.5743927164834
 20
135.7513962477563
 42
0.3125516319136023
 10
-147.5743927164856
 20
119.806170414917
  0
LWPOLYLINE
  5
E0E
102
{ACAD_REACTORS
330
11C5
330
11C8
102
}
330
1F
100
AcDbEntity
  8
frees
100
AcDbPolyline
 90
        4
 70
     1
 43
0.0
 10
-144.6805448159153
 20
132.8575483471799
 42
0.2728421326628619
 10
-144.6805448159105
 20
122.7000183154914
 10
-143.2075591621467
 20
124.1730039692547
 42
-0.2403837636826641
 10
-143.1767172165405
 20
131.4450072160972
  0
LWPOLYLINE
  5
E0F
102
{ACAD_REACTORS
330
11C5
330
11C8
102
}
330
1F
100
AcDbEntity
  8
frees
100
AcDbPolyline
 90
        3
 70
     1
 43
0.0
 10
-141.690825002235
 20
129.8678285334963
 10
-139.6017798000697
 20
127.7787833313308
 10
-141.6908250022304
 20
125.6897381291707
 42
-0.1797093196007574
  0
LWPOLYLINE
  5
E10
102
{ACAD_REACTORS
330
11C5
330
11C9
102
}
330
1F
100
AcDbEntity
  8
frees
100
AcDbPolyline
 90
        4
 70
     1
 43
0.0
 10
-155.4445131381132
 20
104.8771947702613
 42
0.3663078514478565
 10
-116.6879786501475
 20
104.8771947702567
 10
-118.114099054188
 20
106.2911025854532
 42
-0.3627599145760876
 10
-154.0183927340716
 20
106.291102585458
  0
LWPOLYLINE
  5
E11
102
{ACAD_REACTORS
330
11C5
330
11C9
102
}
330
1F
100
AcDbEntity
  8
frees
100
AcDbPolyline
 90
        4
 70
     1
 43
0.0
 10
-120.9557724174769
 20
109.1327759487415
 42
-0.3543232861423615
 10
-151.1767193707786
 20
109.1327759487503
 10
-152.598069100504
 20
107.7114262190251
 42
0.3588619847688312
 10
-119.5344226877556
 20
107.7114262190215
  0
LWPOLYLINE
  5
E12
102
{ACAD_REACTORS
330
11C5
330
11C9
102
}
330
1F
100
AcDbEntity
  8
frees
100
AcDbPolyline
 90
        4
 70
     1
 43
0.0
 10
-148.3296941415621
 20
111.9798011779658
 42
0.3425641599220376
 10
-123.8027976466927
 20
111.9798011779579
 10
-122.3784313310254
 20
110.5554348622915
 42
-0.348971087308142
 10
-149.7540604572338
 20
110.5554348622945
  0
LWPOLYLINE
  5
E13
102
{ACAD_REACTORS
330
11C5
330
11C9
102
}
330
1F
100
AcDbEntity
  8
frees
100
AcDbPolyline
 90
        4
 70
     1
 43
0.0
 10
-126.6592645277815
 20
114.8362680590473
 42
-0.3250229386715951
 10
-145.4732272604728
 20
114.8362680590543
 10
-146.9030416071151
 20
113.4064537124124
 42
0.3347548922352437
 10
-125.2294501811394
 20
113.406453712405
  0
LWPOLYLINE
  5
E14
102
{ACAD_REACTORS
330
11C5
330
11C9
102
}
330
1F
100
AcDbEntity
  8
frees
100
AcDbPolyline
 90
        4
 70
     1
 43
0.0
 10
-142.5975752775077
 20
117.7119200420187
 42
0.2959790568214452
 10
-129.5349165107462
 20
117.7119200420126
 10
-128.0936329777089
 20
116.2706365089763
 42
-0.3125516319136023
 10
-144.0388588105482
 20
116.2706365089786
  0
LWPOLYLINE
  5
E15
102
{ACAD_REACTORS
330
11C5
330
11C9
102
}
330
1F
100
AcDbEntity
  8
frees
100
AcDbPolyline
 90
        4
 70
     1
 43
0.0
 10
-130.9874808782845
 20
119.1644844095453
 42
-0.2728421326628619
 10
-141.145010909973
 20
119.1644844095529
 10
-139.6720252562092
 20
120.6374700633162
 42
0.2403837636826641
 10
-132.4000220093667
 20
120.6683120089204
  0
LWPOLYLINE
  5
E16
102
{ACAD_REACTORS
330
11C5
330
11C9
102
}
330
1F
100
AcDbEntity
  8
frees
100
AcDbPolyline
 90
        3
 70
     1
 43
0.0
 10
-133.9772006919673
 20
122.1542042232264
 10
-136.0662458941322
 20
124.2432494253923
 10
-138.1552910962929
 20
122.1542042232322
 42
0.1797093196007574
  0
CIRCLE
  5
E17
102
{ACAD_REACTORS
330
11C5
102
}
330
1F
100
AcDbEntity
  8
hulp
100
AcDbCircle
 10
-136.0662458941232
 20
127.7787833313387
 30
0.0
 40
32.5
  0
LWPOLYLINE
  5
E18
102
{ACAD_REACTORS
330
11C5
102
}
330
1F
100
AcDbEntity
  8
hulp
100
AcDbPolyline
 90
        9
 70
     0
 43
0.0
 10
-165.0576239227689
 20
156.7701613599843
 10
-136.0662458941232
 20
160.2787833313387
 10
-107.0748678654765
 20
156.7701613599854
 10
-103.5662458941232
 20
127.7787833313387
 10
-107.0748678654719
 20
98.7874053026875
 10
-136.0662458941232
 20
95.27878333133873
 10
-165.0576239227734
 20
98.78740530268855
 10
-168.5662458941232
 20
127.7787833313387
 10
-165.0576239227689
 20
156.7701613599843
  0
CIRCLE
  5
E19
102
{ACAD_REACTORS
330
11CA
102
}
330
1F
100
AcDbEntity
  8
frees
100
AcDbCircle
 10
100.0967050097789
 20
153.941734235241
 30
0.0
 40
1.6
  0
CIRCLE
  5
E1A
102
{ACAD_REACTORS
330
11CA
102
}
330
1F
100
AcDbEntity
  8
frees
100
AcDbCircle
 10
47.77080320197444
 20
153.941734235241
 30
0.0
 40
1.6
  0
CIRCLE
  5
E1B
102
{ACAD_REACTORS
330
11CA
102
}
330
1F
100
AcDbEntity
  8
frees
100
AcDbCircle
 10
47.77080320197444
 20
101.6158324274365
 30
0.0
 40
1.6
  0
CIRCLE
  5
E1C
102
{ACAD_REACTORS
330
11CA
102
}
330
1F
100
AcDbEntity
  8
frees
100
AcDbCircle
 10
100.096705009779
 20
101.6158324274365
 30
0.0
 40
1.6
  0
INSERT
  5
E1D
102
{ACAD_REACTORS
330
11BF
330
11CA
102
}
330
1F
100
AcDbEntity
  8
frees
100
AcDbBlockReference
  2
*U6
 10
-0.9930324598148558
 20
-291.9708140016718
 30
0.0
  0
LWPOLYLINE
  5
E1E
102
{ACAD_REACTORS
330
11CA
330
11CB
102
}
330
1F
100
AcDbEntity
  8
frees
100
AcDbPolyline
 90
        4
 70
     1
 43
0.0
 10
93.31202134985984
 20
150.6803718924152
 42
0.3663078514478565
 10
54.55548686189416
 20
150.6803718924144
 10
55.98160726593483
 20
149.266464077218
 42
-0.3627599145760876
 10
91.88590094581838
 20
149.2664640772183
  0
LWPOLYLINE
  5
E1F
102
{ACAD_REACTORS
330
11CA
330
11CB
102
}
330
1F
100
AcDbEntity
  8
frees
100
AcDbPolyline
 90
        4
 70
     1
 43
0.0
 10
58.82328062922408
 20
146.4247907139302
 42
-0.3543232861423615
 10
89.04422758252577
 20
146.4247907139256
 10
90.46557731225107
 20
147.846140443651
 42
0.3588619847688312
 10
57.40193089950264
 20
147.84614044365
  0
LWPOLYLINE
  5
E20
102
{ACAD_REACTORS
330
11CA
330
11CB
102
}
330
1F
100
AcDbEntity
  8
frees
100
AcDbPolyline
 90
        4
 70
     1
 43
0.0
 10
86.19720235330971
 20
143.5777654847097
 42
0.3425641599220376
 10
61.67030585844031
 20
143.5777654847141
 10
60.24593954277287
 20
145.0021318003804
 42
-0.348971087308142
 10
87.62156866898113
 20
145.0021318003812
  0
LWPOLYLINE
  5
E21
102
{ACAD_REACTORS
330
11CA
330
11CB
102
}
330
1F
100
AcDbEntity
  8
frees
100
AcDbPolyline
 90
        4
 70
     1
 43
0.0
 10
64.52677273952946
 20
140.7212986036252
 42
-0.3250229386715951
 10
83.34073547222084
 20
140.7212986036208
 10
84.77054981886288
 20
142.1511129502629
 42
0.3347548922352437
 10
63.09695839288725
 20
142.1511129502673
  0
LWPOLYLINE
  5
E22
102
{ACAD_REACTORS
330
11CA
330
11CB
102
}
330
1F
100
AcDbEntity
  8
frees
100
AcDbPolyline
 90
        4
 70
     1
 43
0.0
 10
80.46508348925613
 20
137.8456466206561
 42
0.2959790568214452
 10
67.40242472249462
 20
137.8456466206603
 10
65.96114118945712
 20
139.2869301536963
 42
-0.3125516319136023
 10
81.90636702229642
 20
139.2869301536963
  0
LWPOLYLINE
  5
E23
102
{ACAD_REACTORS
330
11CA
330
11CB
102
}
330
1F
100
AcDbEntity
  8
frees
100
AcDbPolyline
 90
        4
 70
     1
 43
0.0
 10
68.85498909003314
 20
136.3930822531278
 42
-0.2728421326628619
 10
79.01251912172165
 20
136.3930822531216
 10
77.5395334679581
 20
134.920096599358
 42
0.2403837636826641
 10
70.26753022111558
 20
134.8892546537529
  0
LWPOLYLINE
  5
E24
102
{ACAD_REACTORS
330
11CA
330
11CB
102
}
330
1F
100
AcDbEntity
  8
frees
100
AcDbPolyline
 90
        3
 70
     1
 43
0.0
 10
71.84470890371631
 20
133.4033624394471
 10
73.93375410588152
 20
131.3143172372815
 10
76.0227993080419
 20
133.4033624394419
 42
0.1797093196007574
  0
LWPOLYLINE
  5
E25
102
{ACAD_REACTORS
330
11CA
330
11CC
102
}
330
1F
100
AcDbEntity
  8
frees
100
AcDbPolyline
 90
        4
 70
     1
 43
0.0
 10
96.83534266695325
 20
147.1570505753218
 42
-0.3663078514478565
 10
96.83534266695239
 20
108.4005160873562
 10
95.42143485175603
 20
109.8266364913968
 42
0.3627599145760876
 10
95.42143485175632
 20
145.7309301712804
  0
LWPOLYLINE
  5
E26
102
{ACAD_REACTORS
330
11CA
330
11CC
102
}
330
1F
100
AcDbEntity
  8
frees
100
AcDbPolyline
 90
        4
 70
     1
 43
0.0
 10
92.5797614884682
 20
112.6683098546861
 42
0.3543232861423615
 10
92.57976148846365
 20
142.8892568079878
 10
94.001111218189
 20
144.3106065377131
 42
-0.3588619847688312
 10
94.00111121818799
 20
111.2469601249646
  0
LWPOLYLINE
  5
E27
102
{ACAD_REACTORS
330
11CA
330
11CC
102
}
330
1F
100
AcDbEntity
  8
frees
100
AcDbPolyline
 90
        4
 70
     1
 43
0.0
 10
89.7327362592477
 20
140.0422315787717
 42
-0.3425641599220376
 10
89.73273625925214
 20
115.5153350839023
 10
91.15710257491844
 20
114.0909687682349
 42
0.348971087308142
 10
91.15710257491917
 20
141.4665978944432
  0
LWPOLYLINE
  5
E28
102
{ACAD_REACTORS
330
11CA
330
11CC
102
}
330
1F
100
AcDbEntity
  8
frees
100
AcDbPolyline
 90
        4
 70
     1
 43
0.0
 10
86.87626937816322
 20
118.3718019649915
 42
0.3250229386715951
 10
86.87626937815883
 20
137.1857646976828
 10
88.30608372480089
 20
138.6155790443249
 42
-0.3347548922352437
 10
88.30608372480531
 20
116.9419876183492
  0
LWPOLYLINE
  5
E29
102
{ACAD_REACTORS
330
11CA
330
11CC
102
}
330
1F
100
AcDbEntity
  8
frees
100
AcDbPolyline
 90
        4
 70
     1
 43
0.0
 10
84.00061739519406
 20
134.3101127147181
 42
-0.2959790568214452
 10
84.00061739519827
 20
121.2474539479566
 10
85.44190092823436
 20
119.8061704149191
 42
0.3125516319136023
 10
85.44190092823431
 20
135.7513962477584
  0
LWPOLYLINE
  5
E2A
102
{ACAD_REACTORS
330
11CA
330
11CC
102
}
330
1F
100
AcDbEntity
  8
frees
100
AcDbPolyline
 90
        4
 70
     1
 43
0.0
 10
82.54805302766584
 20
122.7000183154951
 42
0.2728421326628619
 10
82.54805302765964
 20
132.8575483471836
 10
81.07506737389604
 20
131.38456269342
 42
-0.2403837636826641
 10
81.04422542829087
 20
124.1125594465776
  0
LWPOLYLINE
  5
E2B
102
{ACAD_REACTORS
330
11CA
330
11CC
102
}
330
1F
100
AcDbEntity
  8
frees
100
AcDbPolyline
 90
        3
 70
     1
 43
0.0
 10
79.55833321398507
 20
125.6897381291783
 10
77.46928801181951
 20
127.7787833313435
 10
79.55833321397989
 20
129.8678285335039
 42
-0.1797093196007574
  0
LWPOLYLINE
  5
E2C
102
{ACAD_REACTORS
330
11CA
330
11CD
102
}
330
1F
100
AcDbEntity
  8
frees
100
AcDbPolyline
 90
        4
 70
     1
 43
0.0
 10
51.03216554479388
 20
108.4005160873552
 42
-0.3663078514478565
 10
51.03216554480013
 20
147.1570505753209
 10
52.44607335999631
 20
145.73093017128
 42
0.3627599145760876
 10
52.44607335999098
 20
109.8266364913965
  0
LWPOLYLINE
  5
E2D
102
{ACAD_REACTORS
330
11CA
330
11CD
102
}
330
1F
100
AcDbEntity
  8
frees
100
AcDbPolyline
 90
        4
 70
     1
 43
0.0
 10
55.28774672328376
 20
142.8892568079903
 42
0.3543232861423615
 10
55.28774672328404
 20
112.6683098546886
 10
53.86639699355851
 20
111.2469601249636
 42
-0.3588619847688312
 10
53.86639699356414
 20
144.310606537712
  0
LWPOLYLINE
  5
E2E
102
{ACAD_REACTORS
330
11CA
330
11CD
102
}
330
1F
100
AcDbEntity
  8
frees
100
AcDbPolyline
 90
        4
 70
     1
 43
0.0
 10
58.13477195250039
 20
115.5153350839043
 42
-0.3425641599220376
 10
58.13477195249942
 20
140.0422315787737
 10
56.71040563683328
 20
141.4665978944413
 42
0.348971087308142
 10
56.71040563682874
 20
114.0909687682331
  0
LWPOLYLINE
  5
E2F
102
{ACAD_REACTORS
330
11CA
330
11CD
102
}
330
1F
100
AcDbEntity
  8
frees
100
AcDbPolyline
 90
        4
 70
     1
 43
0.0
 10
60.99123883358794
 20
137.1857646976841
 42
0.3250229386715951
 10
60.99123883358965
 20
118.3718019649928
 10
59.56142448694743
 20
116.9419876183509
 42
-0.3347548922352437
 10
59.56142448694601
 20
138.6155790443266
  0
LWPOLYLINE
  5
E30
102
{ACAD_REACTORS
330
11CA
330
11CD
102
}
330
1F
100
AcDbEntity
  8
frees
100
AcDbPolyline
 90
        4
 70
     1
 43
0.0
 10
63.86689081655481
 20
121.2474539479571
 42
-0.2959790568214452
 10
63.86689081655243
 20
134.3101127147186
 10
62.42560728351657
 20
135.7513962477563
 42
0.3125516319136023
 10
62.42560728351441
 20
119.806170414917
  0
LWPOLYLINE
  5
E31
102
{ACAD_REACTORS
330
11CA
330
11CD
102
}
330
1F
100
AcDbEntity
  8
frees
100
AcDbPolyline
 90
        4
 70
     1
 43
0.0
 10
65.31945518408469
 20
132.8575483471799
 42
0.2728421326628619
 10
65.31945518408946
 20
122.7000183154914
 10
66.79244083785324
 20
124.1730039692547
 42
-0.2403837636826641
 10
66.82328278345943
 20
131.4450072160972
  0
LWPOLYLINE
  5
E32
102
{ACAD_REACTORS
330
11CA
330
11CD
102
}
330
1F
100
AcDbEntity
  8
frees
100
AcDbPolyline
 90
        3
 70
     1
 43
0.0
 10
68.30917499776501
 20
129.8678285334963
 10
70.39822019993028
 20
127.7787833313308
 10
68.30917499776962
 20
125.6897381291707
 42
-0.1797093196007574
  0
LWPOLYLINE
  5
E33
102
{ACAD_REACTORS
330
11CA
330
11CE
102
}
330
1F
100
AcDbEntity
  8
frees
100
AcDbPolyline
 90
        4
 70
     1
 43
0.0
 10
54.55548686188677
 20
104.8771947702613
 42
0.3663078514478565
 10
93.31202134985245
 20
104.8771947702567
 10
91.88590094581201
 20
106.2911025854532
 42
-0.3627599145760876
 10
55.98160726592841
 20
106.291102585458
  0
LWPOLYLINE
  5
E34
102
{ACAD_REACTORS
330
11CA
330
11CE
102
}
330
1F
100
AcDbEntity
  8
frees
100
AcDbPolyline
 90
        4
 70
     1
 43
0.0
 10
89.04422758252309
 20
109.1327759487415
 42
-0.3543232861423615
 10
58.82328062922141
 20
109.1327759487503
 10
57.40193089949594
 20
107.7114262190251
 42
0.3588619847688312
 10
90.46557731224437
 20
107.7114262190215
  0
LWPOLYLINE
  5
E35
102
{ACAD_REACTORS
330
11CA
330
11CE
102
}
330
1F
100
AcDbEntity
  8
frees
100
AcDbPolyline
 90
        4
 70
     1
 43
0.0
 10
61.67030585843787
 20
111.9798011779658
 42
0.3425641599220376
 10
86.19720235330726
 20
111.9798011779579
 10
87.62156866897454
 20
110.5554348622915
 42
-0.348971087308142
 10
60.24593954276622
 20
110.5554348622945
  0
LWPOLYLINE
  5
E36
102
{ACAD_REACTORS
330
11CA
330
11CE
102
}
330
1F
100
AcDbEntity
  8
frees
100
AcDbPolyline
 90
        4
 70
     1
 43
0.0
 10
83.34073547221851
 20
114.8362680590473
 42
-0.3250229386715951
 10
64.52677273952713
 20
114.8362680590543
 10
63.09695839288491
 20
113.4064537124124
 42
0.3347548922352437
 10
84.77054981886055
 20
113.406453712405
  0
LWPOLYLINE
  5
E37
102
{ACAD_REACTORS
330
11CA
330
11CE
102
}
330
1F
100
AcDbEntity
  8
frees
100
AcDbPolyline
 90
        4
 70
     1
 43
0.0
 10
67.4024247224923
 20
117.7119200420187
 42
0.2959790568214452
 10
80.4650834892538
 20
117.7119200420126
 10
81.90636702229108
 20
116.2706365089763
 42
-0.3125516319136023
 10
65.96114118945178
 20
116.2706365089786
  0
LWPOLYLINE
  5
E38
102
{ACAD_REACTORS
330
11CA
330
11CE
102
}
330
1F
100
AcDbEntity
  8
frees
100
AcDbPolyline
 90
        4
 70
     1
 43
0.0
 10
79.01251912171545
 20
119.1644844095453
 42
-0.2728421326628619
 10
68.85498909002695
 20
119.1644844095529
 10
70.32797474379077
 20
120.6374700633162
 42
0.2403837636826641
 10
77.59997799063325
 20
120.6683120089204
  0
LWPOLYLINE
  5
E39
102
{ACAD_REACTORS
330
11CA
330
11CE
102
}
330
1F
100
AcDbEntity
  8
frees
100
AcDbPolyline
 90
        3
 70
     1
 43
0.0
 10
76.02279930803269
 20
122.1542042232264
 10
73.93375410586782
 20
124.2432494253923
 10
71.8447089037071
 20
122.1542042232322
 42
0.1797093196007574
  0
CIRCLE
  5
E3A
102
{ACAD_REACTORS
330
11CA
102
}
330
1F
100
AcDbEntity
  8
hulp
100
AcDbCircle
 10
73.93375410587674
 20
127.7787833313387
 30
0.0
 40
32.5
  0
LWPOLYLINE
  5
E3B
102
{ACAD_REACTORS
330
11CA
102
}
330
1F
100
AcDbEntity
  8
hulp
100
AcDbPolyline
 90
        9
 70
     0
 43
0.0
 10
44.94237607723107
 20
156.7701613599843
 10
73.93375410587674
 20
160.2787833313387
 10
102.9251321345234
 20
156.7701613599854
 10
106.4337541058767
 20
127.7787833313387
 10
102.925132134528
 20
98.7874053026875
 10
73.93375410587674
 20
95.27878333133873
 10
44.94237607722652
 20
98.78740530268855
 10
41.43375410587674
 20
127.7787833313387
 10
44.94237607723113
 20
156.7701613599843
  0
CIRCLE
  5
E3C
330
1F
100
AcDbEntity
  8
frees
100
AcDbCircle
 10
-87.33298742690317
 20
101.5310945762733
 30
0.0
 40
3.25
  0
CIRCLE
  5
E3D
330
1F
100
AcDbEntity
  8
frees
100
AcDbCircle
 10
25.20049563865837
 20
101.5310945762733
 30
0.0
 40
3.25
  0
CIRCLE
  5
E3E
330
1F
100
AcDbEntity
  8
hulp
100
AcDbCircle
 10
25.20049563865837
 20
101.5310945762733
 30
0.0
 40
5.0
  0
CIRCLE
  5
E3F
330
1F
100
AcDbEntity
  8
hulp
100
AcDbCircle
 10
-87.33298742690317
 20
101.5310945762733
 30
0.0
 40
5.0
  0
LWPOLYLINE
  5
E44
330
1F
100
AcDbEntity
  8
frees
100
AcDbPolyline
 90
        4
 70
     1
 43
0.0
 10
-62.06624589412223
 20
114.7787833313341
 10
-0.0662458941222326
 20
114.7787833313341
 10
-0.0662458941222326
 20
160.7787833313341
 10
-62.06624589412223
 20
160.7787833313341
  0
POLYLINE
  5
E45
102
{ACAD_REACTORS
330
12A9
102
}
330
1F
100
AcDbEntity
  8
frees
100
AcDb2dPolyline
 66
     1
 10
0.0
 20
0.0
 30
0.0
 70
     1
  0
VERTEX
  5
E46
330
E45
100
AcDbEntity
  8
frees
100
AcDbVertex
100
AcDb2dVertex
 10
-58.97305430559367
 20
100.0329060501844
 30
0.0
  0
VERTEX
  5
E47
330
E45
100
AcDbEntity
  8
frees
100
AcDbVertex
100
AcDb2dVertex
 10
-60.42409654961642
 20
100.0329060501844
 30
0.0
  0
VERTEX
  5
E48
330
E45
100
AcDbEntity
  8
frees
100
AcDbVertex
100
AcDb2dVertex
 10
-60.92084975027285
 20
99.40542832303947
 30
0.0
  0
VERTEX
  5
E49
330
E45
100
AcDbEntity
  8
frees
100
AcDbVertex
100
AcDb2dVertex
 10
-61.5091101194713
 20
98.86945776443646
 30
0.0
  0
VERTEX
  5
E4A
330
E45
100
AcDbEntity
  8
frees
100
AcDbVertex
100
AcDb2dVertex
 10
-61.96664596218119
 20
98.5426464482151
 30
0.0
  0
VERTEX
  5
E4B
330
E45
100
AcDbEntity
  8
frees
100
AcDbVertex
100
AcDb2dVertex
 10
-62.72484821581475
 20
98.17661777404721
 30
0.0
  0
VERTEX
  5
E4C
330
E45
100
AcDbEntity
  8
frees
100
AcDbVertex
100
AcDb2dVertex
 10
-63.46997801679936
 20
97.99360343696324
 30
0.0
  0
VERTEX
  5
E4D
330
E45
100
AcDbEntity
  8
frees
100
AcDbVertex
100
AcDb2dVertex
 10
-63.75757197507414
 20
97.98053098431438
 30
0.0
  0
VERTEX
  5
E4E
330
E45
100
AcDbEntity
  8
frees
100
AcDbVertex
100
AcDb2dVertex
 10
-65.95374402008167
 20
97.66679212074189
 30
0.0
  0
VERTEX
  5
E4F
330
E45
100
AcDbEntity
  8
frees
100
AcDbVertex
100
AcDb2dVertex
 10
-65.53542553531826
 20
97.1569664674366
 30
0.0
  0
VERTEX
  5
E50
330
E45
100
AcDbEntity
  8
frees
100
AcDbVertex
100
AcDb2dVertex
 10
-64.8948753555245
 20
96.80401024591754
 30
0.0
  0
VERTEX
  5
E51
330
E45
100
AcDbEntity
  8
frees
100
AcDbVertex
100
AcDb2dVertex
 10
-64.08438329129552
 20
96.67328571942901
 30
0.0
  0
VERTEX
  5
E52
330
E45
100
AcDbEntity
  8
frees
100
AcDbVertex
100
AcDb2dVertex
 10
-63.96673121745585
 20
96.67328571942901
 30
0.0
  0
VERTEX
  5
E53
330
E45
100
AcDbEntity
  8
frees
100
AcDbVertex
100
AcDb2dVertex
 10
-63.19545651117346
 20
96.72557553002443
 30
0.0
  0
VERTEX
  5
E54
330
E45
100
AcDbEntity
  8
frees
100
AcDbVertex
100
AcDb2dVertex
 10
-62.43725425753996
 20
96.90858986710836
 30
0.0
  0
VERTEX
  5
E55
330
E45
100
AcDbEntity
  8
frees
100
AcDbVertex
100
AcDb2dVertex
 10
-61.70519690920412
 20
97.19618382538314
 30
0.0
  0
VERTEX
  5
E56
330
E45
100
AcDbEntity
  8
frees
100
AcDbVertex
100
AcDb2dVertex
 10
-60.98621201351716
 20
97.60142985749764
 30
0.0
  0
VERTEX
  5
E57
330
E45
100
AcDbEntity
  8
frees
100
AcDbVertex
100
AcDb2dVertex
 10
-60.89470484497519
 20
97.65371966809304
 30
0.0
  0
VERTEX
  5
E58
330
E45
100
AcDbEntity
  8
frees
100
AcDbVertex
100
AcDb2dVertex
 10
-60.21493730723477
 20
98.17661777404721
 30
0.0
  0
VERTEX
  5
E59
330
E45
100
AcDbEntity
  8
frees
100
AcDbVertex
100
AcDb2dVertex
 10
-59.66589429598286
 20
98.75180569059677
 30
0.0
  0
VERTEX
  5
E5A
330
E45
100
AcDbEntity
  8
frees
100
AcDbVertex
100
AcDb2dVertex
 10
-59.24757581121958
 20
99.39235587039062
 30
0.0
  0
SEQEND
  5
E5B
330
E45
100
AcDbEntity
  8
frees
  0
POLYLINE
  5
E5C
102
{ACAD_REACTORS
330
12A9
102
}
330
1F
100
AcDbEntity
  8
frees
100
AcDb2dPolyline
 66
     1
 10
0.0
 20
0.0
 30
0.0
 70
     1
  0
VERTEX
  5
E5D
330
E5C
100
AcDbEntity
  8
frees
100
AcDbVertex
100
AcDb2dVertex
 10
-62.93400745819639
 20
105.614843331245
 30
0.0
  0
VERTEX
  5
E5E
330
E5C
100
AcDbEntity
  8
frees
100
AcDbVertex
100
AcDb2dVertex
 10
-63.50919537474595
 20
105.0265829620466
 30
0.0
  0
VERTEX
  5
E5F
330
E5C
100
AcDbEntity
  8
frees
100
AcDbVertex
100
AcDb2dVertex
 10
-63.95365876480695
 20
104.3860327822528
 30
0.0
  0
VERTEX
  5
E60
330
E5C
100
AcDbEntity
  8
frees
100
AcDbVertex
100
AcDb2dVertex
 10
-64.04516593334893
 20
104.2160908978177
 30
0.0
  0
VERTEX
  5
E61
330
E5C
100
AcDbEntity
  8
frees
100
AcDbVertex
100
AcDb2dVertex
 10
-64.34583234427259
 20
103.4578886441842
 30
0.0
  0
VERTEX
  5
E62
330
E5C
100
AcDbEntity
  8
frees
100
AcDbVertex
100
AcDb2dVertex
 10
-64.45041196546345
 20
102.6866139379018
 30
0.0
  0
VERTEX
  5
E63
330
E5C
100
AcDbEntity
  8
frees
100
AcDbVertex
100
AcDb2dVertex
 10
-64.45041196546345
 20
102.6735414852529
 30
0.0
  0
VERTEX
  5
E64
330
E5C
100
AcDbEntity
  8
frees
100
AcDbVertex
100
AcDb2dVertex
 10
-64.31968743897488
 20
101.9022667789705
 30
0.0
  0
VERTEX
  5
E65
330
E5C
100
AcDbEntity
  8
frees
100
AcDbVertex
100
AcDb2dVertex
 10
-63.94058631215813
 20
101.2094267885813
 30
0.0
  0
VERTEX
  5
E66
330
E5C
100
AcDbEntity
  8
frees
100
AcDbVertex
100
AcDb2dVertex
 10
-63.9275138595093
 20
101.1963543359324
 30
0.0
  0
VERTEX
  5
E67
330
E5C
100
AcDbEntity
  8
frees
100
AcDbVertex
100
AcDb2dVertex
 10
-64.69878856579168
 20
100.6734562299783
 30
0.0
  0
VERTEX
  5
E68
330
E5C
100
AcDbEntity
  8
frees
100
AcDbVertex
100
AcDb2dVertex
 10
-65.28704893499008
 20
100.163630576673
 30
0.0
  0
VERTEX
  5
E69
330
E5C
100
AcDbEntity
  8
frees
100
AcDbVertex
100
AcDb2dVertex
 10
-65.60078779856258
 20
99.8237468078028
 30
0.0
  0
VERTEX
  5
E6A
330
E5C
100
AcDbEntity
  8
frees
100
AcDbVertex
100
AcDb2dVertex
 10
-65.99296137802821
 20
99.11783436476468
 30
0.0
  0
VERTEX
  5
E6B
330
E5C
100
AcDbEntity
  8
frees
100
AcDbVertex
100
AcDb2dVertex
 10
-66.11061345186789
 20
98.43806682702428
 30
0.0
  0
VERTEX
  5
E6C
330
E5C
100
AcDbEntity
  8
frees
100
AcDbVertex
100
AcDb2dVertex
 10
-65.95374402008167
 20
97.66679212074189
 30
0.0
  0
VERTEX
  5
E6D
330
E5C
100
AcDbEntity
  8
frees
100
AcDbVertex
100
AcDb2dVertex
 10
-63.75757197507414
 20
97.98053098431438
 30
0.0
  0
VERTEX
  5
E6E
330
E5C
100
AcDbEntity
  8
frees
100
AcDbVertex
100
AcDb2dVertex
 10
-64.43733951281456
 20
98.1504728687495
 30
0.0
  0
VERTEX
  5
E6F
330
E5C
100
AcDbEntity
  8
frees
100
AcDbVertex
100
AcDb2dVertex
 10
-64.6857161131428
 20
98.60800871145938
 30
0.0
  0
VERTEX
  5
E70
330
E5C
100
AcDbEntity
  8
frees
100
AcDbVertex
100
AcDb2dVertex
 10
-64.45041196546345
 20
99.15705172271124
 30
0.0
  0
VERTEX
  5
E71
330
E5C
100
AcDbEntity
  8
frees
100
AcDbVertex
100
AcDb2dVertex
 10
-63.90136895421154
 20
99.61458756542112
 30
0.0
  0
VERTEX
  5
E72
330
E5C
100
AcDbEntity
  8
frees
100
AcDbVertex
100
AcDb2dVertex
 10
-63.56148518534138
 20
99.83681926045164
 30
0.0
  0
VERTEX
  5
E73
330
E5C
100
AcDbEntity
  8
frees
100
AcDbVertex
100
AcDb2dVertex
 10
-63.22160141647117
 20
100.0459785028333
 30
0.0
  0
VERTEX
  5
E74
330
E5C
100
AcDbEntity
  8
frees
100
AcDbVertex
100
AcDb2dVertex
 10
-62.4764716154865
 20
100.6342388720317
 30
0.0
  0
VERTEX
  5
E75
330
E5C
100
AcDbEntity
  8
frees
100
AcDbVertex
100
AcDb2dVertex
 10
-62.38496444694454
 20
100.8303256617645
 30
0.0
  0
VERTEX
  5
E76
330
E5C
100
AcDbEntity
  8
frees
100
AcDbVertex
100
AcDb2dVertex
 10
-62.73792066846358
 20
101.4316584836118
 30
0.0
  0
VERTEX
  5
E77
330
E5C
100
AcDbEntity
  8
frees
100
AcDbVertex
100
AcDb2dVertex
 10
-63.05165953203607
 20
102.1506433792988
 30
0.0
  0
VERTEX
  5
E78
330
E5C
100
AcDbEntity
  8
frees
100
AcDbVertex
100
AcDb2dVertex
 10
-63.09087688998261
 20
102.5035996008178
 30
0.0
  0
VERTEX
  5
E79
330
E5C
100
AcDbEntity
  8
frees
100
AcDbVertex
100
AcDb2dVertex
 10
-62.9601523634941
 20
103.2748743071002
 30
0.0
  0
VERTEX
  5
E7A
330
E5C
100
AcDbEntity
  8
frees
100
AcDbVertex
100
AcDb2dVertex
 10
-62.79021047905899
 20
103.6409029812681
 30
0.0
  0
VERTEX
  5
E7B
330
E5C
100
AcDbEntity
  8
frees
100
AcDbVertex
100
AcDb2dVertex
 10
-62.35881954164682
 20
104.2814531610619
 30
0.0
  0
VERTEX
  5
E7C
330
E5C
100
AcDbEntity
  8
frees
100
AcDbVertex
100
AcDb2dVertex
 10
-61.95357350953236
 20
104.6866991931764
 30
0.0
  0
VERTEX
  5
E7D
330
E5C
100
AcDbEntity
  8
frees
100
AcDbVertex
100
AcDb2dVertex
 10
-61.29995087708966
 20
105.1834523938329
 30
0.0
  0
VERTEX
  5
E7E
330
E5C
100
AcDbEntity
  8
frees
100
AcDbVertex
100
AcDb2dVertex
 10
-60.99928446616605
 20
105.3403218256191
 30
0.0
  0
VERTEX
  5
E7F
330
E5C
100
AcDbEntity
  8
frees
100
AcDbVertex
100
AcDb2dVertex
 10
-60.22800975988366
 20
105.5886984259474
 30
0.0
  0
VERTEX
  5
E80
330
E5C
100
AcDbEntity
  8
frees
100
AcDbVertex
100
AcDb2dVertex
 10
-60.21493730723477
 20
105.5886984259474
 30
0.0
  0
SEQEND
  5
E81
330
E5C
100
AcDbEntity
  8
frees
  0
POLYLINE
  5
E82
102
{ACAD_REACTORS
330
12A9
102
}
330
1F
100
AcDbEntity
  8
frees
100
AcDb2dPolyline
 66
     1
 10
0.0
 20
0.0
 30
0.0
 70
     1
  0
VERTEX
  5
E83
330
E82
100
AcDbEntity
  8
frees
100
AcDbVertex
100
AcDb2dVertex
 10
-59.88812599101345
 20
106.8044365222907
 30
0.0
  0
VERTEX
  5
E84
330
E82
100
AcDbEntity
  8
frees
100
AcDbVertex
100
AcDb2dVertex
 10
-60.67247314994467
 20
106.7260018063976
 30
0.0
  0
VERTEX
  5
E85
330
E82
100
AcDbEntity
  8
frees
100
AcDbVertex
100
AcDb2dVertex
 10
-61.44374785622705
 20
106.5168425640159
 30
0.0
  0
VERTEX
  5
E86
330
E82
100
AcDbEntity
  8
frees
100
AcDbVertex
100
AcDb2dVertex
 10
-61.48296521417359
 20
106.5037701113671
 30
0.0
  0
VERTEX
  5
E87
330
E82
100
AcDbEntity
  8
frees
100
AcDbVertex
100
AcDb2dVertex
 10
-62.2019501098606
 20
106.1508138898481
 30
0.0
  0
VERTEX
  5
E88
330
E82
100
AcDbEntity
  8
frees
100
AcDbVertex
100
AcDb2dVertex
 10
-62.85557274230325
 20
105.6932780471382
 30
0.0
  0
VERTEX
  5
E89
330
E82
100
AcDbEntity
  8
frees
100
AcDbVertex
100
AcDb2dVertex
 10
-62.93400745819639
 20
105.614843331245
 30
0.0
  0
VERTEX
  5
E8A
330
E82
100
AcDbEntity
  8
frees
100
AcDbVertex
100
AcDb2dVertex
 10
-60.21493730723477
 20
105.5886984259474
 30
0.0
  0
VERTEX
  5
E8B
330
E82
100
AcDbEntity
  8
frees
100
AcDbVertex
100
AcDb2dVertex
 10
-59.82276372776914
 20
105.3664667309168
 30
0.0
  0
VERTEX
  5
E8C
330
E82
100
AcDbEntity
  8
frees
100
AcDbVertex
100
AcDb2dVertex
 10
-60.13650259134164
 20
104.8304961723138
 30
0.0
  0
VERTEX
  5
E8D
330
E82
100
AcDbEntity
  8
frees
100
AcDbVertex
100
AcDb2dVertex
 10
-60.46331390756302
 20
104.451395045497
 30
0.0
  0
VERTEX
  5
E8E
330
E82
100
AcDbEntity
  8
frees
100
AcDbVertex
100
AcDb2dVertex
 10
-60.99928446616605
 20
103.8369897710009
 30
0.0
  0
VERTEX
  5
E8F
330
E82
100
AcDbEntity
  8
frees
100
AcDbVertex
100
AcDb2dVertex
 10
-61.03850182411258
 20
103.7846999604055
 30
0.0
  0
VERTEX
  5
E90
330
E82
100
AcDbEntity
  8
frees
100
AcDbVertex
100
AcDb2dVertex
 10
-61.49603766682242
 20
103.1964395912071
 30
0.0
  0
VERTEX
  5
E91
330
E82
100
AcDbEntity
  8
frees
100
AcDbVertex
100
AcDb2dVertex
 10
-60.51560371815845
 20
102.3859475269781
 30
0.0
  0
VERTEX
  5
E92
330
E82
100
AcDbEntity
  8
frees
100
AcDbVertex
100
AcDb2dVertex
 10
-60.08421278074627
 20
102.9480629908788
 30
0.0
  0
VERTEX
  5
E93
330
E82
100
AcDbEntity
  8
frees
100
AcDbVertex
100
AcDb2dVertex
 10
-59.52209731684547
 20
103.6278305286193
 30
0.0
  0
VERTEX
  5
E94
330
E82
100
AcDbEntity
  8
frees
100
AcDbVertex
100
AcDb2dVertex
 10
-59.4436626009524
 20
103.7193376971612
 30
0.0
  0
VERTEX
  5
E95
330
E82
100
AcDbEntity
  8
frees
100
AcDbVertex
100
AcDb2dVertex
 10
-58.79003996850968
 20
104.5690471193367
 30
0.0
  0
VERTEX
  5
E96
330
E82
100
AcDbEntity
  8
frees
100
AcDbVertex
100
AcDb2dVertex
 10
-58.39786638904411
 20
105.2357422044283
 30
0.0
  0
VERTEX
  5
E97
330
E82
100
AcDbEntity
  8
frees
100
AcDbVertex
100
AcDb2dVertex
 10
-58.29328676785326
 20
105.6671331418405
 30
0.0
  0
VERTEX
  5
E98
330
E82
100
AcDbEntity
  8
frees
100
AcDbVertex
100
AcDb2dVertex
 10
-58.55473582083033
 20
106.3730455848786
 30
0.0
  0
VERTEX
  5
E99
330
E82
100
AcDbEntity
  8
frees
100
AcDbVertex
100
AcDb2dVertex
 10
-58.69853279996772
 20
106.5037701113671
 30
0.0
  0
VERTEX
  5
E9A
330
E82
100
AcDbEntity
  8
frees
100
AcDbVertex
100
AcDb2dVertex
 10
-59.37830033770808
 20
106.7652191643442
 30
0.0
  0
SEQEND
  5
E9B
330
E82
100
AcDbEntity
  8
frees
  0
POLYLINE
  5
E9C
102
{ACAD_REACTORS
330
12A9
102
}
330
1F
100
AcDbEntity
  8
frees
100
AcDb2dPolyline
 66
     1
 10
0.0
 20
0.0
 30
0.0
 70
     1
  0
VERTEX
  5
E9D
330
E9C
100
AcDbEntity
  8
frees
100
AcDbVertex
100
AcDb2dVertex
 10
-58.47630110493719
 20
97.71908193133732
 30
0.0
  0
VERTEX
  5
E9E
330
E9C
100
AcDbEntity
  8
frees
100
AcDbVertex
100
AcDb2dVertex
 10
-58.18870714666241
 20
97.18311137273431
 30
0.0
  0
VERTEX
  5
E9F
330
E9C
100
AcDbEntity
  8
frees
100
AcDbVertex
100
AcDb2dVertex
 10
-57.58737432481513
 20
96.75172043532212
 30
0.0
  0
VERTEX
  5
EA0
330
E9C
100
AcDbEntity
  8
frees
100
AcDbVertex
100
AcDb2dVertex
 10
-57.10369357680758
 20
96.68635817207785
 30
0.0
  0
VERTEX
  5
EA1
330
E9C
100
AcDbEntity
  8
frees
100
AcDbVertex
100
AcDb2dVertex
 10
-56.3977811337694
 20
96.8170826985664
 30
0.0
  0
VERTEX
  5
EA2
330
E9C
100
AcDbEntity
  8
frees
100
AcDbVertex
100
AcDb2dVertex
 10
-55.69186869073132
 20
97.19618382538314
 30
0.0
  0
VERTEX
  5
EA3
330
E9C
100
AcDbEntity
  8
frees
100
AcDbVertex
100
AcDb2dVertex
 10
-55.39120227980766
 20
97.44456042571139
 30
0.0
  0
SEQEND
  5
EA4
330
E9C
100
AcDbEntity
  8
frees
  0
POLYLINE
  5
EA5
102
{ACAD_REACTORS
330
12A9
102
}
330
1F
100
AcDbEntity
  8
frees
100
AcDb2dPolyline
 66
     1
 10
0.0
 20
0.0
 30
0.0
 70
     1
  0
VERTEX
  5
EA6
330
EA5
100
AcDbEntity
  8
frees
100
AcDbVertex
100
AcDb2dVertex
 10
-51.54790120104462
 20
99.44464568098602
 30
0.0
  0
VERTEX
  5
EA7
330
EA5
100
AcDbEntity
  8
frees
100
AcDbVertex
100
AcDb2dVertex
 10
-52.22766873878504
 20
98.90867512238301
 30
0.0
  0
VERTEX
  5
EA8
330
EA5
100
AcDbEntity
  8
frees
100
AcDbVertex
100
AcDb2dVertex
 10
-52.86821891857892
 20
98.47728418497084
 30
0.0
  0
VERTEX
  5
EA9
330
EA5
100
AcDbEntity
  8
frees
100
AcDbVertex
100
AcDb2dVertex
 10
-53.05123325566285
 20
98.37270456378002
 30
0.0
  0
VERTEX
  5
EAA
330
EA5
100
AcDbEntity
  8
frees
100
AcDbVertex
100
AcDb2dVertex
 10
-53.87479777254066
 20
97.98053098431438
 30
0.0
  0
VERTEX
  5
EAB
330
EA5
100
AcDbEntity
  8
frees
100
AcDbVertex
100
AcDb2dVertex
 10
-54.05781210962459
 20
97.95438607901667
 30
0.0
  0
VERTEX
  5
EAC
330
EA5
100
AcDbEntity
  8
frees
100
AcDbVertex
100
AcDb2dVertex
 10
-51.92700232786137
 20
97.90209626842127
 30
0.0
  0
VERTEX
  5
EAD
330
EA5
100
AcDbEntity
  8
frees
100
AcDbVertex
100
AcDb2dVertex
 10
-51.54790120104462
 20
98.18969022669605
 30
0.0
  0
SEQEND
  5
EAE
330
EA5
100
AcDbEntity
  8
frees
  0
POLYLINE
  5
EAF
102
{ACAD_REACTORS
330
12A9
102
}
330
1F
100
AcDbEntity
  8
frees
100
AcDb2dPolyline
 66
     1
 10
0.0
 20
0.0
 30
0.0
 70
     1
  0
VERTEX
  5
EB0
330
EAF
100
AcDbEntity
  8
frees
100
AcDbVertex
100
AcDb2dVertex
 10
-55.48270944834962
 20
101.9022667789705
 30
0.0
  0
VERTEX
  5
EB1
330
EAF
100
AcDbEntity
  8
frees
100
AcDbVertex
100
AcDb2dVertex
 10
-55.53499925894505
 20
101.9022667789705
 30
0.0
  0
VERTEX
  5
EB2
330
EAF
100
AcDbEntity
  8
frees
100
AcDbVertex
100
AcDb2dVertex
 10
-56.29320151257861
 20
101.7976871577797
 30
0.0
  0
VERTEX
  5
EB3
330
EAF
100
AcDbEntity
  8
frees
100
AcDbVertex
100
AcDb2dVertex
 10
-56.97296905031897
 20
101.4970207468561
 30
0.0
  0
VERTEX
  5
EB4
330
EAF
100
AcDbEntity
  8
frees
100
AcDbVertex
100
AcDb2dVertex
 10
-57.61351923011284
 20
100.9741226409019
 30
0.0
  0
VERTEX
  5
EB5
330
EAF
100
AcDbEntity
  8
frees
100
AcDbVertex
100
AcDb2dVertex
 10
-57.66580904070827
 20
100.9218328303065
 30
0.0
  0
VERTEX
  5
EB6
330
EAF
100
AcDbEntity
  8
frees
100
AcDbVertex
100
AcDb2dVertex
 10
-58.13641733606698
 20
100.2812826505127
 30
0.0
  0
VERTEX
  5
EB7
330
EAF
100
AcDbEntity
  8
frees
100
AcDbVertex
100
AcDb2dVertex
 10
-58.43708374699065
 20
99.57537020747459
 30
0.0
  0
VERTEX
  5
EB8
330
EAF
100
AcDbEntity
  8
frees
100
AcDbVertex
100
AcDb2dVertex
 10
-58.58088072612805
 20
98.81716795384106
 30
0.0
  0
VERTEX
  5
EB9
330
EAF
100
AcDbEntity
  8
frees
100
AcDbVertex
100
AcDb2dVertex
 10
-58.58088072612805
 20
98.56879135351281
 30
0.0
  0
VERTEX
  5
EBA
330
EAF
100
AcDbEntity
  8
frees
100
AcDbVertex
100
AcDb2dVertex
 10
-58.47630110493719
 20
97.71908193133732
 30
0.0
  0
VERTEX
  5
EBB
330
EAF
100
AcDbEntity
  8
frees
100
AcDbVertex
100
AcDb2dVertex
 10
-56.64615773409764
 20
97.87595136312356
 30
0.0
  0
VERTEX
  5
EBC
330
EAF
100
AcDbEntity
  8
frees
100
AcDbVertex
100
AcDb2dVertex
 10
-57.19520074534955
 20
98.18969022669605
 30
0.0
  0
VERTEX
  5
EBD
330
EAF
100
AcDbEntity
  8
frees
100
AcDbVertex
100
AcDb2dVertex
 10
-57.26056300859375
 20
98.56879135351281
 30
0.0
  0
VERTEX
  5
EBE
330
EAF
100
AcDbEntity
  8
frees
100
AcDbVertex
100
AcDb2dVertex
 10
-57.15598338740296
 20
99.39235587039062
 30
0.0
  0
VERTEX
  5
EBF
330
EAF
100
AcDbEntity
  8
frees
100
AcDbVertex
100
AcDb2dVertex
 10
-56.82917207118157
 20
100.0590509554821
 30
0.0
  0
VERTEX
  5
EC0
330
EAF
100
AcDbEntity
  8
frees
100
AcDbVertex
100
AcDb2dVertex
 10
-56.73766490263961
 20
100.1767030293218
 30
0.0
  0
VERTEX
  5
EC1
330
EAF
100
AcDbEntity
  8
frees
100
AcDbVertex
100
AcDb2dVertex
 10
-56.1232596281435
 20
100.6865286826271
 30
0.0
  0
VERTEX
  5
EC2
330
EAF
100
AcDbEntity
  8
frees
100
AcDbVertex
100
AcDb2dVertex
 10
-55.74415850132675
 20
100.8041807564668
 30
0.0
  0
SEQEND
  5
EC3
330
EAF
100
AcDbEntity
  8
frees
  0
POLYLINE
  5
EC4
102
{ACAD_REACTORS
330
12A9
102
}
330
1F
100
AcDbEntity
  8
frees
100
AcDb2dPolyline
 66
     1
 10
0.0
 20
0.0
 30
0.0
 70
     1
  0
VERTEX
  5
EC5
330
EC4
100
AcDbEntity
  8
frees
100
AcDbVertex
100
AcDb2dVertex
 10
-52.64598722354833
 20
106.3730455848786
 30
0.0
  0
VERTEX
  5
EC6
330
EC4
100
AcDbEntity
  8
frees
100
AcDbVertex
100
AcDb2dVertex
 10
-53.18195778215136
 20
105.614843331245
 30
0.0
  0
VERTEX
  5
EC7
330
EC4
100
AcDbEntity
  8
frees
100
AcDbVertex
100
AcDb2dVertex
 10
-53.54798645631928
 20
105.0004380567489
 30
0.0
  0
VERTEX
  5
EC8
330
EC4
100
AcDbEntity
  8
frees
100
AcDbVertex
100
AcDb2dVertex
 10
-53.88787022518949
 20
104.3337429716574
 30
0.0
  0
VERTEX
  5
EC9
330
EC4
100
AcDbEntity
  8
frees
100
AcDbVertex
100
AcDb2dVertex
 10
-54.20160908876198
 20
103.6147580759704
 30
0.0
  0
VERTEX
  5
ECA
330
EC4
100
AcDbEntity
  8
frees
100
AcDbVertex
100
AcDb2dVertex
 10
-54.50227549968565
 20
102.8173384643903
 30
0.0
  0
VERTEX
  5
ECB
330
EC4
100
AcDbEntity
  8
frees
100
AcDbVertex
100
AcDb2dVertex
 10
-54.78986945796044
 20
101.9807014948637
 30
0.0
  0
VERTEX
  5
ECC
330
EC4
100
AcDbEntity
  8
frees
100
AcDbVertex
100
AcDb2dVertex
 10
-54.84215926855586
 20
101.8238320630774
 30
0.0
  0
VERTEX
  5
ECD
330
EC4
100
AcDbEntity
  8
frees
100
AcDbVertex
100
AcDb2dVertex
 10
-55.10360832153287
 20
100.7649633985203
 30
0.0
  0
VERTEX
  5
ECE
330
EC4
100
AcDbEntity
  8
frees
100
AcDbVertex
100
AcDb2dVertex
 10
-55.31276756391457
 20
99.98061623958903
 30
0.0
  0
VERTEX
  5
ECF
330
EC4
100
AcDbEntity
  8
frees
100
AcDbVertex
100
AcDb2dVertex
 10
-55.37812982715883
 20
99.6538049233677
 30
0.0
  0
VERTEX
  5
ED0
330
EC4
100
AcDbEntity
  8
frees
100
AcDbVertex
100
AcDb2dVertex
 10
-55.50885435364739
 20
98.86945776443646
 30
0.0
  0
VERTEX
  5
ED1
330
EC4
100
AcDbEntity
  8
frees
100
AcDbVertex
100
AcDb2dVertex
 10
-55.53499925894505
 20
98.51650154291741
 30
0.0
  0
VERTEX
  5
ED2
330
EC4
100
AcDbEntity
  8
frees
100
AcDbVertex
100
AcDb2dVertex
 10
-56.18862189138781
 20
98.03282079490982
 30
0.0
  0
VERTEX
  5
ED3
330
EC4
100
AcDbEntity
  8
frees
100
AcDbVertex
100
AcDb2dVertex
 10
-56.20169434403663
 20
98.03282079490982
 30
0.0
  0
VERTEX
  5
ED4
330
EC4
100
AcDbEntity
  8
frees
100
AcDbVertex
100
AcDb2dVertex
 10
-56.64615773409764
 20
97.87595136312356
 30
0.0
  0
VERTEX
  5
ED5
330
EC4
100
AcDbEntity
  8
frees
100
AcDbVertex
100
AcDb2dVertex
 10
-58.47630110493719
 20
97.71908193133732
 30
0.0
  0
VERTEX
  5
ED6
330
EC4
100
AcDbEntity
  8
frees
100
AcDbVertex
100
AcDb2dVertex
 10
-55.39120227980766
 20
97.44456042571139
 30
0.0
  0
VERTEX
  5
ED7
330
EC4
100
AcDbEntity
  8
frees
100
AcDbVertex
100
AcDb2dVertex
 10
-55.18204303742601
 20
96.85630005651297
 30
0.0
  0
VERTEX
  5
ED8
330
EC4
100
AcDbEntity
  8
frees
100
AcDbVertex
100
AcDb2dVertex
 10
-54.65914493147187
 20
96.68635817207785
 30
0.0
  0
VERTEX
  5
ED9
330
EC4
100
AcDbEntity
  8
frees
100
AcDbVertex
100
AcDb2dVertex
 10
-54.11010192022001
 20
96.76479288797096
 30
0.0
  0
VERTEX
  5
EDA
330
EC4
100
AcDbEntity
  8
frees
100
AcDbVertex
100
AcDb2dVertex
 10
-53.46955174042614
 20
96.9870245830015
 30
0.0
  0
VERTEX
  5
EDB
330
EC4
100
AcDbEntity
  8
frees
100
AcDbVertex
100
AcDb2dVertex
 10
-52.75056684473918
 20
97.36612570981826
 30
0.0
  0
VERTEX
  5
EDC
330
EC4
100
AcDbEntity
  8
frees
100
AcDbVertex
100
AcDb2dVertex
 10
-51.92700232786137
 20
97.90209626842127
 30
0.0
  0
VERTEX
  5
EDD
330
EC4
100
AcDbEntity
  8
frees
100
AcDbVertex
100
AcDb2dVertex
 10
-54.05781210962459
 20
97.95438607901667
 30
0.0
  0
VERTEX
  5
EDE
330
EC4
100
AcDbEntity
  8
frees
100
AcDbVertex
100
AcDb2dVertex
 10
-54.34540606789937
 20
98.18969022669605
 30
0.0
  0
VERTEX
  5
EDF
330
EC4
100
AcDbEntity
  8
frees
100
AcDbVertex
100
AcDb2dVertex
 10
-54.26697135200623
 20
99.61458756542112
 30
0.0
  0
VERTEX
  5
EE0
330
EC4
100
AcDbEntity
  8
frees
100
AcDbVertex
100
AcDb2dVertex
 10
-54.09702946757113
 20
100.4250796296501
 30
0.0
  0
VERTEX
  5
EE1
330
EC4
100
AcDbEntity
  8
frees
100
AcDbVertex
100
AcDb2dVertex
 10
-53.9140151304872
 20
101.2094267885813
 30
0.0
  0
VERTEX
  5
EE2
330
EC4
100
AcDbEntity
  8
frees
100
AcDbVertex
100
AcDb2dVertex
 10
-53.71792834075439
 20
101.863049421024
 30
0.0
  0
VERTEX
  5
EE3
330
EC4
100
AcDbEntity
  8
frees
100
AcDbVertex
100
AcDb2dVertex
 10
-53.46955174042614
 20
102.6473965799552
 30
0.0
  0
VERTEX
  5
EE4
330
EC4
100
AcDbEntity
  8
frees
100
AcDbVertex
100
AcDb2dVertex
 10
-53.20810268744907
 20
103.3925263809399
 30
0.0
  0
VERTEX
  5
EE5
330
EC4
100
AcDbEntity
  8
frees
100
AcDbVertex
100
AcDb2dVertex
 10
-53.01201589771631
 20
103.8762071289475
 30
0.0
  0
VERTEX
  5
EE6
330
EC4
100
AcDbEntity
  8
frees
100
AcDbVertex
100
AcDb2dVertex
 10
-52.51526269705983
 20
104.9873656041001
 30
0.0
  0
VERTEX
  5
EE7
330
EC4
100
AcDbEntity
  8
frees
100
AcDbVertex
100
AcDb2dVertex
 10
-52.14923402289196
 20
105.614843331245
 30
0.0
  0
VERTEX
  5
EE8
330
EC4
100
AcDbEntity
  8
frees
100
AcDbVertex
100
AcDb2dVertex
 10
-51.95314723315914
 20
105.7847852156801
 30
0.0
  0
SEQEND
  5
EE9
330
EC4
100
AcDbEntity
  8
frees
  0
POLYLINE
  5
EEA
102
{ACAD_REACTORS
330
12A9
102
}
330
1F
100
AcDbEntity
  8
frees
100
AcDb2dPolyline
 66
     1
 10
0.0
 20
0.0
 30
0.0
 70
     1
  0
VERTEX
  5
EEB
330
EEA
100
AcDbEntity
  8
frees
100
AcDbVertex
100
AcDb2dVertex
 10
-51.61326346428893
 20
107.1051029332144
 30
0.0
  0
VERTEX
  5
EEC
330
EEA
100
AcDbEntity
  8
frees
100
AcDbVertex
100
AcDb2dVertex
 10
-52.08387175964765
 20
106.9220885961304
 30
0.0
  0
VERTEX
  5
EED
330
EEA
100
AcDbEntity
  8
frees
100
AcDbVertex
100
AcDb2dVertex
 10
-52.64598722354833
 20
106.3730455848786
 30
0.0
  0
VERTEX
  5
EEE
330
EEA
100
AcDbEntity
  8
frees
100
AcDbVertex
100
AcDb2dVertex
 10
-51.95314723315914
 20
105.7847852156801
 30
0.0
  0
VERTEX
  5
EEF
330
EEA
100
AcDbEntity
  8
frees
100
AcDbVertex
100
AcDb2dVertex
 10
-51.92700232786137
 20
105.7586403103824
 30
0.0
  0
VERTEX
  5
EF0
330
EEA
100
AcDbEntity
  8
frees
100
AcDbVertex
100
AcDb2dVertex
 10
-51.9792921384568
 20
105.1573074885352
 30
0.0
  0
VERTEX
  5
EF1
330
EEA
100
AcDbEntity
  8
frees
100
AcDbVertex
100
AcDb2dVertex
 10
-52.16230647554073
 20
104.4121776875505
 30
0.0
  0
VERTEX
  5
EF2
330
EEA
100
AcDbEntity
  8
frees
100
AcDbVertex
100
AcDb2dVertex
 10
-52.43682798116674
 20
103.5232509074284
 30
0.0
  0
VERTEX
  5
EF3
330
EEA
100
AcDbEntity
  8
frees
100
AcDbVertex
100
AcDb2dVertex
 10
-52.56755250765525
 20
103.1572222332605
 30
0.0
  0
VERTEX
  5
EF4
330
EEA
100
AcDbEntity
  8
frees
100
AcDbVertex
100
AcDb2dVertex
 10
-52.84207401328115
 20
102.4120924322758
 30
0.0
  0
VERTEX
  5
EF5
330
EEA
100
AcDbEntity
  8
frees
100
AcDbVertex
100
AcDb2dVertex
 10
-53.05123325566285
 20
101.8369045157263
 30
0.0
  0
VERTEX
  5
EF6
330
EEA
100
AcDbEntity
  8
frees
100
AcDbVertex
100
AcDb2dVertex
 10
-53.35189966658652
 20
101.1048471673904
 30
0.0
  0
VERTEX
  5
EF7
330
EEA
100
AcDbEntity
  8
frees
100
AcDbVertex
100
AcDb2dVertex
 10
-53.65256607751013
 20
100.4904418928943
 30
0.0
  0
VERTEX
  5
EF8
330
EEA
100
AcDbEntity
  8
frees
100
AcDbVertex
100
AcDb2dVertex
 10
-53.84865286724289
 20
98.8302404064899
 30
0.0
  0
VERTEX
  5
EF9
330
EEA
100
AcDbEntity
  8
frees
100
AcDbVertex
100
AcDb2dVertex
 10
-53.35189966658652
 20
99.44464568098602
 30
0.0
  0
VERTEX
  5
EFA
330
EEA
100
AcDbEntity
  8
frees
100
AcDbVertex
100
AcDb2dVertex
 10
-52.89436382387657
 20
100.0982683134287
 30
0.0
  0
VERTEX
  5
EFB
330
EEA
100
AcDbEntity
  8
frees
100
AcDbVertex
100
AcDb2dVertex
 10
-52.47604533911328
 20
100.7780358511691
 30
0.0
  0
VERTEX
  5
EFC
330
EEA
100
AcDbEntity
  8
frees
100
AcDbVertex
100
AcDb2dVertex
 10
-52.09694421229653
 20
101.4970207468561
 30
0.0
  0
VERTEX
  5
EFD
330
EEA
100
AcDbEntity
  8
frees
100
AcDbVertex
100
AcDb2dVertex
 10
-51.92700232786137
 20
101.863049421024
 30
0.0
  0
VERTEX
  5
EFE
330
EEA
100
AcDbEntity
  8
frees
100
AcDbVertex
100
AcDb2dVertex
 10
-51.58711855899117
 20
102.6866139379018
 30
0.0
  0
VERTEX
  5
EFF
330
EEA
100
AcDbEntity
  8
frees
100
AcDbVertex
100
AcDb2dVertex
 10
-51.33874195866297
 20
103.4840335494819
 30
0.0
  0
VERTEX
  5
F00
330
EEA
100
AcDbEntity
  8
frees
100
AcDbVertex
100
AcDb2dVertex
 10
-51.15572762157899
 20
104.2553082557642
 30
0.0
  0
VERTEX
  5
F01
330
EEA
100
AcDbEntity
  8
frees
100
AcDbVertex
100
AcDb2dVertex
 10
-51.05114800038819
 20
104.9873656041001
 30
0.0
  0
VERTEX
  5
F02
330
EEA
100
AcDbEntity
  8
frees
100
AcDbVertex
100
AcDb2dVertex
 10
-51.02500309509048
 20
105.5756259732985
 30
0.0
  0
VERTEX
  5
F03
330
EEA
100
AcDbEntity
  8
frees
100
AcDbVertex
100
AcDb2dVertex
 10
-51.12958271628134
 20
106.5691323746114
 30
0.0
  0
VERTEX
  5
F04
330
EEA
100
AcDbEntity
  8
frees
100
AcDbVertex
100
AcDb2dVertex
 10
-51.43024912720495
 20
107.052813122619
 30
0.0
  0
SEQEND
  5
F05
330
EEA
100
AcDbEntity
  8
frees
  0
POLYLINE
  5
F06
102
{ACAD_REACTORS
330
12A9
102
}
330
1F
100
AcDbEntity
  8
frees
100
AcDb2dPolyline
 66
     1
 10
0.0
 20
0.0
 30
0.0
 70
     1
  0
VERTEX
  5
F07
330
F06
100
AcDbEntity
  8
frees
100
AcDbVertex
100
AcDb2dVertex
 10
-49.6262506616631
 20
98.67337097470366
 30
0.0
  0
VERTEX
  5
F08
330
F06
100
AcDbEntity
  8
frees
100
AcDbVertex
100
AcDb2dVertex
 10
-51.02500309509048
 20
98.60800871145938
 30
0.0
  0
VERTEX
  5
F09
330
F06
100
AcDbEntity
  8
frees
100
AcDbVertex
100
AcDb2dVertex
 10
-51.2210898848233
 20
98.12432796345177
 30
0.0
  0
VERTEX
  5
F0A
330
F06
100
AcDbEntity
  8
frees
100
AcDbVertex
100
AcDb2dVertex
 10
-51.37795931660957
 20
97.62757476279535
 30
0.0
  0
VERTEX
  5
F0B
330
F06
100
AcDbEntity
  8
frees
100
AcDbVertex
100
AcDb2dVertex
 10
-51.43024912720495
 20
97.209256278032
 30
0.0
  0
VERTEX
  5
F0C
330
F06
100
AcDbEntity
  8
frees
100
AcDbVertex
100
AcDb2dVertex
 10
-51.24723479012101
 20
96.83015515121525
 30
0.0
  0
VERTEX
  5
F0D
330
F06
100
AcDbEntity
  8
frees
100
AcDbVertex
100
AcDb2dVertex
 10
-50.77662649476224
 20
96.68635817207785
 30
0.0
  0
VERTEX
  5
F0E
330
F06
100
AcDbEntity
  8
frees
100
AcDbVertex
100
AcDb2dVertex
 10
-50.083786504373
 20
96.8170826985664
 30
0.0
  0
VERTEX
  5
F0F
330
F06
100
AcDbEntity
  8
frees
100
AcDbVertex
100
AcDb2dVertex
 10
-49.46938122987683
 20
97.06545929889461
 30
0.0
  0
VERTEX
  5
F10
330
F06
100
AcDbEntity
  8
frees
100
AcDbVertex
100
AcDb2dVertex
 10
-48.85497595538073
 20
97.40534306776481
 30
0.0
  0
VERTEX
  5
F11
330
F06
100
AcDbEntity
  8
frees
100
AcDbVertex
100
AcDb2dVertex
 10
-48.16213596499148
 20
97.86287891047471
 30
0.0
  0
VERTEX
  5
F12
330
F06
100
AcDbEntity
  8
frees
100
AcDbVertex
100
AcDb2dVertex
 10
-49.74390273550284
 20
98.12432796345177
 30
0.0
  0
VERTEX
  5
F13
330
F06
100
AcDbEntity
  8
frees
100
AcDbVertex
100
AcDb2dVertex
 10
-49.80926499874704
 20
98.28119739523803
 30
0.0
  0
SEQEND
  5
F14
330
F06
100
AcDbEntity
  8
frees
  0
POLYLINE
  5
F15
102
{ACAD_REACTORS
330
12A9
102
}
330
1F
100
AcDbEntity
  8
frees
100
AcDb2dPolyline
 66
     1
 10
0.0
 20
0.0
 30
0.0
 70
     1
  0
VERTEX
  5
F16
330
F15
100
AcDbEntity
  8
frees
100
AcDbVertex
100
AcDb2dVertex
 10
-47.70460012228158
 20
99.44464568098602
 30
0.0
  0
VERTEX
  5
F17
330
F15
100
AcDbEntity
  8
frees
100
AcDbVertex
100
AcDb2dVertex
 10
-48.37129520737312
 20
98.92174757503187
 30
0.0
  0
VERTEX
  5
F18
330
F15
100
AcDbEntity
  8
frees
100
AcDbVertex
100
AcDb2dVertex
 10
-48.97262802922046
 20
98.51650154291741
 30
0.0
  0
VERTEX
  5
F19
330
F15
100
AcDbEntity
  8
frees
100
AcDbVertex
100
AcDb2dVertex
 10
-49.71775783020508
 20
98.12432796345177
 30
0.0
  0
VERTEX
  5
F1A
330
F15
100
AcDbEntity
  8
frees
100
AcDbVertex
100
AcDb2dVertex
 10
-49.74390273550284
 20
98.12432796345177
 30
0.0
  0
VERTEX
  5
F1B
330
F15
100
AcDbEntity
  8
frees
100
AcDbVertex
100
AcDb2dVertex
 10
-48.16213596499148
 20
97.86287891047471
 30
0.0
  0
VERTEX
  5
F1C
330
F15
100
AcDbEntity
  8
frees
100
AcDbVertex
100
AcDb2dVertex
 10
-47.70460012228158
 20
98.18969022669605
 30
0.0
  0
SEQEND
  5
F1D
330
F15
100
AcDbEntity
  8
frees
  0
POLYLINE
  5
F1E
102
{ACAD_REACTORS
330
12A9
102
}
330
1F
100
AcDbEntity
  8
frees
100
AcDb2dPolyline
 66
     1
 10
0.0
 20
0.0
 30
0.0
 70
     1
  0
VERTEX
  5
F1F
330
F1E
100
AcDbEntity
  8
frees
100
AcDbVertex
100
AcDb2dVertex
 10
-48.20135332293808
 20
101.8107596104286
 30
0.0
  0
VERTEX
  5
F20
330
F1E
100
AcDbEntity
  8
frees
100
AcDbVertex
100
AcDb2dVertex
 10
-49.50859858782343
 20
101.8107596104286
 30
0.0
  0
VERTEX
  5
F21
330
F1E
100
AcDbEntity
  8
frees
100
AcDbVertex
100
AcDb2dVertex
 10
-49.87462726199135
 20
100.9871950935508
 30
0.0
  0
VERTEX
  5
F22
330
F1E
100
AcDbEntity
  8
frees
100
AcDbVertex
100
AcDb2dVertex
 10
-50.43674272589203
 20
100.4250796296501
 30
0.0
  0
VERTEX
  5
F23
330
F1E
100
AcDbEntity
  8
frees
100
AcDbVertex
100
AcDb2dVertex
 10
-50.44981517854091
 20
100.4250796296501
 30
0.0
  0
VERTEX
  5
F24
330
F1E
100
AcDbEntity
  8
frees
100
AcDbVertex
100
AcDb2dVertex
 10
-50.98578573714394
 20
99.94139888164248
 30
0.0
  0
VERTEX
  5
F25
330
F1E
100
AcDbEntity
  8
frees
100
AcDbVertex
100
AcDb2dVertex
 10
-51.62633591693776
 20
99.37928341774176
 30
0.0
  0
VERTEX
  5
F26
330
F1E
100
AcDbEntity
  8
frees
100
AcDbVertex
100
AcDb2dVertex
 10
-51.79627780137287
 20
99.23548643860437
 30
0.0
  0
VERTEX
  5
F27
330
F1E
100
AcDbEntity
  8
frees
100
AcDbVertex
100
AcDb2dVertex
 10
-51.79627780137287
 20
98.03282079490982
 30
0.0
  0
VERTEX
  5
F28
330
F1E
100
AcDbEntity
  8
frees
100
AcDbVertex
100
AcDb2dVertex
 10
-51.16880007422787
 20
98.4903566376197
 30
0.0
  0
VERTEX
  5
F29
330
F1E
100
AcDbEntity
  8
frees
100
AcDbVertex
100
AcDb2dVertex
 10
-51.02500309509048
 20
98.60800871145938
 30
0.0
  0
VERTEX
  5
F2A
330
F1E
100
AcDbEntity
  8
frees
100
AcDbVertex
100
AcDb2dVertex
 10
-49.6262506616631
 20
98.67337097470366
 30
0.0
  0
SEQEND
  5
F2B
330
F1E
100
AcDbEntity
  8
frees
  0
POLYLINE
  5
F2C
102
{ACAD_REACTORS
330
12A9
102
}
330
1F
100
AcDbEntity
  8
frees
100
AcDb2dPolyline
 66
     1
 10
0.0
 20
0.0
 30
0.0
 70
     1
  0
VERTEX
  5
F2D
330
F2C
100
AcDbEntity
  8
frees
100
AcDbVertex
100
AcDb2dVertex
 10
-48.13599105969377
 20
104.2945256137108
 30
0.0
  0
VERTEX
  5
F2E
330
F2C
100
AcDbEntity
  8
frees
100
AcDbVertex
100
AcDb2dVertex
 10
-48.77654123948764
 20
104.0200041080849
 30
0.0
  0
VERTEX
  5
F2F
330
F2C
100
AcDbEntity
  8
frees
100
AcDbVertex
100
AcDb2dVertex
 10
-49.03799029246465
 20
103.3010192123979
 30
0.0
  0
VERTEX
  5
F30
330
F2C
100
AcDbEntity
  8
frees
100
AcDbVertex
100
AcDb2dVertex
 10
-48.73732388154104
 20
102.7258312958483
 30
0.0
  0
VERTEX
  5
F31
330
F2C
100
AcDbEntity
  8
frees
100
AcDbVertex
100
AcDb2dVertex
 10
-48.34515030207547
 20
102.6473965799552
 30
0.0
  0
VERTEX
  5
F32
330
F2C
100
AcDbEntity
  8
frees
100
AcDbVertex
100
AcDb2dVertex
 10
-47.71767257493047
 20
102.93499053823
 30
0.0
  0
VERTEX
  5
F33
330
F2C
100
AcDbEntity
  8
frees
100
AcDbVertex
100
AcDb2dVertex
 10
-47.48236842725112
 20
103.6409029812681
 30
0.0
  0
VERTEX
  5
F34
330
F2C
100
AcDbEntity
  8
frees
100
AcDbVertex
100
AcDb2dVertex
 10
-47.65231031168617
 20
104.1115112766268
 30
0.0
  0
SEQEND
  5
F35
330
F2C
100
AcDbEntity
  8
frees
  0
POLYLINE
  5
F36
102
{ACAD_REACTORS
330
12A9
102
}
330
1F
100
AcDbEntity
  8
frees
100
AcDb2dPolyline
 66
     1
 10
0.0
 20
0.0
 30
0.0
 70
     1
  0
VERTEX
  5
F37
330
F36
100
AcDbEntity
  8
frees
100
AcDbVertex
100
AcDb2dVertex
 10
-47.2862816375183
 20
97.84980645782585
 30
0.0
  0
VERTEX
  5
F38
330
F36
100
AcDbEntity
  8
frees
100
AcDbVertex
100
AcDb2dVertex
 10
-47.54773069049531
 20
97.79751664723043
 30
0.0
  0
VERTEX
  5
F39
330
F36
100
AcDbEntity
  8
frees
100
AcDbVertex
100
AcDb2dVertex
 10
-47.62616540638851
 20
97.53606759425336
 30
0.0
  0
VERTEX
  5
F3A
330
F36
100
AcDbEntity
  8
frees
100
AcDbVertex
100
AcDb2dVertex
 10
-47.37778880606026
 20
96.90858986710836
 30
0.0
  0
VERTEX
  5
F3B
330
F36
100
AcDbEntity
  8
frees
100
AcDbVertex
100
AcDb2dVertex
 10
-46.73723862626639
 20
96.71250307737558
 30
0.0
  0
VERTEX
  5
F3C
330
F36
100
AcDbEntity
  8
frees
100
AcDbVertex
100
AcDb2dVertex
 10
-46.26663033090767
 20
96.76479288797096
 30
0.0
  0
VERTEX
  5
F3D
330
F36
100
AcDbEntity
  8
frees
100
AcDbVertex
100
AcDb2dVertex
 10
-45.87445675144204
 20
96.92166231975722
 30
0.0
  0
VERTEX
  5
F3E
330
F36
100
AcDbEntity
  8
frees
100
AcDbVertex
100
AcDb2dVertex
 10
-45.78294958290007
 20
96.92166231975722
 30
0.0
  0
VERTEX
  5
F3F
330
F36
100
AcDbEntity
  8
frees
100
AcDbVertex
100
AcDb2dVertex
 10
-45.02474732926657
 20
97.02624194094807
 30
0.0
  0
VERTEX
  5
F40
330
F36
100
AcDbEntity
  8
frees
100
AcDbVertex
100
AcDb2dVertex
 10
-44.42341450741923
 20
97.23540118332971
 30
0.0
  0
VERTEX
  5
F41
330
F36
100
AcDbEntity
  8
frees
100
AcDbVertex
100
AcDb2dVertex
 10
-43.78286432762542
 20
97.56221249955107
 30
0.0
  0
VERTEX
  5
F42
330
F36
100
AcDbEntity
  8
frees
100
AcDbVertex
100
AcDb2dVertex
 10
-46.47578957328931
 20
97.75829928928388
 30
0.0
  0
VERTEX
  5
F43
330
F36
100
AcDbEntity
  8
frees
100
AcDbVertex
100
AcDb2dVertex
 10
-46.88103560540378
 20
97.81058909987928
 30
0.0
  0
SEQEND
  5
F44
330
F36
100
AcDbEntity
  8
frees
  0
POLYLINE
  5
F45
102
{ACAD_REACTORS
330
12A9
102
}
330
1F
100
AcDbEntity
  8
frees
100
AcDb2dPolyline
 66
     1
 10
0.0
 20
0.0
 30
0.0
 70
     1
  0
VERTEX
  5
F46
330
F45
100
AcDbEntity
  8
frees
100
AcDbVertex
100
AcDb2dVertex
 10
-42.81550283161027
 20
99.44464568098602
 30
0.0
  0
VERTEX
  5
F47
330
F45
100
AcDbEntity
  8
frees
100
AcDbVertex
100
AcDb2dVertex
 10
-43.45605301140404
 20
98.92174757503187
 30
0.0
  0
VERTEX
  5
F48
330
F45
100
AcDbEntity
  8
frees
100
AcDbVertex
100
AcDb2dVertex
 10
-43.76979187497659
 20
98.69951588000134
 30
0.0
  0
VERTEX
  5
F49
330
F45
100
AcDbEntity
  8
frees
100
AcDbVertex
100
AcDb2dVertex
 10
-44.46263186536583
 20
98.26812494258916
 30
0.0
  0
VERTEX
  5
F4A
330
F45
100
AcDbEntity
  8
frees
100
AcDbVertex
100
AcDb2dVertex
 10
-44.71100846569401
 20
98.12432796345177
 30
0.0
  0
VERTEX
  5
F4B
330
F45
100
AcDbEntity
  8
frees
100
AcDbVertex
100
AcDb2dVertex
 10
-43.06387943193846
 20
98.00667588961211
 30
0.0
  0
VERTEX
  5
F4C
330
F45
100
AcDbEntity
  8
frees
100
AcDbVertex
100
AcDb2dVertex
 10
-42.81550283161027
 20
98.18969022669605
 30
0.0
  0
SEQEND
  5
F4D
330
F45
100
AcDbEntity
  8
frees
  0
POLYLINE
  5
F4E
102
{ACAD_REACTORS
330
12A9
102
}
330
1F
100
AcDbEntity
  8
frees
100
AcDb2dPolyline
 66
     1
 10
0.0
 20
0.0
 30
0.0
 70
     1
  0
VERTEX
  5
F4F
330
F4E
100
AcDbEntity
  8
frees
100
AcDbVertex
100
AcDb2dVertex
 10
-44.2404001703353
 20
100.3989347243523
 30
0.0
  0
VERTEX
  5
F50
330
F4E
100
AcDbEntity
  8
frees
100
AcDbVertex
100
AcDb2dVertex
 10
-45.46921071932757
 20
100.3989347243523
 30
0.0
  0
VERTEX
  5
F51
330
F4E
100
AcDbEntity
  8
frees
100
AcDbVertex
100
AcDb2dVertex
 10
-45.46921071932757
 20
100.2289928399172
 30
0.0
  0
VERTEX
  5
F52
330
F4E
100
AcDbEntity
  8
frees
100
AcDbVertex
100
AcDb2dVertex
 10
-45.521500529923
 20
99.30084870184863
 30
0.0
  0
VERTEX
  5
F53
330
F4E
100
AcDbEntity
  8
frees
100
AcDbVertex
100
AcDb2dVertex
 10
-45.66529750906039
 20
98.58186380616167
 30
0.0
  0
VERTEX
  5
F54
330
F4E
100
AcDbEntity
  8
frees
100
AcDbVertex
100
AcDb2dVertex
 10
-45.73065977230465
 20
98.39884946907771
 30
0.0
  0
VERTEX
  5
F55
330
F4E
100
AcDbEntity
  8
frees
100
AcDbVertex
100
AcDb2dVertex
 10
-46.22741297296113
 20
97.81058909987928
 30
0.0
  0
VERTEX
  5
F56
330
F4E
100
AcDbEntity
  8
frees
100
AcDbVertex
100
AcDb2dVertex
 10
-46.47578957328931
 20
97.75829928928388
 30
0.0
  0
VERTEX
  5
F57
330
F4E
100
AcDbEntity
  8
frees
100
AcDbVertex
100
AcDb2dVertex
 10
-43.78286432762542
 20
97.56221249955107
 30
0.0
  0
VERTEX
  5
F58
330
F4E
100
AcDbEntity
  8
frees
100
AcDbVertex
100
AcDb2dVertex
 10
-43.06387943193846
 20
98.00667588961211
 30
0.0
  0
VERTEX
  5
F59
330
F4E
100
AcDbEntity
  8
frees
100
AcDbVertex
100
AcDb2dVertex
 10
-44.71100846569401
 20
98.12432796345177
 30
0.0
  0
VERTEX
  5
F5A
330
F4E
100
AcDbEntity
  8
frees
100
AcDbVertex
100
AcDb2dVertex
 10
-44.4103420547704
 20
98.85638531178759
 30
0.0
  0
VERTEX
  5
F5B
330
F4E
100
AcDbEntity
  8
frees
100
AcDbVertex
100
AcDb2dVertex
 10
-44.35805224417499
 20
99.09168945946698
 30
0.0
  0
VERTEX
  5
F5C
330
F4E
100
AcDbEntity
  8
frees
100
AcDbVertex
100
AcDb2dVertex
 10
-44.26654507563301
 20
99.83681926045164
 30
0.0
  0
SEQEND
  5
F5D
330
F4E
100
AcDbEntity
  8
frees
  0
POLYLINE
  5
F5E
102
{ACAD_REACTORS
330
12A9
102
}
330
1F
100
AcDbEntity
  8
frees
100
AcDb2dPolyline
 66
     1
 10
0.0
 20
0.0
 30
0.0
 70
     1
  0
VERTEX
  5
F5F
330
F5E
100
AcDbEntity
  8
frees
100
AcDbVertex
100
AcDb2dVertex
 10
-44.48877677066355
 20
103.5493958127261
 30
0.0
  0
VERTEX
  5
F60
330
F5E
100
AcDbEntity
  8
frees
100
AcDbVertex
100
AcDb2dVertex
 10
-45.11625449780853
 20
103.1702946859094
 30
0.0
  0
VERTEX
  5
F61
330
F5E
100
AcDbEntity
  8
frees
100
AcDbVertex
100
AcDb2dVertex
 10
-45.12932695045736
 20
103.1441497806117
 30
0.0
  0
VERTEX
  5
F62
330
F5E
100
AcDbEntity
  8
frees
100
AcDbVertex
100
AcDb2dVertex
 10
-45.3515586454879
 20
102.4643822428712
 30
0.0
  0
VERTEX
  5
F63
330
F5E
100
AcDbEntity
  8
frees
100
AcDbVertex
100
AcDb2dVertex
 10
-45.41692090873215
 20
101.9676290422148
 30
0.0
  0
VERTEX
  5
F64
330
F5E
100
AcDbEntity
  8
frees
100
AcDbVertex
100
AcDb2dVertex
 10
-45.87445675144204
 20
101.3009339571232
 30
0.0
  0
VERTEX
  5
F65
330
F5E
100
AcDbEntity
  8
frees
100
AcDbVertex
100
AcDb2dVertex
 10
-46.38428240474735
 20
100.6865286826271
 30
0.0
  0
VERTEX
  5
F66
330
F5E
100
AcDbEntity
  8
frees
100
AcDbVertex
100
AcDb2dVertex
 10
-46.52807938388474
 20
100.5427317034897
 30
0.0
  0
VERTEX
  5
F67
330
F5E
100
AcDbEntity
  8
frees
100
AcDbVertex
100
AcDb2dVertex
 10
-47.0771223951366
 20
99.9936886922379
 30
0.0
  0
VERTEX
  5
F68
330
F5E
100
AcDbEntity
  8
frees
100
AcDbVertex
100
AcDb2dVertex
 10
-47.6915276696327
 20
99.45771813363487
 30
0.0
  0
VERTEX
  5
F69
330
F5E
100
AcDbEntity
  8
frees
100
AcDbVertex
100
AcDb2dVertex
 10
-47.96604917525866
 20
99.23548643860437
 30
0.0
  0
VERTEX
  5
F6A
330
F5E
100
AcDbEntity
  8
frees
100
AcDbVertex
100
AcDb2dVertex
 10
-47.96604917525866
 20
98.03282079490982
 30
0.0
  0
VERTEX
  5
F6B
330
F5E
100
AcDbEntity
  8
frees
100
AcDbVertex
100
AcDb2dVertex
 10
-47.26013673222053
 20
98.5426464482151
 30
0.0
  0
VERTEX
  5
F6C
330
F5E
100
AcDbEntity
  8
frees
100
AcDbVertex
100
AcDb2dVertex
 10
-46.6588039103733
 20
99.03939964887156
 30
0.0
  0
VERTEX
  5
F6D
330
F5E
100
AcDbEntity
  8
frees
100
AcDbVertex
100
AcDb2dVertex
 10
-46.4496446679916
 20
99.22241398595552
 30
0.0
  0
VERTEX
  5
F6E
330
F5E
100
AcDbEntity
  8
frees
100
AcDbVertex
100
AcDb2dVertex
 10
-45.88752920409092
 20
99.8237468078028
 30
0.0
  0
VERTEX
  5
F6F
330
F5E
100
AcDbEntity
  8
frees
100
AcDbVertex
100
AcDb2dVertex
 10
-45.46921071932757
 20
100.3989347243523
 30
0.0
  0
VERTEX
  5
F70
330
F5E
100
AcDbEntity
  8
frees
100
AcDbVertex
100
AcDb2dVertex
 10
-44.2404001703353
 20
100.3989347243523
 30
0.0
  0
VERTEX
  5
F71
330
F5E
100
AcDbEntity
  8
frees
100
AcDbVertex
100
AcDb2dVertex
 10
-44.25347262298418
 20
101.0133399988485
 30
0.0
  0
VERTEX
  5
F72
330
F5E
100
AcDbEntity
  8
frees
100
AcDbVertex
100
AcDb2dVertex
 10
-44.30576243357961
 20
101.7846147051308
 30
0.0
  0
VERTEX
  5
F73
330
F5E
100
AcDbEntity
  8
frees
100
AcDbVertex
100
AcDb2dVertex
 10
-44.31883488622844
 20
101.9153392316194
 30
0.0
  0
VERTEX
  5
F74
330
F5E
100
AcDbEntity
  8
frees
100
AcDbVertex
100
AcDb2dVertex
 10
-43.90051640146509
 20
102.6212516746575
 30
0.0
  0
VERTEX
  5
F75
330
F5E
100
AcDbEntity
  8
frees
100
AcDbVertex
100
AcDb2dVertex
 10
-43.87437149616744
 20
102.8565558223369
 30
0.0
  0
VERTEX
  5
F76
330
F5E
100
AcDbEntity
  8
frees
100
AcDbVertex
100
AcDb2dVertex
 10
-44.16196545444222
 20
103.4840335494819
 30
0.0
  0
SEQEND
  5
F77
330
F5E
100
AcDbEntity
  8
frees
  0
POLYLINE
  5
F78
102
{ACAD_REACTORS
330
12A9
102
}
330
1F
100
AcDbEntity
  8
frees
100
AcDb2dPolyline
 66
     1
 10
0.0
 20
0.0
 30
0.0
 70
     1
  0
VERTEX
  5
F79
330
F78
100
AcDbEntity
  8
frees
100
AcDbVertex
100
AcDb2dVertex
 10
-37.95255044623662
 20
98.03282079490982
 30
0.0
  0
VERTEX
  5
F7A
330
F78
100
AcDbEntity
  8
frees
100
AcDbVertex
100
AcDb2dVertex
 10
-38.98527420549601
 20
97.98053098431438
 30
0.0
  0
VERTEX
  5
F7B
330
F78
100
AcDbEntity
  8
frees
100
AcDbVertex
100
AcDb2dVertex
 10
-38.6453904366258
 20
97.928241173719
 30
0.0
  0
VERTEX
  5
F7C
330
F78
100
AcDbEntity
  8
frees
100
AcDbVertex
100
AcDb2dVertex
 10
-38.50159345748841
 20
97.91516872107013
 30
0.0
  0
SEQEND
  5
F7D
330
F78
100
AcDbEntity
  8
frees
  0
POLYLINE
  5
F7E
102
{ACAD_REACTORS
330
12A9
102
}
330
1F
100
AcDbEntity
  8
frees
100
AcDb2dPolyline
 66
     1
 10
0.0
 20
0.0
 30
0.0
 70
     1
  0
VERTEX
  5
F7F
330
F7E
100
AcDbEntity
  8
frees
100
AcDbVertex
100
AcDb2dVertex
 10
-37.42965234028247
 20
99.6538049233677
 30
0.0
  0
VERTEX
  5
F80
330
F7E
100
AcDbEntity
  8
frees
100
AcDbVertex
100
AcDb2dVertex
 10
-37.44272479293125
 20
99.64073247071883
 30
0.0
  0
VERTEX
  5
F81
330
F7E
100
AcDbEntity
  8
frees
100
AcDbVertex
100
AcDb2dVertex
 10
-38.18785459391597
 20
99.13090681741355
 30
0.0
  0
VERTEX
  5
F82
330
F7E
100
AcDbEntity
  8
frees
100
AcDbVertex
100
AcDb2dVertex
 10
-38.31857912040448
 20
99.09168945946698
 30
0.0
  0
VERTEX
  5
F83
330
F7E
100
AcDbEntity
  8
frees
100
AcDbVertex
100
AcDb2dVertex
 10
-39.95263570151121
 20
98.51650154291741
 30
0.0
  0
VERTEX
  5
F84
330
F7E
100
AcDbEntity
  8
frees
100
AcDbVertex
100
AcDb2dVertex
 10
-40.43631644951881
 20
98.07203815285639
 30
0.0
  0
VERTEX
  5
F85
330
F7E
100
AcDbEntity
  8
frees
100
AcDbVertex
100
AcDb2dVertex
 10
-40.99843191341955
 20
97.90209626842127
 30
0.0
  0
VERTEX
  5
F86
330
F7E
100
AcDbEntity
  8
frees
100
AcDbVertex
100
AcDb2dVertex
 10
-42.97237226339649
 20
97.81058909987928
 30
0.0
  0
VERTEX
  5
F87
330
F7E
100
AcDbEntity
  8
frees
100
AcDbVertex
100
AcDb2dVertex
 10
-42.59327113657969
 20
97.19618382538314
 30
0.0
  0
VERTEX
  5
F88
330
F7E
100
AcDbEntity
  8
frees
100
AcDbVertex
100
AcDb2dVertex
 10
-41.96579340943469
 20
96.8170826985664
 30
0.0
  0
VERTEX
  5
F89
330
F7E
100
AcDbEntity
  8
frees
100
AcDbVertex
100
AcDb2dVertex
 10
-41.16837379785465
 20
96.68635817207785
 30
0.0
  0
VERTEX
  5
F8A
330
F7E
100
AcDbEntity
  8
frees
100
AcDbVertex
100
AcDb2dVertex
 10
-40.37095418627456
 20
96.80401024591754
 30
0.0
  0
VERTEX
  5
F8B
330
F7E
100
AcDbEntity
  8
frees
100
AcDbVertex
100
AcDb2dVertex
 10
-39.87420098561813
 20
97.02624194094807
 30
0.0
  0
VERTEX
  5
F8C
330
F7E
100
AcDbEntity
  8
frees
100
AcDbVertex
100
AcDb2dVertex
 10
-39.28594061641968
 20
97.53606759425336
 30
0.0
  0
VERTEX
  5
F8D
330
F7E
100
AcDbEntity
  8
frees
100
AcDbVertex
100
AcDb2dVertex
 10
-38.98527420549601
 20
97.98053098431438
 30
0.0
  0
VERTEX
  5
F8E
330
F7E
100
AcDbEntity
  8
frees
100
AcDbVertex
100
AcDb2dVertex
 10
-37.95255044623662
 20
98.03282079490982
 30
0.0
  0
VERTEX
  5
F8F
330
F7E
100
AcDbEntity
  8
frees
100
AcDbVertex
100
AcDb2dVertex
 10
-37.42965234028247
 20
98.41192192172655
 30
0.0
  0
SEQEND
  5
F90
330
F7E
100
AcDbEntity
  8
frees
  0
POLYLINE
  5
F91
102
{ACAD_REACTORS
330
12A9
102
}
330
1F
100
AcDbEntity
  8
frees
100
AcDb2dPolyline
 66
     1
 10
0.0
 20
0.0
 30
0.0
 70
     1
  0
VERTEX
  5
F92
330
F91
100
AcDbEntity
  8
frees
100
AcDbVertex
100
AcDb2dVertex
 10
-39.40359269025936
 20
100.3205000084592
 30
0.0
  0
VERTEX
  5
F93
330
F91
100
AcDbEntity
  8
frees
100
AcDbVertex
100
AcDb2dVertex
 10
-39.70425910118297
 20
100.2289928399172
 30
0.0
  0
VERTEX
  5
F94
330
F91
100
AcDbEntity
  8
frees
100
AcDbVertex
100
AcDb2dVertex
 10
-39.9657081541601
 20
99.96754378694019
 30
0.0
  0
VERTEX
  5
F95
330
F91
100
AcDbEntity
  8
frees
100
AcDbVertex
100
AcDb2dVertex
 10
-40.14872249124403
 20
99.60151511277226
 30
0.0
  0
VERTEX
  5
F96
330
F91
100
AcDbEntity
  8
frees
100
AcDbVertex
100
AcDb2dVertex
 10
-40.22715720713716
 20
99.18319662800895
 30
0.0
  0
VERTEX
  5
F97
330
F91
100
AcDbEntity
  8
frees
100
AcDbVertex
100
AcDb2dVertex
 10
-39.95263570151121
 20
98.51650154291741
 30
0.0
  0
VERTEX
  5
F98
330
F91
100
AcDbEntity
  8
frees
100
AcDbVertex
100
AcDb2dVertex
 10
-38.31857912040448
 20
99.09168945946698
 30
0.0
  0
VERTEX
  5
F99
330
F91
100
AcDbEntity
  8
frees
100
AcDbVertex
100
AcDb2dVertex
 10
-38.50159345748841
 20
99.10476191211584
 30
0.0
  0
VERTEX
  5
F9A
330
F91
100
AcDbEntity
  8
frees
100
AcDbVertex
100
AcDb2dVertex
 10
-38.38394138364879
 20
99.56229775482572
 30
0.0
  0
VERTEX
  5
F9B
330
F91
100
AcDbEntity
  8
frees
100
AcDbVertex
100
AcDb2dVertex
 10
-38.41008628894645
 20
99.83681926045164
 30
0.0
  0
VERTEX
  5
F9C
330
F91
100
AcDbEntity
  8
frees
100
AcDbVertex
100
AcDb2dVertex
 10
-38.5800281733816
 20
100.0198335975356
 30
0.0
  0
VERTEX
  5
F9D
330
F91
100
AcDbEntity
  8
frees
100
AcDbVertex
100
AcDb2dVertex
 10
-39.28594061641968
 20
100.3074275558104
 30
0.0
  0
VERTEX
  5
F9E
330
F91
100
AcDbEntity
  8
frees
100
AcDbVertex
100
AcDb2dVertex
 10
-39.31208552171739
 20
100.3074275558104
 30
0.0
  0
SEQEND
  5
F9F
330
F91
100
AcDbEntity
  8
frees
  0
POLYLINE
  5
FA0
102
{ACAD_REACTORS
330
12A9
102
}
330
1F
100
AcDbEntity
  8
frees
100
AcDb2dPolyline
 66
     1
 10
0.0
 20
0.0
 30
0.0
 70
     1
  0
VERTEX
  5
FA1
330
FA0
100
AcDbEntity
  8
frees
100
AcDbVertex
100
AcDb2dVertex
 10
-42.14880774651868
 20
101.2094267885813
 30
0.0
  0
VERTEX
  5
FA2
330
FA0
100
AcDbEntity
  8
frees
100
AcDbVertex
100
AcDb2dVertex
 10
-42.60634358922857
 20
100.5688766087874
 30
0.0
  0
VERTEX
  5
FA3
330
FA0
100
AcDbEntity
  8
frees
100
AcDbVertex
100
AcDb2dVertex
 10
-42.92008245280107
 20
99.86296416574937
 30
0.0
  0
VERTEX
  5
FA4
330
FA0
100
AcDbEntity
  8
frees
100
AcDbVertex
100
AcDb2dVertex
 10
-43.07695188458729
 20
99.10476191211584
 30
0.0
  0
VERTEX
  5
FA5
330
FA0
100
AcDbEntity
  8
frees
100
AcDbVertex
100
AcDb2dVertex
 10
-43.10309678988505
 20
98.62108116410823
 30
0.0
  0
VERTEX
  5
FA6
330
FA0
100
AcDbEntity
  8
frees
100
AcDbVertex
100
AcDb2dVertex
 10
-42.97237226339649
 20
97.81058909987928
 30
0.0
  0
VERTEX
  5
FA7
330
FA0
100
AcDbEntity
  8
frees
100
AcDbVertex
100
AcDb2dVertex
 10
-40.99843191341955
 20
97.90209626842127
 30
0.0
  0
VERTEX
  5
FA8
330
FA0
100
AcDbEntity
  8
frees
100
AcDbVertex
100
AcDb2dVertex
 10
-41.5474749246714
 20
98.1504728687495
 30
0.0
  0
VERTEX
  5
FA9
330
FA0
100
AcDbEntity
  8
frees
100
AcDbVertex
100
AcDb2dVertex
 10
-41.74356171440422
 20
98.86945776443646
 30
0.0
  0
VERTEX
  5
FAA
330
FA0
100
AcDbEntity
  8
frees
100
AcDbVertex
100
AcDb2dVertex
 10
-41.62590964056454
 20
99.64073247071883
 30
0.0
  0
VERTEX
  5
FAB
330
FA0
100
AcDbEntity
  8
frees
100
AcDbVertex
100
AcDb2dVertex
 10
-41.28602587169433
 20
100.3466449137569
 30
0.0
  0
VERTEX
  5
FAC
330
FA0
100
AcDbEntity
  8
frees
100
AcDbVertex
100
AcDb2dVertex
 10
-41.22066360845008
 20
100.4381520822989
 30
0.0
  0
VERTEX
  5
FAD
330
FA0
100
AcDbEntity
  8
frees
100
AcDbVertex
100
AcDb2dVertex
 10
-40.61933078660274
 20
101.0264124514973
 30
0.0
  0
VERTEX
  5
FAE
330
FA0
100
AcDbEntity
  8
frees
100
AcDbVertex
100
AcDb2dVertex
 10
-40.0964326806486
 20
101.1832818832836
 30
0.0
  0
SEQEND
  5
FAF
330
FA0
100
AcDbEntity
  8
frees
  0
POLYLINE
  5
FB0
102
{ACAD_REACTORS
330
12A9
102
}
330
1F
100
AcDbEntity
  8
frees
100
AcDb2dPolyline
 66
     1
 10
0.0
 20
0.0
 30
0.0
 70
     1
  0
VERTEX
  5
FB1
330
FB0
100
AcDbEntity
  8
frees
100
AcDbVertex
100
AcDb2dVertex
 10
-39.91341834356467
 20
102.3205852637339
 30
0.0
  0
VERTEX
  5
FB2
330
FB0
100
AcDbEntity
  8
frees
100
AcDbVertex
100
AcDb2dVertex
 10
-40.65854814454934
 20
102.216005642543
 30
0.0
  0
VERTEX
  5
FB3
330
FB0
100
AcDbEntity
  8
frees
100
AcDbVertex
100
AcDb2dVertex
 10
-41.33831568228976
 20
101.9153392316194
 30
0.0
  0
VERTEX
  5
FB4
330
FB0
100
AcDbEntity
  8
frees
100
AcDbVertex
100
AcDb2dVertex
 10
-41.96579340943469
 20
101.4055135783141
 30
0.0
  0
VERTEX
  5
FB5
330
FB0
100
AcDbEntity
  8
frees
100
AcDbVertex
100
AcDb2dVertex
 10
-42.14880774651868
 20
101.2094267885813
 30
0.0
  0
VERTEX
  5
FB6
330
FB0
100
AcDbEntity
  8
frees
100
AcDbVertex
100
AcDb2dVertex
 10
-40.0964326806486
 20
101.1832818832836
 30
0.0
  0
VERTEX
  5
FB7
330
FB0
100
AcDbEntity
  8
frees
100
AcDbVertex
100
AcDb2dVertex
 10
-39.612751932641
 20
101.0394849041462
 30
0.0
  0
VERTEX
  5
FB8
330
FB0
100
AcDbEntity
  8
frees
100
AcDbVertex
100
AcDb2dVertex
 10
-39.31208552171739
 20
100.699601135276
 30
0.0
  0
VERTEX
  5
FB9
330
FB0
100
AcDbEntity
  8
frees
100
AcDbVertex
100
AcDb2dVertex
 10
-38.97220175284719
 20
100.4642969875966
 30
0.0
  0
VERTEX
  5
FBA
330
FB0
100
AcDbEntity
  8
frees
100
AcDbVertex
100
AcDb2dVertex
 10
-38.5146659101373
 20
100.3597173664058
 30
0.0
  0
VERTEX
  5
FBB
330
FB0
100
AcDbEntity
  8
frees
100
AcDbVertex
100
AcDb2dVertex
 10
-38.38394138364879
 20
100.3858622717035
 30
0.0
  0
VERTEX
  5
FBC
330
FB0
100
AcDbEntity
  8
frees
100
AcDbVertex
100
AcDb2dVertex
 10
-38.2009270465648
 20
100.5427317034897
 30
0.0
  0
VERTEX
  5
FBD
330
FB0
100
AcDbEntity
  8
frees
100
AcDbVertex
100
AcDb2dVertex
 10
-38.13556478332055
 20
100.8041807564668
 30
0.0
  0
VERTEX
  5
FBE
330
FB0
100
AcDbEntity
  8
frees
100
AcDbVertex
100
AcDb2dVertex
 10
-38.26628930980906
 20
101.4055135783141
 30
0.0
  0
VERTEX
  5
FBF
330
FB0
100
AcDbEntity
  8
frees
100
AcDbVertex
100
AcDb2dVertex
 10
-38.6453904366258
 20
101.8891943263217
 30
0.0
  0
VERTEX
  5
FC0
330
FB0
100
AcDbEntity
  8
frees
100
AcDbVertex
100
AcDb2dVertex
 10
-39.19443344787771
 20
102.2029331898942
 30
0.0
  0
SEQEND
  5
FC1
330
FB0
100
AcDbEntity
  8
frees
  0
POLYLINE
  5
FC2
102
{ACAD_REACTORS
330
12A9
102
}
330
1F
100
AcDbEntity
  8
frees
100
AcDb2dPolyline
 66
     1
 10
0.0
 20
0.0
 30
0.0
 70
     1
  0
VERTEX
  5
FC3
330
FC2
100
AcDbEntity
  8
frees
100
AcDbVertex
100
AcDb2dVertex
 10
-34.3706984204506
 20
98.96096493297845
 30
0.0
  0
VERTEX
  5
FC4
330
FC2
100
AcDbEntity
  8
frees
100
AcDbVertex
100
AcDb2dVertex
 10
-37.16820328730535
 20
98.60800871145938
 30
0.0
  0
VERTEX
  5
FC5
330
FC2
100
AcDbEntity
  8
frees
100
AcDbVertex
100
AcDb2dVertex
 10
-37.66495648796183
 20
97.57528495219993
 30
0.0
  0
VERTEX
  5
FC6
330
FC2
100
AcDbEntity
  8
frees
100
AcDbVertex
100
AcDb2dVertex
 10
-37.78260856180145
 20
97.1569664674366
 30
0.0
  0
VERTEX
  5
FC7
330
FC2
100
AcDbEntity
  8
frees
100
AcDbVertex
100
AcDb2dVertex
 10
-37.65188403531295
 20
96.8170826985664
 30
0.0
  0
VERTEX
  5
FC8
330
FC2
100
AcDbEntity
  8
frees
100
AcDbVertex
100
AcDb2dVertex
 10
-37.37736252968705
 20
96.66021326678015
 30
0.0
  0
VERTEX
  5
FC9
330
FC2
100
AcDbEntity
  8
frees
100
AcDbVertex
100
AcDb2dVertex
 10
-36.98518895022142
 20
96.8170826985664
 30
0.0
  0
VERTEX
  5
FCA
330
FC2
100
AcDbEntity
  8
frees
100
AcDbVertex
100
AcDb2dVertex
 10
-36.305421412481
 20
97.31383589922286
 30
0.0
  0
VERTEX
  5
FCB
330
FC2
100
AcDbEntity
  8
frees
100
AcDbVertex
100
AcDb2dVertex
 10
-35.59950896944292
 20
97.91516872107013
 30
0.0
  0
VERTEX
  5
FCC
330
FC2
100
AcDbEntity
  8
frees
100
AcDbVertex
100
AcDb2dVertex
 10
-34.97203124229793
 20
98.45113927967313
 30
0.0
  0
SEQEND
  5
FCD
330
FC2
100
AcDbEntity
  8
frees
  0
POLYLINE
  5
FCE
102
{ACAD_REACTORS
330
12A9
102
}
330
1F
100
AcDbEntity
  8
frees
100
AcDb2dPolyline
 66
     1
 10
0.0
 20
0.0
 30
0.0
 70
     1
  0
VERTEX
  5
FCF
330
FCE
100
AcDbEntity
  8
frees
100
AcDbVertex
100
AcDb2dVertex
 10
-30.37052790990134
 20
99.44464568098602
 30
0.0
  0
VERTEX
  5
FD0
330
FCE
100
AcDbEntity
  8
frees
100
AcDbVertex
100
AcDb2dVertex
 10
-31.01107808969516
 20
98.94789248032958
 30
0.0
  0
VERTEX
  5
FD1
330
FCE
100
AcDbEntity
  8
frees
100
AcDbVertex
100
AcDb2dVertex
 10
-31.01107808969516
 20
98.93482002768074
 30
0.0
  0
VERTEX
  5
FD2
330
FCE
100
AcDbEntity
  8
frees
100
AcDbVertex
100
AcDb2dVertex
 10
-31.65162826948904
 20
98.51650154291741
 30
0.0
  0
VERTEX
  5
FD3
330
FCE
100
AcDbEntity
  8
frees
100
AcDbVertex
100
AcDb2dVertex
 10
-32.38368561782483
 20
98.12432796345177
 30
0.0
  0
VERTEX
  5
FD4
330
FCE
100
AcDbEntity
  8
frees
100
AcDbVertex
100
AcDb2dVertex
 10
-32.39675807047365
 20
98.12432796345177
 30
0.0
  0
VERTEX
  5
FD5
330
FCE
100
AcDbEntity
  8
frees
100
AcDbVertex
100
AcDb2dVertex
 10
-33.83472786184763
 20
98.05896570020752
 30
0.0
  0
VERTEX
  5
FD6
330
FCE
100
AcDbEntity
  8
frees
100
AcDbVertex
100
AcDb2dVertex
 10
-34.04388710422927
 20
97.5229951416045
 30
0.0
  0
VERTEX
  5
FD7
330
FCE
100
AcDbEntity
  8
frees
100
AcDbVertex
100
AcDb2dVertex
 10
-34.10924936747358
 20
97.19618382538314
 30
0.0
  0
VERTEX
  5
FD8
330
FCE
100
AcDbEntity
  8
frees
100
AcDbVertex
100
AcDb2dVertex
 10
-33.92623503038959
 20
96.83015515121525
 30
0.0
  0
VERTEX
  5
FD9
330
FCE
100
AcDbEntity
  8
frees
100
AcDbVertex
100
AcDb2dVertex
 10
-33.41640937708428
 20
96.68635817207785
 30
0.0
  0
VERTEX
  5
FDA
330
FCE
100
AcDbEntity
  8
frees
100
AcDbVertex
100
AcDb2dVertex
 10
-32.73664183934386
 20
96.8170826985664
 30
0.0
  0
VERTEX
  5
FDB
330
FCE
100
AcDbEntity
  8
frees
100
AcDbVertex
100
AcDb2dVertex
 10
-32.13530901749664
 20
97.06545929889461
 30
0.0
  0
VERTEX
  5
FDC
330
FCE
100
AcDbEntity
  8
frees
100
AcDbVertex
100
AcDb2dVertex
 10
-31.50783129035165
 20
97.40534306776481
 30
0.0
  0
VERTEX
  5
FDD
330
FCE
100
AcDbEntity
  8
frees
100
AcDbVertex
100
AcDb2dVertex
 10
-30.82806375261123
 20
97.86287891047471
 30
0.0
  0
VERTEX
  5
FDE
330
FCE
100
AcDbEntity
  8
frees
100
AcDbVertex
100
AcDb2dVertex
 10
-30.37052790990134
 20
98.18969022669605
 30
0.0
  0
SEQEND
  5
FDF
330
FCE
100
AcDbEntity
  8
frees
  0
POLYLINE
  5
FE0
102
{ACAD_REACTORS
330
12A9
102
}
330
1F
100
AcDbEntity
  8
frees
100
AcDb2dPolyline
 66
     1
 10
0.0
 20
0.0
 30
0.0
 70
     1
  0
VERTEX
  5
FE1
330
FE0
100
AcDbEntity
  8
frees
100
AcDbVertex
100
AcDb2dVertex
 10
-34.77594445256511
 20
100.0851958607798
 30
0.0
  0
VERTEX
  5
FE2
330
FE0
100
AcDbEntity
  8
frees
100
AcDbVertex
100
AcDb2dVertex
 10
-35.40342217971011
 20
99.57537020747459
 30
0.0
  0
VERTEX
  5
FE3
330
FE0
100
AcDbEntity
  8
frees
100
AcDbVertex
100
AcDb2dVertex
 10
-37.76953610915263
 20
99.37928341774176
 30
0.0
  0
VERTEX
  5
FE4
330
FE0
100
AcDbEntity
  8
frees
100
AcDbVertex
100
AcDb2dVertex
 10
-37.93947799358773
 20
99.23548643860437
 30
0.0
  0
VERTEX
  5
FE5
330
FE0
100
AcDbEntity
  8
frees
100
AcDbVertex
100
AcDb2dVertex
 10
-37.93947799358773
 20
98.03282079490982
 30
0.0
  0
VERTEX
  5
FE6
330
FE0
100
AcDbEntity
  8
frees
100
AcDbVertex
100
AcDb2dVertex
 10
-37.31200026644274
 20
98.4903566376197
 30
0.0
  0
VERTEX
  5
FE7
330
FE0
100
AcDbEntity
  8
frees
100
AcDbVertex
100
AcDb2dVertex
 10
-37.16820328730535
 20
98.60800871145938
 30
0.0
  0
VERTEX
  5
FE8
330
FE0
100
AcDbEntity
  8
frees
100
AcDbVertex
100
AcDb2dVertex
 10
-34.3706984204506
 20
98.96096493297845
 30
0.0
  0
VERTEX
  5
FE9
330
FE0
100
AcDbEntity
  8
frees
100
AcDbVertex
100
AcDb2dVertex
 10
-34.20075653601555
 20
99.09168945946698
 30
0.0
  0
VERTEX
  5
FEA
330
FE0
100
AcDbEntity
  8
frees
100
AcDbVertex
100
AcDb2dVertex
 10
-33.56020635622167
 20
99.60151511277226
 30
0.0
  0
VERTEX
  5
FEB
330
FE0
100
AcDbEntity
  8
frees
100
AcDbVertex
100
AcDb2dVertex
 10
-32.91965617642785
 20
100.072123408131
 30
0.0
  0
VERTEX
  5
FEC
330
FE0
100
AcDbEntity
  8
frees
100
AcDbVertex
100
AcDb2dVertex
 10
-32.91965617642785
 20
100.072123408131
 30
0.0
  0
SEQEND
  5
FED
330
FE0
100
AcDbEntity
  8
frees
  0
POLYLINE
  5
FEE
102
{ACAD_REACTORS
330
12A9
102
}
330
1F
100
AcDbEntity
  8
frees
100
AcDb2dPolyline
 66
     1
 10
0.0
 20
0.0
 30
0.0
 70
     1
  0
VERTEX
  5
FEF
330
FEE
100
AcDbEntity
  8
frees
100
AcDbVertex
100
AcDb2dVertex
 10
-34.34455351515294
 20
101.8107596104286
 30
0.0
  0
VERTEX
  5
FF0
330
FEE
100
AcDbEntity
  8
frees
100
AcDbVertex
100
AcDb2dVertex
 10
-35.65179878003829
 20
101.8107596104286
 30
0.0
  0
VERTEX
  5
FF1
330
FEE
100
AcDbEntity
  8
frees
100
AcDbVertex
100
AcDb2dVertex
 10
-36.01782745420621
 20
100.9871950935508
 30
0.0
  0
VERTEX
  5
FF2
330
FEE
100
AcDbEntity
  8
frees
100
AcDbVertex
100
AcDb2dVertex
 10
-36.5799429181069
 20
100.4250796296501
 30
0.0
  0
VERTEX
  5
FF3
330
FEE
100
AcDbEntity
  8
frees
100
AcDbVertex
100
AcDb2dVertex
 10
-36.59301537075578
 20
100.4250796296501
 30
0.0
  0
VERTEX
  5
FF4
330
FEE
100
AcDbEntity
  8
frees
100
AcDbVertex
100
AcDb2dVertex
 10
-37.12898592935881
 20
99.94139888164248
 30
0.0
  0
VERTEX
  5
FF5
330
FEE
100
AcDbEntity
  8
frees
100
AcDbVertex
100
AcDb2dVertex
 10
-37.76953610915263
 20
99.37928341774176
 30
0.0
  0
VERTEX
  5
FF6
330
FEE
100
AcDbEntity
  8
frees
100
AcDbVertex
100
AcDb2dVertex
 10
-35.40342217971011
 20
99.57537020747459
 30
0.0
  0
SEQEND
  5
FF7
330
FEE
100
AcDbEntity
  8
frees
  0
POLYLINE
  5
FF8
102
{ACAD_REACTORS
330
12A9
102
}
330
1F
100
AcDbEntity
  8
frees
100
AcDb2dPolyline
 66
     1
 10
0.0
 20
0.0
 30
0.0
 70
     1
  0
VERTEX
  5
FF9
330
FF8
100
AcDbEntity
  8
frees
100
AcDbVertex
100
AcDb2dVertex
 10
-31.58626600624473
 20
101.9284116842682
 30
0.0
  0
VERTEX
  5
FFA
330
FF8
100
AcDbEntity
  8
frees
100
AcDbVertex
100
AcDb2dVertex
 10
-32.21374373338972
 20
101.7846147051308
 30
0.0
  0
VERTEX
  5
FFB
330
FF8
100
AcDbEntity
  8
frees
100
AcDbVertex
100
AcDb2dVertex
 10
-32.94580108172556
 20
101.3924411256653
 30
0.0
  0
VERTEX
  5
FFC
330
FF8
100
AcDbEntity
  8
frees
100
AcDbVertex
100
AcDb2dVertex
 10
-33.4686991876797
 20
101.052557356795
 30
0.0
  0
VERTEX
  5
FFD
330
FF8
100
AcDbEntity
  8
frees
100
AcDbVertex
100
AcDb2dVertex
 10
-34.07003200952698
 20
100.6211664193829
 30
0.0
  0
VERTEX
  5
FFE
330
FF8
100
AcDbEntity
  8
frees
100
AcDbVertex
100
AcDb2dVertex
 10
-34.77594445256511
 20
100.0851958607798
 30
0.0
  0
VERTEX
  5
FFF
330
FF8
100
AcDbEntity
  8
frees
100
AcDbVertex
100
AcDb2dVertex
 10
-32.91965617642785
 20
100.072123408131
 30
0.0
  0
VERTEX
  5
1000
330
FF8
100
AcDbEntity
  8
frees
100
AcDbVertex
100
AcDb2dVertex
 10
-33.83472786184763
 20
98.05896570020752
 30
0.0
  0
VERTEX
  5
1001
330
FF8
100
AcDbEntity
  8
frees
100
AcDbVertex
100
AcDb2dVertex
 10
-32.39675807047365
 20
98.12432796345177
 30
0.0
  0
VERTEX
  5
1002
330
FF8
100
AcDbEntity
  8
frees
100
AcDbVertex
100
AcDb2dVertex
 10
-32.46212033371796
 20
98.28119739523803
 30
0.0
  0
VERTEX
  5
1003
330
FF8
100
AcDbEntity
  8
frees
100
AcDbVertex
100
AcDb2dVertex
 10
-32.39675807047365
 20
98.42499437437542
 30
0.0
  0
VERTEX
  5
1004
330
FF8
100
AcDbEntity
  8
frees
100
AcDbVertex
100
AcDb2dVertex
 10
-32.27910599663403
 20
98.67337097470366
 30
0.0
  0
VERTEX
  5
1005
330
FF8
100
AcDbEntity
  8
frees
100
AcDbVertex
100
AcDb2dVertex
 10
-31.32481695326766
 20
100.7649633985203
 30
0.0
  0
VERTEX
  5
1006
330
FF8
100
AcDbEntity
  8
frees
100
AcDbVertex
100
AcDb2dVertex
 10
-31.27252714267229
 20
100.8695430197111
 30
0.0
  0
VERTEX
  5
1007
330
FF8
100
AcDbEntity
  8
frees
100
AcDbVertex
100
AcDb2dVertex
 10
-31.22023733207687
 20
100.9871950935508
 30
0.0
  0
VERTEX
  5
1008
330
FF8
100
AcDbEntity
  8
frees
100
AcDbVertex
100
AcDb2dVertex
 10
-31.03722299499287
 20
101.5231656521538
 30
0.0
  0
VERTEX
  5
1009
330
FF8
100
AcDbEntity
  8
frees
100
AcDbVertex
100
AcDb2dVertex
 10
-31.19409242677909
 20
101.8238320630774
 30
0.0
  0
SEQEND
  5
100A
330
FF8
100
AcDbEntity
  8
frees
  0
LWPOLYLINE
  5
100B
102
{ACAD_REACTORS
330
12A9
102
}
330
1F
100
AcDbEntity
  8
frees
100
AcDbPolyline
 90
       31
 70
     1
 43
0.0
 10
-23.24604121627595
 20
105.5233361627031
 10
-23.61206989044388
 20
104.9220033408558
 10
-23.99117101726063
 20
104.1768735398711
 10
-24.37027214407738
 20
103.2748743071002
 10
-24.52714157586366
 20
102.8957731802834
 10
-24.81473553413844
 20
102.1114260213522
 10
-25.08925703976434
 20
101.3662962203675
 10
-25.19383666095519
 20
101.0656298094439
 10
-25.46835816658108
 20
100.2812826505127
 10
-25.7036623142605
 20
99.53615284952801
 10
-25.75595212485587
 20
99.39235587039062
 10
-26.04354608313065
 20
98.34655965848231
 10
-26.20041551491693
 20
97.64064721544421
 10
-26.22656042021464
 20
97.3791981624671
 10
-25.92589400929103
 20
96.76479288797096
 10
-25.71673476690933
 20
96.72557553002443
 10
-25.1807642083063
 20
96.97395213035264
 10
-24.6970834602987
 20
97.70600947868846
 10
-24.65786610235216
 20
97.79751664723043
 10
-24.4225619546728
 20
98.39884946907771
 10
-24.22647516493999
 20
99.11783436476468
 10
-24.05653328050494
 20
99.95447133429133
 10
-23.91273630136755
 20
100.8826154723599
 10
-23.59899743779499
 20
101.7323248945354
 10
-23.31140347952021
 20
102.4905271481689
 10
-23.04995442654314
 20
103.1441497806117
 10
-23.02380952124543
 20
103.1964395912071
 10
-22.65778084707756
 20
104.0330765607337
 10
-22.3832593414516
 20
104.5559746666879
 10
-21.82114387755087
 20
105.2749595623748
 10
-21.28517331894784
 20
105.4841188047565
  0
POLYLINE
  5
100C
102
{ACAD_REACTORS
330
12A9
102
}
330
1F
100
AcDbEntity
  8
frees
100
AcDb2dPolyline
 66
     1
 10
0.0
 20
0.0
 30
0.0
 70
     1
  0
VERTEX
  5
100D
330
100C
100
AcDbEntity
  8
frees
100
AcDbVertex
100
AcDb2dVertex
 10
-21.11523143451279
 20
106.8175089749396
 30
0.0
  0
VERTEX
  5
100E
330
100C
100
AcDbEntity
  8
frees
100
AcDbVertex
100
AcDb2dVertex
 10
-21.87343368814629
 20
106.686784448451
 30
0.0
  0
VERTEX
  5
100F
330
100C
100
AcDbEntity
  8
frees
100
AcDbVertex
100
AcDb2dVertex
 10
-22.54012877323782
 20
106.3207557742832
 30
0.0
  0
VERTEX
  5
1010
330
100C
100
AcDbEntity
  8
frees
100
AcDbVertex
100
AcDb2dVertex
 10
-22.90615744740575
 20
105.9808720054129
 30
0.0
  0
VERTEX
  5
1011
330
100C
100
AcDbEntity
  8
frees
100
AcDbVertex
100
AcDb2dVertex
 10
-23.24604121627595
 20
105.5233361627031
 30
0.0
  0
VERTEX
  5
1012
330
100C
100
AcDbEntity
  8
frees
100
AcDbVertex
100
AcDb2dVertex
 10
-21.28517331894784
 20
105.4841188047565
 30
0.0
  0
VERTEX
  5
1013
330
100C
100
AcDbEntity
  8
frees
100
AcDbVertex
100
AcDb2dVertex
 10
-20.73613030769605
 20
105.1311625832375
 30
0.0
  0
VERTEX
  5
1014
330
100C
100
AcDbEntity
  8
frees
100
AcDbVertex
100
AcDb2dVertex
 10
-20.52697106531434
 20
104.3991052349016
 30
0.0
  0
VERTEX
  5
1015
330
100C
100
AcDbEntity
  8
frees
100
AcDbVertex
100
AcDb2dVertex
 10
-20.51389861266546
 20
104.1507286345734
 30
0.0
  0
VERTEX
  5
1016
330
100C
100
AcDbEntity
  8
frees
100
AcDbVertex
100
AcDb2dVertex
 10
-20.60540578120748
 20
103.3271641176956
 30
0.0
  0
VERTEX
  5
1017
330
100C
100
AcDbEntity
  8
frees
100
AcDbVertex
100
AcDb2dVertex
 10
-20.84070992888684
 20
102.6081792220086
 30
0.0
  0
VERTEX
  5
1018
330
100C
100
AcDbEntity
  8
frees
100
AcDbVertex
100
AcDb2dVertex
 10
-21.28517331894784
 20
101.9414841369171
 30
0.0
  0
VERTEX
  5
1019
330
100C
100
AcDbEntity
  8
frees
100
AcDbVertex
100
AcDb2dVertex
 10
-21.80807142490204
 20
101.4839482942072
 30
0.0
  0
VERTEX
  5
101A
330
100C
100
AcDbEntity
  8
frees
100
AcDbVertex
100
AcDb2dVertex
 10
-22.08259293052799
 20
101.3009339571232
 30
0.0
  0
VERTEX
  5
101B
330
100C
100
AcDbEntity
  8
frees
100
AcDbVertex
100
AcDb2dVertex
 10
-22.4878389626424
 20
101.0656298094439
 30
0.0
  0
VERTEX
  5
101C
330
100C
100
AcDbEntity
  8
frees
100
AcDbVertex
100
AcDb2dVertex
 10
-23.23296876362713
 20
100.516586798192
 30
0.0
  0
VERTEX
  5
101D
330
100C
100
AcDbEntity
  8
frees
100
AcDbVertex
100
AcDb2dVertex
 10
-23.46827291130649
 20
100.0067611448867
 30
0.0
  0
VERTEX
  5
101E
330
100C
100
AcDbEntity
  8
frees
100
AcDbVertex
100
AcDb2dVertex
 10
-23.29833102687138
 20
99.56229775482572
 30
0.0
  0
VERTEX
  5
101F
330
100C
100
AcDbEntity
  8
frees
100
AcDbVertex
100
AcDb2dVertex
 10
-22.76236046826836
 20
98.81716795384106
 30
0.0
  0
VERTEX
  5
1020
330
100C
100
AcDbEntity
  8
frees
100
AcDbVertex
100
AcDb2dVertex
 10
-22.44862160469586
 20
98.41192192172655
 30
0.0
  0
VERTEX
  5
1021
330
100C
100
AcDbEntity
  8
frees
100
AcDbVertex
100
AcDb2dVertex
 10
-21.92572349874172
 20
97.77137174193274
 30
0.0
  0
VERTEX
  5
1022
330
100C
100
AcDbEntity
  8
frees
100
AcDbVertex
100
AcDb2dVertex
 10
-21.50740501397843
 20
97.19618382538314
 30
0.0
  0
VERTEX
  5
1023
330
100C
100
AcDbEntity
  8
frees
100
AcDbVertex
100
AcDb2dVertex
 10
-21.04986917126848
 20
96.51641628764275
 30
0.0
  0
VERTEX
  5
1024
330
100C
100
AcDbEntity
  8
frees
100
AcDbVertex
100
AcDb2dVertex
 10
-20.72305785504716
 20
95.98044572903976
 30
0.0
  0
VERTEX
  5
1025
330
100C
100
AcDbEntity
  8
frees
100
AcDbVertex
100
AcDb2dVertex
 10
-19.57268202194802
 20
96.84322760386411
 30
0.0
  0
VERTEX
  5
1026
330
100C
100
AcDbEntity
  8
frees
100
AcDbVertex
100
AcDb2dVertex
 10
-19.93871069611589
 20
97.45763287836025
 30
0.0
  0
VERTEX
  5
1027
330
100C
100
AcDbEntity
  8
frees
100
AcDbVertex
100
AcDb2dVertex
 10
-20.33088427558153
 20
97.99360343696324
 30
0.0
  0
VERTEX
  5
1028
330
100C
100
AcDbEntity
  8
frees
100
AcDbVertex
100
AcDb2dVertex
 10
-20.72305785504716
 20
98.4903566376197
 30
0.0
  0
VERTEX
  5
1029
330
100C
100
AcDbEntity
  8
frees
100
AcDbVertex
100
AcDb2dVertex
 10
-21.21981105570364
 20
99.09168945946698
 30
0.0
  0
VERTEX
  5
102A
330
100C
100
AcDbEntity
  8
frees
100
AcDbVertex
100
AcDb2dVertex
 10
-21.84728878284858
 20
99.83681926045164
 30
0.0
  0
VERTEX
  5
102B
330
100C
100
AcDbEntity
  8
frees
100
AcDbVertex
100
AcDb2dVertex
 10
-21.9387959513906
 20
99.95447133429133
 30
0.0
  0
VERTEX
  5
102C
330
100C
100
AcDbEntity
  8
frees
100
AcDbVertex
100
AcDb2dVertex
 10
-21.16752124510822
 20
100.3466449137569
 30
0.0
  0
VERTEX
  5
102D
330
100C
100
AcDbEntity
  8
frees
100
AcDbVertex
100
AcDb2dVertex
 10
-20.51389861266546
 20
100.8041807564668
 30
0.0
  0
VERTEX
  5
102E
330
100C
100
AcDbEntity
  8
frees
100
AcDbVertex
100
AcDb2dVertex
 10
-19.99100050671131
 20
101.327078862421
 30
0.0
  0
VERTEX
  5
102F
330
100C
100
AcDbEntity
  8
frees
100
AcDbVertex
100
AcDb2dVertex
 10
-19.80798616962738
 20
101.588527915398
 30
0.0
  0
VERTEX
  5
1030
330
100C
100
AcDbEntity
  8
frees
100
AcDbVertex
100
AcDb2dVertex
 10
-19.45502994810829
 20
102.2421505478407
 30
0.0
  0
VERTEX
  5
1031
330
100C
100
AcDbEntity
  8
frees
100
AcDbVertex
100
AcDb2dVertex
 10
-19.23279825307782
 20
102.9742078961765
 30
0.0
  0
VERTEX
  5
1032
330
100C
100
AcDbEntity
  8
frees
100
AcDbVertex
100
AcDb2dVertex
 10
-19.12821863188696
 20
103.7977724130543
 30
0.0
  0
VERTEX
  5
1033
330
100C
100
AcDbEntity
  8
frees
100
AcDbVertex
100
AcDb2dVertex
 10
-19.11514617923814
 20
104.1507286345734
 30
0.0
  0
VERTEX
  5
1034
330
100C
100
AcDbEntity
  8
frees
100
AcDbVertex
100
AcDb2dVertex
 10
-19.19358089513128
 20
105.0396554146955
 30
0.0
  0
VERTEX
  5
1035
330
100C
100
AcDbEntity
  8
frees
100
AcDbVertex
100
AcDb2dVertex
 10
-19.41581259016175
 20
105.7586403103824
 30
0.0
  0
VERTEX
  5
1036
330
100C
100
AcDbEntity
  8
frees
100
AcDbVertex
100
AcDb2dVertex
 10
-19.63804428519228
 20
106.1246689845503
 30
0.0
  0
VERTEX
  5
1037
330
100C
100
AcDbEntity
  8
frees
100
AcDbVertex
100
AcDb2dVertex
 10
-20.21323220174185
 20
106.6083497325579
 30
0.0
  0
VERTEX
  5
1038
330
100C
100
AcDbEntity
  8
frees
100
AcDbVertex
100
AcDb2dVertex
 10
-20.95836200272652
 20
106.8044365222907
 30
0.0
  0
SEQEND
  5
1039
330
100C
100
AcDbEntity
  8
frees
  0
POLYLINE
  5
103A
102
{ACAD_REACTORS
330
12A9
102
}
330
1F
100
AcDbEntity
  8
frees
100
AcDb2dPolyline
 66
     1
 10
0.0
 20
0.0
 30
0.0
 70
     1
  0
VERTEX
  5
103B
330
103A
100
AcDbEntity
  8
frees
100
AcDbVertex
100
AcDb2dVertex
 10
-13.49399154023092
 20
97.41841552041368
 30
0.0
  0
VERTEX
  5
103C
330
103A
100
AcDbEntity
  8
frees
100
AcDbVertex
100
AcDb2dVertex
 10
-15.79474320642924
 20
97.39227061511597
 30
0.0
  0
VERTEX
  5
103D
330
103A
100
AcDbEntity
  8
frees
100
AcDbVertex
100
AcDb2dVertex
 10
-15.79474320642924
 20
97.31383589922286
 30
0.0
  0
VERTEX
  5
103E
330
103A
100
AcDbEntity
  8
frees
100
AcDbVertex
100
AcDb2dVertex
 10
-15.69016358523839
 20
96.83015515121525
 30
0.0
  0
VERTEX
  5
103F
330
103A
100
AcDbEntity
  8
frees
100
AcDbVertex
100
AcDb2dVertex
 10
-15.29799000577282
 20
96.68635817207785
 30
0.0
  0
VERTEX
  5
1040
330
103A
100
AcDbEntity
  8
frees
100
AcDbVertex
100
AcDb2dVertex
 10
-14.63129492068123
 20
96.84322760386411
 30
0.0
  0
VERTEX
  5
1041
330
103A
100
AcDbEntity
  8
frees
100
AcDbVertex
100
AcDb2dVertex
 10
-14.12146926737591
 20
97.06545929889461
 30
0.0
  0
SEQEND
  5
1042
330
103A
100
AcDbEntity
  8
frees
  0
POLYLINE
  5
1043
102
{ACAD_REACTORS
330
12A9
102
}
330
1F
100
AcDbEntity
  8
frees
100
AcDb2dPolyline
 66
     1
 10
0.0
 20
0.0
 30
0.0
 70
     1
  0
VERTEX
  5
1044
330
1043
100
AcDbEntity
  8
frees
100
AcDbVertex
100
AcDb2dVertex
 10
-12.38283306507833
 20
99.44464568098602
 30
0.0
  0
VERTEX
  5
1045
330
1043
100
AcDbEntity
  8
frees
100
AcDbVertex
100
AcDb2dVertex
 10
-13.01031079222332
 20
98.93482002768074
 30
0.0
  0
VERTEX
  5
1046
330
1043
100
AcDbEntity
  8
frees
100
AcDbVertex
100
AcDb2dVertex
 10
-13.02338324487221
 20
98.92174757503187
 30
0.0
  0
VERTEX
  5
1047
330
1043
100
AcDbEntity
  8
frees
100
AcDbVertex
100
AcDb2dVertex
 10
-13.6508609720172
 20
98.50342909026856
 30
0.0
  0
VERTEX
  5
1048
330
1043
100
AcDbEntity
  8
frees
100
AcDbVertex
100
AcDb2dVertex
 10
-14.38291832035304
 20
98.12432796345177
 30
0.0
  0
VERTEX
  5
1049
330
1043
100
AcDbEntity
  8
frees
100
AcDbVertex
100
AcDb2dVertex
 10
-14.39599077300187
 20
98.12432796345177
 30
0.0
  0
VERTEX
  5
104A
330
1043
100
AcDbEntity
  8
frees
100
AcDbVertex
100
AcDb2dVertex
 10
-16.67059753390242
 20
98.04589324755866
 30
0.0
  0
VERTEX
  5
104B
330
1043
100
AcDbEntity
  8
frees
100
AcDbVertex
100
AcDb2dVertex
 10
-17.11506092396348
 20
97.94131362636782
 30
0.0
  0
VERTEX
  5
104C
330
1043
100
AcDbEntity
  8
frees
100
AcDbVertex
100
AcDb2dVertex
 10
-12.80115154984173
 20
97.87595136312356
 30
0.0
  0
VERTEX
  5
104D
330
1043
100
AcDbEntity
  8
frees
100
AcDbVertex
100
AcDb2dVertex
 10
-12.38283306507833
 20
98.18969022669605
 30
0.0
  0
SEQEND
  5
104E
330
1043
100
AcDbEntity
  8
frees
  0
POLYLINE
  5
104F
102
{ACAD_REACTORS
330
12A9
102
}
330
1F
100
AcDbEntity
  8
frees
100
AcDb2dPolyline
 66
     1
 10
0.0
 20
0.0
 30
0.0
 70
     1
  0
VERTEX
  5
1050
330
104F
100
AcDbEntity
  8
frees
100
AcDbVertex
100
AcDb2dVertex
 10
-13.69007832996374
 20
100.2289928399172
 30
0.0
  0
VERTEX
  5
1051
330
104F
100
AcDbEntity
  8
frees
100
AcDbVertex
100
AcDb2dVertex
 10
-14.90581642630718
 20
100.2289928399172
 30
0.0
  0
VERTEX
  5
1052
330
104F
100
AcDbEntity
  8
frees
100
AcDbVertex
100
AcDb2dVertex
 10
-15.29799000577282
 20
99.44464568098602
 30
0.0
  0
VERTEX
  5
1053
330
104F
100
AcDbEntity
  8
frees
100
AcDbVertex
100
AcDb2dVertex
 10
-15.74245339583382
 20
98.80409550119219
 30
0.0
  0
VERTEX
  5
1054
330
104F
100
AcDbEntity
  8
frees
100
AcDbVertex
100
AcDb2dVertex
 10
-15.96468509086435
 20
98.55571890086395
 30
0.0
  0
VERTEX
  5
1055
330
104F
100
AcDbEntity
  8
frees
100
AcDbVertex
100
AcDb2dVertex
 10
-16.67059753390242
 20
98.04589324755866
 30
0.0
  0
VERTEX
  5
1056
330
104F
100
AcDbEntity
  8
frees
100
AcDbVertex
100
AcDb2dVertex
 10
-14.39599077300187
 20
98.12432796345177
 30
0.0
  0
VERTEX
  5
1057
330
104F
100
AcDbEntity
  8
frees
100
AcDbVertex
100
AcDb2dVertex
 10
-14.43520813094847
 20
98.16354532139834
 30
0.0
  0
VERTEX
  5
1058
330
104F
100
AcDbEntity
  8
frees
100
AcDbVertex
100
AcDb2dVertex
 10
-14.38291832035304
 20
98.39884946907771
 30
0.0
  0
VERTEX
  5
1059
330
104F
100
AcDbEntity
  8
frees
100
AcDbVertex
100
AcDb2dVertex
 10
-14.3044836044599
 20
98.67337097470366
 30
0.0
  0
SEQEND
  5
105A
330
104F
100
AcDbEntity
  8
frees
  0
POLYLINE
  5
105B
102
{ACAD_REACTORS
330
12A9
102
}
330
1F
100
AcDbEntity
  8
frees
100
AcDb2dPolyline
 66
     1
 10
0.0
 20
0.0
 30
0.0
 70
     1
  0
VERTEX
  5
105C
330
105B
100
AcDbEntity
  8
frees
100
AcDbVertex
100
AcDb2dVertex
 10
-16.9974088501238
 20
101.4316584836118
 30
0.0
  0
VERTEX
  5
105D
330
105B
100
AcDbEntity
  8
frees
100
AcDbVertex
100
AcDb2dVertex
 10
-17.63795902991762
 20
100.9871950935508
 30
0.0
  0
VERTEX
  5
105E
330
105B
100
AcDbEntity
  8
frees
100
AcDbVertex
100
AcDb2dVertex
 10
-17.66410393521534
 20
100.961050188253
 30
0.0
  0
VERTEX
  5
105F
330
105B
100
AcDbEntity
  8
frees
100
AcDbVertex
100
AcDb2dVertex
 10
-18.22621939911607
 20
100.3858622717035
 30
0.0
  0
VERTEX
  5
1060
330
105B
100
AcDbEntity
  8
frees
100
AcDbVertex
100
AcDb2dVertex
 10
-18.61839297858171
 20
99.74531209190965
 30
0.0
  0
VERTEX
  5
1061
330
105B
100
AcDbEntity
  8
frees
100
AcDbVertex
100
AcDb2dVertex
 10
-18.84062467361218
 20
99.01325474357385
 30
0.0
  0
VERTEX
  5
1062
330
105B
100
AcDbEntity
  8
frees
100
AcDbVertex
100
AcDb2dVertex
 10
-18.87984203155872
 20
98.45113927967313
 30
0.0
  0
VERTEX
  5
1063
330
105B
100
AcDbEntity
  8
frees
100
AcDbVertex
100
AcDb2dVertex
 10
-18.7621899577191
 20
97.61450231014649
 30
0.0
  0
VERTEX
  5
1064
330
105B
100
AcDbEntity
  8
frees
100
AcDbVertex
100
AcDb2dVertex
 10
-18.43537864149772
 20
97.05238684624575
 30
0.0
  0
VERTEX
  5
1065
330
105B
100
AcDbEntity
  8
frees
100
AcDbVertex
100
AcDb2dVertex
 10
-17.87326317759698
 20
96.73864798267329
 30
0.0
  0
VERTEX
  5
1066
330
105B
100
AcDbEntity
  8
frees
100
AcDbVertex
100
AcDb2dVertex
 10
-17.40265488223826
 20
96.68635817207785
 30
0.0
  0
VERTEX
  5
1067
330
105B
100
AcDbEntity
  8
frees
100
AcDbVertex
100
AcDb2dVertex
 10
-16.65752508125359
 20
96.84322760386411
 30
0.0
  0
VERTEX
  5
1068
330
105B
100
AcDbEntity
  8
frees
100
AcDbVertex
100
AcDb2dVertex
 10
-16.00390244881089
 20
97.23540118332971
 30
0.0
  0
VERTEX
  5
1069
330
105B
100
AcDbEntity
  8
frees
100
AcDbVertex
100
AcDb2dVertex
 10
-15.79474320642924
 20
97.39227061511597
 30
0.0
  0
VERTEX
  5
106A
330
105B
100
AcDbEntity
  8
frees
100
AcDbVertex
100
AcDb2dVertex
 10
-13.49399154023092
 20
97.41841552041368
 30
0.0
  0
VERTEX
  5
106B
330
105B
100
AcDbEntity
  8
frees
100
AcDbVertex
100
AcDb2dVertex
 10
-12.80115154984173
 20
97.87595136312356
 30
0.0
  0
VERTEX
  5
106C
330
105B
100
AcDbEntity
  8
frees
100
AcDbVertex
100
AcDb2dVertex
 10
-17.11506092396348
 20
97.94131362636782
 30
0.0
  0
VERTEX
  5
106D
330
105B
100
AcDbEntity
  8
frees
100
AcDbVertex
100
AcDb2dVertex
 10
-17.42879978753598
 20
98.13740041610063
 30
0.0
  0
VERTEX
  5
106E
330
105B
100
AcDbEntity
  8
frees
100
AcDbVertex
100
AcDb2dVertex
 10
-17.55952431402454
 20
98.6602985220548
 30
0.0
  0
VERTEX
  5
106F
330
105B
100
AcDbEntity
  8
frees
100
AcDbVertex
100
AcDb2dVertex
 10
-17.41572733488715
 20
99.40542832303947
 30
0.0
  0
VERTEX
  5
1070
330
105B
100
AcDbEntity
  8
frees
100
AcDbVertex
100
AcDb2dVertex
 10
-17.01048130277263
 20
100.0459785028333
 30
0.0
  0
VERTEX
  5
1071
330
105B
100
AcDbEntity
  8
frees
100
AcDbVertex
100
AcDb2dVertex
 10
-16.72288734449785
 20
100.3205000084592
 30
0.0
  0
VERTEX
  5
1072
330
105B
100
AcDbEntity
  8
frees
100
AcDbVertex
100
AcDb2dVertex
 10
-16.08233716470403
 20
100.7257460405737
 30
0.0
  0
VERTEX
  5
1073
330
105B
100
AcDbEntity
  8
frees
100
AcDbVertex
100
AcDb2dVertex
 10
-15.33720736371936
 20
100.9479777356042
 30
0.0
  0
VERTEX
  5
1074
330
105B
100
AcDbEntity
  8
frees
100
AcDbVertex
100
AcDb2dVertex
 10
-14.68358473127665
 20
101.0133399988485
 30
0.0
  0
SEQEND
  5
1075
330
105B
100
AcDbEntity
  8
frees
  0
POLYLINE
  5
1076
102
{ACAD_REACTORS
330
12A9
102
}
330
1F
100
AcDbEntity
  8
frees
100
AcDb2dPolyline
 66
     1
 10
0.0
 20
0.0
 30
0.0
 70
     1
  0
VERTEX
  5
1077
330
1076
100
AcDbEntity
  8
frees
100
AcDbVertex
100
AcDb2dVertex
 10
-14.70972963657436
 20
101.9937739475125
 30
0.0
  0
VERTEX
  5
1078
330
1076
100
AcDbEntity
  8
frees
100
AcDbVertex
100
AcDb2dVertex
 10
-15.546366606101
 20
101.9284116842682
 30
0.0
  0
VERTEX
  5
1079
330
1076
100
AcDbEntity
  8
frees
100
AcDbVertex
100
AcDb2dVertex
 10
-16.30456885973456
 20
101.7453973471843
 30
0.0
  0
VERTEX
  5
107A
330
1076
100
AcDbEntity
  8
frees
100
AcDbVertex
100
AcDb2dVertex
 10
-16.9974088501238
 20
101.4316584836118
 30
0.0
  0
VERTEX
  5
107B
330
1076
100
AcDbEntity
  8
frees
100
AcDbVertex
100
AcDb2dVertex
 10
-14.68358473127665
 20
101.0133399988485
 30
0.0
  0
VERTEX
  5
107C
330
1076
100
AcDbEntity
  8
frees
100
AcDbVertex
100
AcDb2dVertex
 10
-14.10839681472708
 20
100.9349052829554
 30
0.0
  0
VERTEX
  5
107D
330
1076
100
AcDbEntity
  8
frees
100
AcDbVertex
100
AcDb2dVertex
 10
-13.49399154023092
 20
100.7126735879248
 30
0.0
  0
VERTEX
  5
107E
330
1076
100
AcDbEntity
  8
frees
100
AcDbVertex
100
AcDb2dVertex
 10
-13.54628135082635
 20
101.8369045157263
 30
0.0
  0
VERTEX
  5
107F
330
1076
100
AcDbEntity
  8
frees
100
AcDbVertex
100
AcDb2dVertex
 10
-14.29141115181107
 20
101.9676290422148
 30
0.0
  0
SEQEND
  5
1080
330
1076
100
AcDbEntity
  8
frees
  0
POLYLINE
  5
1081
102
{ACAD_REACTORS
330
12A9
102
}
330
1F
100
AcDbEntity
  8
frees
100
AcDb2dPolyline
 66
     1
 10
0.0
 20
0.0
 30
0.0
 70
     1
  0
VERTEX
  5
1082
330
1081
100
AcDbEntity
  8
frees
100
AcDbVertex
100
AcDb2dVertex
 10
-12.43512287567375
 20
97.71908193133732
 30
0.0
  0
VERTEX
  5
1083
330
1081
100
AcDbEntity
  8
frees
100
AcDbVertex
100
AcDb2dVertex
 10
-12.14752891739897
 20
97.18311137273431
 30
0.0
  0
VERTEX
  5
1084
330
1081
100
AcDbEntity
  8
frees
100
AcDbVertex
100
AcDb2dVertex
 10
-11.54619609555175
 20
96.75172043532212
 30
0.0
  0
VERTEX
  5
1085
330
1081
100
AcDbEntity
  8
frees
100
AcDbVertex
100
AcDb2dVertex
 10
-11.06251534754415
 20
96.68635817207785
 30
0.0
  0
VERTEX
  5
1086
330
1081
100
AcDbEntity
  8
frees
100
AcDbVertex
100
AcDb2dVertex
 10
-10.35660290450602
 20
96.8170826985664
 30
0.0
  0
VERTEX
  5
1087
330
1081
100
AcDbEntity
  8
frees
100
AcDbVertex
100
AcDb2dVertex
 10
-9.650690461467888
 20
97.19618382538314
 30
0.0
  0
VERTEX
  5
1088
330
1081
100
AcDbEntity
  8
frees
100
AcDbVertex
100
AcDb2dVertex
 10
-9.350024050544277
 20
97.44456042571139
 30
0.0
  0
SEQEND
  5
1089
330
1081
100
AcDbEntity
  8
frees
  0
POLYLINE
  5
108A
102
{ACAD_REACTORS
330
12A9
102
}
330
1F
100
AcDbEntity
  8
frees
100
AcDb2dPolyline
 66
     1
 10
0.0
 20
0.0
 30
0.0
 70
     1
  0
VERTEX
  5
108B
330
108A
100
AcDbEntity
  8
frees
100
AcDbVertex
100
AcDb2dVertex
 10
-5.506722971781186
 20
99.44464568098602
 30
0.0
  0
VERTEX
  5
108C
330
108A
100
AcDbEntity
  8
frees
100
AcDbVertex
100
AcDb2dVertex
 10
-6.186490509521604
 20
98.90867512238301
 30
0.0
  0
VERTEX
  5
108D
330
108A
100
AcDbEntity
  8
frees
100
AcDbVertex
100
AcDb2dVertex
 10
-6.827040689315481
 20
98.47728418497084
 30
0.0
  0
VERTEX
  5
108E
330
108A
100
AcDbEntity
  8
frees
100
AcDbVertex
100
AcDb2dVertex
 10
-7.023127479048298
 20
98.37270456378002
 30
0.0
  0
VERTEX
  5
108F
330
108A
100
AcDbEntity
  8
frees
100
AcDbVertex
100
AcDb2dVertex
 10
-7.846691995926107
 20
97.98053098431438
 30
0.0
  0
VERTEX
  5
1090
330
108A
100
AcDbEntity
  8
frees
100
AcDbVertex
100
AcDb2dVertex
 10
-8.016633880361155
 20
97.95438607901667
 30
0.0
  0
VERTEX
  5
1091
330
108A
100
AcDbEntity
  8
frees
100
AcDbVertex
100
AcDb2dVertex
 10
-5.885824098597993
 20
97.90209626842127
 30
0.0
  0
VERTEX
  5
1092
330
108A
100
AcDbEntity
  8
frees
100
AcDbVertex
100
AcDb2dVertex
 10
-5.506722971781186
 20
98.18969022669605
 30
0.0
  0
SEQEND
  5
1093
330
108A
100
AcDbEntity
  8
frees
  0
POLYLINE
  5
1094
102
{ACAD_REACTORS
330
12A9
102
}
330
1F
100
AcDbEntity
  8
frees
100
AcDb2dPolyline
 66
     1
 10
0.0
 20
0.0
 30
0.0
 70
     1
  0
VERTEX
  5
1095
330
1094
100
AcDbEntity
  8
frees
100
AcDbVertex
100
AcDb2dVertex
 10
-9.441531219086243
 20
101.9022667789705
 30
0.0
  0
VERTEX
  5
1096
330
1094
100
AcDbEntity
  8
frees
100
AcDbVertex
100
AcDb2dVertex
 10
-9.493821029681669
 20
101.9022667789705
 30
0.0
  0
VERTEX
  5
1097
330
1094
100
AcDbEntity
  8
frees
100
AcDbVertex
100
AcDb2dVertex
 10
-10.25202328331522
 20
101.7976871577797
 30
0.0
  0
VERTEX
  5
1098
330
1094
100
AcDbEntity
  8
frees
100
AcDbVertex
100
AcDb2dVertex
 10
-10.94486327370441
 20
101.4970207468561
 30
0.0
  0
VERTEX
  5
1099
330
1094
100
AcDbEntity
  8
frees
100
AcDbVertex
100
AcDb2dVertex
 10
-11.5723410008494
 20
100.9741226409019
 30
0.0
  0
VERTEX
  5
109A
330
1094
100
AcDbEntity
  8
frees
100
AcDbVertex
100
AcDb2dVertex
 10
-11.62463081144483
 20
100.9218328303065
 30
0.0
  0
VERTEX
  5
109B
330
1094
100
AcDbEntity
  8
frees
100
AcDbVertex
100
AcDb2dVertex
 10
-12.09523910680355
 20
100.2812826505127
 30
0.0
  0
VERTEX
  5
109C
330
1094
100
AcDbEntity
  8
frees
100
AcDbVertex
100
AcDb2dVertex
 10
-12.4089779703761
 20
99.57537020747459
 30
0.0
  0
VERTEX
  5
109D
330
1094
100
AcDbEntity
  8
frees
100
AcDbVertex
100
AcDb2dVertex
 10
-12.5397024968646
 20
98.81716795384106
 30
0.0
  0
VERTEX
  5
109E
330
1094
100
AcDbEntity
  8
frees
100
AcDbVertex
100
AcDb2dVertex
 10
-12.55277494951349
 20
98.56879135351281
 30
0.0
  0
VERTEX
  5
109F
330
1094
100
AcDbEntity
  8
frees
100
AcDbVertex
100
AcDb2dVertex
 10
-12.43512287567375
 20
97.71908193133732
 30
0.0
  0
VERTEX
  5
10A0
330
1094
100
AcDbEntity
  8
frees
100
AcDbVertex
100
AcDb2dVertex
 10
-10.6049795048342
 20
97.87595136312356
 30
0.0
  0
VERTEX
  5
10A1
330
1094
100
AcDbEntity
  8
frees
100
AcDbVertex
100
AcDb2dVertex
 10
-11.15402251608611
 20
98.18969022669605
 30
0.0
  0
VERTEX
  5
10A2
330
1094
100
AcDbEntity
  8
frees
100
AcDbVertex
100
AcDb2dVertex
 10
-11.21938477933037
 20
98.56879135351281
 30
0.0
  0
VERTEX
  5
10A3
330
1094
100
AcDbEntity
  8
frees
100
AcDbVertex
100
AcDb2dVertex
 10
-11.11480515813957
 20
99.39235587039062
 30
0.0
  0
VERTEX
  5
10A4
330
1094
100
AcDbEntity
  8
frees
100
AcDbVertex
100
AcDb2dVertex
 10
-10.78799384191819
 20
100.0590509554821
 30
0.0
  0
VERTEX
  5
10A5
330
1094
100
AcDbEntity
  8
frees
100
AcDbVertex
100
AcDb2dVertex
 10
-10.69648667337623
 20
100.1767030293218
 30
0.0
  0
VERTEX
  5
10A6
330
1094
100
AcDbEntity
  8
frees
100
AcDbVertex
100
AcDb2dVertex
 10
-10.08208139888006
 20
100.6865286826271
 30
0.0
  0
VERTEX
  5
10A7
330
1094
100
AcDbEntity
  8
frees
100
AcDbVertex
100
AcDb2dVertex
 10
-9.716052724712199
 20
100.8041807564668
 30
0.0
  0
SEQEND
  5
10A8
330
1094
100
AcDbEntity
  8
frees
  0
POLYLINE
  5
10A9
102
{ACAD_REACTORS
330
12A9
102
}
330
1F
100
AcDbEntity
  8
frees
100
AcDb2dPolyline
 66
     1
 10
0.0
 20
0.0
 30
0.0
 70
     1
  0
VERTEX
  5
10AA
330
10A9
100
AcDbEntity
  8
frees
100
AcDbVertex
100
AcDb2dVertex
 10
-6.604808994284951
 20
106.3730455848786
 30
0.0
  0
VERTEX
  5
10AB
330
10A9
100
AcDbEntity
  8
frees
100
AcDbVertex
100
AcDb2dVertex
 10
-7.14077955288792
 20
105.614843331245
 30
0.0
  0
VERTEX
  5
10AC
330
10A9
100
AcDbEntity
  8
frees
100
AcDbVertex
100
AcDb2dVertex
 10
-7.506808227055898
 20
105.0004380567489
 30
0.0
  0
VERTEX
  5
10AD
330
10A9
100
AcDbEntity
  8
frees
100
AcDbVertex
100
AcDb2dVertex
 10
-7.846691995926107
 20
104.3337429716574
 30
0.0
  0
VERTEX
  5
10AE
330
10A9
100
AcDbEntity
  8
frees
100
AcDbVertex
100
AcDb2dVertex
 10
-8.160430859498546
 20
103.6147580759704
 30
0.0
  0
VERTEX
  5
10AF
330
10A9
100
AcDbEntity
  8
frees
100
AcDbVertex
100
AcDb2dVertex
 10
-8.474169723071042
 20
102.8173384643903
 30
0.0
  0
VERTEX
  5
10B0
330
10A9
100
AcDbEntity
  8
frees
100
AcDbVertex
100
AcDb2dVertex
 10
-8.748691228696998
 20
101.9807014948637
 30
0.0
  0
VERTEX
  5
10B1
330
10A9
100
AcDbEntity
  8
frees
100
AcDbVertex
100
AcDb2dVertex
 10
-8.800981039292423
 20
101.8238320630774
 30
0.0
  0
VERTEX
  5
10B2
330
10A9
100
AcDbEntity
  8
frees
100
AcDbVertex
100
AcDb2dVertex
 10
-9.075502544918322
 20
100.7649633985203
 30
0.0
  0
VERTEX
  5
10B3
330
10A9
100
AcDbEntity
  8
frees
100
AcDbVertex
100
AcDb2dVertex
 10
-9.271589334651139
 20
99.98061623958903
 30
0.0
  0
VERTEX
  5
10B4
330
10A9
100
AcDbEntity
  8
frees
100
AcDbVertex
100
AcDb2dVertex
 10
-9.336951597895449
 20
99.6538049233677
 30
0.0
  0
VERTEX
  5
10B5
330
10A9
100
AcDbEntity
  8
frees
100
AcDbVertex
100
AcDb2dVertex
 10
-9.467676124383956
 20
98.86945776443646
 30
0.0
  0
VERTEX
  5
10B6
330
10A9
100
AcDbEntity
  8
frees
100
AcDbVertex
100
AcDb2dVertex
 10
-9.493821029681669
 20
98.51650154291741
 30
0.0
  0
VERTEX
  5
10B7
330
10A9
100
AcDbEntity
  8
frees
100
AcDbVertex
100
AcDb2dVertex
 10
-10.14744366212437
 20
98.03282079490982
 30
0.0
  0
VERTEX
  5
10B8
330
10A9
100
AcDbEntity
  8
frees
100
AcDbVertex
100
AcDb2dVertex
 10
-10.17358856742203
 20
98.03282079490982
 30
0.0
  0
VERTEX
  5
10B9
330
10A9
100
AcDbEntity
  8
frees
100
AcDbVertex
100
AcDb2dVertex
 10
-10.6049795048342
 20
97.87595136312356
 30
0.0
  0
VERTEX
  5
10BA
330
10A9
100
AcDbEntity
  8
frees
100
AcDbVertex
100
AcDb2dVertex
 10
-12.43512287567375
 20
97.71908193133732
 30
0.0
  0
VERTEX
  5
10BB
330
10A9
100
AcDbEntity
  8
frees
100
AcDbVertex
100
AcDb2dVertex
 10
-9.350024050544277
 20
97.44456042571139
 30
0.0
  0
VERTEX
  5
10BC
330
10A9
100
AcDbEntity
  8
frees
100
AcDbVertex
100
AcDb2dVertex
 10
-9.140864808162632
 20
96.85630005651297
 30
0.0
  0
VERTEX
  5
10BD
330
10A9
100
AcDbEntity
  8
frees
100
AcDbVertex
100
AcDb2dVertex
 10
-8.631039154857262
 20
96.68635817207785
 30
0.0
  0
VERTEX
  5
10BE
330
10A9
100
AcDbEntity
  8
frees
100
AcDbVertex
100
AcDb2dVertex
 10
-8.081996143605465
 20
96.76479288797096
 30
0.0
  0
VERTEX
  5
10BF
330
10A9
100
AcDbEntity
  8
frees
100
AcDbVertex
100
AcDb2dVertex
 10
-7.441445963811588
 20
96.9870245830015
 30
0.0
  0
VERTEX
  5
10C0
330
10A9
100
AcDbEntity
  8
frees
100
AcDbVertex
100
AcDb2dVertex
 10
-6.709388615475745
 20
97.36612570981826
 30
0.0
  0
VERTEX
  5
10C1
330
10A9
100
AcDbEntity
  8
frees
100
AcDbVertex
100
AcDb2dVertex
 10
-5.885824098597993
 20
97.90209626842127
 30
0.0
  0
VERTEX
  5
10C2
330
10A9
100
AcDbEntity
  8
frees
100
AcDbVertex
100
AcDb2dVertex
 10
-8.016633880361155
 20
97.95438607901667
 30
0.0
  0
VERTEX
  5
10C3
330
10A9
100
AcDbEntity
  8
frees
100
AcDbVertex
100
AcDb2dVertex
 10
-8.317300291284823
 20
98.18969022669605
 30
0.0
  0
VERTEX
  5
10C4
330
10A9
100
AcDbEntity
  8
frees
100
AcDbVertex
100
AcDb2dVertex
 10
-8.225793122742857
 20
99.61458756542112
 30
0.0
  0
VERTEX
  5
10C5
330
10A9
100
AcDbEntity
  8
frees
100
AcDbVertex
100
AcDb2dVertex
 10
-8.055851238307695
 20
100.4250796296501
 30
0.0
  0
VERTEX
  5
10C6
330
10A9
100
AcDbEntity
  8
frees
100
AcDbVertex
100
AcDb2dVertex
 10
-7.872836901223763
 20
101.2094267885813
 30
0.0
  0
VERTEX
  5
10C7
330
10A9
100
AcDbEntity
  8
frees
100
AcDbVertex
100
AcDb2dVertex
 10
-7.689822564139831
 20
101.863049421024
 30
0.0
  0
VERTEX
  5
10C8
330
10A9
100
AcDbEntity
  8
frees
100
AcDbVertex
100
AcDb2dVertex
 10
-7.441445963811588
 20
102.6473965799552
 30
0.0
  0
VERTEX
  5
10C9
330
10A9
100
AcDbEntity
  8
frees
100
AcDbVertex
100
AcDb2dVertex
 10
-7.16692445818569
 20
103.3925263809399
 30
0.0
  0
VERTEX
  5
10CA
330
10A9
100
AcDbEntity
  8
frees
100
AcDbVertex
100
AcDb2dVertex
 10
-6.970837668452873
 20
103.8762071289475
 30
0.0
  0
VERTEX
  5
10CB
330
10A9
100
AcDbEntity
  8
frees
100
AcDbVertex
100
AcDb2dVertex
 10
-6.474084467796387
 20
104.9873656041001
 30
0.0
  0
VERTEX
  5
10CC
330
10A9
100
AcDbEntity
  8
frees
100
AcDbVertex
100
AcDb2dVertex
 10
-6.121128246277351
 20
105.614843331245
 30
0.0
  0
VERTEX
  5
10CD
330
10A9
100
AcDbEntity
  8
frees
100
AcDbVertex
100
AcDb2dVertex
 10
-5.925041456544533
 20
105.7847852156801
 30
0.0
  0
SEQEND
  5
10CE
330
10A9
100
AcDbEntity
  8
frees
  0
POLYLINE
  5
10CF
102
{ACAD_REACTORS
330
12A9
102
}
330
1F
100
AcDbEntity
  8
frees
100
AcDb2dPolyline
 66
     1
 10
0.0
 20
0.0
 30
0.0
 70
     1
  0
VERTEX
  5
10D0
330
10CF
100
AcDbEntity
  8
frees
100
AcDbVertex
100
AcDb2dVertex
 10
-5.572085235025497
 20
107.1051029332144
 30
0.0
  0
VERTEX
  5
10D1
330
10CF
100
AcDbEntity
  8
frees
100
AcDbVertex
100
AcDb2dVertex
 10
-6.055765983033097
 20
106.9220885961304
 30
0.0
  0
VERTEX
  5
10D2
330
10CF
100
AcDbEntity
  8
frees
100
AcDbVertex
100
AcDb2dVertex
 10
-6.604808994284951
 20
106.3730455848786
 30
0.0
  0
VERTEX
  5
10D3
330
10CF
100
AcDbEntity
  8
frees
100
AcDbVertex
100
AcDb2dVertex
 10
-5.925041456544533
 20
105.7847852156801
 30
0.0
  0
VERTEX
  5
10D4
330
10CF
100
AcDbEntity
  8
frees
100
AcDbVertex
100
AcDb2dVertex
 10
-5.885824098597993
 20
105.7586403103824
 30
0.0
  0
VERTEX
  5
10D5
330
10CF
100
AcDbEntity
  8
frees
100
AcDbVertex
100
AcDb2dVertex
 10
-5.951186361842246
 20
105.1573074885352
 30
0.0
  0
VERTEX
  5
10D6
330
10CF
100
AcDbEntity
  8
frees
100
AcDbVertex
100
AcDb2dVertex
 10
-6.121128246277351
 20
104.4121776875505
 30
0.0
  0
VERTEX
  5
10D7
330
10CF
100
AcDbEntity
  8
frees
100
AcDbVertex
100
AcDb2dVertex
 10
-6.408722204552134
 20
103.5232509074284
 30
0.0
  0
VERTEX
  5
10D8
330
10CF
100
AcDbEntity
  8
frees
100
AcDbVertex
100
AcDb2dVertex
 10
-6.526374278391813
 20
103.1572222332605
 30
0.0
  0
VERTEX
  5
10D9
330
10CF
100
AcDbEntity
  8
frees
100
AcDbVertex
100
AcDb2dVertex
 10
-6.813968236666596
 20
102.4120924322758
 30
0.0
  0
VERTEX
  5
10DA
330
10CF
100
AcDbEntity
  8
frees
100
AcDbVertex
100
AcDb2dVertex
 10
-7.023127479048298
 20
101.8369045157263
 30
0.0
  0
VERTEX
  5
10DB
330
10CF
100
AcDbEntity
  8
frees
100
AcDbVertex
100
AcDb2dVertex
 10
-7.310721437323081
 20
101.1048471673904
 30
0.0
  0
VERTEX
  5
10DC
330
10CF
100
AcDbEntity
  8
frees
100
AcDbVertex
100
AcDb2dVertex
 10
-7.611387848246693
 20
100.4904418928943
 30
0.0
  0
VERTEX
  5
10DD
330
10CF
100
AcDbEntity
  8
frees
100
AcDbVertex
100
AcDb2dVertex
 10
-7.820547090628338
 20
98.8302404064899
 30
0.0
  0
VERTEX
  5
10DE
330
10CF
100
AcDbEntity
  8
frees
100
AcDbVertex
100
AcDb2dVertex
 10
-7.310721437323081
 20
99.44464568098602
 30
0.0
  0
VERTEX
  5
10DF
330
10CF
100
AcDbEntity
  8
frees
100
AcDbVertex
100
AcDb2dVertex
 10
-6.853185594613137
 20
100.0982683134287
 30
0.0
  0
VERTEX
  5
10E0
330
10CF
100
AcDbEntity
  8
frees
100
AcDbVertex
100
AcDb2dVertex
 10
-6.434867109849847
 20
100.7780358511691
 30
0.0
  0
VERTEX
  5
10E1
330
10CF
100
AcDbEntity
  8
frees
100
AcDbVertex
100
AcDb2dVertex
 10
-6.068838435681982
 20
101.4970207468561
 30
0.0
  0
VERTEX
  5
10E2
330
10CF
100
AcDbEntity
  8
frees
100
AcDbVertex
100
AcDb2dVertex
 10
-5.885824098597993
 20
101.863049421024
 30
0.0
  0
VERTEX
  5
10E3
330
10CF
100
AcDbEntity
  8
frees
100
AcDbVertex
100
AcDb2dVertex
 10
-5.559012782376612
 20
102.6866139379018
 30
0.0
  0
VERTEX
  5
10E4
330
10CF
100
AcDbEntity
  8
frees
100
AcDbVertex
100
AcDb2dVertex
 10
-5.297563729399598
 20
103.4840335494819
 30
0.0
  0
VERTEX
  5
10E5
330
10CF
100
AcDbEntity
  8
frees
100
AcDbVertex
100
AcDb2dVertex
 10
-5.114549392315609
 20
104.2553082557642
 30
0.0
  0
VERTEX
  5
10E6
330
10CF
100
AcDbEntity
  8
frees
100
AcDbVertex
100
AcDb2dVertex
 10
-5.023042223773586
 20
104.9873656041001
 30
0.0
  0
VERTEX
  5
10E7
330
10CF
100
AcDbEntity
  8
frees
100
AcDbVertex
100
AcDb2dVertex
 10
-4.99689731847593
 20
105.5756259732985
 30
0.0
  0
VERTEX
  5
10E8
330
10CF
100
AcDbEntity
  8
frees
100
AcDbVertex
100
AcDb2dVertex
 10
-5.088404487017896
 20
106.5691323746114
 30
0.0
  0
VERTEX
  5
10E9
330
10CF
100
AcDbEntity
  8
frees
100
AcDbVertex
100
AcDb2dVertex
 10
-5.389070897941564
 20
107.052813122619
 30
0.0
  0
SEQEND
  5
10EA
330
10CF
100
AcDbEntity
  8
frees
  0
POLYLINE
  5
10EB
102
{ACAD_REACTORS
330
12A9
102
}
330
1F
100
AcDbEntity
  8
frees
100
AcDb2dPolyline
 66
     1
 10
0.0
 20
0.0
 30
0.0
 70
     1
  0
VERTEX
  5
10EC
330
10EB
100
AcDbEntity
  8
frees
100
AcDbVertex
100
AcDb2dVertex
 10
-3.598144885048554
 20
98.67337097470366
 30
0.0
  0
VERTEX
  5
10ED
330
10EB
100
AcDbEntity
  8
frees
100
AcDbVertex
100
AcDb2dVertex
 10
-4.99689731847593
 20
98.60800871145938
 30
0.0
  0
VERTEX
  5
10EE
330
10EB
100
AcDbEntity
  8
frees
100
AcDbVertex
100
AcDb2dVertex
 10
-5.179911655559862
 20
98.12432796345177
 30
0.0
  0
VERTEX
  5
10EF
330
10EB
100
AcDbEntity
  8
frees
100
AcDbVertex
100
AcDb2dVertex
 10
-5.336781087346139
 20
97.62757476279535
 30
0.0
  0
VERTEX
  5
10F0
330
10EB
100
AcDbEntity
  8
frees
100
AcDbVertex
100
AcDb2dVertex
 10
-5.389070897941564
 20
97.209256278032
 30
0.0
  0
VERTEX
  5
10F1
330
10EB
100
AcDbEntity
  8
frees
100
AcDbVertex
100
AcDb2dVertex
 10
-5.206056560857575
 20
96.83015515121525
 30
0.0
  0
VERTEX
  5
10F2
330
10EB
100
AcDbEntity
  8
frees
100
AcDbVertex
100
AcDb2dVertex
 10
-4.735448265498803
 20
96.68635817207785
 30
0.0
  0
VERTEX
  5
10F3
330
10EB
100
AcDbEntity
  8
frees
100
AcDbVertex
100
AcDb2dVertex
 10
-4.042608275109614
 20
96.8170826985664
 30
0.0
  0
VERTEX
  5
10F4
330
10EB
100
AcDbEntity
  8
frees
100
AcDbVertex
100
AcDb2dVertex
 10
-3.441275453262278
 20
97.06545929889461
 30
0.0
  0
VERTEX
  5
10F5
330
10EB
100
AcDbEntity
  8
frees
100
AcDbVertex
100
AcDb2dVertex
 10
-2.813797726117286
 20
97.40534306776481
 30
0.0
  0
VERTEX
  5
10F6
330
10EB
100
AcDbEntity
  8
frees
100
AcDbVertex
100
AcDb2dVertex
 10
-2.120957735728097
 20
97.86287891047471
 30
0.0
  0
VERTEX
  5
10F7
330
10EB
100
AcDbEntity
  8
frees
100
AcDbVertex
100
AcDb2dVertex
 10
-3.715796958888233
 20
98.12432796345177
 30
0.0
  0
VERTEX
  5
10F8
330
10EB
100
AcDbEntity
  8
frees
100
AcDbVertex
100
AcDb2dVertex
 10
-3.768086769483659
 20
98.28119739523803
 30
0.0
  0
SEQEND
  5
10F9
330
10EB
100
AcDbEntity
  8
frees
  0
POLYLINE
  5
10FA
102
{ACAD_REACTORS
330
12A9
102
}
330
1F
100
AcDbEntity
  8
frees
100
AcDb2dPolyline
 66
     1
 10
0.0
 20
0.0
 30
0.0
 70
     1
  0
VERTEX
  5
10FB
330
10FA
100
AcDbEntity
  8
frees
100
AcDbVertex
100
AcDb2dVertex
 10
-1.676494345667038
 20
99.44464568098602
 30
0.0
  0
VERTEX
  5
10FC
330
10FA
100
AcDbEntity
  8
frees
100
AcDbVertex
100
AcDb2dVertex
 10
-2.330116978109685
 20
98.92174757503187
 30
0.0
  0
VERTEX
  5
10FD
330
10FA
100
AcDbEntity
  8
frees
100
AcDbVertex
100
AcDb2dVertex
 10
-2.94452225260585
 20
98.51650154291741
 30
0.0
  0
VERTEX
  5
10FE
330
10FA
100
AcDbEntity
  8
frees
100
AcDbVertex
100
AcDb2dVertex
 10
-3.689652053590521
 20
98.12432796345177
 30
0.0
  0
VERTEX
  5
10FF
330
10FA
100
AcDbEntity
  8
frees
100
AcDbVertex
100
AcDb2dVertex
 10
-3.715796958888233
 20
98.12432796345177
 30
0.0
  0
VERTEX
  5
1100
330
10FA
100
AcDbEntity
  8
frees
100
AcDbVertex
100
AcDb2dVertex
 10
-2.120957735728097
 20
97.86287891047471
 30
0.0
  0
VERTEX
  5
1101
330
10FA
100
AcDbEntity
  8
frees
100
AcDbVertex
100
AcDb2dVertex
 10
-1.676494345667038
 20
98.18969022669605
 30
0.0
  0
SEQEND
  5
1102
330
10FA
100
AcDbEntity
  8
frees
  0
POLYLINE
  5
1103
102
{ACAD_REACTORS
330
12A9
102
}
330
1F
100
AcDbEntity
  8
frees
100
AcDb2dPolyline
 66
     1
 10
0.0
 20
0.0
 30
0.0
 70
     1
  0
VERTEX
  5
1104
330
1103
100
AcDbEntity
  8
frees
100
AcDbVertex
100
AcDb2dVertex
 10
-2.173247546323466
 20
101.8107596104286
 30
0.0
  0
VERTEX
  5
1105
330
1103
100
AcDbEntity
  8
frees
100
AcDbVertex
100
AcDb2dVertex
 10
-3.467420358560048
 20
101.8107596104286
 30
0.0
  0
VERTEX
  5
1106
330
1103
100
AcDbEntity
  8
frees
100
AcDbVertex
100
AcDb2dVertex
 10
-3.833449032727912
 20
100.9871950935508
 30
0.0
  0
VERTEX
  5
1107
330
1103
100
AcDbEntity
  8
frees
100
AcDbVertex
100
AcDb2dVertex
 10
-4.395564496628651
 20
100.4250796296501
 30
0.0
  0
VERTEX
  5
1108
330
1103
100
AcDbEntity
  8
frees
100
AcDbVertex
100
AcDb2dVertex
 10
-4.408636949277479
 20
100.4250796296501
 30
0.0
  0
VERTEX
  5
1109
330
1103
100
AcDbEntity
  8
frees
100
AcDbVertex
100
AcDb2dVertex
 10
-4.944607507880505
 20
99.94139888164248
 30
0.0
  0
VERTEX
  5
110A
330
1103
100
AcDbEntity
  8
frees
100
AcDbVertex
100
AcDb2dVertex
 10
-5.598230140323209
 20
99.37928341774176
 30
0.0
  0
VERTEX
  5
110B
330
1103
100
AcDbEntity
  8
frees
100
AcDbVertex
100
AcDb2dVertex
 10
-5.768172024758314
 20
99.23548643860437
 30
0.0
  0
VERTEX
  5
110C
330
1103
100
AcDbEntity
  8
frees
100
AcDbVertex
100
AcDb2dVertex
 10
-5.768172024758314
 20
98.03282079490982
 30
0.0
  0
VERTEX
  5
110D
330
1103
100
AcDbEntity
  8
frees
100
AcDbVertex
100
AcDb2dVertex
 10
-5.140694297613322
 20
98.4903566376197
 30
0.0
  0
VERTEX
  5
110E
330
1103
100
AcDbEntity
  8
frees
100
AcDbVertex
100
AcDb2dVertex
 10
-4.99689731847593
 20
98.60800871145938
 30
0.0
  0
VERTEX
  5
110F
330
1103
100
AcDbEntity
  8
frees
100
AcDbVertex
100
AcDb2dVertex
 10
-3.598144885048554
 20
98.67337097470366
 30
0.0
  0
SEQEND
  5
1110
330
1103
100
AcDbEntity
  8
frees
  0
POLYLINE
  5
1111
102
{ACAD_REACTORS
330
12A9
102
}
330
1F
100
AcDbEntity
  8
frees
100
AcDb2dPolyline
 66
     1
 10
0.0
 20
0.0
 30
0.0
 70
     1
  0
VERTEX
  5
1112
330
1111
100
AcDbEntity
  8
frees
100
AcDbVertex
100
AcDb2dVertex
 10
-2.094812830430328
 20
104.2945256137108
 30
0.0
  0
VERTEX
  5
1113
330
1111
100
AcDbEntity
  8
frees
100
AcDbVertex
100
AcDb2dVertex
 10
-2.735363010224205
 20
104.0200041080849
 30
0.0
  0
VERTEX
  5
1114
330
1111
100
AcDbEntity
  8
frees
100
AcDbVertex
100
AcDb2dVertex
 10
-2.996812063201275
 20
103.3010192123979
 30
0.0
  0
VERTEX
  5
1115
330
1111
100
AcDbEntity
  8
frees
100
AcDbVertex
100
AcDb2dVertex
 10
-2.696145652277664
 20
102.7258312958483
 30
0.0
  0
VERTEX
  5
1116
330
1111
100
AcDbEntity
  8
frees
100
AcDbVertex
100
AcDb2dVertex
 10
-2.317044525460858
 20
102.6473965799552
 30
0.0
  0
VERTEX
  5
1117
330
1111
100
AcDbEntity
  8
frees
100
AcDbVertex
100
AcDb2dVertex
 10
-1.689566798315922
 20
102.93499053823
 30
0.0
  0
VERTEX
  5
1118
330
1111
100
AcDbEntity
  8
frees
100
AcDbVertex
100
AcDb2dVertex
 10
-1.44119019798768
 20
103.6409029812681
 30
0.0
  0
VERTEX
  5
1119
330
1111
100
AcDbEntity
  8
frees
100
AcDbVertex
100
AcDb2dVertex
 10
-1.611132082422727
 20
104.1115112766268
 30
0.0
  0
SEQEND
  5
111A
330
1111
100
AcDbEntity
  8
frees
  0
POLYLINE
  5
111B
102
{ACAD_REACTORS
330
12A9
102
}
330
1F
100
AcDbEntity
  8
frees
 62
   139
370
     0
100
AcDb2dPolyline
 66
     1
 10
0.0
 20
0.0
 30
0.0
 70
     1
  0
VERTEX
  5
111C
330
111B
100
AcDbEntity
  8
frees
 62
   139
370
     0
100
AcDbVertex
100
AcDb2dVertex
 10
3.173385587057737
 20
98.03282079490982
 30
0.0
  0
VERTEX
  5
111D
330
111B
100
AcDbEntity
  8
frees
 62
   139
370
     0
100
AcDbVertex
100
AcDb2dVertex
 10
2.153734280447167
 20
97.98053098431438
 30
0.0
  0
VERTEX
  5
111E
330
111B
100
AcDbEntity
  8
frees
 62
   139
370
     0
100
AcDbVertex
100
AcDb2dVertex
 10
2.493618049317319
 20
97.928241173719
 30
0.0
  0
VERTEX
  5
111F
330
111B
100
AcDbEntity
  8
frees
 62
   139
370
     0
100
AcDbVertex
100
AcDb2dVertex
 10
2.637415028454768
 20
97.91516872107013
 30
0.0
  0
SEQEND
  5
1120
330
111B
100
AcDbEntity
  8
frees
 62
   139
370
     0
  0
LWPOLYLINE
  5
1121
102
{ACAD_REACTORS
330
12A9
102
}
330
1F
100
AcDbEntity
  8
frees
100
AcDbPolyline
 90
       17
 70
     1
 43
0.0
 10
3.709356145660763
 20
99.6538049233677
 10
3.696283693011878
 20
99.64073247071883
 10
2.938081439378379
 20
99.13090681741355
 10
2.8204293655387
 20
99.09168945946698
 10
1.186372784431966
 20
98.51650154291741
 10
0.7026920364243665
 20
98.07203815285639
 10
0.1405765725236279
 20
97.90209626842127
 10
-1.833363777453314
 20
97.81058909987928
 10
-1.454262650636508
 20
97.19618382538314
 10
-0.839857376140344
 20
96.8170826985664
 10
-0.0293653119114197
 20
96.68635817207785
 10
0.754981847019792
 20
96.80401024591754
 10
1.25173504767622
 20
97.02624194094807
 10
1.853067869523556
 20
97.53606759425336
 10
2.153734280447167
 20
97.98053098431438
 10
3.173385587057737
 20
98.03282079490982
 10
3.709356145660763
 20
98.41192192172655
  0
POLYLINE
  5
1122
102
{ACAD_REACTORS
330
12A9
102
}
330
1F
100
AcDbEntity
  8
frees
100
AcDb2dPolyline
 66
     1
 10
0.0
 20
0.0
 30
0.0
 70
     1
  0
VERTEX
  5
1123
330
1122
100
AcDbEntity
  8
frees
100
AcDbVertex
100
AcDb2dVertex
 10
1.722343343034992
 20
100.3205000084592
 30
0.0
  0
VERTEX
  5
1124
330
1122
100
AcDbEntity
  8
frees
100
AcDbVertex
100
AcDb2dVertex
 10
1.421676932111381
 20
100.2289928399172
 30
0.0
  0
VERTEX
  5
1125
330
1122
100
AcDbEntity
  8
frees
100
AcDbVertex
100
AcDb2dVertex
 10
1.160227879134254
 20
99.96754378694019
 30
0.0
  0
VERTEX
  5
1126
330
1122
100
AcDbEntity
  8
frees
100
AcDbVertex
100
AcDb2dVertex
 10
0.9772135420503218
 20
99.60151511277226
 30
0.0
  0
VERTEX
  5
1127
330
1122
100
AcDbEntity
  8
frees
100
AcDbVertex
100
AcDb2dVertex
 10
0.9118512788060115
 20
99.18319662800895
 30
0.0
  0
VERTEX
  5
1128
330
1122
100
AcDbEntity
  8
frees
100
AcDbVertex
100
AcDb2dVertex
 10
1.186372784431966
 20
98.51650154291741
 30
0.0
  0
VERTEX
  5
1129
330
1122
100
AcDbEntity
  8
frees
100
AcDbVertex
100
AcDb2dVertex
 10
2.8204293655387
 20
99.09168945946698
 30
0.0
  0
VERTEX
  5
112A
330
1122
100
AcDbEntity
  8
frees
100
AcDbVertex
100
AcDb2dVertex
 10
2.637415028454768
 20
99.10476191211584
 30
0.0
  0
VERTEX
  5
112B
330
1122
100
AcDbEntity
  8
frees
100
AcDbVertex
100
AcDb2dVertex
 10
2.755067102294447
 20
99.56229775482572
 30
0.0
  0
VERTEX
  5
112C
330
1122
100
AcDbEntity
  8
frees
100
AcDbVertex
100
AcDb2dVertex
 10
2.715849744347906
 20
99.83681926045164
 30
0.0
  0
VERTEX
  5
112D
330
1122
100
AcDbEntity
  8
frees
100
AcDbVertex
100
AcDb2dVertex
 10
2.545907859912745
 20
100.0198335975356
 30
0.0
  0
VERTEX
  5
112E
330
1122
100
AcDbEntity
  8
frees
100
AcDbVertex
100
AcDb2dVertex
 10
1.853067869523556
 20
100.3074275558104
 30
0.0
  0
VERTEX
  5
112F
330
1122
100
AcDbEntity
  8
frees
100
AcDbVertex
100
AcDb2dVertex
 10
1.826922964225786
 20
100.3074275558104
 30
0.0
  0
SEQEND
  5
1130
330
1122
100
AcDbEntity
  8
frees
  0
POLYLINE
  5
1131
102
{ACAD_REACTORS
330
12A9
102
}
330
1F
100
AcDbEntity
  8
frees
100
AcDb2dPolyline
 66
     1
 10
0.0
 20
0.0
 30
0.0
 70
     1
  0
VERTEX
  5
1132
330
1131
100
AcDbEntity
  8
frees
100
AcDbVertex
100
AcDb2dVertex
 10
-1.009799260575505
 20
101.2094267885813
 30
0.0
  0
VERTEX
  5
1133
330
1131
100
AcDbEntity
  8
frees
100
AcDbVertex
100
AcDb2dVertex
 10
-1.48040755593422
 20
100.5688766087874
 30
0.0
  0
VERTEX
  5
1134
330
1131
100
AcDbEntity
  8
frees
100
AcDbVertex
100
AcDb2dVertex
 10
-1.781073966857888
 20
99.86296416574937
 30
0.0
  0
VERTEX
  5
1135
330
1131
100
AcDbEntity
  8
frees
100
AcDbVertex
100
AcDb2dVertex
 10
-1.951015851292936
 20
99.10476191211584
 30
0.0
  0
VERTEX
  5
1136
330
1131
100
AcDbEntity
  8
frees
100
AcDbVertex
100
AcDb2dVertex
 10
-1.964088303941821
 20
98.62108116410823
 30
0.0
  0
VERTEX
  5
1137
330
1131
100
AcDbEntity
  8
frees
100
AcDbVertex
100
AcDb2dVertex
 10
-1.833363777453314
 20
97.81058909987928
 30
0.0
  0
VERTEX
  5
1138
330
1131
100
AcDbEntity
  8
frees
100
AcDbVertex
100
AcDb2dVertex
 10
0.1405765725236279
 20
97.90209626842127
 30
0.0
  0
VERTEX
  5
1139
330
1131
100
AcDbEntity
  8
frees
100
AcDbVertex
100
AcDb2dVertex
 10
-0.421538891377054
 20
98.1504728687495
 30
0.0
  0
VERTEX
  5
113A
330
1131
100
AcDbEntity
  8
frees
100
AcDbVertex
100
AcDb2dVertex
 10
-0.6176256811098711
 20
98.86945776443646
 30
0.0
  0
VERTEX
  5
113B
330
1131
100
AcDbEntity
  8
frees
100
AcDbVertex
100
AcDb2dVertex
 10
-0.4999736072701922
 20
99.64073247071883
 30
0.0
  0
VERTEX
  5
113C
330
1131
100
AcDbEntity
  8
frees
100
AcDbVertex
100
AcDb2dVertex
 10
-0.1470173857511554
 20
100.3466449137569
 30
0.0
  0
VERTEX
  5
113D
330
1131
100
AcDbEntity
  8
frees
100
AcDbVertex
100
AcDb2dVertex
 10
-0.0816551225068452
 20
100.4381520822989
 30
0.0
  0
VERTEX
  5
113E
330
1131
100
AcDbEntity
  8
frees
100
AcDbVertex
100
AcDb2dVertex
 10
0.5196776993404342
 20
101.0264124514973
 30
0.0
  0
VERTEX
  5
113F
330
1131
100
AcDbEntity
  8
frees
100
AcDbVertex
100
AcDb2dVertex
 10
1.042575805294575
 20
101.1832818832836
 30
0.0
  0
SEQEND
  5
1140
330
1131
100
AcDbEntity
  8
frees
  0
POLYLINE
  5
1141
102
{ACAD_REACTORS
330
12A9
102
}
330
1F
100
AcDbEntity
  8
frees
100
AcDb2dPolyline
 66
     1
 10
0.0
 20
0.0
 30
0.0
 70
     1
  0
VERTEX
  5
1142
330
1141
100
AcDbEntity
  8
frees
100
AcDbVertex
100
AcDb2dVertex
 10
1.225590142378564
 20
102.3205852637339
 30
0.0
  0
VERTEX
  5
1143
330
1141
100
AcDbEntity
  8
frees
100
AcDbVertex
100
AcDb2dVertex
 10
0.4804603413938367
 20
102.216005642543
 30
0.0
  0
VERTEX
  5
1144
330
1141
100
AcDbEntity
  8
frees
100
AcDbVertex
100
AcDb2dVertex
 10
-0.1993071963465809
 20
101.9153392316194
 30
0.0
  0
VERTEX
  5
1145
330
1141
100
AcDbEntity
  8
frees
100
AcDbVertex
100
AcDb2dVertex
 10
-0.8267849234915161
 20
101.4055135783141
 30
0.0
  0
VERTEX
  5
1146
330
1141
100
AcDbEntity
  8
frees
100
AcDbVertex
100
AcDb2dVertex
 10
-1.009799260575505
 20
101.2094267885813
 30
0.0
  0
VERTEX
  5
1147
330
1141
100
AcDbEntity
  8
frees
100
AcDbVertex
100
AcDb2dVertex
 10
1.042575805294575
 20
101.1832818832836
 30
0.0
  0
VERTEX
  5
1148
330
1141
100
AcDbEntity
  8
frees
100
AcDbVertex
100
AcDb2dVertex
 10
1.526256553302175
 20
101.0394849041462
 30
0.0
  0
VERTEX
  5
1149
330
1141
100
AcDbEntity
  8
frees
100
AcDbVertex
100
AcDb2dVertex
 10
1.826922964225786
 20
100.699601135276
 30
0.0
  0
VERTEX
  5
114A
330
1141
100
AcDbEntity
  8
frees
100
AcDbVertex
100
AcDb2dVertex
 10
2.166806733095995
 20
100.4642969875966
 30
0.0
  0
VERTEX
  5
114B
330
1141
100
AcDbEntity
  8
frees
100
AcDbVertex
100
AcDb2dVertex
 10
2.62434257580594
 20
100.3597173664058
 30
0.0
  0
VERTEX
  5
114C
330
1141
100
AcDbEntity
  8
frees
100
AcDbVertex
100
AcDb2dVertex
 10
2.755067102294447
 20
100.3858622717035
 30
0.0
  0
VERTEX
  5
114D
330
1141
100
AcDbEntity
  8
frees
100
AcDbVertex
100
AcDb2dVertex
 10
2.938081439378379
 20
100.5427317034897
 30
0.0
  0
VERTEX
  5
114E
330
1141
100
AcDbEntity
  8
frees
100
AcDbVertex
100
AcDb2dVertex
 10
2.990371249973804
 20
100.8041807564668
 30
0.0
  0
VERTEX
  5
114F
330
1141
100
AcDbEntity
  8
frees
100
AcDbVertex
100
AcDb2dVertex
 10
2.859646723485298
 20
101.4055135783141
 30
0.0
  0
VERTEX
  5
1150
330
1141
100
AcDbEntity
  8
frees
100
AcDbVertex
100
AcDb2dVertex
 10
2.493618049317319
 20
101.8891943263217
 30
0.0
  0
VERTEX
  5
1151
330
1141
100
AcDbEntity
  8
frees
100
AcDbVertex
100
AcDb2dVertex
 10
1.931502585416637
 20
102.2029331898942
 30
0.0
  0
SEQEND
  5
1152
330
1141
100
AcDbEntity
  8
frees
  0
LWPOLYLINE
  5
11CF
330
1F
100
AcDbEntity
  8
frees
100
AcDbPolyline
 90
        4
 70
     1
 43
0.0
 10
-181.2013645783563
 20
177.6353883358305
 10
118.7986354216436
 20
177.6353883358305
 10
118.7986354216436
 20
407.6353883358304
 10
-181.2013645783563
 20
407.6353883358304
  0
LWPOLYLINE
  5
11D0
330
1F
100
AcDbEntity
  8
frees
100
AcDbPolyline
 90
        9
 70
     0
 43
0.0
 10
-149.3608553290836
 20
332.8951763743211
 10
-155.5195402173402
 20
267.6353883358305
 10
-166.5639717103301
 20
267.6353883358305
 10
-160.4633878601466
 20
332.2795154827062
 42
-0.3847934739222928
 10
-99.93970401828839
 20
389.2535467712407
 10
99.72416603927706
 20
398.330233543704
 10
99.72416603927706
 20
387.3199058933117
 10
-99.61536470320874
 20
378.2579635328951
 42
0.3768629152569373
 10
-149.3550704717939
 20
332.8945340879599
  0
LINE
  5
11D1
330
1F
100
AcDbEntity
  8
frees
100
AcDbLine
 10
-157.1531851432713
 20
267.6353883358305
 30
0.0
 11
-157.9513529013078
 21
259.1776965308902
 31
0.0
  0
LINE
  5
11D2
330
1F
100
AcDbEntity
  8
frees
100
AcDbLine
 10
-157.9513529013078
 20
259.1776965308902
 30
0.0
 11
-165.2792040858235
 21
259.1776965308902
 31
0.0
  0
LINE
  5
11D3
330
1F
100
AcDbEntity
  8
frees
100
AcDbLine
 10
-165.2792040858235
 20
259.1776965308902
 30
0.0
 11
-165.0073917402946
 21
267.6353883358305
 31
0.0
  0
TEXT
  5
11D9
330
1F
100
AcDbEntity
  8
0
100
AcDbText
 10
-98.77378628567635
 20
87.77878333133413
 30
0.0
 40
4.0
  1
Brightness
 72
     1
 11
-87.33298742690317
 21
87.77878333133413
 31
0.0
100
AcDbText
  0
TEXT
  5
11DA
330
1F
100
AcDbEntity
  8
0
100
AcDbText
 10
16.20477523922898
 20
87.77878333133413
 30
0.0
 40
4.0
  1
Settings
 72
     1
 11
25.20049563865837
 21
87.77878333133413
 31
0.0
100
AcDbText
  0
TEXT
  5
15B9
330
1F
100
AcDbEntity
  8
0
100
AcDbText
 10
-172.2263814017174
 20
392.2815438365532
 30
0.0
 40
5.0
  1
Edison Radio
100
AcDbText
  0
MTEXT
  5
1641
330
1F
100
AcDbEntity
  8
hulp
100
AcDbMText
 10
299.3733022288943
 20
343.9081296399127
 30
0.0
 40
10.0
 41
89.00925635208841
 46
0.0
 71
     1
 72
     5
  1
Top
  7
special
 73
     1
 44
1.0
1001
ACAD
1000
ACAD_MTEXT_COLUMN_INFO_BEGIN
1070
    75
1070
     2
1070
    79
1070
     0
1070
    76
1070
     1
1070
    78
1070
     0
1070
    48
1040
89.00925635208841
1070
    49
1040
50.0
1070
    50
1070
     1
1040
0.0
1000
ACAD_MTEXT_COLUMN_INFO_END
  0
MTEXT
  5
1642
330
1F
100
AcDbEntity
  8
hulp
100
AcDbMText
 10
-84.94126039975578
 20
329.8653146202966
 30
0.0
 40
10.0
 41
89.00925635208841
 46
0.0
 71
     1
 72
     5
  1
Back
  7
special
 73
     1
 44
1.0
1001
ACAD
1000
ACAD_MTEXT_COLUMN_INFO_BEGIN
1070
    75
1070
     2
1070
    79
1070
     0
1070
    76
1070
     1
1070
    78
1070
     0
1070
    48
1040
89.00925635208841
1070
    49
1040
50.0
1070
    50
1070
     1
1040
0.0
1000
ACAD_MTEXT_COLUMN_INFO_END
  0
MTEXT
  5
1643
330
1F
100
AcDbEntity
  8
hulp
100
AcDbMText
 10
280.5264674775827
 20
239.7117982130621
 30
0.0
 40
10.0
 41
89.00925635208841
 46
0.0
 71
     1
 72
     5
  1
Bottom
  7
special
 73
     1
 44
1.0
1001
ACAD
1000
ACAD_MTEXT_COLUMN_INFO_BEGIN
1070
    75
1070
     2
1070
    79
1070
     0
1070
    76
1070
     1
1070
    78
1070
     0
1070
    48
1040
89.00925635208841
1070
    49
1040
50.0
1070
    50
1070
     1
1040
0.0
1000
ACAD_MTEXT_COLUMN_INFO_END
  0
MTEXT
  5
1644
330
1F
100
AcDbEntity
  8
hulp
100
AcDbMText
 10
218.1976927383921
 20
134.2709165242634
 30
0.0
 40
10.0
 41
89.00925635208841
 46
0.0
 71
     1
 72
     5
  1
Side
  7
special
 73
     1
 44
1.0
1001
ACAD
1000
ACAD_MTEXT_COLUMN_INFO_BEGIN
1070
    75
1070
     2
1070
    79
1070
     0
1070
    76
1070
     1
1070
    78
1070
     0
1070
    48
1040
89.00925635208841
1070
    49
1040
50.0
1070
    50
1070
     1
1040
0.0
1000
ACAD_MTEXT_COLUMN_INFO_END
  0
MTEXT
  5
1645
330
1F
100
AcDbEntity
  8
hulp
100
AcDbMText
 10
310.1627947399365
 20
132.9746048012458
 30
0.0
 40
10.0
 41
89.00925635208841
 46
0.0
 71
     1
 72
     5
  1
side
  7
special
 73
     1
 44
1.0
1001
ACAD
1000
ACAD_MTEXT_COLUMN_INFO_BEGIN
1070
    75
1070
     2
1070
    79
1070
     0
1070
    76
1070
     1
1070
    78
1070
     0
1070
    48
1040
89.00925635208841
1070
    49
1040
50.0
1070
    50
1070
     1
1040
0.0
1000
ACAD_MTEXT_COLUMN_INFO_END
  0
LWPOLYLINE
  5
16D7
102
{ACAD_REACTORS
330
16F8
330
1710
102
}
330
1F
100
AcDbEntity
  8
material
100
AcDbPolyline
 90
        4
 70
     1
 43
0.0
 10
-191.1790853579043
 20
74.08903528322219
 10
128.8209146420956
 20
74.08903528322219
 10
128.8209146420956
 20
416.0030294624812
 10
-191.1790853579043
 20
416.0030294624812
  0
LWPOLYLINE
  5
16E0
102
{ACAD_REACTORS
330
1728
330
1740
102
}
330
1F
100
AcDbEntity
  8
material
100
AcDbPolyline
 90
        4
 70
     1
 43
0.0
 10
158.536461413445
 20
71.84796382548046
 10
469.1652245062035
 20
71.84796382548046
 10
469.1652245062037
 20
395.2573994774212
 10
158.5364614134453
 20
395.2573994774212
  0
DIMENSION
  5
16E1
102
{ACAD_XDICTIONARY
360
16EE
102
}
102
{ACAD_REACTORS
330
16F8
102
}
330
1F
100
AcDbEntity
  8
hulp
100
AcDbDimension
280
     0
  2
*D7
 10
128.8209146420956
 20
436.6214641783226
 30
0.0
 11
-31.17908535790437
 21
442.3035255192641
 31
0.0
 70
    32
 71
     5
 42
320.0
 73
     0
 74
     0
 75
     0
  3
ISO-25
100
AcDbAlignedDimension
 13
-191.1790853579043
 23
416.0030294624812
 33
0.0
 14
128.8209146420956
 24
416.0030294624812
 34
0.0
100
AcDbRotatedDimension
1001
ACAD
1000
DSTYLE
1002
{
1070
    41
1040
5.0
1070
   140
1040
10.0
1002
}
  0
DIMENSION
  5
16F9
102
{ACAD_XDICTIONARY
360
1706
102
}
102
{ACAD_REACTORS
330
1710
102
}
330
1F
100
AcDbEntity
  8
hulp
100
AcDbDimension
280
     0
  2
*D8
 10
-220.4829528323759
 20
74.08903528322221
 30
0.0
 11
-227.0922609636168
 21
245.0460323728518
 31
0.0
 70
    32
 71
     5
 42
341.9139941792591
 73
     0
 74
     0
 75
     0
  3
ISO-25
100
AcDbAlignedDimension
 13
-191.1790853579043
 23
416.0030294624812
 33
0.0
 14
-191.1790853579043
 24
74.08903528322219
 34
0.0
 50
90.0
100
AcDbRotatedDimension
1001
ACAD
1000
DSTYLE
1002
{
1070
    41
1040
5.0
1070
   140
1040
10.0
1002
}
  0
DIMENSION
  5
1711
102
{ACAD_XDICTIONARY
360
171E
102
}
102
{ACAD_REACTORS
330
1728
102
}
330
1F
100
AcDbEntity
  8
hulp
100
AcDbDimension
280
     0
  2
*D9
 10
469.1652245062037
 20
416.5239349075156
 30
0.0
 11
313.8508429598246
 21
423.1332430387568
 31
0.0
 70
    32
 71
     5
 42
310.6287630927585
 73
     0
 74
     0
 75
     0
  3
ISO-25
100
AcDbAlignedDimension
 13
158.5364614134453
 23
395.2573994774212
 33
0.0
 14
469.1652245062037
 24
395.2573994774212
 34
0.0
100
AcDbRotatedDimension
1001
ACAD
1000
DSTYLE
1002
{
1070
   140
1040
10.0
1070
    41
1040
5.0
1002
}
  0
DIMENSION
  5
1729
102
{ACAD_XDICTIONARY
360
1736
102
}
102
{ACAD_REACTORS
330
1740
102
}
330
1F
100
AcDbEntity
  8
hulp
100
AcDbDimension
280
     0
  2
*D10
 10
486.7749985321145
 20
71.8479638254805
 30
0.0
 11
480.1656904008733
 21
233.5526816514507
 31
0.0
 70
    32
 71
     5
 42
323.4094356519407
 73
     0
 74
     0
 75
     0
  3
ISO-25
100
AcDbAlignedDimension
 13
469.1652245062037
 23
395.2573994774212
 33
0.0
 14
469.1652245062035
 24
71.84796382548046
 34
0.0
 50
90.0
100
AcDbRotatedDimension
1001
ACAD
1000
DSTYLE
1002
{
1070
    41
1040
5.0
1070
   140
1040
10.0
1002
}
  0
LINE
  5
1820
330
1F
100
AcDbEntity
  8
hulp
100
AcDbLine
 10
163.3095273970393
 20
334.3883364568683
 30
0.0
 11
463.3095273970393
 21
334.3883364568683
 31
0.0
  0
CIRCLE
  5
1821
330
1F
100
AcDbEntity
  8
hulp
100
AcDbCircle
 10
383.3095273970394
 20
334.3883364568683
 30
0.0
 40
32.5
  0
LWPOLYLINE
  5
1822
330
1F
100
AcDbEntity
  8
hulp
100
AcDbPolyline
 90
        3
 70
     0
 43
0.0
 10
-181.2013645783563
 20
177.6353883358305
 10
-181.2013645783563
 20
267.6353883358305
 10
106.5489211497424
 20
267.6353883358305
  0
LWPOLYLINE
  5
1823
330
1F
100
AcDbEntity
  8
hulp
100
AcDbPolyline
 90
        3
 70
     0
 43
0.0
 10
-181.2013645783563
 20
267.6353883358305
 10
-181.2013645783563
 20
369.6353883358305
 10
142.5046046246784
 20
369.6353883358305
  0
LWPOLYLINE
  5
1826
330
1F
100
AcDbEntity
  8
hulp
100
AcDbPolyline
 90
        3
 70
     0
 43
0.0
 10
38.79863542164367
 20
177.6353883358305
 10
38.79863542164367
 20
369.6353883358305
 10
-99.34837997683894
 20
369.6353883358305
  0
LINE
  5
182B
330
1F
100
AcDbEntity
  8
hulp
100
AcDbLine
 10
20.79863542164367
 20
267.6353883358305
 30
0.0
 11
8.798635421643666
 21
339.6353883358305
 31
0.0
  0
LINE
  5
182C
330
1F
100
AcDbEntity
  8
hulp
100
AcDbLine
 10
20.79863542164367
 20
267.6353883358305
 30
0.0
 11
56.79863542164366
 21
267.6353883358305
 31
0.0
  0
LINE
  5
182D
330
1F
100
AcDbEntity
  8
hulp
100
AcDbLine
 10
56.79863542164366
 20
267.6353883358305
 30
0.0
 11
68.79863542164367
 21
339.6353883358305
 31
0.0
  0
ARC
  5
182E
330
1F
100
AcDbEntity
  8
hulp
100
AcDbCircle
 10
38.79863542164367
 20
339.6353883358305
 30
0.0
 40
30.0
100
AcDbArc
 50
0.0000000000000254
 51
180.0
  0
LINE
  5
182F
330
1F
100
AcDbEntity
  8
hulp
100
AcDbLine
 10
463.3095273970393
 20
289.3883364568682
 30
0.0
 11
163.3095273970393
 21
289.3883364568683
 31
0.0
  0
LINE
  5
1830
330
1F
100
AcDbEntity
  8
hulp
100
AcDbLine
 10
463.3095273970393
 20
294.3883364568682
 30
0.0
 11
163.3095273970393
 21
294.3883364568683
 31
0.0
  0
LWPOLYLINE
  5
1831
330
1F
100
AcDbEntity
  8
hulp
100
AcDbPolyline
 90
        4
 70
     1
 43
0.0
 10
278.3095273970393
 20
334.3883364568683
 10
348.3095273970393
 20
334.3883364568683
 10
348.3095273970393
 20
384.3883364568683
 10
278.3095273970393
 20
384.3883364568683
  0
LWPOLYLINE
  5
1832
330
1F
100
AcDbEntity
  8
hulp
100
AcDbPolyline
 90
        4
 70
     1
 43
0.0
 10
258.3095273970394
 20
384.3883364568683
 10
358.3095273970394
 20
384.3883364568683
 10
358.3095273970394
 20
334.3883364568683
 10
258.3095273970394
 20
334.3883364568683
  0
MTEXT
  5
1867
330
1F
100
AcDbEntity
  8
0
100
AcDbMText
 10
-139.5165932235122
 20
352.4519683038824
 30
0.0
 40
6.0
 41
136.2840824776794
 46
0.0
 71
     1
 72
     5
  1
"If we did all the things we are capable of, we would literally astound ourselves."
 73
     1
 44
1.0
1001
ACAD
1000
ACAD_MTEXT_COLUMN_INFO_BEGIN
1070
    75
1070
     2
1070
    79
1070
     0
1070
    76
1070
     1
1070
    78
1070
     0
1070
    48
1040
136.2840824776794
1070
    49
1040
50.0
1070
    50
1070
     1
1040
0.0
1000
ACAD_MTEXT_COLUMN_INFO_END
  0
MTEXT
  5
1868
330
1F
100
AcDbEntity
  8
0
100
AcDbMText
 10
-70.68034932880346
 20
330.7750781469637
 30
0.0
 40
5.0
 41
137.6724877894176
 46
0.0
 71
     5
 72
     5
  1
~ Thomas Edison ~ 
 73
     1
 44
1.0
1001
ACAD
1000
ACAD_MTEXT_COLUMN_INFO_BEGIN
1070
    75
1070
     2
1070
    79
1070
     0
1070
    76
1070
     1
1070
    78
1070
     0
1070
    48
1040
137.6724877894176
1070
    49
1040
50.0
1070
    50
1070
     1
1040
0.0
1000
ACAD_MTEXT_COLUMN_INFO_END
  0
CIRCLE
  5
187C
330
1F
100
AcDbEntity
  8
frees
100
AcDbCircle
 10
98.51920504860391
 20
244.1350091404238
 30
0.0
 40
4.0
  0
CIRCLE
  5
187D
330
1F
100
AcDbEntity
  8
0
100
AcDbCircle
 10
98.51920504860391
 20
193.9714855664888
 30
0.0
 40
4.0
  0
ENDSEC
  0
SECTION
  2
OBJECTS
  0
DICTIONARY
  5
C
330
0
100
AcDbDictionary
281
     1
  3
ACAD_ASSOCNETWORK
350
387
  3
ACAD_CIP_PREVIOUS_PRODUCT_INFO
350
216
  3
ACAD_COLOR
350
6B
  3
ACAD_DETAILVIEWSTYLE
350
21B
  3
ACAD_GROUP
350
D
  3
ACAD_LAYOUT
350
1A
  3
ACAD_MATERIAL
350
6A
  3
ACAD_MLEADERSTYLE
350
12D
  3
ACAD_MLINESTYLE
350
17
  3
ACAD_PLOTSETTINGS
350
19
  3
ACAD_PLOTSTYLENAME
350
E
  3
ACAD_RENDER_ACTIVE_RAPIDRT_SETTINGS
350
46E
  3
ACAD_RENDER_ACTIVE_SETTINGS
350
18A8
  3
ACAD_RENDER_RAPIDRT_SETTINGS
350
46D
  3
ACAD_SCALELIST
350
10C
  3
ACAD_SECTIONVIEWSTYLE
350
219
  3
ACAD_TABLESTYLE
350
7E
  3
ACAD_VISUALSTYLE
350
EF
  3
ACDB_RECOMPOSE_DATA
350
189B
  3
AcDbVariableDictionary
350
5E
  3
AcDsDecomposeData
350
18A1
  0
DICTIONARY
  5
1FF
330
2
100
AcDbDictionary
280
     1
281
     1
  3
ACAD_LAYERSTATES
360
200
  0
DICTIONARY
  5
13C
330
10
100
AcDbDictionary
280
     1
281
     1
  0
DICTIONARY
  5
1CE
330
1F
100
AcDbDictionary
280
     1
281
     1
  3
ACAD_ASSOCNETWORK
360
385
  3
ACAD_SORTENTS
360
756
  0
DICTIONARY
  5
16EE
330
16E1
100
AcDbDictionary
280
     1
281
     1
  3
ACAD_DIMASSOC
360
16F8
  0
DICTIONARY
  5
1706
330
16F9
100
AcDbDictionary
280
     1
281
     1
  3
ACAD_DIMASSOC
360
1710
  0
DICTIONARY
  5
171E
330
1711
100
AcDbDictionary
280
     1
281
     1
  3
ACAD_DIMASSOC
360
1728
  0
DICTIONARY
  5
1736
330
1729
100
AcDbDictionary
280
     1
281
     1
  3
ACAD_DIMASSOC
360
1740
  0
DICTIONARY
  5
387
102
{ACAD_REACTORS
330
C
102
}
330
C
100
AcDbDictionary
281
     1
  3
ACAD_ASSOCNETWORK
350
388
  0
XRECORD
  5
216
102
{ACAD_REACTORS
330
C
102
}
330
C
100
AcDbXrecord
280
     1
300
ACD
300
2019
300
ACD_F_S
  0
DICTIONARY
  5
6B
102
{ACAD_REACTORS
330
C
102
}
330
C
100
AcDbDictionary
281
     1
  0
DICTIONARY
  5
21B
102
{ACAD_REACTORS
330
C
102
}
330
C
100
AcDbDictionary
281
     1
  3
Metric50
350
21C
  0
DICTIONARY
  5
D
102
{ACAD_REACTORS
330
C
102
}
330
C
100
AcDbDictionary
281
     1
  3
*A1
350
11CC
  3
*A10
350
11CA
  3
*A11
350
11CB
  3
*A2
350
11CD
  3
*A3
350
11CE
  3
*A4
350
12A9
  3
*A5
350
11C5
  3
*A6
350
11C6
  3
*A7
350
11C7
  3
*A8
350
11C8
  3
*A9
350
11C9
  0
DICTIONARY
  5
1A
102
{ACAD_REACTORS
330
C
102
}
330
C
100
AcDbDictionary
281
     1
  3
Layout1
350
D3
  3
Layout2
350
D7
  3
Model
350
22
  0
DICTIONARY
  5
6A
102
{ACAD_REACTORS
330
C
102
}
330
C
100
AcDbDictionary
281
     1
  3
ByBlock
350
ED
  3
ByLayer
350
EC
  3
Global
350
EE
  0
DICTIONARY
  5
12D
102
{ACAD_REACTORS
330
C
102
}
330
C
100
AcDbDictionary
281
     1
  3
Annotative
350
13B
  3
Standard
350
12E
  0
DICTIONARY
  5
17
102
{ACAD_REACTORS
330
C
102
}
330
C
100
AcDbDictionary
281
     1
  3
Standard
350
18
  0
DICTIONARY
  5
19
102
{ACAD_REACTORS
330
C
102
}
330
C
100
AcDbDictionary
281
     1
  0
ACDBDICTIONARYWDFLT
  5
E
102
{ACAD_REACTORS
330
C
102
}
330
C
100
AcDbDictionary
281
     1
  3
Normal
350
F
100
AcDbDictionaryWithDefault
340
F
  0
RAPIDRTRENDERSETTINGS
  5
46E
102
{ACAD_REACTORS
330
C
102
}
330
C
100
AcDbRenderSettings
 90
        2
  1
Medium
290
     1
290
     0
290
     1
290
     1
  1

  1
Applies 5 rendering levels
 90
        0
100
AcDbRapidRTRenderSettings
 90
        3
 70
     0
 90
        5
 90
        1
 70
     1
 70
     2
 40
3.0
 40
3.0
290
     1
  0
MENTALRAYRENDERSETTINGS
  5
18A8
102
{ACAD_XDICTIONARY
360
18A9
102
}
102
{ACAD_REACTORS
330
C
102
}
330
C
100
AcDbRenderSettings
 90
        2
  1
Medium
290
     1
290
     1
290
     1
290
     1
  1

  1

 90
        0
100
AcDbMentalRayRenderSettings
 90
        2
 90
        0
 90
        1
 70
     2
 40
3.0
 40
3.0
 40
0.0500000007450581
 40
0.0500000007450581
 40
0.0500000007450581
 40
0.0500000007450581
 70
     0
290
     0
290
     1
 90
        5
 90
        5
 90
        5
290
     0
 90
      500
290
     0
 40
1.0
 90
    10000
 90
        5
 90
        5
 90
        5
290
     0
 90
      200
290
     0
290
     0
290
     0
 40
1.0
 40
1.0
 40
1500.0
 70
     0
 70
     0
 40
10.0
 70
     0
 70
     0
290
     0
  1

 90
       32
 70
     0
 90
     1048
290
     0
 40
1.0
  0
DICTIONARY
  5
46D
102
{ACAD_REACTORS
330
C
102
}
330
C
100
AcDbDictionary
281
     1
  0
DICTIONARY
  5
10C
102
{ACAD_REACTORS
330
C
102
}
330
C
100
AcDbDictionary
281
     1
  3
A0
350
10D
  3
A1
350
1BE
  3
A2
350
1BF
  3
A3
350
1C0
  3
A4
350
1C1
  3
A5
350
1C2
  3
A6
350
1C3
  3
A7
350
1C4
  3
A8
350
1C5
  3
A9
350
1C6
  3
B0
350
1C7
  3
B1
350
1C8
  3
B2
350
1C9
  3
B3
350
1CA
  3
B4
350
1CB
  3
B5
350
1CC
  3
B6
350
1CD
  0
DICTIONARY
  5
219
102
{ACAD_REACTORS
330
C
102
}
330
C
100
AcDbDictionary
281
     1
  3
Metric50
350
21A
  0
DICTIONARY
  5
7E
102
{ACAD_REACTORS
330
C
102
}
330
C
100
AcDbDictionary
281
     1
  3
Standard
350
7F
  0
DICTIONARY
  5
EF
102
{ACAD_REACTORS
330
C
102
}
330
C
100
AcDbDictionary
281
     1
  3
2dWireframe
350
F5
  3
Basic
350
F4
  3
Brighten
350
FB
  3
ColorChange
350
FF
  3
Conceptual
350
F8
  3
Dim
350
FA
  3
EdgeColorOff
350
1E6
  3
Facepattern
350
FE
  3
Flat
350
F0
  3
FlatWithEdges
350
F1
  3
Gouraud
350
F2
  3
GouraudWithEdges
350
F3
  3
Hidden
350
F7
  3
JitterOff
350
1E4
  3
Linepattern
350
FD
  3
OverhangOff
350
1E5
  3
Realistic
350
F9
  3
Shaded
350
1F3
  3
Shaded with edges
350
1F2
  3
Shades of Gray
350
1EF
  3
Sketchy
350
1F0
  3
Thicken
350
FC
  3
Wireframe
350
F6
  3
X-Ray
350
1F1
  0
XRECORD
  5
189B
102
{ACAD_REACTORS
330
C
102
}
330
C
100
AcDbXrecord
280
     1
 90
        1
330
7F
330
1641
330
1642
330
1643
330
1644
330
1645
330
1867
330
1868
  0
DICTIONARY
  5
5E
102
{ACAD_REACTORS
330
C
102
}
330
C
100
AcDbDictionary
281
     1
  3
CANNOSCALE
350
146
  3
CENTEREXE
350
259
  3
CENTERLTYPEFILE
350
25A
  3
CMLEADERSTYLE
350
145
  3
CTABLESTYLE
350
84
  3
CVIEWDETAILSTYLE
350
227
  3
CVIEWSECTIONSTYLE
350
228
  3
DIMASSOC
350
5F
  3
HIDETEXT
350
63
  3
LAYEREVAL
350
1AE
  3
LAYERNOTIFY
350
1AF
  0
DICTIONARY
  5
18A1
102
{ACAD_REACTORS
330
C
102
}
330
C
100
AcDbDictionary
281
     1
  3
AcDsRecords
350
18A3
  3
AcDsSchemas
350
18A2
1001
ACAD
1070
     2
  0
DICTIONARY
  5
200
102
{ACAD_REACTORS
330
1FF
102
}
330
1FF
100
AcDbDictionary
281
     1
  3
frees
350
372
  3
hulp
350
2E2
  0
DICTIONARY
  5
385
102
{ACAD_REACTORS
330
1CE
102
}
330
1CE
100
AcDbDictionary
281
     1
  3
ACAD_ASSOCNETWORK
350
386
  0
SORTENTSTABLE
  5
756
102
{ACAD_REACTORS
330
1CE
102
}
330
1CE
100
AcDbSortentsTable
330
1F
  0
DIMASSOC
  5
16F8
102
{ACAD_REACTORS
330
16EE
102
}
330
16EE
100
AcDbDimAssoc
330
16E1
 90
        3
 70
     0
 71
     0
  1
AcDbOsnapPointRef
 72
     1
331
16D7
 73
     2
 91
        3
 40
1.0
 10
-191.1790853579043
 20
518.993076598359
 30
0.0
 75
     0
  1
AcDbOsnapPointRef
 72
     1
331
16D7
 73
     2
 91
        2
 40
1.0
 10
128.8209146420956
 20
518.993076598359
 30
0.0
 75
     0
  0
DIMASSOC
  5
1710
102
{ACAD_REACTORS
330
1706
102
}
330
1706
100
AcDbDimAssoc
330
16F9
 90
        2
 70
     0
 71
     0
  1
AcDbOsnapPointRef
 72
    13
331
16D7
 73
     2
 91
        1
 40
0.0
 10
-191.1790853579043
 20
74.08903528322219
 30
0.0
 75
     0
  0
DIMASSOC
  5
1728
102
{ACAD_REACTORS
330
171E
102
}
330
171E
100
AcDbDimAssoc
330
1711
 90
        3
 70
     0
 71
     0
  1
AcDbOsnapPointRef
 72
     1
331
16E0
 73
     2
 91
        3
 40
1.0
 10
158.5364614134453
 20
294.299984483049
 30
0.0
 75
     0
  1
AcDbOsnapPointRef
 72
     1
331
16E0
 73
     2
 91
        2
 40
1.0
 10
469.1652245062037
 20
294.299984483049
 30
0.0
 75
     0
  0
DIMASSOC
  5
1740
102
{ACAD_REACTORS
330
1736
102
}
330
1736
100
AcDbDimAssoc
330
1729
 90
        2
 70
     0
 71
     0
  1
AcDbOsnapPointRef
 72
     1
331
16E0
 73
     2
 91
        1
 40
1.0
 10
469.1652245062035
 20
71.84796382548046
 30
0.0
 75
     0
  0
ACDBASSOCNETWORK
  5
388
102
{ACAD_REACTORS
330
387
102
}
330
387
100
AcDbAssocAction
 90
        2
 90
        0
330
0
360
0
 90
        0
 90
        0
 90
        0
 90
        0
 90
        0
 90
        0
 90
        0
100
AcDbAssocNetwork
 90
        0
 90
        1
 90
        1
330
386
 90
        0
  0
ACDBDETAILVIEWSTYLE
  5
21C
102
{ACAD_XDICTIONARY
360
18A6
102
}
102
{ACAD_REACTORS
330
21B
102
}
330
21B
100
AcDbModelDocViewStyle
 70
     0
  3
Metric50
290
     0
100
AcDbDetailViewStyle
 70
     0
 71
     0
 90
        3
 71
     1
340
11
 62
   256
 40
5.0
340
0
 62
   256
 40
5.0
300

 40
0.0
280
     1
 71
     2
340
16
 90
       25
 62
   256
 71
     3
340
11
 62
   256
 40
5.0
 90
        0
 40
15.0
 90
        1
300
%<\AcVar ViewDetailId>% (%<\AcVar ViewScale \f "%sn">%)
 71
     4
340
16
 90
       25
 62
   256
340
16
 90
       25
 62
   256
280
     0
  0
GROUP
  5
11CC
102
{ACAD_REACTORS
330
D
102
}
330
D
100
AcDbGroup
300

 70
     1
 71
     1
340
E2B
340
E2A
340
E29
340
E28
340
E27
340
E26
340
E25
  0
GROUP
  5
11CA
102
{ACAD_REACTORS
330
D
102
}
330
D
100
AcDbGroup
300

 70
     1
 71
     1
340
E3B
340
E3A
340
E39
340
E38
340
E37
340
E36
340
E35
340
E34
340
E33
340
E32
340
E31
340
E30
340
E2F
340
E2E
340
E2D
340
E2C
340
E2B
340
E2A
340
E29
340
E28
340
E27
340
E26
340
E25
340
E24
340
E23
340
E22
340
E21
340
E20
340
E1F
340
E1E
340
E1D
340
E1C
340
E1B
340
E1A
340
E19
  0
GROUP
  5
11CB
102
{ACAD_REACTORS
330
D
102
}
330
D
100
AcDbGroup
300

 70
     1
 71
     1
340
E24
340
E23
340
E22
340
E21
340
E20
340
E1F
340
E1E
  0
GROUP
  5
11CD
102
{ACAD_REACTORS
330
D
102
}
330
D
100
AcDbGroup
300

 70
     1
 71
     1
340
E32
340
E31
340
E30
340
E2F
340
E2E
340
E2D
340
E2C
  0
GROUP
  5
11CE
102
{ACAD_REACTORS
330
D
102
}
330
D
100
AcDbGroup
300

 70
     1
 71
     1
340
E39
340
E38
340
E37
340
E36
340
E35
340
E34
340
E33
  0
GROUP
  5
12A9
102
{ACAD_REACTORS
330
D
102
}
330
D
100
AcDbGroup
300

 70
     1
 71
     1
340
1141
340
1131
340
1122
340
1121
340
111B
340
1111
340
1103
340
10FA
340
10EB
340
10CF
340
10A9
340
1094
340
108A
340
1081
340
1076
340
105B
340
104F
340
1043
340
103A
340
100C
340
100B
340
FF8
340
FEE
340
FE0
340
FCE
340
FC2
340
FB0
340
FA0
340
F91
340
F7E
340
F78
340
F5E
340
F4E
340
F45
340
F36
340
F2C
340
F1E
340
F15
340
F06
340
EEA
340
EC4
340
EAF
340
EA5
340
E9C
340
E82
340
E5C
340
E45
  0
GROUP
  5
11C5
102
{ACAD_REACTORS
330
D
102
}
330
D
100
AcDbGroup
300

 70
     1
 71
     1
340
E18
340
E17
340
E16
340
E15
340
E14
340
E13
340
E12
340
E11
340
E10
340
E0F
340
E0E
340
E0D
340
E0C
340
E0B
340
E0A
340
E09
340
E08
340
E07
340
E06
340
E05
340
E04
340
E03
340
E02
340
E01
340
E00
340
DFF
340
DFE
340
DFD
340
DFC
340
DFB
340
DFA
340
DF9
340
DF8
340
DF7
340
DF6
  0
GROUP
  5
11C6
102
{ACAD_REACTORS
330
D
102
}
330
D
100
AcDbGroup
300

 70
     1
 71
     1
340
E01
340
E00
340
DFF
340
DFE
340
DFD
340
DFC
340
DFB
  0
GROUP
  5
11C7
102
{ACAD_REACTORS
330
D
102
}
330
D
100
AcDbGroup
300

 70
     1
 71
     1
340
E08
340
E07
340
E06
340
E05
340
E04
340
E03
340
E02
  0
GROUP
  5
11C8
102
{ACAD_REACTORS
330
D
102
}
330
D
100
AcDbGroup
300

 70
     1
 71
     1
340
E0F
340
E0E
340
E0D
340
E0C
340
E0B
340
E0A
340
E09
  0
GROUP
  5
11C9
102
{ACAD_REACTORS
330
D
102
}
330
D
100
AcDbGroup
300

 70
     1
 71
     1
340
E16
340
E15
340
E14
340
E13
340
E12
340
E11
340
E10
  0
LAYOUT
  5
D3
102
{ACAD_REACTORS
330
1A
102
}
330
1A
100
AcDbPlotSettings
  1

  2
C:\Documents and Settings\basas\Application Data\Autodesk\AutoCAD 2005\R16.1\enu\plotters\Default Windows System Printer.pc3
  4

  6

 40
0.0
 41
0.0
 42
0.0
 43
0.0
 44
0.0
 45
0.0
 46
0.0
 47
0.0
 48
0.0
 49
0.0
140
0.0
141
0.0
142
1.0
143
1.0
 70
   688
 72
     0
 73
     0
 74
     5
  7

 75
    16
147
1.0
 76
     0
 77
     2
 78
   300
148
0.0
149
0.0
100
AcDbLayout
  1
Layout1
 70
     1
 71
     1
 10
0.0
 20
0.0
 11
12.0
 21
9.0
 12
0.0
 22
0.0
 32
0.0
 14
0.0
 24
0.0
 34
0.0
 15
0.0
 25
0.0
 35
0.0
146
0.0
 13
0.0
 23
0.0
 33
0.0
 16
1.0
 26
0.0
 36
0.0
 17
0.0
 27
1.0
 37
0.0
 76
     0
330
D2
  0
LAYOUT
  5
D7
102
{ACAD_REACTORS
330
1A
102
}
330
1A
100
AcDbPlotSettings
  1

  2
C:\Documents and Settings\basas\Application Data\Autodesk\AutoCAD 2005\R16.1\enu\plotters\Default Windows System Printer.pc3
  4

  6

 40
0.0
 41
0.0
 42
0.0
 43
0.0
 44
0.0
 45
0.0
 46
0.0
 47
0.0
 48
0.0
 49
0.0
140
0.0
141
0.0
142
1.0
143
1.0
 70
   688
 72
     0
 73
     0
 74
     5
  7

 75
    16
147
1.0
 76
     0
 77
     2
 78
   300
148
0.0
149
0.0
100
AcDbLayout
  1
Layout2
 70
     1
 71
     2
 10
0.0
 20
0.0
 11
12.0
 21
9.0
 12
0.0
 22
0.0
 32
0.0
 14
0.0
 24
0.0
 34
0.0
 15
0.0
 25
0.0
 35
0.0
146
0.0
 13
0.0
 23
0.0
 33
0.0
 16
1.0
 26
0.0
 36
0.0
 17
0.0
 27
1.0
 37
0.0
 76
     0
330
D6
  0
LAYOUT
  5
22
102
{ACAD_XDICTIONARY
360
205
102
}
102
{ACAD_REACTORS
330
1A
102
}
330
1A
100
AcDbPlotSettings
  1

  2
none_device
  4
ISO_A4_(210.00_x_297.00_MM)
  6

 40
7.5
 41
20.0
 42
7.5
 43
20.0
 44
210.0
 45
297.0
 46
11.54999923706054
 47
-13.65000009536743
 48
0.0
 49
0.0
140
0.0
141
0.0
142
1.0
143
8.704084754739808
 70
 11952
 72
     1
 73
     0
 74
     0
  7

 75
     0
147
0.1148885871608098
 76
     0
 77
     2
 78
   300
148
0.0
149
0.0
100
AcDbLayout
  1
Model
 70
     1
 71
     0
 10
0.0
 20
0.0
 11
12.0
 21
9.0
 12
0.0
 22
0.0
 32
0.0
 14
0.0
 24
0.0
 34
0.0
 15
0.0
 25
0.0
 35
0.0
146
0.0
 13
0.0
 23
0.0
 33
0.0
 16
1.0
 26
0.0
 36
0.0
 17
0.0
 27
1.0
 37
0.0
 76
     0
330
1F
331
EA
1001
ACAD_PSEXT
1000
None
1000
None
1000
Not applicable
1000
The layout will not be plotted unless a new plotter configuration name is selected.
1070
     0
  0
MATERIAL
  5
ED
102
{ACAD_XDICTIONARY
360
1F9
102
}
102
{ACAD_REACTORS
330
6A
102
}
330
6A
100
AcDbMaterial
  1
ByBlock
 94
       63
  0
MATERIAL
  5
EC
102
{ACAD_XDICTIONARY
360
1F7
102
}
102
{ACAD_REACTORS
330
6A
102
}
330
6A
100
AcDbMaterial
  1
ByLayer
 94
       63
  0
MATERIAL
  5
EE
102
{ACAD_XDICTIONARY
360
173
102
}
102
{ACAD_REACTORS
330
6A
102
}
330
6A
100
AcDbMaterial
  1
Global
 43
0.0007999999797903
 43
0.0
 43
0.0
 43
0.0
 43
0.0
 43
0.0007999999797903
 43
0.0
 43
0.0
 43
0.0
 43
0.0
 43
1.0
 43
0.0
 43
0.0
 43
0.0
 43
0.0
 43
1.0
 49
0.0007999999797903
 49
0.0
 49
0.0
 49
0.0
 49
0.0
 49
0.0007999999797903
 49
0.0
 49
0.0
 49
0.0
 49
0.0
 49
1.0
 49
0.0
 49
0.0
 49
0.0
 49
0.0
 49
1.0
142
0.0007999999797903
142
0.0
142
0.0
142
0.0
142
0.0
142
0.0007999999797903
142
0.0
142
0.0
142
0.0
142
0.0
142
1.0
142
0.0
142
0.0
142
0.0
142
0.0
142
1.0
144
0.0007999999797903
144
0.0
144
0.0
144
0.0
144
0.0
144
0.0007999999797903
144
0.0
144
0.0
144
0.0
144
0.0
144
1.0
144
0.0
144
0.0
144
0.0
144
0.0
144
1.0
 94
       63
1001
ACAD
1070
    -1
1070
     3
1070
     0
1000

1071
        0
1070
     0
  0
MLEADERSTYLE
  5
13B
102
{ACAD_REACTORS
330
12D
102
}
330
12D
100
AcDbMLeaderStyle
179
     2
170
     2
171
     1
172
     0
 90
        2
 40
0.0
 41
0.0
173
     1
 91
-1056964608
340
14
 92
       -2
290
     1
 42
2.0
291
     1
 43
8.0
  3
Standard
 44
4.0
300

342
11
174
     1
178
     1
175
     1
176
     0
 93
-1056964608
 45
4.0
292
     0
297
     0
 46
4.0
 94
-1056964608
 47
1.0
 49
1.0
140
1.0
293
     1
141
0.0
294
     1
177
     0
142
1.0
295
     0
296
     1
143
3.75
271
     0
272
     9
273
     9
298
     0
  0
MLEADERSTYLE
  5
12E
102
{ACAD_REACTORS
330
12D
102
}
330
12D
100
AcDbMLeaderStyle
179
     2
170
     2
171
     1
172
     0
 90
        2
 40
0.0
 41
0.0
173
     1
 91
-1056964608
340
14
 92
       -2
290
     1
 42
2.0
291
     1
 43
8.0
  3
Standard
 44
4.0
300

342
11
174
     1
178
     1
175
     1
176
     0
 93
-1056964608
 45
4.0
292
     0
297
     0
 46
4.0
 94
-1056964608
 47
1.0
 49
1.0
140
1.0
293
     1
141
0.0
294
     1
177
     0
142
1.0
295
     0
296
     0
143
3.75
271
     0
272
     9
273
     9
298
     0
  0
MLINESTYLE
  5
18
102
{ACAD_REACTORS
330
17
102
}
330
17
100
AcDbMlineStyle
  2
STANDARD
 70
     0
  3

 62
   256
 51
90.0
 52
90.0
 71
     2
 49
0.5
 62
   256
  6
BYLAYER
 49
-0.5
 62
   256
  6
BYLAYER
  0
ACDBPLACEHOLDER
  5
F
102
{ACAD_REACTORS
330
E
102
}
330
E
  0
DICTIONARY
  5
18A9
330
18A8
100
AcDbDictionary
280
     1
281
     1
  3
ACAD_XREC_ROUNDTRIP
360
18AB
  3
ADSK_XREC_MENTALRAYSETTINGSINFO
360
18AA
  0
SCALE
  5
10D
102
{ACAD_REACTORS
330
10C
102
}
330
10C
100
AcDbScale
 70
     0
300
1:1
140
1.0
141
1.0
290
     1
  0
SCALE
  5
1BE
102
{ACAD_REACTORS
330
10C
102
}
330
10C
100
AcDbScale
 70
     0
300
1:2
140
1.0
141
2.0
290
     0
  0
SCALE
  5
1BF
102
{ACAD_REACTORS
330
10C
102
}
330
10C
100
AcDbScale
 70
     0
300
1:4
140
1.0
141
4.0
290
     0
  0
SCALE
  5
1C0
102
{ACAD_REACTORS
330
10C
102
}
330
10C
100
AcDbScale
 70
     0
300
1:5
140
1.0
141
5.0
290
     0
  0
SCALE
  5
1C1
102
{ACAD_REACTORS
330
10C
102
}
330
10C
100
AcDbScale
 70
     0
300
1:8
140
1.0
141
8.0
290
     0
  0
SCALE
  5
1C2
102
{ACAD_REACTORS
330
10C
102
}
330
10C
100
AcDbScale
 70
     0
300
1:10
140
1.0
141
10.0
290
     0
  0
SCALE
  5
1C3
102
{ACAD_REACTORS
330
10C
102
}
330
10C
100
AcDbScale
 70
     0
300
1:16
140
1.0
141
16.0
290
     0
  0
SCALE
  5
1C4
102
{ACAD_REACTORS
330
10C
102
}
330
10C
100
AcDbScale
 70
     0
300
1:20
140
1.0
141
20.0
290
     0
  0
SCALE
  5
1C5
102
{ACAD_REACTORS
330
10C
102
}
330
10C
100
AcDbScale
 70
     0
300
1:30
140
1.0
141
30.0
290
     0
  0
SCALE
  5
1C6
102
{ACAD_REACTORS
330
10C
102
}
330
10C
100
AcDbScale
 70
     0
300
1:40
140
1.0
141
40.0
290
     0
  0
SCALE
  5
1C7
102
{ACAD_REACTORS
330
10C
102
}
330
10C
100
AcDbScale
 70
     0
300
1:50
140
1.0
141
50.0
290
     0
  0
SCALE
  5
1C8
102
{ACAD_REACTORS
330
10C
102
}
330
10C
100
AcDbScale
 70
     0
300
1:100
140
1.0
141
100.0
290
     0
  0
SCALE
  5
1C9
102
{ACAD_REACTORS
330
10C
102
}
330
10C
100
AcDbScale
 70
     0
300
2:1
140
2.0
141
1.0
290
     0
  0
SCALE
  5
1CA
102
{ACAD_REACTORS
330
10C
102
}
330
10C
100
AcDbScale
 70
     0
300
4:1
140
4.0
141
1.0
290
     0
  0
SCALE
  5
1CB
102
{ACAD_REACTORS
330
10C
102
}
330
10C
100
AcDbScale
 70
     0
300
8:1
140
8.0
141
1.0
290
     0
  0
SCALE
  5
1CC
102
{ACAD_REACTORS
330
10C
102
}
330
10C
100
AcDbScale
 70
     0
300
10:1
140
10.0
141
1.0
290
     0
  0
SCALE
  5
1CD
102
{ACAD_REACTORS
330
10C
102
}
330
10C
100
AcDbScale
 70
     0
300
100:1
140
100.0
141
1.0
290
     0
  0
ACDBSECTIONVIEWSTYLE
  5
21A
102
{ACAD_XDICTIONARY
360
18A4
102
}
102
{ACAD_REACTORS
330
219
102
}
330
219
100
AcDbModelDocViewStyle
 70
     0
  3
Metric50
290
     0
100
AcDbSectionViewStyle
 70
     0
 71
     0
 90
      102
 71
     1
340
11
 62
   256
 40
5.0
340
0
340
0
 62
   256
 40
5.0
300
I, O, Q, S, X, Z
 40
10.0
 90
        0
 40
2.5
 90
        0
 71
     2
340
16
 90
       25
 62
   256
340
16
 90
       50
 62
   256
 40
5.0
 40
2.5
 40
5.0
 71
     3
340
11
 62
   256
 40
5.0
 90
        0
 40
15.0
 90
        1
300
%<\AcVar ViewSectionStartId>%-%<\AcVar ViewSectionEndId>% (%<\AcVar ViewScale \f "%sn">%)
 71
     4
 62
   256
 62
   257
300
ANSI31
 40
1.0
 90
        0
290
     0
290
     0
 90
        6
 40
0.0
 40
1.570796326794896
 40
0.2617993877991494
 40
1.308996938995747
 40
-0.2617993877991494
 40
1.832595714594046
  0
TABLESTYLE
  5
7F
102
{ACAD_XDICTIONARY
360
162
102
}
102
{ACAD_REACTORS
330
7E
102
}
330
7E
100
AcDbTableStyle
280
     0
  3
Standard
 70
     0
 71
     0
 40
1.5
 41
1.5
280
     0
281
     0
  7
Standard
140
4.5
170
     2
 62
     0
 63
     7
283
     0
 90
      512
 91
        0
  1

274
    -2
284
     1
 64
     0
275
    -2
285
     1
 65
     0
276
    -2
286
     1
 66
     0
277
    -2
287
     1
 67
     0
278
    -2
288
     1
 68
     0
279
    -2
289
     1
 69
     0
  7
Standard
140
6.0
170
     5
 62
     0
 63
     7
283
     0
 90
      512
 91
        0
  1

274
    -2
284
     1
 64
     0
275
    -2
285
     1
 65
     0
276
    -2
286
     1
 66
     0
277
    -2
287
     1
 67
     0
278
    -2
288
     1
 68
     0
279
    -2
289
     1
 69
     0
  7
Standard
140
4.5
170
     5
 62
     0
 63
     7
283
     0
 90
      512
 91
        0
  1

274
    -2
284
     1
 64
     0
275
    -2
285
     1
 65
     0
276
    -2
286
     1
 66
     0
277
    -2
287
     1
 67
     0
278
    -2
288
     1
 68
     0
279
    -2
289
     1
 69
     0
  0
VISUALSTYLE
  5
F5
102
{ACAD_REACTORS
330
EF
102
}
330
EF
100
AcDbVisualStyle
  2
2dWireframe
 70
     4
177
     3
291
     0
 70
    58
 90
        0
176
     1
 90
        2
176
     1
 90
        1
176
     1
 90
        0
176
     1
 40
0.6
176
     1
 40
30.0
176
     1
 62
     7
420
 16777215
176
     1
 90
        1
176
     1
 90
        4
176
     1
 62
     7
176
     1
 62
   257
176
     1
 90
        1
176
     1
 90
        1
176
     1
 40
1.0
176
     1
 90
        0
176
     1
 62
   257
176
     1
 40
1.0
176
     1
 90
        1
176
     1
 90
        6
176
     1
 90
        2
176
     1
 62
     7
176
     1
 90
        5
176
     1
 90
        0
176
     1
 90
        0
176
     1
290
     0
176
     1
 90
        1
176
     1
 40
0.0
176
     1
 90
        0
176
     1
290
     1
176
     1
290
     1
176
     1
290
     0
176
     1
290
     0
176
     1
290
     0
176
     1
290
     0
176
     1
290
     0
176
     1
290
     0
176
     1
290
     0
176
     1
 90
       50
176
     1
 40
0.0
176
     1
 40
1.0
176
     1
 90
        0
176
     1
 62
    18
420
        0
176
     1
 90
       50
176
     1
 90
        3
176
     1
 62
     5
420
      255
176
     1
290
     0
176
     1
 90
       50
176
     1
 90
       50
176
     1
 90
       50
176
     1
290
     0
176
     1
 90
       50
176
     1
 62
   256
176
     0
 40
1.0
176
     0
 90
        2
176
     1
  1
strokes_ogs.tif
176
     1
290
     0
176
     1
 40
1.0
176
     1
 40
1.0
176
     1
1001
ACAD
1000
AcDbSavedByObjectVersion
1070
     0
  0
VISUALSTYLE
  5
F4
102
{ACAD_REACTORS
330
EF
102
}
330
EF
100
AcDbVisualStyle
  2
Basic
 70
     7
177
     3
291
     1
 70
    58
 90
        1
176
     1
 90
        0
176
     1
 90
        1
176
     1
 90
        0
176
     1
 40
0.6
176
     1
 40
30.0
176
     1
 62
     7
420
 16777215
176
     1
 90
        0
176
     1
 90
        4
176
     1
 62
     7
176
     1
 62
   257
176
     1
 90
        1
176
     1
 90
        1
176
     1
 40
1.0
176
     1
 90
        8
176
     1
 62
     7
176
     1
 40
1.0
176
     1
 90
        1
176
     1
 90
        6
176
     1
 90
        2
176
     1
 62
     7
176
     1
 90
        5
176
     1
 90
        0
176
     1
 90
        0
176
     1
290
     0
176
     1
 90
        1
176
     1
 40
0.0
176
     1
 90
        0
176
     1
290
     0
176
     1
290
     1
176
     1
290
     1
176
     1
290
     0
176
     1
290
     0
176
     1
290
     0
176
     1
290
     0
176
     1
290
     0
176
     1
290
     0
176
     1
 90
       50
176
     1
 40
0.0
176
     1
 40
1.0
176
     1
 90
        0
176
     1
 62
    18
420
        0
176
     1
 90
       50
176
     1
 90
        3
176
     1
 62
     5
420
      255
176
     1
290
     0
176
     1
 90
       50
176
     1
 90
       50
176
     1
 90
       50
176
     1
290
     0
176
     1
 90
       50
176
     1
 62
   256
176
     0
 40
1.0
176
     0
 90
        2
176
     1
  1
strokes_ogs.tif
176
     1
290
     0
176
     1
 40
1.0
176
     1
 40
1.0
176
     1
1001
ACAD
1000
AcDbSavedByObjectVersion
1070
     0
  0
VISUALSTYLE
  5
FB
102
{ACAD_REACTORS
330
EF
102
}
330
EF
100
AcDbVisualStyle
  2
Brighten
 70
    12
177
     3
291
     1
 70
    58
 90
        2
176
     1
 90
        2
176
     1
 90
        1
176
     1
 90
        0
176
     1
 40
0.6
176
     1
 40
30.0
176
     1
 62
     7
420
 16777215
176
     1
 90
        1
176
     1
 90
        4
176
     1
 62
     7
176
     1
 62
   257
176
     1
 90
        1
176
     1
 90
        1
176
     1
 40
1.0
176
     1
 90
        8
176
     1
 62
     7
176
     1
 40
1.0
176
     1
 90
        1
176
     1
 90
        6
176
     1
 90
        2
176
     1
 62
     7
176
     1
 90
        5
176
     1
 90
        0
176
     1
 90
        0
176
     1
290
     0
176
     1
 90
        1
176
     1
 40
50.0
176
     1
 90
        0
176
     1
290
     0
176
     1
290
     1
176
     1
290
     1
176
     1
290
     0
176
     1
290
     0
176
     1
290
     0
176
     1
290
     0
176
     1
290
     0
176
     1
290
     0
176
     1
 90
       50
176
     1
 40
0.0
176
     1
 40
1.0
176
     1
 90
        0
176
     1
 62
    18
420
        0
176
     1
 90
       50
176
     1
 90
        3
176
     1
 62
     5
420
      255
176
     1
290
     0
176
     1
 90
       50
176
     1
 90
       50
176
     1
 90
       50
176
     1
290
     0
176
     1
 90
       50
176
     1
 62
   256
176
     0
 40
1.0
176
     0
 90
        2
176
     1
  1
strokes_ogs.tif
176
     1
290
     0
176
     1
 40
1.0
176
     1
 40
1.0
176
     1
1001
ACAD
1000
AcDbSavedByObjectVersion
1070
     0
  0
VISUALSTYLE
  5
FF
102
{ACAD_REACTORS
330
EF
102
}
330
EF
100
AcDbVisualStyle
  2
ColorChange
 70
    16
177
     3
291
     1
 70
    58
 90
        2
176
     1
 90
        2
176
     1
 90
        3
176
     1
 90
        0
176
     1
 40
0.6
176
     1
 40
30.0
176
     1
 62
     8
420
  8421504
176
     1
 90
        1
176
     1
 90
        4
176
     1
 62
     7
176
     1
 62
   257
176
     1
 90
        1
176
     1
 90
        1
176
     1
 40
1.0
176
     1
 90
        8
176
     1
 62
     8
420
  8421504
176
     1
 40
1.0
176
     1
 90
        1
176
     1
 90
        6
176
     1
 90
        2
176
     1
 62
     7
176
     1
 90
        5
176
     1
 90
        0
176
     1
 90
        0
176
     1
290
     0
176
     1
 90
        1
176
     1
 40
0.0
176
     1
 90
        0
176
     1
290
     0
176
     1
290
     1
176
     1
290
     1
176
     1
290
     0
176
     1
290
     0
176
     1
290
     0
176
     1
290
     0
176
     1
290
     0
176
     1
290
     0
176
     1
 90
       50
176
     1
 40
0.0
176
     1
 40
1.0
176
     1
 90
        0
176
     1
 62
    18
420
        0
176
     1
 90
       50
176
     1
 90
        3
176
     1
 62
     5
420
      255
176
     1
290
     0
176
     1
 90
       50
176
     1
 90
       50
176
     1
 90
       50
176
     1
290
     0
176
     1
 90
       50
176
     1
 62
   256
176
     0
 40
1.0
176
     0
 90
        2
176
     1
  1
strokes_ogs.tif
176
     1
290
     0
176
     1
 40
1.0
176
     1
 40
1.0
176
     1
1001
ACAD
1000
AcDbSavedByObjectVersion
1070
     0
  0
VISUALSTYLE
  5
F8
102
{ACAD_REACTORS
330
EF
102
}
330
EF
100
AcDbVisualStyle
  2
Conceptual
 70
     9
177
     3
291
     0
 70
    58
 90
        3
176
     1
 90
        2
176
     1
 90
        1
176
     1
 90
        0
176
     1
 40
0.6
176
     1
 40
30.0
176
     1
 62
     7
420
 16777215
176
     1
 90
        2
176
     1
 90
        2
176
     1
 62
     7
176
     1
 62
   257
176
     1
 90
        1
176
     1
 90
        1
176
     1
 40
40.0
176
     1
 90
        8
176
     1
 62
     7
176
     1
 40
1.0
176
     1
 90
        1
176
     1
 90
        6
176
     1
 90
        2
176
     1
 62
     7
176
     1
 90
        3
176
     1
 90
        0
176
     1
 90
        0
176
     1
290
     0
176
     1
 90
        1
176
     1
 40
0.0
176
     1
 90
        0
176
     1
290
     0
176
     1
290
     1
176
     1
290
     1
176
     1
290
     0
176
     1
290
     0
176
     1
290
     0
176
     1
290
     0
176
     1
290
     0
176
     1
290
     0
176
     1
 90
       50
176
     1
 40
0.0
176
     1
 40
1.0
176
     1
 90
        0
176
     1
 62
    18
420
        0
176
     1
 90
       50
176
     1
 90
        3
176
     1
 62
     5
420
      255
176
     1
290
     0
176
     1
 90
       50
176
     1
 90
       50
176
     1
 90
       50
176
     1
290
     0
176
     1
 90
       50
176
     1
 62
   256
176
     0
 40
1.0
176
     0
 90
        2
176
     1
  1
strokes_ogs.tif
176
     1
290
     0
176
     1
 40
1.0
176
     1
 40
1.0
176
     1
1001
ACAD
1000
AcDbSavedByObjectVersion
1070
     0
  0
VISUALSTYLE
  5
FA
102
{ACAD_REACTORS
330
EF
102
}
330
EF
100
AcDbVisualStyle
  2
Dim
 70
    11
177
     3
291
     1
 70
    58
 90
        2
176
     1
 90
        2
176
     1
 90
        1
176
     1
 90
        0
176
     1
 40
0.6
176
     1
 40
30.0
176
     1
 62
     7
420
 16777215
176
     1
 90
        1
176
     1
 90
        4
176
     1
 62
     7
176
     1
 62
   257
176
     1
 90
        1
176
     1
 90
        1
176
     1
 40
1.0
176
     1
 90
        8
176
     1
 62
     7
176
     1
 40
1.0
176
     1
 90
        1
176
     1
 90
        6
176
     1
 90
        2
176
     1
 62
     7
176
     1
 90
        5
176
     1
 90
        0
176
     1
 90
        0
176
     1
290
     0
176
     1
 90
        1
176
     1
 40
-50.0
176
     1
 90
        0
176
     1
290
     0
176
     1
290
     1
176
     1
290
     1
176
     1
290
     0
176
     1
290
     0
176
     1
290
     0
176
     1
290
     0
176
     1
290
     0
176
     1
290
     0
176
     1
 90
       50
176
     1
 40
0.0
176
     1
 40
1.0
176
     1
 90
        0
176
     1
 62
    18
420
        0
176
     1
 90
       50
176
     1
 90
        3
176
     1
 62
     5
420
      255
176
     1
290
     0
176
     1
 90
       50
176
     1
 90
       50
176
     1
 90
       50
176
     1
290
     0
176
     1
 90
       50
176
     1
 62
   256
176
     0
 40
1.0
176
     0
 90
        2
176
     1
  1
strokes_ogs.tif
176
     1
290
     0
176
     1
 40
1.0
176
     1
 40
1.0
176
     1
1001
ACAD
1000
AcDbSavedByObjectVersion
1070
     0
  0
VISUALSTYLE
  5
1E6
102
{ACAD_REACTORS
330
EF
102
}
330
EF
100
AcDbVisualStyle
  2
EdgeColorOff
 70
    22
177
     3
291
     1
 70
    58
 90
        2
176
     0
 90
        2
176
     0
 90
        0
176
     0
 90
        0
176
     0
 40
0.6
176
     0
 40
30.0
176
     0
 62
     7
420
 16777215
176
     0
 90
        1
176
     0
 90
        4
176
     0
 62
     7
176
     0
 62
   257
176
     0
 90
        1
176
     0
 90
        1
176
     0
 40
1.0
176
     0
 90
        8
176
     2
 62
     7
176
     0
 40
1.0
176
     0
 90
        1
176
     0
 90
        6
176
     0
 90
        2
176
     0
 62
     7
176
     0
 90
        5
176
     0
 90
        0
176
     0
 90
        0
176
     0
290
     0
176
     0
 90
        1
176
     0
 40
0.0
176
     0
 90
        0
176
     0
290
     0
176
     1
290
     1
176
     1
290
     1
176
     1
290
     0
176
     1
290
     0
176
     1
290
     0
176
     1
290
     0
176
     1
290
     0
176
     1
290
     0
176
     1
 90
       50
176
     1
 40
0.0
176
     1
 40
1.0
176
     1
 90
        0
176
     1
 62
    18
420
        0
176
     1
 90
       50
176
     1
 90
        3
176
     1
 62
     5
420
      255
176
     1
290
     0
176
     1
 90
       50
176
     1
 90
       50
176
     1
 90
       50
176
     1
290
     0
176
     1
 90
       50
176
     1
 62
   256
176
     0
 40
1.0
176
     0
 90
        2
176
     1
  1
strokes_ogs.tif
176
     1
290
     0
176
     1
 40
1.0
176
     1
 40
1.0
176
     1
1001
ACAD
1000
AcDbSavedByObjectVersion
1070
     0
  0
VISUALSTYLE
  5
FE
102
{ACAD_REACTORS
330
EF
102
}
330
EF
100
AcDbVisualStyle
  2
Facepattern
 70
    15
177
     3
291
     1
 70
    58
 90
        2
176
     1
 90
        2
176
     1
 90
        1
176
     1
 90
        0
176
     1
 40
0.6
176
     1
 40
30.0
176
     1
 62
     7
420
 16777215
176
     1
 90
        1
176
     1
 90
        4
176
     1
 62
     7
176
     1
 62
   257
176
     1
 90
        1
176
     1
 90
        1
176
     1
 40
1.0
176
     1
 90
        8
176
     1
 62
     7
176
     1
 40
1.0
176
     1
 90
        1
176
     1
 90
        6
176
     1
 90
        2
176
     1
 62
     7
176
     1
 90
        5
176
     1
 90
        0
176
     1
 90
        0
176
     1
290
     0
176
     1
 90
        1
176
     1
 40
0.0
176
     1
 90
        0
176
     1
290
     0
176
     1
290
     1
176
     1
290
     1
176
     1
290
     0
176
     1
290
     0
176
     1
290
     0
176
     1
290
     0
176
     1
290
     0
176
     1
290
     0
176
     1
 90
       50
176
     1
 40
0.0
176
     1
 40
1.0
176
     1
 90
        0
176
     1
 62
    18
420
        0
176
     1
 90
       50
176
     1
 90
        3
176
     1
 62
     5
420
      255
176
     1
290
     0
176
     1
 90
       50
176
     1
 90
       50
176
     1
 90
       50
176
     1
290
     0
176
     1
 90
       50
176
     1
 62
   256
176
     0
 40
1.0
176
     0
 90
        2
176
     1
  1
strokes_ogs.tif
176
     1
290
     0
176
     1
 40
1.0
176
     1
 40
1.0
176
     1
1001
ACAD
1000
AcDbSavedByObjectVersion
1070
     0
  0
VISUALSTYLE
  5
F0
102
{ACAD_REACTORS
330
EF
102
}
330
EF
100
AcDbVisualStyle
  2
Flat
 70
     0
177
     3
291
     1
 70
    58
 90
        2
176
     1
 90
        1
176
     1
 90
        1
176
     1
 90
        2
176
     1
 40
0.6
176
     1
 40
30.0
176
     1
 62
     7
420
 16777215
176
     1
 90
        0
176
     1
 90
        0
176
     1
 62
     7
176
     1
 62
   257
176
     1
 90
        1
176
     1
 90
        1
176
     1
 40
1.0
176
     1
 90
        8
176
     1
 62
     7
176
     1
 40
1.0
176
     1
 90
        1
176
     1
 90
        6
176
     1
 90
        2
176
     1
 62
     7
176
     1
 90
        5
176
     1
 90
        0
176
     1
 90
        0
176
     1
290
     0
176
     1
 90
       13
176
     1
 40
0.0
176
     1
 90
        0
176
     1
290
     0
176
     1
290
     1
176
     1
290
     1
176
     1
290
     0
176
     1
290
     0
176
     1
290
     0
176
     1
290
     0
176
     1
290
     0
176
     1
290
     0
176
     1
 90
       50
176
     1
 40
0.0
176
     1
 40
1.0
176
     1
 90
        0
176
     1
 62
    18
420
        0
176
     1
 90
       50
176
     1
 90
        3
176
     1
 62
     5
420
      255
176
     1
290
     0
176
     1
 90
       50
176
     1
 90
       50
176
     1
 90
       50
176
     1
290
     0
176
     1
 90
       50
176
     1
 62
   256
176
     0
 40
1.0
176
     0
 90
        2
176
     1
  1
strokes_ogs.tif
176
     1
290
     0
176
     1
 40
1.0
176
     1
 40
1.0
176
     1
1001
ACAD
1000
AcDbSavedByObjectVersion
1070
     0
  0
VISUALSTYLE
  5
F1
102
{ACAD_REACTORS
330
EF
102
}
330
EF
100
AcDbVisualStyle
  2
FlatWithEdges
 70
     1
177
     3
291
     1
 70
    58
 90
        2
176
     1
 90
        1
176
     1
 90
        1
176
     1
 90
        2
176
     1
 40
0.6
176
     1
 40
30.0
176
     1
 62
     7
420
 16777215
176
     1
 90
        1
176
     1
 90
        0
176
     1
 62
     7
176
     1
 62
   257
176
     1
 90
        1
176
     1
 90
        1
176
     1
 40
1.0
176
     1
 90
        0
176
     1
 62
   257
176
     1
 40
1.0
176
     1
 90
        1
176
     1
 90
        6
176
     1
 90
        2
176
     1
 62
     7
176
     1
 90
        5
176
     1
 90
        0
176
     1
 90
        0
176
     1
290
     0
176
     1
 90
       13
176
     1
 40
0.0
176
     1
 90
        0
176
     1
290
     0
176
     1
290
     1
176
     1
290
     1
176
     1
290
     0
176
     1
290
     0
176
     1
290
     0
176
     1
290
     0
176
     1
290
     0
176
     1
290
     0
176
     1
 90
       50
176
     1
 40
0.0
176
     1
 40
1.0
176
     1
 90
        0
176
     1
 62
    18
420
        0
176
     1
 90
       50
176
     1
 90
        3
176
     1
 62
     5
420
      255
176
     1
290
     0
176
     1
 90
       50
176
     1
 90
       50
176
     1
 90
       50
176
     1
290
     0
176
     1
 90
       50
176
     1
 62
   256
176
     0
 40
1.0
176
     0
 90
        2
176
     1
  1
strokes_ogs.tif
176
     1
290
     0
176
     1
 40
1.0
176
     1
 40
1.0
176
     1
1001
ACAD
1000
AcDbSavedByObjectVersion
1070
     0
  0
VISUALSTYLE
  5
F2
102
{ACAD_REACTORS
330
EF
102
}
330
EF
100
AcDbVisualStyle
  2
Gouraud
 70
     2
177
     3
291
     1
 70
    58
 90
        2
176
     1
 90
        2
176
     1
 90
        1
176
     1
 90
        2
176
     1
 40
0.6
176
     1
 40
30.0
176
     1
 62
     7
420
 16777215
176
     1
 90
        0
176
     1
 90
        0
176
     1
 62
     7
176
     1
 62
   257
176
     1
 90
        1
176
     1
 90
        1
176
     1
 40
1.0
176
     1
 90
        0
176
     1
 62
     7
176
     1
 40
1.0
176
     1
 90
        1
176
     1
 90
        6
176
     1
 90
        2
176
     1
 62
     7
176
     1
 90
        5
176
     1
 90
        0
176
     1
 90
        0
176
     1
290
     0
176
     1
 90
       13
176
     1
 40
0.0
176
     1
 90
        0
176
     1
290
     0
176
     1
290
     1
176
     1
290
     1
176
     1
290
     0
176
     1
290
     0
176
     1
290
     0
176
     1
290
     0
176
     1
290
     0
176
     1
290
     0
176
     1
 90
       50
176
     1
 40
0.0
176
     1
 40
1.0
176
     1
 90
        0
176
     1
 62
    18
420
        0
176
     1
 90
       50
176
     1
 90
        3
176
     1
 62
     5
420
      255
176
     1
290
     0
176
     1
 90
       50
176
     1
 90
       50
176
     1
 90
       50
176
     1
290
     0
176
     1
 90
       50
176
     1
 62
   256
176
     0
 40
1.0
176
     0
 90
        2
176
     1
  1
strokes_ogs.tif
176
     1
290
     0
176
     1
 40
1.0
176
     1
 40
1.0
176
     1
1001
ACAD
1000
AcDbSavedByObjectVersion
1070
     0
  0
VISUALSTYLE
  5
F3
102
{ACAD_REACTORS
330
EF
102
}
330
EF
100
AcDbVisualStyle
  2
GouraudWithEdges
 70
     3
177
     3
291
     1
 70
    58
 90
        2
176
     1
 90
        2
176
     1
 90
        1
176
     1
 90
        2
176
     1
 40
0.6
176
     1
 40
30.0
176
     1
 62
     7
420
 16777215
176
     1
 90
        1
176
     1
 90
        0
176
     1
 62
     7
176
     1
 62
   257
176
     1
 90
        1
176
     1
 90
        1
176
     1
 40
1.0
176
     1
 90
        0
176
     1
 62
   257
176
     1
 40
1.0
176
     1
 90
        1
176
     1
 90
        6
176
     1
 90
        2
176
     1
 62
     7
176
     1
 90
        5
176
     1
 90
        0
176
     1
 90
        0
176
     1
290
     0
176
     1
 90
       13
176
     1
 40
0.0
176
     1
 90
        0
176
     1
290
     0
176
     1
290
     1
176
     1
290
     1
176
     1
290
     0
176
     1
290
     0
176
     1
290
     0
176
     1
290
     0
176
     1
290
     0
176
     1
290
     0
176
     1
 90
       50
176
     1
 40
0.0
176
     1
 40
1.0
176
     1
 90
        0
176
     1
 62
    18
420
        0
176
     1
 90
       50
176
     1
 90
        3
176
     1
 62
     5
420
      255
176
     1
290
     0
176
     1
 90
       50
176
     1
 90
       50
176
     1
 90
       50
176
     1
290
     0
176
     1
 90
       50
176
     1
 62
   256
176
     0
 40
1.0
176
     0
 90
        2
176
     1
  1
strokes_ogs.tif
176
     1
290
     0
176
     1
 40
1.0
176
     1
 40
1.0
176
     1
1001
ACAD
1000
AcDbSavedByObjectVersion
1070
     0
  0
VISUALSTYLE
  5
F7
102
{ACAD_REACTORS
330
EF
102
}
330
EF
100
AcDbVisualStyle
  2
Hidden
 70
     6
177
     3
291
     0
 70
    58
 90
        1
176
     1
 90
        2
176
     1
 90
        2
176
     1
 90
        0
176
     1
 40
0.6
176
     1
 40
30.0
176
     1
 62
     7
420
 16777215
176
     1
 90
        2
176
     1
 90
        2
176
     1
 62
     7
176
     1
 62
   257
176
     1
 90
        2
176
     1
 90
        1
176
     1
 40
40.0
176
     1
 90
        0
176
     1
 62
   257
176
     1
 40
1.0
176
     1
 90
        1
176
     1
 90
        6
176
     1
 90
        2
176
     1
 62
     7
176
     1
 90
        3
176
     1
 90
        0
176
     1
 90
        0
176
     1
290
     0
176
     1
 90
        1
176
     1
 40
0.0
176
     1
 90
        0
176
     1
290
     0
176
     1
290
     1
176
     1
290
     1
176
     1
290
     0
176
     1
290
     0
176
     1
290
     0
176
     1
290
     0
176
     1
290
     0
176
     1
290
     0
176
     1
 90
       50
176
     1
 40
0.0
176
     1
 40
1.0
176
     1
 90
        0
176
     1
 62
    18
420
        0
176
     1
 90
       50
176
     1
 90
        3
176
     1
 62
     5
420
      255
176
     1
290
     0
176
     1
 90
       50
176
     1
 90
       50
176
     1
 90
       50
176
     1
290
     0
176
     1
 90
       50
176
     1
 62
   256
176
     0
 40
1.0
176
     0
 90
        2
176
     1
  1
strokes_ogs.tif
176
     1
290
     0
176
     1
 40
1.0
176
     1
 40
1.0
176
     1
1001
ACAD
1000
AcDbSavedByObjectVersion
1070
     0
  0
VISUALSTYLE
  5
1E4
102
{ACAD_REACTORS
330
EF
102
}
330
EF
100
AcDbVisualStyle
  2
JitterOff
 70
    20
177
     3
291
     1
 70
    58
 90
        2
176
     0
 90
        2
176
     0
 90
        0
176
     0
 90
        0
176
     0
 40
0.6
176
     0
 40
30.0
176
     0
 62
     7
420
 16777215
176
     0
 90
        1
176
     0
 90
        4
176
     0
 62
     7
176
     0
 62
   257
176
     0
 90
        1
176
     0
 90
        1
176
     0
 40
1.0
176
     0
 90
       10
176
     2
 62
     7
176
     0
 40
1.0
176
     0
 90
        1
176
     0
 90
        6
176
     0
 90
        2
176
     0
 62
     7
176
     0
 90
        5
176
     0
 90
        0
176
     0
 90
        0
176
     0
290
     0
176
     0
 90
        1
176
     0
 40
0.0
176
     0
 90
        0
176
     0
290
     0
176
     1
290
     1
176
     1
290
     1
176
     1
290
     0
176
     1
290
     0
176
     1
290
     0
176
     1
290
     0
176
     1
290
     0
176
     1
290
     0
176
     1
 90
       50
176
     1
 40
0.0
176
     1
 40
1.0
176
     1
 90
        0
176
     1
 62
    18
420
        0
176
     1
 90
       50
176
     1
 90
        3
176
     1
 62
     5
420
      255
176
     1
290
     0
176
     1
 90
       50
176
     1
 90
       50
176
     1
 90
       50
176
     1
290
     0
176
     1
 90
       50
176
     1
 62
   256
176
     0
 40
1.0
176
     0
 90
        2
176
     1
  1
strokes_ogs.tif
176
     1
290
     0
176
     1
 40
1.0
176
     1
 40
1.0
176
     1
1001
ACAD
1000
AcDbSavedByObjectVersion
1070
     0
  0
VISUALSTYLE
  5
FD
102
{ACAD_REACTORS
330
EF
102
}
330
EF
100
AcDbVisualStyle
  2
Linepattern
 70
    14
177
     3
291
     1
 70
    58
 90
        2
176
     1
 90
        2
176
     1
 90
        1
176
     1
 90
        0
176
     1
 40
0.6
176
     1
 40
30.0
176
     1
 62
     7
420
 16777215
176
     1
 90
        1
176
     1
 90
        4
176
     1
 62
     7
176
     1
 62
   257
176
     1
 90
        7
176
     1
 90
        7
176
     1
 40
1.0
176
     1
 90
        8
176
     1
 62
     7
176
     1
 40
1.0
176
     1
 90
        1
176
     1
 90
        6
176
     1
 90
        2
176
     1
 62
     7
176
     1
 90
        5
176
     1
 90
        0
176
     1
 90
        0
176
     1
290
     0
176
     1
 90
        1
176
     1
 40
0.0
176
     1
 90
        0
176
     1
290
     0
176
     1
290
     1
176
     1
290
     1
176
     1
290
     0
176
     1
290
     0
176
     1
290
     0
176
     1
290
     0
176
     1
290
     0
176
     1
290
     0
176
     1
 90
       50
176
     1
 40
0.0
176
     1
 40
1.0
176
     1
 90
        0
176
     1
 62
    18
420
        0
176
     1
 90
       50
176
     1
 90
        3
176
     1
 62
     5
420
      255
176
     1
290
     0
176
     1
 90
       50
176
     1
 90
       50
176
     1
 90
       50
176
     1
290
     0
176
     1
 90
       50
176
     1
 62
   256
176
     0
 40
1.0
176
     0
 90
        2
176
     1
  1
strokes_ogs.tif
176
     1
290
     0
176
     1
 40
1.0
176
     1
 40
1.0
176
     1
1001
ACAD
1000
AcDbSavedByObjectVersion
1070
     0
  0
VISUALSTYLE
  5
1E5
102
{ACAD_REACTORS
330
EF
102
}
330
EF
100
AcDbVisualStyle
  2
OverhangOff
 70
    21
177
     3
291
     1
 70
    58
 90
        2
176
     0
 90
        2
176
     0
 90
        0
176
     0
 90
        0
176
     0
 40
0.6
176
     0
 40
30.0
176
     0
 62
     7
420
 16777215
176
     0
 90
        1
176
     0
 90
        4
176
     0
 62
     7
176
     0
 62
   257
176
     0
 90
        1
176
     0
 90
        1
176
     0
 40
1.0
176
     0
 90
        9
176
     2
 62
     7
176
     0
 40
1.0
176
     0
 90
        1
176
     0
 90
        6
176
     0
 90
        2
176
     0
 62
     7
176
     0
 90
        5
176
     0
 90
        0
176
     0
 90
        0
176
     0
290
     0
176
     0
 90
        1
176
     0
 40
0.0
176
     0
 90
        0
176
     0
290
     0
176
     1
290
     1
176
     1
290
     1
176
     1
290
     0
176
     1
290
     0
176
     1
290
     0
176
     1
290
     0
176
     1
290
     0
176
     1
290
     0
176
     1
 90
       50
176
     1
 40
0.0
176
     1
 40
1.0
176
     1
 90
        0
176
     1
 62
    18
420
        0
176
     1
 90
       50
176
     1
 90
        3
176
     1
 62
     5
420
      255
176
     1
290
     0
176
     1
 90
       50
176
     1
 90
       50
176
     1
 90
       50
176
     1
290
     0
176
     1
 90
       50
176
     1
 62
   256
176
     0
 40
1.0
176
     0
 90
        2
176
     1
  1
strokes_ogs.tif
176
     1
290
     0
176
     1
 40
1.0
176
     1
 40
1.0
176
     1
1001
ACAD
1000
AcDbSavedByObjectVersion
1070
     0
  0
VISUALSTYLE
  5
F9
102
{ACAD_REACTORS
330
EF
102
}
330
EF
100
AcDbVisualStyle
  2
Realistic
 70
     8
177
     3
291
     0
 70
    58
 90
        2
176
     1
 90
        3
176
     1
 90
        0
176
     1
 90
        2
176
     1
 40
0.6
176
     1
 40
30.0
176
     1
 62
     7
420
 16777215
176
     1
 90
        0
176
     1
 90
        0
176
     1
 62
     7
176
     1
 62
   257
176
     1
 90
        1
176
     1
 90
        1
176
     1
 40
1.0
176
     1
 90
        8
176
     1
 62
   257
176
     1
 40
1.0
176
     1
 90
        1
176
     1
 90
        6
176
     1
 90
        2
176
     1
 62
     7
176
     1
 90
        3
176
     1
 90
        0
176
     1
 90
        0
176
     1
290
     0
176
     1
 90
       13
176
     1
 40
0.0
176
     1
 90
        0
176
     1
290
     0
176
     1
290
     1
176
     1
290
     1
176
     1
290
     0
176
     1
290
     0
176
     1
290
     0
176
     1
290
     0
176
     1
290
     0
176
     1
290
     0
176
     1
 90
       50
176
     1
 40
0.0
176
     1
 40
1.0
176
     1
 90
        0
176
     1
 62
    18
420
        0
176
     1
 90
       50
176
     1
 90
        3
176
     1
 62
     5
420
      255
176
     1
290
     0
176
     1
 90
       50
176
     1
 90
       50
176
     1
 90
       50
176
     1
290
     0
176
     1
 90
       50
176
     1
 62
   256
176
     0
 40
1.0
176
     0
 90
        2
176
     1
  1
strokes_ogs.tif
176
     1
290
     0
176
     1
 40
1.0
176
     1
 40
1.0
176
     1
1001
ACAD
1000
AcDbSavedByObjectVersion
1070
     0
  0
VISUALSTYLE
  5
1F3
102
{ACAD_REACTORS
330
EF
102
}
330
EF
100
AcDbVisualStyle
  2
Shaded
 70
    27
177
     3
291
     0
 70
    58
 90
        2
176
     1
 90
        2
176
     1
 90
        1
176
     1
 90
        2
176
     1
 40
0.6
176
     1
 40
30.0
176
     1
 62
     7
420
 16777215
176
     1
 90
        0
176
     1
 90
        4
176
     1
 62
     7
176
     1
 62
   257
176
     1
 90
        1
176
     1
 90
        1
176
     1
 40
1.0
176
     1
 90
        8
176
     1
 62
   257
176
     1
 40
1.0
176
     1
 90
        1
176
     1
 90
        6
176
     1
 90
        2
176
     1
 62
     8
420
  7895160
176
     1
 90
        3
176
     1
 90
        0
176
     1
 90
        0
176
     1
290
     0
176
     1
 90
        5
176
     1
 40
0.0
176
     1
 90
        0
176
     1
290
     0
176
     1
290
     1
176
     1
290
     1
176
     1
290
     0
176
     1
290
     0
176
     1
290
     0
176
     1
290
     0
176
     1
290
     0
176
     1
290
     0
176
     1
 90
       50
176
     1
 40
0.0
176
     1
 40
1.0
176
     1
 90
        0
176
     1
 62
    18
420
        0
176
     1
 90
       50
176
     1
 90
        3
176
     1
 62
     5
420
      255
176
     1
290
     0
176
     1
 90
       50
176
     1
 90
       50
176
     1
 90
       50
176
     1
290
     0
176
     1
 90
       50
176
     1
 62
   256
176
     0
 40
1.0
176
     0
 90
        2
176
     1
  1
strokes_ogs.tif
176
     1
290
     0
176
     1
 40
1.0
176
     1
 40
1.0
176
     1
1001
ACAD
1000
AcDbSavedByObjectVersion
1070
     0
  0
VISUALSTYLE
  5
1F2
102
{ACAD_REACTORS
330
EF
102
}
330
EF
100
AcDbVisualStyle
  2
Shaded with edges
 70
    26
177
     3
291
     0
 70
    58
 90
        2
176
     1
 90
        2
176
     1
 90
        1
176
     1
 90
        2
176
     1
 40
0.6
176
     1
 40
30.0
176
     1
 62
     7
420
 16777215
176
     1
 90
        1
176
     1
 90
        2
176
     1
 62
     7
176
     1
 62
   257
176
     1
 90
        2
176
     1
 90
        1
176
     1
 40
1.0
176
     1
 90
        8
176
     1
 62
   257
176
     1
 40
1.0
176
     1
 90
        1
176
     1
 90
        6
176
     1
 90
        2
176
     1
 62
     7
176
     1
 90
        3
176
     1
 90
        0
176
     1
 90
        0
176
     1
290
     0
176
     1
 90
        5
176
     1
 40
0.0
176
     1
 90
        0
176
     1
290
     0
176
     1
290
     1
176
     1
290
     1
176
     1
290
     0
176
     1
290
     0
176
     1
290
     0
176
     1
290
     0
176
     1
290
     0
176
     1
290
     0
176
     1
 90
       50
176
     1
 40
0.0
176
     1
 40
1.0
176
     1
 90
        0
176
     1
 62
    18
420
        0
176
     1
 90
       50
176
     1
 90
        3
176
     1
 62
     5
420
      255
176
     1
290
     0
176
     1
 90
       50
176
     1
 90
       50
176
     1
 90
       50
176
     1
290
     0
176
     1
 90
       50
176
     1
 62
   256
176
     0
 40
1.0
176
     0
 90
        2
176
     1
  1
strokes_ogs.tif
176
     1
290
     0
176
     1
 40
1.0
176
     1
 40
1.0
176
     1
1001
ACAD
1000
AcDbSavedByObjectVersion
1070
     0
  0
VISUALSTYLE
  5
1EF
102
{ACAD_REACTORS
330
EF
102
}
330
EF
100
AcDbVisualStyle
  2
Shades of Gray
 70
    23
177
     3
291
     0
 70
    58
 90
        2
176
     1
 90
        2
176
     1
 90
        3
176
     1
 90
        0
176
     1
 40
0.6
176
     1
 40
30.0
176
     1
 62
     7
420
 16777215
176
     1
 90
        2
176
     1
 90
        2
176
     1
 62
     7
176
     1
 62
     7
176
     1
 90
        1
176
     1
 90
        1
176
     1
 40
40.0
176
     1
 90
        8
176
     1
 62
     7
176
     1
 40
1.0
176
     1
 90
        1
176
     1
 90
        6
176
     1
 90
        2
176
     1
 62
     7
176
     1
 90
        3
176
     1
 90
        0
176
     1
 90
        0
176
     1
290
     0
176
     1
 90
        1
176
     1
 40
0.0
176
     1
 90
        0
176
     1
290
     0
176
     1
290
     1
176
     1
290
     1
176
     1
290
     0
176
     1
290
     0
176
     1
290
     0
176
     1
290
     0
176
     1
290
     0
176
     1
290
     0
176
     1
 90
       50
176
     1
 40
0.0
176
     1
 40
1.0
176
     1
 90
        0
176
     1
 62
    18
420
        0
176
     1
 90
       50
176
     1
 90
        3
176
     1
 62
     5
420
      255
176
     1
290
     0
176
     1
 90
       50
176
     1
 90
       50
176
     1
 90
       50
176
     1
290
     0
176
     1
 90
       50
176
     1
 62
   256
176
     0
 40
1.0
176
     0
 90
        2
176
     1
  1
strokes_ogs.tif
176
     1
290
     0
176
     1
 40
1.0
176
     1
 40
1.0
176
     1
1001
ACAD
1000
AcDbSavedByObjectVersion
1070
     0
  0
VISUALSTYLE
  5
1F0
102
{ACAD_REACTORS
330
EF
102
}
330
EF
100
AcDbVisualStyle
  2
Sketchy
 70
    24
177
     3
291
     0
 70
    58
 90
        1
176
     1
 90
        2
176
     1
 90
        2
176
     1
 90
        0
176
     1
 40
0.6
176
     1
 40
30.0
176
     1
 62
     7
420
 16777215
176
     1
 90
        2
176
     1
 90
        2
176
     1
 62
     7
176
     1
 62
     7
176
     1
 90
        1
176
     1
 90
        1
176
     1
 40
40.0
176
     1
 90
       11
176
     1
 62
     7
176
     1
 40
1.0
176
     1
 90
        1
176
     1
 90
        6
176
     1
 90
        2
176
     1
 62
     7
176
     1
 90
        6
176
     1
 90
        0
176
     1
 90
        0
176
     1
290
     0
176
     1
 90
        1
176
     1
 40
0.0
176
     1
 90
        0
176
     1
290
     0
176
     1
290
     1
176
     1
290
     1
176
     1
290
     0
176
     1
290
     0
176
     1
290
     0
176
     1
290
     0
176
     1
290
     0
176
     1
290
     0
176
     1
 90
       50
176
     1
 40
0.0
176
     1
 40
1.0
176
     1
 90
        0
176
     1
 62
    18
420
        0
176
     1
 90
       50
176
     1
 90
        3
176
     1
 62
     5
420
      255
176
     1
290
     0
176
     1
 90
       50
176
     1
 90
       50
176
     1
 90
       50
176
     1
290
     0
176
     1
 90
       50
176
     1
 62
   256
176
     0
 40
1.0
176
     0
 90
        2
176
     1
  1
strokes_ogs.tif
176
     1
290
     0
176
     1
 40
1.0
176
     1
 40
1.0
176
     1
1001
ACAD
1000
AcDbSavedByObjectVersion
1070
     0
  0
VISUALSTYLE
  5
FC
102
{ACAD_REACTORS
330
EF
102
}
330
EF
100
AcDbVisualStyle
  2
Thicken
 70
    13
177
     3
291
     1
 70
    58
 90
        2
176
     1
 90
        2
176
     1
 90
        1
176
     1
 90
        0
176
     1
 40
0.6
176
     1
 40
30.0
176
     1
 62
     7
420
 16777215
176
     1
 90
        1
176
     1
 90
        4
176
     1
 62
     7
176
     1
 62
   257
176
     1
 90
        1
176
     1
 90
        1
176
     1
 40
1.0
176
     1
 90
       12
176
     1
 62
     7
176
     1
 40
1.0
176
     1
 90
        1
176
     1
 90
        6
176
     1
 90
        2
176
     1
 62
     7
176
     1
 90
        5
176
     1
 90
        0
176
     1
 90
        0
176
     1
290
     0
176
     1
 90
        1
176
     1
 40
0.0
176
     1
 90
        0
176
     1
290
     0
176
     1
290
     1
176
     1
290
     1
176
     1
290
     0
176
     1
290
     0
176
     1
290
     0
176
     1
290
     0
176
     1
290
     0
176
     1
290
     0
176
     1
 90
       50
176
     1
 40
0.0
176
     1
 40
1.0
176
     1
 90
        0
176
     1
 62
    18
420
        0
176
     1
 90
       50
176
     1
 90
        3
176
     1
 62
     5
420
      255
176
     1
290
     0
176
     1
 90
       50
176
     1
 90
       50
176
     1
 90
       50
176
     1
290
     0
176
     1
 90
       50
176
     1
 62
   256
176
     0
 40
1.0
176
     0
 90
        2
176
     1
  1
strokes_ogs.tif
176
     1
290
     0
176
     1
 40
1.0
176
     1
 40
1.0
176
     1
1001
ACAD
1000
AcDbSavedByObjectVersion
1070
     0
  0
VISUALSTYLE
  5
F6
102
{ACAD_REACTORS
330
EF
102
}
330
EF
100
AcDbVisualStyle
  2
Wireframe
 70
     5
177
     3
291
     0
 70
    58
 90
        0
176
     1
 90
        2
176
     1
 90
        0
176
     1
 90
        0
176
     1
 40
0.6
176
     1
 40
30.0
176
     1
 62
     7
420
 16777215
176
     1
 90
        1
176
     1
 90
        4
176
     1
 62
     7
176
     1
 62
   257
176
     1
 90
        1
176
     1
 90
        1
176
     1
 40
1.0
176
     1
 90
        0
176
     1
 62
   257
176
     1
 40
1.0
176
     1
 90
        1
176
     1
 90
        6
176
     1
 90
        2
176
     1
 62
     7
176
     1
 90
        3
176
     1
 90
        0
176
     1
 90
        0
176
     1
290
     0
176
     1
 90
        1
176
     1
 40
0.0
176
     1
 90
        0
176
     1
290
     0
176
     1
290
     1
176
     1
290
     1
176
     1
290
     0
176
     1
290
     0
176
     1
290
     0
176
     1
290
     0
176
     1
290
     0
176
     1
290
     0
176
     1
 90
       50
176
     1
 40
0.0
176
     1
 40
1.0
176
     1
 90
        0
176
     1
 62
    18
420
        0
176
     1
 90
       50
176
     1
 90
        3
176
     1
 62
     5
420
      255
176
     1
290
     0
176
     1
 90
       50
176
     1
 90
       50
176
     1
 90
       50
176
     1
290
     0
176
     1
 90
       50
176
     1
 62
   256
176
     0
 40
1.0
176
     0
 90
        2
176
     1
  1
strokes_ogs.tif
176
     1
290
     0
176
     1
 40
1.0
176
     1
 40
1.0
176
     1
1001
ACAD
1000
AcDbSavedByObjectVersion
1070
     0
  0
VISUALSTYLE
  5
1F1
102
{ACAD_REACTORS
330
EF
102
}
330
EF
100
AcDbVisualStyle
  2
X-Ray
 70
    25
177
     3
291
     0
 70
    58
 90
        2
176
     1
 90
        2
176
     1
 90
        1
176
     1
 90
        1
176
     1
 40
0.5
176
     1
 40
30.0
176
     1
 62
     7
420
 16777215
176
     1
 90
        1
176
     1
 90
        0
176
     1
 62
     7
176
     1
 62
   257
176
     1
 90
        1
176
     1
 90
        1
176
     1
 40
1.0
176
     1
 90
        8
176
     1
 62
     7
176
     1
 40
1.0
176
     1
 90
        1
176
     1
 90
        6
176
     1
 90
        2
176
     1
 62
     7
176
     1
 90
        3
176
     1
 90
        0
176
     1
 90
        0
176
     1
290
     0
176
     1
 90
       13
176
     1
 40
0.0
176
     1
 90
        0
176
     1
290
     0
176
     1
290
     1
176
     1
290
     1
176
     1
290
     0
176
     1
290
     0
176
     1
290
     0
176
     1
290
     0
176
     1
290
     0
176
     1
290
     0
176
     1
 90
       50
176
     1
 40
0.0
176
     1
 40
1.0
176
     1
 90
        0
176
     1
 62
    18
420
        0
176
     1
 90
       50
176
     1
 90
        3
176
     1
 62
     5
420
      255
176
     1
290
     0
176
     1
 90
       50
176
     1
 90
       50
176
     1
 90
       50
176
     1
290
     0
176
     1
 90
       50
176
     1
 62
   256
176
     0
 40
1.0
176
     0
 90
        2
176
     1
  1
strokes_ogs.tif
176
     1
290
     0
176
     1
 40
1.0
176
     1
 40
1.0
176
     1
1001
ACAD
1000
AcDbSavedByObjectVersion
1070
     0
  0
DICTIONARYVAR
  5
146
102
{ACAD_REACTORS
330
5E
102
}
330
5E
100
DictionaryVariables
280
     0
  1
1:1
  0
DICTIONARYVAR
  5
259
102
{ACAD_REACTORS
330
5E
102
}
330
5E
100
DictionaryVariables
280
     0
  1
3.500000
  0
DICTIONARYVAR
  5
25A
102
{ACAD_REACTORS
330
5E
102
}
330
5E
100
DictionaryVariables
280
     0
  1
acadiso.lin
  0
DICTIONARYVAR
  5
145
102
{ACAD_REACTORS
330
5E
102
}
330
5E
100
DictionaryVariables
280
     0
  1
STANDARD
  0
DICTIONARYVAR
  5
84
102
{ACAD_REACTORS
330
5E
102
}
330
5E
100
DictionaryVariables
280
     0
  1
STANDARD
  0
DICTIONARYVAR
  5
227
102
{ACAD_REACTORS
330
5E
102
}
330
5E
100
DictionaryVariables
280
     0
  1
Metric50
  0
DICTIONARYVAR
  5
228
102
{ACAD_REACTORS
330
5E
102
}
330
5E
100
DictionaryVariables
280
     0
  1
Metric50
  0
DICTIONARYVAR
  5
5F
102
{ACAD_REACTORS
330
5E
102
}
330
5E
100
DictionaryVariables
280
     0
  1
2
  0
DICTIONARYVAR
  5
63
102
{ACAD_REACTORS
330
5E
102
}
330
5E
100
DictionaryVariables
280
     0
  1
1
  0
DICTIONARYVAR
  5
1AE
102
{ACAD_REACTORS
330
5E
102
}
330
5E
100
DictionaryVariables
280
     0
  1
0
  0
DICTIONARYVAR
  5
1AF
102
{ACAD_REACTORS
330
5E
102
}
330
5E
100
DictionaryVariables
280
     0
  1
0
  0
DICTIONARY
  5
18A3
102
{ACAD_REACTORS
330
18A1
102
}
330
18A1
100
AcDbDictionary
281
     1
  0
DICTIONARY
  5
18A2
102
{ACAD_REACTORS
330
18A1
102
}
330
18A1
100
AcDbDictionary
281
     1
  3
2310071707968
350
189C
  3
2310071707984
350
189D
  3
2310071708000
350
189E
  3
2310071708016
350
189F
  3
2310071708032
350
18A0
  0
XRECORD
  5
372
102
{ACAD_XDICTIONARY
360
373
102
}
102
{ACAD_REACTORS
330
200
102
}
330
200
100
AcDbXrecord
280
     1
 91
     2047
301

290
     0
302
0
330
2E8
 90
        8
 62
    94
370
    -3
331
16
  1
Color_94
440
        0
330
10
 90
        8
 62
     7
370
    -3
331
16
  1
Color_7
440
        0
  0
XRECORD
  5
2E2
102
{ACAD_XDICTIONARY
360
2E3
102
}
102
{ACAD_REACTORS
330
200
102
}
330
200
100
AcDbXrecord
280
     1
 91
     2047
301

290
     0
302
0
330
10
 90
        8
 62
     7
370
    -3
331
16
  1
Color_7
440
        0
  0
ACDBASSOCNETWORK
  5
386
102
{ACAD_REACTORS
330
385
102
}
330
385
100
AcDbAssocAction
 90
        2
 90
        0
330
388
360
0
 90
        1
 90
        0
 90
        0
 90
        0
 90
        0
 90
        0
 90
        0
100
AcDbAssocNetwork
 90
        0
 90
       18
 90
        2
360
1184
360
11BB
 90
        0
  0
DICTIONARY
  5
18A6
330
21C
100
AcDbDictionary
280
     1
281
     1
  3
ACAD_XREC_ROUNDTRIP
360
18A7
  0
DICTIONARY
  5
205
330
22
100
AcDbDictionary
280
     1
281
     1
  0
DICTIONARY
  5
1F9
330
ED
100
AcDbDictionary
280
     1
281
     1
  3
FBXASSET
360
1FA
  0
DICTIONARY
  5
1F7
330
EC
100
AcDbDictionary
280
     1
281
     1
  3
FBXASSET
360
1F8
  0
DICTIONARY
  5
173
330
EE
100
AcDbDictionary
280
     1
281
     1
  3
BUMPTILE
360
175
  3
DIFFUSETILE
360
174
  3
FBXASSET
360
1FB
  3
OPACITYTILE
360
176
  3
REFLECTIONTILE
360
177
  0
XRECORD
  5
18AB
102
{ACAD_REACTORS
330
18A9
102
}
330
18A9
100
AcDbXrecord
280
     1
102
ACAD_MENTALRAY_SETTING_RT
330
46E
 70
     1
  0
XRECORD
  5
18AA
102
{ACAD_REACTORS
330
18A9
102
}
330
18A9
100
AcDbXrecord
280
     1
 70
     2
 71
     3
 72
     0
  0
DICTIONARY
  5
18A4
330
21A
100
AcDbDictionary
280
     1
281
     1
  3
ACAD_XREC_ROUNDTRIP
360
18A5
  0
DICTIONARY
  5
162
330
7F
100
AcDbDictionary
280
     1
281
     1
  3
ACAD_ROUNDTRIP_2008_TABLESTYLE_CELLSTYLEMAP
360
189A
  0
XRECORD
  5
189C
102
{ACAD_REACTORS
330
18A2
102
}
330
18A2
100
AcDbXrecord
280
     1
  1
AcDb_Thumbnail_Schema
102
{ATTRRECORD
341
189D
  2
AcDbDs::TreatedAsObjectData
280
     1
291
     1
102
ATTRRECORD}
102
{ATTRRECORD
341
189E
  2
AcDbDs::Legacy
280
     1
291
     1
102
ATTRRECORD}
  2
AcDbDs::ID
280
    10
 91
        8
102
{ATTRRECORD
341
189F
  2
AcDs:Indexable
280
     1
291
     1
102
ATTRRECORD}
102
{ATTRRECORD
341
18A0
  2
AcDbDs::HandleAttribute
280
     7
282
     1
102
ATTRRECORD}
  2
Thumbnail_Data
280
    15
 91
        0
  0
XRECORD
  5
189D
102
{ACAD_REACTORS
330
18A2
102
}
330
18A2
100
AcDbXrecord
280
     1
  1
AcDbDs::TreatedAsObjectDataSchema
  2
AcDbDs::TreatedAsObjectData
280
     1
 91
        0
  0
XRECORD
  5
189E
102
{ACAD_REACTORS
330
18A2
102
}
330
18A2
100
AcDbXrecord
280
     1
  1
AcDbDs::LegacySchema
  2
AcDbDs::Legacy
280
     1
 91
        0
  0
XRECORD
  5
189F
102
{ACAD_REACTORS
330
18A2
102
}
330
18A2
100
AcDbXrecord
280
     1
  1
AcDbDs::IndexedPropertySchema
  2
AcDs:Indexable
280
     1
 91
        0
  0
XRECORD
  5
18A0
102
{ACAD_REACTORS
330
18A2
102
}
330
18A2
100
AcDbXrecord
280
     1
  1
AcDbDs::HandleAttributeSchema
  2
AcDbDs::HandleAttribute
280
     7
 91
        1
284
     1
  0
DICTIONARY
  5
373
330
372
100
AcDbDictionary
280
     1
281
     1
  3
AcadLayerStateAnnoScale
360
374
  0
DICTIONARY
  5
2E3
330
2E2
100
AcDbDictionary
280
     1
281
     1
  3
AcadLayerStateAnnoScale
360
2E4
  0
ACDBASSOCACTION
  5
1184
330
386
100
AcDbAssocAction
 90
        2
 90
        0
330
386
360
1185
 90
       17
 90
        3
 90
        3
360
1186
360
1187
360
1188
 90
        0
 90
        3
360
1189
360
118A
360
118B
 90
        0
 90
       10
 90
        0
  1
FillAngle
 90
        2
 90
        1
 40
6.283185307179586
330
0
330
0
 90
        0
  1
ItemSpacing
 90
        2
 90
        1
 40
1.570796326794896
330
0
330
0
 90
        0
  1
Items
 90
        0
 90
        1
 90
        4
330
0
330
0
 90
        0
  1
LevelSpacing
 90
        1
 90
        1
 40
1.0
330
0
330
0
 90
        0
  1
Levels
 90
        0
 90
        1
 90
        1
330
0
330
0
 90
        0
  1
RowElevation
 90
        1
 90
        1
 40
0.0
330
0
330
0
 90
        0
  1
RowSpacing
 90
        1
 90
        1
 40
3.0
330
0
330
0
 90
        0
  1
Rows
 90
        0
 90
        1
 90
       10
330
0
330
0
 90
        0
  1
Radius
 90
        1
 90
        1
 40
3.574875220563626
330
0
330
0
 90
        0
  1
StartAngle
 90
        2
 90
        1
 40
3.926990816987241
330
0
330
0
  0
ACDBASSOCACTION
  5
11BB
330
386
100
AcDbAssocAction
 90
        2
 90
        0
330
386
360
11BC
 90
       18
 90
        3
 90
        3
360
11BD
360
11BE
360
11BF
 90
        0
 90
        3
360
11C0
360
11C1
360
11C2
 90
        0
 90
       10
 90
        0
  1
FillAngle
 90
        2
 90
        1
 40
6.283185307179586
330
0
330
0
 90
        0
  1
ItemSpacing
 90
        2
 90
        1
 40
1.570796326794896
330
0
330
0
 90
        0
  1
Items
 90
        0
 90
        1
 90
        4
330
0
330
0
 90
        0
  1
LevelSpacing
 90
        1
 90
        1
 40
1.0
330
0
330
0
 90
        0
  1
Levels
 90
        0
 90
        1
 90
        1
330
0
330
0
 90
        0
  1
RowElevation
 90
        1
 90
        1
 40
0.0
330
0
330
0
 90
        0
  1
RowSpacing
 90
        1
 90
        1
 40
3.0
330
0
330
0
 90
        0
  1
Rows
 90
        0
 90
        1
 90
       10
330
0
330
0
 90
        0
  1
Radius
 90
        1
 90
        1
 40
3.574875220563626
330
0
330
0
 90
        0
  1
StartAngle
 90
        2
 90
        1
 40
3.926990816987241
330
0
330
0
  0
XRECORD
  5
18A7
102
{ACAD_REACTORS
330
18A6
102
}
330
18A6
100
AcDbXrecord
280
     1
102
DISPLAYNAME
  1
Metric50
102
FLAGS
 90
        0
  0
XRECORD
  5
1FA
102
{ACAD_REACTORS
330
1F9
102
}
330
1F9
100
AcDbXrecord
280
     1
 70
     1
 90
429727718
  1
D62C5603-E3A1-4AEA-B7FB-FE5D8D0755AF
310
504B03040A0000080000CC70623B3DEE336E79000000790000001B0000006175746F6465736B2D64657369676E2D7061636B6167652E786D6C3C3F786D6C2076657273696F6E3D22312E302220656E636F64696E673D227574662D3822203F3E3C666F726D6174733E3C666F726D61743E687474703A2F2F736368656D612E
310
6175746F6465736B2E636F6D2F64657369676E2D7061636B6167652F323030393C2F666F726D61743E3C2F666F726D6174733E504B0304140006080800CC70623BD486FD9CA0000000F4000000130000005B436F6E74656E745F54797065735D2E786D6C7D8EC10E82300C865F65E91D8A1E8C310C0EEA1BF002731658846E
310
D98AC1B77784ABF1D8FE5FBFBF75BBCE937A534CCEB38643598122B6FEE978D0B0485F9C41B54DDD7D022595594E1A469170414C76A4D9A4D207E29CF43ECE46F218070CC6BECC4078ACAA135ACF422C856C0E68EA1BF5669944DDD7BCDE7B1F8E415D77AECB980613C2E4AC91FC167A2B244592486606FC29C8FD7F045B9A
310
EF7053A7E60B504B0304140006080800CC70623B853B8169EB0000007C01000008000000636F72652E786D6C8D90416EC3201045AF62CDB6C206821CC7C244919D9CA01740401C94182C03558F5F9C3852BBEB6A467FFE9B197D7EFC9E1EC5975982F5AE035262288C535E5B377690E21535501C055FBC8FBF6C503839990E
310
5619041F179FE64D52DE45E362569DD7661365082642A11EB9E920A89B99642953CC8E702F67A9EE7234257977194EC9EAE275C4EABCCF5EAD5940D4AC6F0E35A568B8F43562CD7046CD199FD07E60174276A7BE677B5EADB0E0D14EEFFB6A31321A0D82627C4084204C3F096B71DD52F6819B16635EADF63F509AF53FA164
310
5DDCD1EDDD17164090FCC8732078B56691CB33A85CD7DCC40F504B0304140006080800CC70623B55019EA25F0000007C00000007000000636E782E786D6C4DCB3B0E80201045D1AD90E915ED2CF8AC45050C11660C8261F98AB1B07AC9C97D42D718D865D3E909258CFD00CCE24AC6E326A164D74DC0B4128928FF32603847
310
2BA13128B1252AC747C6BAB984FC68F0B87FE8960A5C09FE86CFB69FBA01504B0304140006080800CC70623BDBABAAF470010000D40300000C0000006662782F636F72652E786D6CC553D16E823014FD95A6AF4B694182CC941A83FA05FB810A9511A125A5257EFE2E82712ECEB8A7F100CD39F7F69E734AF9FADC366850B6
310
AF8DCE7018308C942E4C59EB2AC3DE1D498AD15A706B8CFB56869196ADCAF00863C12B6B7C374385D14E6907A836A59A41D9F7CA615434B0C8705F7CAA5606D23BA8E84F41278B93AC54100640439DE0BDB320004D43C63716C7C399D30917DCFBBA9CD9BA8469F5B156168B24CED3F7248AC8769F27244EB73B92EED8862C
310
B7F13E0C179B3C8F979C8ECD82BBBABDAA2BAC924E9558448CBD9330242CFA08E3154B5651FCC6D215639C8EE5774DBE2B5F6CF2B5768B68963BB5F5588420E442FC700B1139D4CB01F450C1E918227C2E09DF070D8140C84E1E9AAB8F1340832A9CB13130A5F1376A908D57309505ECF2A0DF179C4E9D30F5B239B87E3823
310
7A79C6F31DE1A8A5AEC08474B03C7837EAE4938639B44E5932B833D2C6B6B279CDC613877FA26EE21F4A2A4C63EC7F29A2F301D1F9F7A0E37D145F504B0304140006080800CC70623B9C113CC27E0000009D0000000B0000006662782F636E782E786D6C4DCCDF0A83201C86E15B91DFB94BFB330DD428C8FB886521330DA7
310
6397BF1A1DECE883878F57749FCDA1B7892F1BBC047A23808C7F84D9FA55424E0BE6803A256208E9EF06C84F9B91703228B1C690F78B66B34CD9A5439DF5CF0BFBF65E35BCA1B8D6A5C6F540381E886698B5741C695F9503EBA150A2F8958E3DC3EA0B504B0304140006080800CC70623B7DF2F77C2A010000120200003100
310
00006662782F41393633353835312D344632462D344230382D423046372D3739314545314133324237412F636F72652E786D6C8D51DB8EC22014FC15C2939B0D2DB4B45643319AE817EC0F6041255A68B86CFCFC856D4D76DF7CE190393373060EDB3DC707F856CE6B6B7A480A0C81328395DA5C7B18C3057510EC3873D686
310
3F34088C18550F330C39BB3A1BA7051AAC09CA84841A2BD5020AEF55806078A44B0FFD7053A328440C89E1EFC52486BBB8AA8214A99D789CF9E05200300FC927E4FB4D5B375D43103D5527440FB843077C5AA3F5861C8F645F5787F59E95B390B318B55CE45AA638FAA2957BD7248B390B7A7CC51F9C124149C82B8C378810
310
84AB2F42B7B8DD56F413775B8C5999E9FF4471926F8AA236A1AE96B8B3CC434E5839373893369E1FAF30EA395917409EB7F26AF8801C171837A4A6AC9C89E9F9C9B1A58BA30FD6A5EF5DDDCF894B9AD9B6A59C957943A9FCAE2FD5BC4DFE03504B0304140006080800CC70623BAD7543B64E01000033030000300000006662
310
782F41393633353835312D344632462D344230382D423046372D3739314545314133324237412F636E782E786D6CD593CD6EC32010845F0571AD6CE3D48AD20813A9873E410FBD12D82434182C7EAAE6EDBB2424CD25871E7B41D6EC30B3FA84F9E67BB2E40B4234DE8DB46F1925E094D7C6ED479AD3AE5951B2113C789FEE
310
6C943839C1488B4C05DF079FE72A69D8C96C13AAD6B8631503449F83828872B949AC57D26200B826A308D316B4064D6E46FCDA41C05550DC9E483A00797BFD207EFB092A45DE9514C1BBD22178396BD39D891265658C238DEA00936C654E5E433CB65A26D9F6EDB5EBC14EBF49A45CB856E66048291F6939A9A81BB5C89177
310
38143CA680F4AA299D66A042CEB3354A2684DC9D8D178FE0D9B8B41CAAD720F880EE7EF93C0C18769E099ECC04D5A102C8049A8A05632F4DDF376CF1DE0F6BB65C2F8627B65A33C6BB62177CEBBDAD973006829F89F22E814B54F4BC2BE347F8AA8F681390B50FA73F804400B5F542E796F19FF974E7F78DB802FE05E20750
310
4B0304140006080800CC70623BE75B7789680500003C100000340000006662782F41393633353835312D344632462D344230382D423046372D3739314545314133324237412F6F626A656374732E786D6CAD575B8F9B3818FD2B887D06C22499CB8AA1CA655245D5B455A356FB305264C061D8018C6C3393D95FBFC7600890
310
A4CD5EF210B0B1BFEBF98E3F7B1FF6596ABC522E1296DF9BAE3D320D9A872C4AF2F8DE2CE5CEBA358D0FBEC719939D65A691938CDE9B6ADAF4BD98B3B2D05311DD91329583D9D5FC0F438434A7A611A644887B5384CF34233629258BA878B12322891DEFF6B66BD70BFB62634E8AE781D082709A4B588AF91C528CDA28B73F
310
1C998EEF39EABBEFA97FBD6A7C7E9553F9D3D79FE442923C3C523610337627CB87ABE99D359D4CC6D6E4FACAB5E6ABF9D2726FC6A3C5F56271377BB88362213924694B38DD99FE47C48627A1E7D49F5A8BB5E1A74C0A599ED3B0F21F1E56366B89112D681E218F0915D0D6F17AD41FBA2A369DCF6335D62ABBD39779D5DDD1
310
11D4D8DE3CBB96B2E04FB8202E41051754A1AA8E8F76B4C6DFE810B580B1547F4B84911149794252234D024EF8BBE963A95AE27B3D310A9D5C215C7960FAEE415ED75694C6AFB17BCACA5D99A60A9AA65F217B0BFC53292ACB92BF283FAD0D3621576592CB5BED907C2FA8E9DF794E35E97BEA31BED21FEB401ABB94C44839
310
DCACBF0E1C5DA8DA5B2F4DFFD32AD86F543D9E565E7056502E157C00AD2671CD534549AB752FCA9CDA00677A313F04E51B22FF19E57B300579E3C97EB29F682D92935CEC18CF901B7B54FD8C51F362B56FC72FE0B3C1EAE335EDCCBF5AEC39ADB17DC238973F804BA5E6F6BFE7AF1FB32E523BE9F3BD571418E3631DCA4D48
310
5250CF639223210A9446CA30052EDF057BD35F8329C1ECD84552BF0DC8D18BE7BCE23BFE6BD960AB4A7DE79923A103BEBD80F911CBAA2C60DB19B01CF164A5583B772EE6D3FFA56666CBCDA74DC97724A48F9A58967497E489C4D979006FD7A05E227A1EBDD0F737C623387A9C844D3709995625106D157315F8B8392CD4E0
310
A0B9A720C4BE9829CEF37EA1E13111214D53925356365ADA634861B52519DD27A00AEB808EAF0628E6F435519D446F45CF2C9CF5214F0A15B2F6D06B79DA3EE3CBF7F56780D2F4E7EF73A0F5E5B02A38D07DC852C6B7C1FBB6664213E0C39E3EBA7FF4E1AD23EA2829407C85E586727488B751B2DB9502BC7B228A3FD68B6E
310
A65A22397E690AA8D158D7E404EC8CDA235CC3B7D1898680131CEC2CDF2638C65196279577750F15884AEE19F94199155B92B13297978469D4F8D358DF0AEF7631E28DC8F0D9F437D5D39A83B2231A1D52D543813A824EF8D44BCFF2FA6A31BD1E8DAD87F1CCB526B3879935BF59CDADD5C37479BB1CDD4CA7B3556B516589
310
EF352754B706114D9C885EC9131DE6EFEB43D99AFE2391C2F958179413D7CFEF6B1B6DB1E7600F00DE6E5C67454A339A4BA2E0FBA85ED26F045D454F463DBFCE484C2F90F2E5E3666003662ED8F755951A7D1BECD5B30B550B2785C8E7320B7292A4838DDA71BBC863ED7613CAF659337A3354231D4FF4A182A54904C2898C
310
98B28C4AD0CE056CCF332A80986E571EE9DBC305BB5FEB7E509220A58D25CF042D712A806AC0AD0C657FDEF80D2D9CEAA2EE4D1C76F60BFE74219A06527D6F82DF6412526107381E55E353090704D085B52408A8913C4ED159D79BDA71BB4BC506F4831350EB6F975CD22D69BF7AC49B91A2C0A9DDA3D5CA36AD20FC478E37
310
E61844E2352865EBCB61A275A65283CAAA9DD27703B4102F5AF51EF5F573B75CBB5AD38BC845F7A49F82A0966A49C2E3EA5EA0ECD326CD965F1DB402C6FA8B51A4658C5C5E2EC9E214602E55810345408596591009A82E7E7FFACA19EEA299B14A0081A705CB3296EBC14CDF658DCD336EA6D1136881AAEB87B81AB9EE53D5
310
F5EB8BC8362082DA24122F98680A4E7930C01A0079749CEA14382A0783E5EBA5A10F8C098456A03D6A4AEB6BB881E2513747552A5DB22C7EDAF83BD5528081A365F7FF06504B0304140006080000CC70623B000000000000000000000000350000006662782F41393633353835312D344632462D344230382D423046372D37
310
39314545314133324237412F76657274696365732E62696E504B0304140006080800CC70623BF270F1330600000004000000360000006662782F41393633353835312D344632462D344230382D423046372D3739314545314133324237412F747269616E676C65732E62696E636660600000504B0304140006080000CC7062
310
3B000000000000000000000000370000006662782F41393633353835312D344632462D344230382D423046372D3739314545314133324237412F617474726962757465732E62696E504B0304140006080800CC70623B08DA0BD19000000041010000360000006662782F41393633353835312D344632462D344230382D4230
310
46372D3739314545314133324237412F6469726563746F72792E786D6C858F410AC3201045AF22B36F53E9A60B35CBEEBAE80D244E44489C6234F4F835464A48035D0DF398FF9F8AF63D0E6CC63039F212F8F9020C7D47C6792B21C5FE7403D62A1188E2E60C98D7234A5830286103A55745067B9D86B8A3CF9C7F90C11DE6
310
07FB144396D7B6A82D282E9A152AD114D5EF2CB866EEE831B8EEA07A7BB5A8D7D61A2BAAEB7FD5F70921FF497D00504B0304140006080800CC70623BEDD1DC58FD000000A00100003B0000006662782F41393633353835312D344632462D344230382D423046372D3739314545314133324237412F7265736F75726365732F
310
636F72652E786D6C8D504B6E833010BD0A9A6D65B00922041947112427E8052C33A156828DFCA97AFC9A40A576D7CDCCE87D344F8F9FBFE667F689CE6B6B3A6039850C8DB2A336530731DC4903D95970676DF82583CCC8193B5861107C72362E3BA4AC096842428D1D7107A5F7182053CF7474E0D507CE32973124857FE48B
310
540F3961CEF244279DE03EB81420DB9EAC1384436FA353E879B1B182C7A8C75DA3C7F453DF353A1075D537A7BA6464B8F535A99AE14A9A2BBD90E350DD183B5CFABE3AF262350B1EF4FC9351399401471025A527C218A1E53BAB5A5AB765F5469B96525EACF23FA6B88CFF34456DC2A1DCE36E360F82A5202F42F062ED2BAD
310
579969AFDD8A6F504B010214000A0000080000CC70623B3DEE336E79000000790000001B00000000000000000000000000000000006175746F6465736B2D64657369676E2D7061636B6167652E786D6C504B01021400140006080800CC70623BD486FD9CA0000000F40000001300000000000000000000000000B20000005B
310
436F6E74656E745F54797065735D2E786D6C504B01021400140006080800CC70623B853B8169EB0000007C010000080000000000000000000000000083010000636F72652E786D6C504B01021400140006080800CC70623B55019EA25F0000007C000000070000000000000000000000000094020000636E782E786D6C504B
310
01021400140006080800CC70623BDBABAAF470010000D40300000C00000000000000000000000000180300006662782F636F72652E786D6C504B01021400140006080800CC70623B9C113CC27E0000009D0000000B00000000000000000000000000B20400006662782F636E782E786D6C504B01021400140006080800CC70
310
623B7DF2F77C2A010000120200003100000000000000000000000000590500006662782F41393633353835312D344632462D344230382D423046372D3739314545314133324237412F636F72652E786D6C504B01021400140006080800CC70623BAD7543B64E010000330300003000000000000000000000000000D2060000
310
6662782F41393633353835312D344632462D344230382D423046372D3739314545314133324237412F636E782E786D6C504B01021400140006080800CC70623BE75B7789680500003C10000034000000000000000000000000006E0800006662782F41393633353835312D344632462D344230382D423046372D3739314545
310
314133324237412F6F626A656374732E786D6C504B01021400140006080000CC70623B0000000000000000000000003500000000000000000000000000280E00006662782F41393633353835312D344632462D344230382D423046372D3739314545314133324237412F76657274696365732E62696E504B01021400140006
310
080800CC70623BF270F133060000000400000036000000000000000000000000007B0E00006662782F41393633353835312D344632462D344230382D423046372D3739314545314133324237412F747269616E676C65732E62696E504B01021400140006080000CC70623B0000000000000000000000003700000000000000
310
000000000000D50E00006662782F41393633353835312D344632462D344230382D423046372D3739314545314133324237412F617474726962757465732E62696E504B01021400140006080800CC70623B08DA0BD1900000004101000036000000000000000000000000002A0F00006662782F41393633353835312D344632
310
462D344230382D423046372D3739314545314133324237412F6469726563746F72792E786D6C504B01021400140006080800CC70623BEDD1DC58FD000000A00100003B000000000000000000000000000E1000006662782F41393633353835312D344632462D344230382D423046372D3739314545314133324237412F7265
310
736F75726365732F636F72652E786D6C504B0506000000000E000E0080040000641100000000
  0
XRECORD
  5
1F8
102
{ACAD_REACTORS
330
1F7
102
}
330
1F7
100
AcDbXrecord
280
     1
 70
     1
 90
429727718
  1
30362254-06B7-45E0-A893-8CFA70E3D6BC
310
504B03040A0000080000CC70623B3DEE336E79000000790000001B0000006175746F6465736B2D64657369676E2D7061636B6167652E786D6C3C3F786D6C2076657273696F6E3D22312E302220656E636F64696E673D227574662D3822203F3E3C666F726D6174733E3C666F726D61743E687474703A2F2F736368656D612E
310
6175746F6465736B2E636F6D2F64657369676E2D7061636B6167652F323030393C2F666F726D61743E3C2F666F726D6174733E504B0304140006080800CC70623BD486FD9CA0000000F4000000130000005B436F6E74656E745F54797065735D2E786D6C7D8EC10E82300C865F65E91D8A1E8C310C0EEA1BF002731658846E
310
D98AC1B77784ABF1D8FE5FBFBF75BBCE937A534CCEB38643598122B6FEE978D0B0485F9C41B54DDD7D022595594E1A469170414C76A4D9A4D207E29CF43ECE46F218070CC6BECC4078ACAA135ACF422C856C0E68EA1BF5669944DDD7BCDE7B1F8E415D77AECB980613C2E4AC91FC167A2B244592486606FC29C8FD7F045B9A
310
EF7053A7E60B504B0304140006080800CC70623B1EC5D7A3EB0000007C01000008000000636F72652E786D6C8D90416EC3201045AF82665B6103C6756C6122AB4D4ED00B204C5C94182C03558F5F9C3852BBEB6A467FFE9B197D71FC9E6FE8CBACC17AD7032D0820E3B41FAD9B7A48F1820F808E52ACDEC75F36404ECDA687
310
4D0629A6D5A76597B477D1B89855E747B38B2A041301E95B6E7A08FAD3CCAA50296647B8168BD2573599823EBB0CA76447F43862C7BCCF5EAC59410E4DDD9C7973C2755553CCCFA4C603E3040F1565ED3B1FDE4E432BCA0D9622DAF9795FAF464533826484B498524CD807E51D79ED187F21878E10516EF63F505AC67F42C9
310
BA58B1FDDD071640D2FCC87D2045B96591CB3DA85CB7DCE40F504B0304140006080800CC70623B55019EA25F0000007C00000007000000636E782E786D6C4DCB3B0E80201045D1AD90E915ED2CF8AC45050C11660C8261F98AB1B07AC9C97D42D718D865D3E909258CFD00CCE24AC6E326A164D74DC0B4128928FF32603847
310
2BA13128B1252AC747C6BAB984FC68F0B87FE8960A5C09FE86CFB69FBA01504B0304140006080800CC70623B8C9102E971010000D40300000C0000006662782F636F72652E786D6CC5535B6E833010BC8AE5DF0A6C08340F1947A84D4ED00B38C6A128602363A31CBFCB234A53A551FA553EC09AD9F5CE8C31DB9E9B1AF5CA
310
7695D1198E428A91D2D214952E33ECDD315861B4E5CC1AE3BE9561A445A3323CC098B3D21ADFCE9034DA29ED00D5A6503328BA4E398C640D8B0C77F253352214DE4145770A5B214FA2546114020D759C75CE8200340D19DE981F0F6746269C33EFAB6266AB02A655C74A59CCF365BADC27CB5D902ED22848F6340DF238A141
310
BE88E2F57B92BFEDF23523433367AE6A2EEAA455C2A902F398D2751045018D3FA264435F3771F242571B4A1919CA6F9A7C5B3CD9E42BED16F12C776AEB308F40C848FC700B1139D4891EF410CEC810227CC6846F8386402064270EF5C5C709A05E49676C024C61FC95EA45ED154CA5211D1FF4FB8291A913A68E9B83EBBB33
310
E2A7673CDE118E5AE8124C0807CB8377834E366998436B950D7A7746DAD846D4CFD978E0F04FD455FC5D49D2D4C6FE9722321F10997F0F32DC47FE05504B0304140006080800CC70623BFFEA85907E0000009D0000000B0000006662782F636E782E786D6C4DCCD10A83201886E15B91FFDC95D95A811AB6F23E625948A6C3
310
E9D8E5AF46073BFAE0E1E365ED67B3E8ADC3CB78C7815C7240DA3DFC64DCC221C519D7805AC182F7F1EF06C88D9BE6703008B6049F9E274D7A1E938DBB5AE3D6131B2589BA0D3D965551E0B2EA732C9B9A624AAEB41E3A557677029960D9AFB4EF11165F504B0304140006080800CC70623B4FEEA4082C0100001202000031
310
0000006662782F39464131463745442D413632322D343644302D413938332D3331353338454246344243312F636F72652E786D6C8D515B6EC32010BC0AE2AB55850DD871ED0813254D72825EC00192A2C460F1A872FC42ED48ED5F7E00CDCECCCEB26C731F6FE05B39AFADE921293004CA082BB5B9F43086336A21D870E6AC
310
0D7F68109861543DCC30E4ECE26C9C164858139409093556AA051CBC570102714B8F1E7AF1A5C6A11862480C7F2DA6415C878B2A4891CA89C7990F2E050073937C42DE1DB7E4F87ED8A36D4329AA9B3D46DBAEAD504556557BD81DEBDD0761E52CE42C462D17B996298E3E6BE59E35C962CE821E1FF18553435012728A7187
310
0841987E927A8D9B35ADDF70BBC6989599FE4F1427F9A4286A132ABAC49D651EF234CD5CE04CDA78BA3DC2A8FB645D00B9DF8B57E215725C60BCA2A463E54C4CE327C7A65E1C7DB02E7DEFCBF594B864C5CA6CDBD49C957943E9FA5D5FBAF336F90F504B0304140006080800CC70623BAD7543B64E01000033030000300000
310
006662782F39464131463745442D413632322D343644302D413938332D3331353338454246344243312F636E782E786D6CD593CD6EC32010845F0571AD6CE3D48AD20813A9873E410FBD12D82434182C7EAAE6EDBB2424CD25871E7B41D6EC30B3FA84F9E67BB2E40B4234DE8DB46F1925E094D7C6ED479AD3AE5951B2113C
310
789FEE6C943839C1488B4C05DF079FE72A69D8C96C13AAD6B8631503449F83828872B949AC57D26200B826A308D316B4064D6E46FCDA41C05550DC9E483A00797BFD207EFB092A45DE9514C1BBD22178396BD39D891265658C238DEA00936C654E5E433CB65A26D9F6EDB5EBC14EBF49A45CB856E66048291F6939A9A81BB5
310
C8917738143CA680F4AA299D66A042CEB3354A2684DC9D8D178FE0D9B8B41CAAD720F880EE7EF93C0C18769E099ECC04D5A102C8049A8A05632F4DDF376CF1DE0F6BB65C2F8627B65A33C6BB62177CEBBDAD973006829F89F22E814B54F4BC2BE347F8AA8F681390B50FA73F804400B5F542E796F19FF974E7F78DB802FE05
310
E207504B0304140006080800CC70623B16AB87BA640500003C100000340000006662782F39464131463745442D413632322D343644302D413938332D3331353338454246344243312F6F626A656374732E786D6CAD575B6FA33818FD2B887DE6924B3BED8A326A92B68A663B534DD4D13E548A0C38942D60649B369D5FBFC7
310
600890A493BDE42160637FD7F31D7FF63E6FB3D478A55C242CBF3247B66B1A340F5994E4F19559CA8D75611A9F7D8F33263BCB4C232719BD32D5B4E97B316765A1A722BA21652A07B3B7B33F0D11D29C9A46981221AE4C113ED38CD8A4942CA2E2C58E882476BCD9DA23BB5ED8171B73523C0F841684D35CC252CCE79062D4
310
468DFA43D7747CCF51DF7D4FFDEB5593E3AB9CCA9FBEFE241792E4E19EB28198C968BAB8199F5D5A67D3E9C49A9E8F47D6EC76B6B0469F26EEFC7C3EBFBCBEB98462213924694B38DD98FE1D62C393D073EA4FADC5DAF04326852CCF6958F90F0F2B9BB5C48816348F90C7840A68EB78EDF68723159BCEE7891A6B95DDE9D3
310
BCEAEEE8086A6C6F9E5D4B59F0175C10A7A0820BAA5055C7473B5AE3CFDD452D602CD5DF12616444529E90D448938013FE6EFA58AA96F85E4F8C42275708571E98FE6827AF6B2B4AE3D7D83D64E5A64C53054DD3AF90BD06FEA9149565C94FCA0F6B834DC85599E4F2423B24DF0B6AFA979E534DFA9E7A4CC6FA631D486393
310
921829879BF5D781A373557BCB85E97FB90DB62B558F8795179C15944B051F40AB495CF35451D26A4727654E6D8033BD98EF82F21D91FF8AF2DD9982BCF1643BDD4EB516C9492E368C67C88DED563FC36D5EACF66DFF057C3658BDBFA69DF9578B3DA735B64F18C7F20770A9D45CFCF7FCF563D6456A277DBEF78A02637CA2
310
43B90A490AEAB94F72244481D24819A6C0E59B606BFA4B3025981DBB48EAB701D97BF19C577CC77F2D1B6C55A9EF3C732474C0B727303F625995056C3B02963D9EAC146BE78EC5FCEC7FA999EBC5EACBAAE41B12D27B4D2C0BBA49F244E2ECDC81B76B502F113D8F5EE8FB1BE3111CDD4FC2AA9B844CAB1288B68AB90A7CDC
310
1C166AB0D3DC5310625FCC14E779BFD0709F8890A629C9292B1B2DED31A4B0DA928CEE135085754027E3018A397D4D5427D15BD1330B677DC8934285AC3DF45A9EB68FF8F2B8FC0A509AFEECFD0FF2DE25CC6047F7214B195F07EFEB9A094D800F7BFAE8FED187B78EA8A3A400F115961BCAD1215E47C966530AF0EE8128FE
310
58CEBB996A8964FFA529A046635D9353B0336A8F700DDF46271A024E70B0B37C9DE01847591E54DED53D54202AB947E4076556AC49C6CA5C9E1226B7F1A7B1BE15DEED62C41B91E1B3E9AFAAA735036547343A925075041DF0A9979E893B391F8FCFA6967B3EFB644DCF6E5CEBFAE272625DCC6FAF3FB93793C5F90CE1EF57
310
407342756B10D1C489E8953CD1617E5CEECAD6F4EF8914CE5D5D504E5C3F1F9736DA62CFC11E00BCDDB8CC8A9466349744C1F75EBDA4DF09BA8A9E8C7A7E9991989E20E5DBDD6A6003664ED8F7A04A8DBE0DF6EAD9B9AA858342E47399053949D2C146EDB85DE4B176BB0965FBAC19BD19AA918E27FA50C1D22402E144464C
310
59462568E704B6E71915404CB72B8FF4EDE184DDAF753F284990D2C6926782963815403548A70C657FDEF80D2D9CEAA2AE4C1C76F60BFE74219A06527D6582DF6412526107381E55E353090704D085B52408D0933C4ED159D79BDA71BB4BC506F4831350EB6F979CD22D69BF7AC49B91A2C0A9DDA3D5CA36AD20FC478E37E6
310
1844E2352865EBCB6EA275A652E3836BE04EFB400BF1A2556F515F1FBB35B2AB35BD889C744FFA1004B5544B121E57F70215746DD2F5E2C1412B602CBF19455AC6C8E5E9922C4E01E65215385004546899059180EAFCF7A707CE7017CD8CDB0410789AB32C63B91E5CEBBBACB17AC6CD347A022D5075FD106377347AAABA7E
310
7D11590744509B44E205134DC1290F06580320F78E537D3D73540E06CB970B431F185308AD40BBD794D6D77003C5A36E8EAA54BA64597CD8F83BD552A080A365F7FF06504B0304140006080000CC70623B000000000000000000000000350000006662782F39464131463745442D413632322D343644302D413938332D3331
310
353338454246344243312F76657274696365732E62696E504B0304140006080800CC70623BF270F1330600000004000000360000006662782F39464131463745442D413632322D343644302D413938332D3331353338454246344243312F747269616E676C65732E62696E636660600000504B0304140006080000CC70623B
310
000000000000000000000000370000006662782F39464131463745442D413632322D343644302D413938332D3331353338454246344243312F617474726962757465732E62696E504B0304140006080800CC70623B08DA0BD19000000041010000360000006662782F39464131463745442D413632322D343644302D413938
310
332D3331353338454246344243312F6469726563746F72792E786D6C858F410AC3201045AF22B36F53E9A60B35CBEEBAE80D244E44489C6234F4F835464A48035D0DF398FF9F8AF63D0E6CC63039F212F8F9020C7D47C6792B21C5FE7403D62A1188E2E60C98D7234A5830286103A55745067B9D86B8A3CF9C7F90C11DE607
310
FB144396D7B6A82D282E9A152AD114D5EF2CB866EEE831B8EEA07A7BB5A8D7D61A2BAAEB7FD5F70921FF497D00504B0304140006080800CC70623B0D6EF93BFE000000A00100003B0000006662782F39464131463745442D413632322D343644302D413938332D3331353338454246344243312F7265736F75726365732F63
310
6F72652E786D6C8D50596E833010BD0A9ADFCA60B334011947A8694ED00B586642AC041B79A97AFC9A40A5F6AF3F33A3B7689E1E3F7DCD8FEC139DD7D6F4C0720A191A65476DA61E62B892236427C19DB5E1970C322367EC618541F0C9D9B8EC90B226A009093576C41D94DE63804C3DD2D18357379C652E63480A7FCF17A9
310
EE72C29CE5894E3AC17D702940B63D59270887DE46A7D0F36263058F518FBB468FE9A7BE6A7420864373B8D4873369AA8691FA421B3294352543C5CAF65C0F6FEF43CB8BD52C78D0F34F46E550061C419494B6843142CB0F5677F4B52BEB177AEC28E5C52AFF638ACBF84F53D42654E51E77B379102C05791282176B5F693D
310
CB4C7BED567C03504B010214000A0000080000CC70623B3DEE336E79000000790000001B00000000000000000000000000000000006175746F6465736B2D64657369676E2D7061636B6167652E786D6C504B01021400140006080800CC70623BD486FD9CA0000000F40000001300000000000000000000000000B20000005B
310
436F6E74656E745F54797065735D2E786D6C504B01021400140006080800CC70623B1EC5D7A3EB0000007C010000080000000000000000000000000083010000636F72652E786D6C504B01021400140006080800CC70623B55019EA25F0000007C000000070000000000000000000000000094020000636E782E786D6C504B
310
01021400140006080800CC70623B8C9102E971010000D40300000C00000000000000000000000000180300006662782F636F72652E786D6C504B01021400140006080800CC70623BFFEA85907E0000009D0000000B00000000000000000000000000B30400006662782F636E782E786D6C504B01021400140006080800CC70
310
623B4FEEA4082C0100001202000031000000000000000000000000005A0500006662782F39464131463745442D413632322D343644302D413938332D3331353338454246344243312F636F72652E786D6C504B01021400140006080800CC70623BAD7543B64E010000330300003000000000000000000000000000D5060000
310
6662782F39464131463745442D413632322D343644302D413938332D3331353338454246344243312F636E782E786D6C504B01021400140006080800CC70623B16AB87BA640500003C1000003400000000000000000000000000710800006662782F39464131463745442D413632322D343644302D413938332D3331353338
310
454246344243312F6F626A656374732E786D6C504B01021400140006080000CC70623B0000000000000000000000003500000000000000000000000000270E00006662782F39464131463745442D413632322D343644302D413938332D3331353338454246344243312F76657274696365732E62696E504B01021400140006
310
080800CC70623BF270F133060000000400000036000000000000000000000000007A0E00006662782F39464131463745442D413632322D343644302D413938332D3331353338454246344243312F747269616E676C65732E62696E504B01021400140006080000CC70623B0000000000000000000000003700000000000000
310
000000000000D40E00006662782F39464131463745442D413632322D343644302D413938332D3331353338454246344243312F617474726962757465732E62696E504B01021400140006080800CC70623B08DA0BD190000000410100003600000000000000000000000000290F00006662782F39464131463745442D413632
310
322D343644302D413938332D3331353338454246344243312F6469726563746F72792E786D6C504B01021400140006080800CC70623B0D6EF93BFE000000A00100003B000000000000000000000000000D1000006662782F39464131463745442D413632322D343644302D413938332D3331353338454246344243312F7265
310
736F75726365732F636F72652E786D6C504B0506000000000E000E0080040000641100000000
  0
XRECORD
  5
175
102
{ACAD_REACTORS
330
173
102
}
330
173
100
AcDbXrecord
280
     1
270
     1
271
     1
  0
XRECORD
  5
174
102
{ACAD_REACTORS
330
173
102
}
330
173
100
AcDbXrecord
280
     1
270
     1
271
     1
  0
XRECORD
  5
1FB
102
{ACAD_REACTORS
330
173
102
}
330
173
100
AcDbXrecord
280
     1
 70
     0
 90
1673772943
  1
ECE7A1D2-D628-4531-984C-D00F80459256
310
504B03040A0000080000CC70623B3DEE336E79000000790000001B0000006175746F6465736B2D64657369676E2D7061636B6167652E786D6C3C3F786D6C2076657273696F6E3D22312E302220656E636F64696E673D227574662D3822203F3E3C666F726D6174733E3C666F726D61743E687474703A2F2F736368656D612E
310
6175746F6465736B2E636F6D2F64657369676E2D7061636B6167652F323030393C2F666F726D61743E3C2F666F726D6174733E504B0304140006080800CC70623BD486FD9CA0000000F4000000130000005B436F6E74656E745F54797065735D2E786D6C7D8EC10E82300C865F65E91D8A1E8C310C0EEA1BF002731658846E
310
D98AC1B77784ABF1D8FE5FBFBF75BBCE937A534CCEB38643598122B6FEE978D0B0485F9C41B54DDD7D022595594E1A469170414C76A4D9A4D207E29CF43ECE46F218070CC6BECC4078ACAA135ACF422C856C0E68EA1BF5669944DDD7BCDE7B1F8E415D77AECB980613C2E4AC91FC167A2B244592486606FC29C8FD7F045B9A
310
EF7053A7E60B504B0304140006080800CC70623BD9DDAED0EC0000007C01000008000000636F72652E786D6C8D90416EC3201045AF82665B61836D9CD8C2444DD39CA01740405C94182C03558F5F9C3852BBEB6A467FFE9B197D7EF89E6EE8CB2CC17A37002D0820E394D7D68D03A478C17B4007C117EFE32F1B20272733C0
310
2A83E0E3E2D3BC49CABB685CCCAAF3DA6CA20CC14440EA969B0182FA34932C648AD911AEC52CD5558EA6A0CF2EC329598D1E47ACCEFBECC59A050463A7EA5833865FEBDD0E37353BE3EE8DBDE3F6786A48D375FBF6CC78B9C282473B3DEFABC5C86834888A900E538A49F5419B9EB47DD5BC907D4F082F57FB1F28CDFA9F50
310
B22ED6D5F6EE030B20687EE43E10BC5CB3C8E51E54AE6B6EE207504B0304140006080800CC70623B55019EA25F0000007C00000007000000636E782E786D6C4DCB3B0E80201045D1AD90E915ED2CF8AC45050C11660C8261F98AB1B07AC9C97D42D718D865D3E909258CFD00CCE24AC6E326A164D74DC0B4128928FF326038
310
472BA13128B1252AC747C6BAB984FC68F0B87FE8960A5C09FE86CFB69FBA01504B0304140006080800CC70623BA24EB22D72010000D40300000C0000006662782F636F72652E786D6CC5535B6E833010BC8AE5DF0A6C5E49888CA3A6694ED00B38E05014B091B1518EDFE511A5A9D228FD2A1F60CDEC7A67C6986DCE4D8D7A
310
69BA4AAB0C073EC548AA5C17952A33ECECD15B61B4E1CC686DBF9561A44423333CC098B3D268D7CE50AE9595CA02AA74216750749DB418E5352C32DCE59FB211BE70162ABA93DF8AFC244AE9073ED050C759670D0840D390E18DF9F1706664C23973AE2A66B62A605A75ACA4C13C4976E1364A12EF355A2EBD384AF65EFA96
310
BC7B8BED2EA6719AAE16FB8491A199335B351775B991C2CA02F390D2D40B028F861F41BCA68B7518BFD0D59A524686F29B26D7164F36B94AD9289CE54E6D1DE6010819891F6E21228B3AD1831EC219194284CF98F06DD01008846CC5A1BEF83801D4CBDC6A1303536877A57A513B0953A94FC707FDBE6064EA84A9E3E6E0FA
310
EE8CF0E9198F7784A316AA0413C2C2F2E0ECA0934D1AE6D05A69BCDE9E91D2A611F573361E38FC1375157F5752AE6B6DFE4B11990F88CCBF0719EE23FF02504B0304140006080800CC70623B408A7D3B7C0000009D0000000B0000006662782F636E782E786D6C4DCCD10A83201886E15B91FFDC552A92A0064DBC8F581632
310
D3703A76F9ABD1C18E3E78F878E5F0D9027ABBFCF2292AE86E2D20171F69F6715550CB827B40839639A5F2770314A7CD293819B45C73AAFB45B35BA61ACAA1C1C7E7855C58C15BC331339661262CC762340413D68D77DA5B42298546CBE6573AF60CEB2F504B0304140006080800CC70623B449FB9BD290100001202000031
310
0000006662782F36394639363044362D344446342D343946362D394244322D3234314243333846323333332F636F72652E786D6C8D515B6EC32010BC0AE22B55850D98B871848994463E412FE002495162B07854397EA176A4F62F3F2C9A9D991D587EB84F37F0AD7D30CEF6905418026DA553C65E7A98E219ED203808EE9D
310
8B7F6810D871D23D2C3014FCE25D9A57483A1BB58D19B54EE9151C43D0110279CB971E06F9A5A7B11A53CC8C70ADE6515EC78BAE4895DB992778883E0700CB907242D17643D7E2538BD869608875438BBAE38922CAC8F1BDD90DB4691A5E2F42C153326A951B95E398B3D1FE599322163C9AE9115F7A3D46ADA0A018778810
310
84E907617BDCEE297BC5BB3DC6BC2EF47FA234AB2745C9D8D8D035EE220B50105E2F0DC1954B9FB747187D9F9D8FA0CCDB042D5FA0C015C65B42DF78BD10F3F3B363CB56C7109DCFDFBBB97E662ED92EB62D13BC2E1BCAE5777DB9966D8A1F504B0304140006080800CC70623BAD7543B64E01000033030000300000006662
310
782F36394639363044362D344446342D343946362D394244322D3234314243333846323333332F636E782E786D6CD593CD6EC32010845F0571AD6CE3D48AD20813A9873E410FBD12D82434182C7EAAE6EDBB2424CD25871E7B41D6EC30B3FA84F9E67BB2E40B4234DE8DB46F1925E094D7C6ED479AD3AE5951B2113C789FEE
310
6C943839C1488B4C05DF079FE72A69D8C96C13AAD6B8631503449F83828872B949AC57D26200B826A308D316B4064D6E46FCDA41C05550DC9E483A00797BFD207EFB092A45DE9514C1BBD22178396BD39D891265658C238DEA00936C654E5E433CB65A26D9F6EDB5EBC14EBF49A45CB856E66048291F6939A9A81BB5C89177
310
38143CA680F4AA299D66A042CEB3354A2684DC9D8D178FE0D9B8B41CAAD720F880EE7EF93C0C18769E099ECC04D5A102C8049A8A05632F4DDF376CF1DE0F6BB65C2F8627B65A33C6BB62177CEBBDAD973006829F89F22E814B54F4BC2BE347F8AA8F681390B50FA73F804400B5F542E796F19FF974E7F78DB802FE05E20750
310
4B0304140006080800CC70623B8D05915C650500003B100000340000006662782F36394639363044362D344446342D343946362D394244322D3234314243333846323333332F6F626A656374732E786D6CAD575B6FA33814FE2B887D06429276DA1565D4266D158D3A339A6846FB502932E050B66023DB74D2FDF5FB190C01
310
9276B2973C046C8ECFF53B17071F77456EBD502133CEAE6CDF9DD81665314F32965ED995DA3A17B6F5310C04E7AA47665B8C14F4CAD6DB7618A48257A5D94AE89654B91AEDDEDDFC61C998326A5B714EA4BCB265FC440BE2924AF184CA6737218AB8E976E7FA6E4338649B0A523E8D98964450A6A029F619B8588D52FE7039
310
B1BD30F0F4F730D0FF866AF6369557DB33949F31A9088B0F848DD8CCFCF9F2767A76E99CCDE733677E3EF59D9BBB9BA5E37F984D16E78BC5E5F5ED25044B25C0C96822E8D60EEFE11B91C581D77CEA34368A1F5329E68CD1B8B61F16D63A1B8E092D294B10C78C4A48EB593D192E7DED9BDEE7995E1B91FDEDD3ACEA9FE831
310
6A756F9F7D4D79F4274C90A7A04248AA51D5F8C718DAE06FB2F75AC4796EBE65D22A88A22223B995679120E2D50E41AA49C260C046A35368846B0BECD0DFF3EBEB8AD4F835768F69B9ADF25C43D30E6B646F807FAA64AD59F61715C7A54127C4AACA98BA3006A9D792DAE165E0D59B61A01FB3A9F9D838D2DAE62445C86166
310
F37564E842E7DE6A69879FEEA2DD5AE7E371E1A5E025154AC307D06A03D73EB5978C58FFA4C8E9033066E0F3BD53BEC1F39F91BE7B55103791EDE6BBB991A2046172CB4581D8B893FA674DDA17A77B3B7C413D1B511FD2743BFF8A38F03A658705E3ADF8015C3A3417FF3D7E439FF591DA0B5F18BC20C1B8981957AE6392A3
310
F43C640C01D1A0B4728E2DD4F26DB4B3C3152A252A3B4E913CEC1C72F012782FF88EFF8637AA552DBEF76408E8A8DE9E50F9E1CB3A2DA0DB1B6039A893B56063DC5B3E3FFB5F72E67AB9FEB4AEC496C4F4C1149625DD662C53E89D7BF0F6151A046260D1337DFDC94502430F83B0EE07A130A224BCAD7DAE1D9FB6CD422FF6
310
920702629C4BB9AE79C12F243C6432A6794E18E5552BA56B431AAB5D91317302B2B071E86C3A42B1A02F999E24061403B5D0EB639195DA655DD3EBEAB4FB862DDF579F014AD0E73C22F99E28DA57FB98E75C6CA2D74D53086D600F4786E0FE3144B771A8A7B900F03594DB8A633CBC49B2EDB69228BB479CF863B5E807AAAB
310
23872F6DFEB4129B949CA33823F58830E86D65621E10047D9DB34D862E8EAC3C2ABC2F7B2C40D67CDFE01F5545B92105AF983AC54D93D69E56FB8E797F88913F898A9FEC705D3F9D1B54EC8426FB500D40A03BD0119B06E1B95DDC7EB8F6975367793EBD70E66733DFB9BC982F9CE564727731999F5D4ECFCE3B8D6A4DC2A0
310
6D50FD148437D110834A64C6CDDF57FBACB5C307A2A477DFE4939736CFEF2B175371E0E10CF0DD1D5C15654E0BCA14D1E87DD02FF93782A162C0A3D95F1524A52770F972BF1EE9809D13CE7DD599467F8ECE9ADD85CE85A34CD45355448C64F9E8A031DC2D596ACC6E5DD93D9B82DE2EF5CAF81363A8E47996A0DE24564A79
310
4115AACE09C55E14540231FDA13C319787134EBF34E3A022514E5B4D9E0826E25C02D5805B15ABE1BEF51B26383D445DD9E875EE33FE4C22DA16427D65A3BCA92CA6D28DD01DF5DC53330704308475351050232CCD31583787BA75774AFB06E5070DD0C8EF484E19968C5D83BA5B90B244D31E54D55A372320FE4786B7EA58
310
44E135AA5467CB7EA333A61683CC6A8C3257034C10CF46F40EF9F5BE59BE5BD30C3C72D235E95D10345C1D45445A5F0BB47E46A5EBE5570F9380B5FA629579952296A773720405982B9DE04011506178964401AA8BDF1FBF0A8EAB6861DD6580C0E38217056766716DAEB2D6FA0917D3E4116581EADB879C4E7CFFB11EFACD
310
3D641311495D92C8676CB409A72D18610D803CE8A626049E8EC1887CB5B44CC39883690DDA8399B4B9855B481E7D71D4A9D22F96E5BB73BF5793020C02137BF837504B0304140006080000CC70623B000000000000000000000000350000006662782F36394639363044362D344446342D343946362D394244322D32343142
310
43333846323333332F76657274696365732E62696E504B0304140006080800CC70623BF270F1330600000004000000360000006662782F36394639363044362D344446342D343946362D394244322D3234314243333846323333332F747269616E676C65732E62696E636660600000504B0304140006080000CC70623B0000
310
00000000000000000000370000006662782F36394639363044362D344446342D343946362D394244322D3234314243333846323333332F617474726962757465732E62696E504B0304140006080800CC70623B08DA0BD19000000041010000360000006662782F36394639363044362D344446342D343946362D394244322D
310
3234314243333846323333332F6469726563746F72792E786D6C858F410AC3201045AF22B36F53E9A60B35CBEEBAE80D244E44489C6234F4F835464A48035D0DF398FF9F8AF63D0E6CC63039F212F8F9020C7D47C6792B21C5FE7403D62A1188E2E60C98D7234A5830286103A55745067B9D86B8A3CF9C7F90C11DE607FB14
310
4396D7B6A82D282E9A152AD114D5EF2CB866EEE831B8EEA07A7BB5A8D7D61A2BAAEB7FD5F70921FF497D00504B0304140006080800CC70623BCA768048FE000000A00100003B0000006662782F36394639363044362D344446342D343946362D394244322D3234314243333846323333332F7265736F75726365732F636F72
310
652E786D6C8D50596E833010BD0A9ADFCA60D600328E9AA639412F609909B1126CE4A5EAF16B0295DABFFECC8CDEA2797AECF8353F924FB44E193D409E5248504B332A3D0D10FC95B4901C39B3C6F85F3248B49871801506CE266BC2B243D2688FDA47549B11775038871E12F988C7004EDE7016A9083E2ADC3D5D84BC8B09
310
D33C8D74D471E6BC8D0192EDC93A815B742658898E651BCB59086ADC356A8C3FD555A1055ED7E7E254D615792D0F075295F585746FF53B694EE78A565DD736979A65AB9933AFE69F8CD2A2F038022F28ED489E135A7CE4554F9BBEA85E68DB53CAB255FEC71496F19FA6A0B42F8B3DEE6673C0F318E4497096AD7DC5F52C33
310
EEB55BFE0D504B010214000A0000080000CC70623B3DEE336E79000000790000001B00000000000000000000000000000000006175746F6465736B2D64657369676E2D7061636B6167652E786D6C504B01021400140006080800CC70623BD486FD9CA0000000F40000001300000000000000000000000000B20000005B436F
310
6E74656E745F54797065735D2E786D6C504B01021400140006080800CC70623BD9DDAED0EC0000007C010000080000000000000000000000000083010000636F72652E786D6C504B01021400140006080800CC70623B55019EA25F0000007C000000070000000000000000000000000095020000636E782E786D6C504B0102
310
1400140006080800CC70623BA24EB22D72010000D40300000C00000000000000000000000000190300006662782F636F72652E786D6C504B01021400140006080800CC70623B408A7D3B7C0000009D0000000B00000000000000000000000000B50400006662782F636E782E786D6C504B01021400140006080800CC70623B
310
449FB9BD290100001202000031000000000000000000000000005A0500006662782F36394639363044362D344446342D343946362D394244322D3234314243333846323333332F636F72652E786D6C504B01021400140006080800CC70623BAD7543B64E010000330300003000000000000000000000000000D20600006662
310
782F36394639363044362D344446342D343946362D394244322D3234314243333846323333332F636E782E786D6C504B01021400140006080800CC70623B8D05915C650500003B10000034000000000000000000000000006E0800006662782F36394639363044362D344446342D343946362D394244322D32343142433338
310
46323333332F6F626A656374732E786D6C504B01021400140006080000CC70623B0000000000000000000000003500000000000000000000000000250E00006662782F36394639363044362D344446342D343946362D394244322D3234314243333846323333332F76657274696365732E62696E504B010214001400060808
310
00CC70623BF270F13306000000040000003600000000000000000000000000780E00006662782F36394639363044362D344446342D343946362D394244322D3234314243333846323333332F747269616E676C65732E62696E504B01021400140006080000CC70623B00000000000000000000000037000000000000000000
310
00000000D20E00006662782F36394639363044362D344446342D343946362D394244322D3234314243333846323333332F617474726962757465732E62696E504B01021400140006080800CC70623B08DA0BD190000000410100003600000000000000000000000000270F00006662782F36394639363044362D344446342D
310
343946362D394244322D3234314243333846323333332F6469726563746F72792E786D6C504B01021400140006080800CC70623BCA768048FE000000A00100003B000000000000000000000000000B1000006662782F36394639363044362D344446342D343946362D394244322D3234314243333846323333332F7265736F
310
75726365732F636F72652E786D6C504B0506000000000E000E0080040000621100000000
  0
XRECORD
  5
176
102
{ACAD_REACTORS
330
173
102
}
330
173
100
AcDbXrecord
280
     1
270
     1
271
     1
  0
XRECORD
  5
177
102
{ACAD_REACTORS
330
173
102
}
330
173
100
AcDbXrecord
280
     1
270
     1
271
     1
  0
XRECORD
  5
18A5
102
{ACAD_REACTORS
330
18A4
102
}
330
18A4
100
AcDbXrecord
280
     1
102
DISPLAYNAME
  1
Metric50
102
FLAGS
 90
        0
  0
CELLSTYLEMAP
  5
189A
102
{ACAD_REACTORS
330
162
102
}
330
162
100
AcDbCellStyleMap
 90
        3
300
CELLSTYLE
  1
TABLEFORMAT_BEGIN
 90
        5
170
     1
 91
        0
 92
    32768
 62
   257
 93
        1
300
CONTENTFORMAT
  1
CONTENTFORMAT_BEGIN
 90
        0
 91
        0
 92
      512
 93
        0
300

 40
0.0
140
1.0
 94
        5
 62
     0
340
11
144
6.0
309
CONTENTFORMAT_END
171
     1
301
MARGIN
  1
CELLMARGIN_BEGIN
 40
1.5
 40
1.5
 40
1.5
 40
1.5
 40
4.5
 40
4.5
309
CELLMARGIN_END
 94
        6
 95
        1
302
GRIDFORMAT
  1
GRIDFORMAT_BEGIN
 90
        0
 91
        1
 62
     0
 92
       -2
340
14
 93
        0
 40
1.125
309
GRIDFORMAT_END
 95
        2
302
GRIDFORMAT
  1
GRIDFORMAT_BEGIN
 90
        0
 91
        1
 62
     0
 92
       -2
340
14
 93
        0
 40
1.125
309
GRIDFORMAT_END
 95
        4
302
GRIDFORMAT
  1
GRIDFORMAT_BEGIN
 90
        0
 91
        1
 62
     0
 92
       -2
340
14
 93
        0
 40
1.125
309
GRIDFORMAT_END
 95
        8
302
GRIDFORMAT
  1
GRIDFORMAT_BEGIN
 90
        0
 91
        1
 62
     0
 92
       -2
340
14
 93
        0
 40
1.125
309
GRIDFORMAT_END
 95
       16
302
GRIDFORMAT
  1
GRIDFORMAT_BEGIN
 90
        0
 91
        1
 62
     0
 92
       -2
340
14
 93
        0
 40
1.125
309
GRIDFORMAT_END
 95
       32
302
GRIDFORMAT
  1
GRIDFORMAT_BEGIN
 90
        0
 91
        1
 62
     0
 92
       -2
340
14
 93
        0
 40
1.125
309
GRIDFORMAT_END
309
TABLEFORMAT_END
  1
CELLSTYLE_BEGIN
 90
        1
 91
        1
300
_TITLE
309
CELLSTYLE_END
300
CELLSTYLE
  1
TABLEFORMAT_BEGIN
 90
        5
170
     1
 91
        0
 92
        0
 62
   257
 93
        1
300
CONTENTFORMAT
  1
CONTENTFORMAT_BEGIN
 90
        0
 91
        0
 92
      512
 93
        0
300

 40
0.0
140
1.0
 94
        5
 62
     0
340
11
144
4.5
309
CONTENTFORMAT_END
171
     1
301
MARGIN
  1
CELLMARGIN_BEGIN
 40
1.5
 40
1.5
 40
1.5
 40
1.5
 40
4.5
 40
4.5
309
CELLMARGIN_END
 94
        6
 95
        1
302
GRIDFORMAT
  1
GRIDFORMAT_BEGIN
 90
        0
 91
        1
 62
     0
 92
       -2
340
14
 93
        0
 40
1.125
309
GRIDFORMAT_END
 95
        2
302
GRIDFORMAT
  1
GRIDFORMAT_BEGIN
 90
        0
 91
        1
 62
     0
 92
       -2
340
14
 93
        0
 40
1.125
309
GRIDFORMAT_END
 95
        4
302
GRIDFORMAT
  1
GRIDFORMAT_BEGIN
 90
        0
 91
        1
 62
     0
 92
       -2
340
14
 93
        0
 40
1.125
309
GRIDFORMAT_END
 95
        8
302
GRIDFORMAT
  1
GRIDFORMAT_BEGIN
 90
        0
 91
        1
 62
     0
 92
       -2
340
14
 93
        0
 40
1.125
309
GRIDFORMAT_END
 95
       16
302
GRIDFORMAT
  1
GRIDFORMAT_BEGIN
 90
        0
 91
        1
 62
     0
 92
       -2
340
14
 93
        0
 40
1.125
309
GRIDFORMAT_END
 95
       32
302
GRIDFORMAT
  1
GRIDFORMAT_BEGIN
 90
        0
 91
        1
 62
     0
 92
       -2
340
14
 93
        0
 40
1.125
309
GRIDFORMAT_END
309
TABLEFORMAT_END
  1
CELLSTYLE_BEGIN
 90
        2
 91
        1
300
_HEADER
309
CELLSTYLE_END
300
CELLSTYLE
  1
TABLEFORMAT_BEGIN
 90
        5
170
     1
 91
        0
 92
        0
 62
   257
 93
        1
300
CONTENTFORMAT
  1
CONTENTFORMAT_BEGIN
 90
        0
 91
        0
 92
      512
 93
        0
300

 40
0.0
140
1.0
 94
        2
 62
     0
340
11
144
4.5
309
CONTENTFORMAT_END
171
     1
301
MARGIN
  1
CELLMARGIN_BEGIN
 40
1.5
 40
1.5
 40
1.5
 40
1.5
 40
4.5
 40
4.5
309
CELLMARGIN_END
 94
        6
 95
        1
302
GRIDFORMAT
  1
GRIDFORMAT_BEGIN
 90
        0
 91
        1
 62
     0
 92
       -2
340
14
 93
        0
 40
1.125
309
GRIDFORMAT_END
 95
        2
302
GRIDFORMAT
  1
GRIDFORMAT_BEGIN
 90
        0
 91
        1
 62
     0
 92
       -2
340
14
 93
        0
 40
1.125
309
GRIDFORMAT_END
 95
        4
302
GRIDFORMAT
  1
GRIDFORMAT_BEGIN
 90
        0
 91
        1
 62
     0
 92
       -2
340
14
 93
        0
 40
1.125
309
GRIDFORMAT_END
 95
        8
302
GRIDFORMAT
  1
GRIDFORMAT_BEGIN
 90
        0
 91
        1
 62
     0
 92
       -2
340
14
 93
        0
 40
1.125
309
GRIDFORMAT_END
 95
       16
302
GRIDFORMAT
  1
GRIDFORMAT_BEGIN
 90
        0
 91
        1
 62
     0
 92
       -2
340
14
 93
        0
 40
1.125
309
GRIDFORMAT_END
 95
       32
302
GRIDFORMAT
  1
GRIDFORMAT_BEGIN
 90
        0
 91
        1
 62
     0
 92
       -2
340
14
 93
        0
 40
1.125
309
GRIDFORMAT_END
309
TABLEFORMAT_END
  1
CELLSTYLE_BEGIN
 90
        3
 91
        2
300
_DATA
309
CELLSTYLE_END
  0
XRECORD
  5
374
102
{ACAD_REACTORS
330
373
102
}
330
373
100
AcDbXrecord
280
     1
330
10D
  0
XRECORD
  5
2E4
102
{ACAD_REACTORS
330
2E3
102
}
330
2E3
100
AcDbXrecord
280
     1
330
10D
  0
ACDBASSOCARRAYACTIONBODY
  5
1185
330
1184
100
AcDbAssocActionBody
 90
        2
100
AcDbAssocArrayActionBody
 90
        1
  1
AcDbAssocArrayPolarParameters
 90
        0
 90
       40
  1
AcDbAssocArrayItem
100
AcDbAssocArrayItem
 90
        0
 90
        0
 90
        0
 90
        0
 90
        8
 11
72.3989680553353
 21
417.2217788226543
 31
0.0
330
115B
100
AcDbAssocArrayItem
 90
        0
 90
        0
 90
        1
 90
        0
 90
        8
 11
70.27764771177565
 21
415.1004584790946
 31
0.0
330
115C
100
AcDbAssocArrayItem
 90
        0
 90
        0
 90
        2
 90
        0
 90
        8
 11
68.15632736821601
 21
412.979138135535
 31
0.0
330
115D
100
AcDbAssocArrayItem
 90
        0
 90
        0
 90
        3
 90
        0
 90
        8
 11
66.03500702465638
 21
410.8578177919754
 31
0.0
330
115E
100
AcDbAssocArrayItem
 90
        0
 90
        0
 90
        4
 90
        0
 90
        8
 11
63.91368668109674
 21
408.7364974484157
 31
0.0
330
115F
100
AcDbAssocArrayItem
 90
        0
 90
        0
 90
        5
 90
        0
 90
        8
 11
61.79236633753709
 21
406.6151771048561
 31
0.0
330
1160
100
AcDbAssocArrayItem
 90
        0
 90
        0
 90
        6
 90
        0
 90
        8
 11
59.67104599397744
 21
404.4938567612964
 31
0.0
330
1161
100
AcDbAssocArrayItem
 90
        0
 90
        0
 90
        7
 90
        0
 90
        8
 11
57.5497256504178
 21
402.3725364177368
 31
0.0
330
1162
100
AcDbAssocArrayItem
 90
        0
 90
        0
 90
        8
 90
        0
 90
        8
 11
55.42840530685816
 21
400.2512160741771
 31
0.0
330
1163
100
AcDbAssocArrayItem
 90
        0
 90
        0
 90
        9
 90
        0
 90
        8
 11
53.30708496329852
 21
398.1298957306175
 31
0.0
330
1164
100
AcDbAssocArrayItem
 90
        0
 90
        1
 90
        0
 90
        0
 90
       12
 40
0.0
 40
-1.0
 40
0.0
 40
77.45460507604789
 40
0.9999999999999998
 40
-0.0000000000000001
 40
0.0
 40
417.2217788226543
 40
0.0
 40
0.0
 40
1.0
 40
0.0
 40
0.0
 40
0.0
 40
0.0
 40
1.0
330
1165
100
AcDbAssocArrayItem
 90
        0
 90
        1
 90
        1
 90
        0
 90
       12
 40
0.0
 40
-1.0
 40
0.0
 40
79.57592541960754
 40
0.9999999999999998
 40
-0.0000000000000001
 40
0.0
 40
415.1004584790946
 40
0.0
 40
0.0
 40
1.0
 40
0.0
 40
0.0
 40
0.0
 40
0.0
 40
1.0
330
1166
100
AcDbAssocArrayItem
 90
        0
 90
        1
 90
        2
 90
        0
 90
       12
 40
0.0
 40
-1.0
 40
0.0
 40
81.69724576316719
 40
0.9999999999999998
 40
-0.0000000000000001
 40
0.0
 40
412.979138135535
 40
0.0
 40
0.0
 40
1.0
 40
0.0
 40
0.0
 40
0.0
 40
0.0
 40
1.0
330
1167
100
AcDbAssocArrayItem
 90
        0
 90
        1
 90
        3
 90
        0
 90
       12
 40
0.0
 40
-1.0
 40
0.0
 40
83.81856610672683
 40
0.9999999999999998
 40
-0.0000000000000001
 40
0.0
 40
410.8578177919754
 40
0.0
 40
0.0
 40
1.0
 40
0.0
 40
0.0
 40
0.0
 40
0.0
 40
1.0
330
1168
100
AcDbAssocArrayItem
 90
        0
 90
        1
 90
        4
 90
        0
 90
       12
 40
0.0
 40
-1.0
 40
0.0
 40
85.93988645028646
 40
0.9999999999999998
 40
-0.0000000000000001
 40
0.0
 40
408.7364974484157
 40
0.0
 40
0.0
 40
1.0
 40
0.0
 40
0.0
 40
0.0
 40
0.0
 40
1.0
330
1169
100
AcDbAssocArrayItem
 90
        0
 90
        1
 90
        5
 90
        0
 90
       12
 40
0.0
 40
-1.0
 40
0.0
 40
88.0612067938461
 40
0.9999999999999998
 40
-0.0000000000000001
 40
0.0
 40
406.6151771048561
 40
0.0
 40
0.0
 40
1.0
 40
0.0
 40
0.0
 40
0.0
 40
0.0
 40
1.0
330
116A
100
AcDbAssocArrayItem
 90
        0
 90
        1
 90
        6
 90
        0
 90
       12
 40
0.0
 40
-1.0
 40
0.0
 40
90.18252713740576
 40
0.9999999999999998
 40
-0.0000000000000001
 40
0.0
 40
404.4938567612964
 40
0.0
 40
0.0
 40
1.0
 40
0.0
 40
0.0
 40
0.0
 40
0.0
 40
1.0
330
116B
100
AcDbAssocArrayItem
 90
        0
 90
        1
 90
        7
 90
        0
 90
       12
 40
0.0
 40
-1.0
 40
0.0
 40
92.3038474809654
 40
0.9999999999999998
 40
-0.0000000000000001
 40
0.0
 40
402.3725364177368
 40
0.0
 40
0.0
 40
1.0
 40
0.0
 40
0.0
 40
0.0
 40
0.0
 40
1.0
330
116C
100
AcDbAssocArrayItem
 90
        0
 90
        1
 90
        8
 90
        0
 90
       12
 40
0.0
 40
-1.0
 40
0.0
 40
94.42516782452504
 40
0.9999999999999998
 40
-0.0000000000000001
 40
0.0
 40
400.2512160741771
 40
0.0
 40
0.0
 40
1.0
 40
0.0
 40
0.0
 40
0.0
 40
0.0
 40
1.0
330
116D
100
AcDbAssocArrayItem
 90
        0
 90
        1
 90
        9
 90
        0
 90
       12
 40
0.0
 40
-1.0
 40
0.0
 40
96.54648816808467
 40
0.9999999999999998
 40
-0.0000000000000001
 40
0.0
 40
398.1298957306175
 40
0.0
 40
0.0
 40
1.0
 40
0.0
 40
0.0
 40
0.0
 40
0.0
 40
1.0
330
116E
100
AcDbAssocArrayItem
 90
        0
 90
        2
 90
        0
 90
        0
 90
       12
 40
-0.9999999999999998
 40
0.0000000000000004
 40
0.0
 40
77.45460507604789
 40
-0.0000000000000005
 40
-1.0
 40
0.0
 40
422.2774158433668
 40
0.0
 40
0.0
 40
1.0
 40
0.0
 40
0.0
 40
0.0
 40
0.0
 40
1.0
330
116F
100
AcDbAssocArrayItem
 90
        0
 90
        2
 90
        1
 90
        0
 90
       12
 40
-0.9999999999999998
 40
0.0000000000000004
 40
0.0
 40
79.57592541960754
 40
-0.0000000000000005
 40
-1.0
 40
0.0
 40
424.3987361869264
 40
0.0
 40
0.0
 40
1.0
 40
0.0
 40
0.0
 40
0.0
 40
0.0
 40
1.0
330
1170
100
AcDbAssocArrayItem
 90
        0
 90
        2
 90
        2
 90
        0
 90
       12
 40
-0.9999999999999998
 40
0.0000000000000004
 40
0.0
 40
81.69724576316719
 40
-0.0000000000000005
 40
-1.0
 40
0.0
 40
426.520056530486
 40
0.0
 40
0.0
 40
1.0
 40
0.0
 40
0.0
 40
0.0
 40
0.0
 40
1.0
330
1171
100
AcDbAssocArrayItem
 90
        0
 90
        2
 90
        3
 90
        0
 90
       12
 40
-0.9999999999999998
 40
0.0000000000000004
 40
0.0
 40
83.81856610672683
 40
-0.0000000000000005
 40
-1.0
 40
0.0
 40
428.6413768740457
 40
0.0
 40
0.0
 40
1.0
 40
0.0
 40
0.0
 40
0.0
 40
0.0
 40
1.0
330
1172
100
AcDbAssocArrayItem
 90
        0
 90
        2
 90
        4
 90
        0
 90
       12
 40
-0.9999999999999998
 40
0.0000000000000004
 40
0.0
 40
85.93988645028646
 40
-0.0000000000000005
 40
-1.0
 40
0.0
 40
430.7626972176054
 40
0.0
 40
0.0
 40
1.0
 40
0.0
 40
0.0
 40
0.0
 40
0.0
 40
1.0
330
1173
100
AcDbAssocArrayItem
 90
        0
 90
        2
 90
        5
 90
        0
 90
       12
 40
-0.9999999999999998
 40
0.0000000000000004
 40
0.0
 40
88.0612067938461
 40
-0.0000000000000005
 40
-1.0
 40
0.0
 40
432.8840175611651
 40
0.0
 40
0.0
 40
1.0
 40
0.0
 40
0.0
 40
0.0
 40
0.0
 40
1.0
330
1174
100
AcDbAssocArrayItem
 90
        0
 90
        2
 90
        6
 90
        0
 90
       12
 40
-0.9999999999999998
 40
0.0000000000000004
 40
0.0
 40
90.18252713740574
 40
-0.0000000000000005
 40
-1.0
 40
0.0
 40
435.0053379047246
 40
0.0
 40
0.0
 40
1.0
 40
0.0
 40
0.0
 40
0.0
 40
0.0
 40
1.0
330
1175
100
AcDbAssocArrayItem
 90
        0
 90
        2
 90
        7
 90
        0
 90
       12
 40
-0.9999999999999998
 40
0.0000000000000004
 40
0.0
 40
92.30384748096538
 40
-0.0000000000000005
 40
-1.0
 40
0.0
 40
437.1266582482843
 40
0.0
 40
0.0
 40
1.0
 40
0.0
 40
0.0
 40
0.0
 40
0.0
 40
1.0
330
1176
100
AcDbAssocArrayItem
 90
        0
 90
        2
 90
        8
 90
        0
 90
       12
 40
-0.9999999999999998
 40
0.0000000000000004
 40
0.0
 40
94.42516782452504
 40
-0.0000000000000005
 40
-1.0
 40
0.0
 40
439.247978591844
 40
0.0
 40
0.0
 40
1.0
 40
0.0
 40
0.0
 40
0.0
 40
0.0
 40
1.0
330
1177
100
AcDbAssocArrayItem
 90
        0
 90
        2
 90
        9
 90
        0
 90
       12
 40
-0.9999999999999998
 40
0.0000000000000004
 40
0.0
 40
96.54648816808467
 40
-0.0000000000000005
 40
-1.0
 40
0.0
 40
441.3692989354037
 40
0.0
 40
0.0
 40
1.0
 40
0.0
 40
0.0
 40
0.0
 40
0.0
 40
1.0
330
1178
100
AcDbAssocArrayItem
 90
        0
 90
        3
 90
        0
 90
        0
 90
       12
 40
-0.0000000000000003
 40
1.0
 40
0.0
 40
72.3989680553353
 40
-0.9999999999999998
 40
-0.0000000000000005
 40
0.0
 40
422.2774158433668
 40
0.0
 40
0.0
 40
1.0
 40
0.0
 40
0.0
 40
0.0
 40
0.0
 40
1.0
330
1179
100
AcDbAssocArrayItem
 90
        0
 90
        3
 90
        1
 90
        0
 90
       12
 40
-0.0000000000000003
 40
1.0
 40
0.0
 40
70.27764771177565
 40
-0.9999999999999998
 40
-0.0000000000000005
 40
0.0
 40
424.3987361869264
 40
0.0
 40
0.0
 40
1.0
 40
0.0
 40
0.0
 40
0.0
 40
0.0
 40
1.0
330
117A
100
AcDbAssocArrayItem
 90
        0
 90
        3
 90
        2
 90
        0
 90
       12
 40
-0.0000000000000003
 40
1.0
 40
0.0
 40
68.15632736821601
 40
-0.9999999999999998
 40
-0.0000000000000005
 40
0.0
 40
426.520056530486
 40
0.0
 40
0.0
 40
1.0
 40
0.0
 40
0.0
 40
0.0
 40
0.0
 40
1.0
330
117B
100
AcDbAssocArrayItem
 90
        0
 90
        3
 90
        3
 90
        0
 90
       12
 40
-0.0000000000000003
 40
1.0
 40
0.0
 40
66.03500702465638
 40
-0.9999999999999998
 40
-0.0000000000000005
 40
0.0
 40
428.6413768740457
 40
0.0
 40
0.0
 40
1.0
 40
0.0
 40
0.0
 40
0.0
 40
0.0
 40
1.0
330
117C
100
AcDbAssocArrayItem
 90
        0
 90
        3
 90
        4
 90
        0
 90
       12
 40
-0.0000000000000003
 40
1.0
 40
0.0
 40
63.91368668109674
 40
-0.9999999999999998
 40
-0.0000000000000005
 40
0.0
 40
430.7626972176054
 40
0.0
 40
0.0
 40
1.0
 40
0.0
 40
0.0
 40
0.0
 40
0.0
 40
1.0
330
117D
100
AcDbAssocArrayItem
 90
        0
 90
        3
 90
        5
 90
        0
 90
       12
 40
-0.0000000000000003
 40
1.0
 40
0.0
 40
61.79236633753709
 40
-0.9999999999999998
 40
-0.0000000000000005
 40
0.0
 40
432.8840175611651
 40
0.0
 40
0.0
 40
1.0
 40
0.0
 40
0.0
 40
0.0
 40
0.0
 40
1.0
330
117E
100
AcDbAssocArrayItem
 90
        0
 90
        3
 90
        6
 90
        0
 90
       12
 40
-0.0000000000000003
 40
1.0
 40
0.0
 40
59.67104599397745
 40
-0.9999999999999998
 40
-0.0000000000000005
 40
0.0
 40
435.0053379047246
 40
0.0
 40
0.0
 40
1.0
 40
0.0
 40
0.0
 40
0.0
 40
0.0
 40
1.0
330
117F
100
AcDbAssocArrayItem
 90
        0
 90
        3
 90
        7
 90
        0
 90
       12
 40
-0.0000000000000003
 40
1.0
 40
0.0
 40
57.5497256504178
 40
-0.9999999999999998
 40
-0.0000000000000005
 40
0.0
 40
437.1266582482843
 40
0.0
 40
0.0
 40
1.0
 40
0.0
 40
0.0
 40
0.0
 40
0.0
 40
1.0
330
1180
100
AcDbAssocArrayItem
 90
        0
 90
        3
 90
        8
 90
        0
 90
       12
 40
-0.0000000000000003
 40
1.0
 40
0.0
 40
55.42840530685817
 40
-0.9999999999999998
 40
-0.0000000000000005
 40
0.0
 40
439.247978591844
 40
0.0
 40
0.0
 40
1.0
 40
0.0
 40
0.0
 40
0.0
 40
0.0
 40
1.0
330
1181
100
AcDbAssocArrayItem
 90
        0
 90
        3
 90
        9
 90
        0
 90
       12
 40
-0.0000000000000003
 40
1.0
 40
0.0
 40
53.30708496329852
 40
-0.9999999999999998
 40
-0.0000000000000005
 40
0.0
 40
441.3692989354036
 40
0.0
 40
0.0
 40
1.0
 40
0.0
 40
0.0
 40
0.0
 40
0.0
 40
1.0
330
1182
 40
1.0
 40
0.0
 40
0.0
 40
-210.9930324598149
 40
0.0
 40
1.0
 40
0.0
 40
-291.9708140016718
 40
0.0
 40
0.0
 40
1.0
 40
0.0
 40
0.0
 40
0.0
 40
0.0
 40
1.0
  0
ACDBASSOCDEPENDENCY
  5
1186
330
1184
100
AcDbAssocDependency
 90
        2
 90
        0
290
     0
290
     1
290
     1
290
     1
 90
        0
330
1159
290
     0
330
0
330
0
360
0
 90
        1
  0
ACDBASSOCDEPENDENCY
  5
1187
330
1184
100
AcDbAssocDependency
 90
        2
 90
        0
290
     1
290
     0
290
     1
290
     1
 90
        0
330
1153
290
     0
330
0
330
0
360
0
 90
        2
  0
ACDBASSOCDEPENDENCY
  5
1188
330
1184
100
AcDbAssocDependency
 90
        2
 90
        0
290
     1
290
     1
290
     1
290
     1
 90
-2147483648
330
DFA
290
     0
330
0
330
0
360
0
 90
        3
  0
ACDBASSOCVERTEXACTIONPARAM
  5
1189
330
1184
100
AcDbAssocActionParam
 90
        1
 90
        0
  1
BaseNormal
100
AcDbAssocSingleDependencyActionParam
 90
        0
330
0
100
AcDbAssocVertexActionParam
 90
        0
 10
0.0
 20
0.0
 30
1.0
  0
ACDBASSOCVERTEXACTIONPARAM
  5
118A
330
1184
100
AcDbAssocActionParam
 90
        1
 90
        0
  1
Origin
100
AcDbAssocSingleDependencyActionParam
 90
        0
330
0
100
AcDbAssocVertexActionParam
 90
        0
 10
74.9267865656916
 20
419.7495973330105
 30
0.0
  0
ACDBASSOCVERTEXACTIONPARAM
  5
118B
330
1184
100
AcDbAssocActionParam
 90
        1
 90
        0
  1
basePoint
100
AcDbAssocSingleDependencyActionParam
 90
        0
330
0
100
AcDbAssocVertexActionParam
 90
        0
 10
0.0
 20
0.0
 30
0.0
  0
ACDBASSOCARRAYACTIONBODY
  5
11BC
330
11BB
100
AcDbAssocActionBody
 90
        2
100
AcDbAssocArrayActionBody
 90
        1
  1
AcDbAssocArrayPolarParameters
 90
        0
 90
       40
  1
AcDbAssocArrayItem
100
AcDbAssocArrayItem
 90
        0
 90
        0
 90
        0
 90
        0
 90
        8
 11
72.3989680553353
 21
417.2217788226543
 31
0.0
330
1192
100
AcDbAssocArrayItem
 90
        0
 90
        0
 90
        1
 90
        0
 90
        8
 11
70.27764771177565
 21
415.1004584790946
 31
0.0
330
1193
100
AcDbAssocArrayItem
 90
        0
 90
        0
 90
        2
 90
        0
 90
        8
 11
68.15632736821601
 21
412.979138135535
 31
0.0
330
1194
100
AcDbAssocArrayItem
 90
        0
 90
        0
 90
        3
 90
        0
 90
        8
 11
66.03500702465638
 21
410.8578177919754
 31
0.0
330
1195
100
AcDbAssocArrayItem
 90
        0
 90
        0
 90
        4
 90
        0
 90
        8
 11
63.91368668109674
 21
408.7364974484157
 31
0.0
330
1196
100
AcDbAssocArrayItem
 90
        0
 90
        0
 90
        5
 90
        0
 90
        8
 11
61.79236633753709
 21
406.6151771048561
 31
0.0
330
1197
100
AcDbAssocArrayItem
 90
        0
 90
        0
 90
        6
 90
        0
 90
        8
 11
59.67104599397744
 21
404.4938567612964
 31
0.0
330
1198
100
AcDbAssocArrayItem
 90
        0
 90
        0
 90
        7
 90
        0
 90
        8
 11
57.5497256504178
 21
402.3725364177368
 31
0.0
330
1199
100
AcDbAssocArrayItem
 90
        0
 90
        0
 90
        8
 90
        0
 90
        8
 11
55.42840530685816
 21
400.2512160741771
 31
0.0
330
119A
100
AcDbAssocArrayItem
 90
        0
 90
        0
 90
        9
 90
        0
 90
        8
 11
53.30708496329852
 21
398.1298957306175
 31
0.0
330
119B
100
AcDbAssocArrayItem
 90
        0
 90
        1
 90
        0
 90
        0
 90
       12
 40
0.0
 40
-1.0
 40
0.0
 40
77.45460507604789
 40
0.9999999999999998
 40
-0.0000000000000001
 40
0.0
 40
417.2217788226543
 40
0.0
 40
0.0
 40
1.0
 40
0.0
 40
0.0
 40
0.0
 40
0.0
 40
1.0
330
119C
100
AcDbAssocArrayItem
 90
        0
 90
        1
 90
        1
 90
        0
 90
       12
 40
0.0
 40
-1.0
 40
0.0
 40
79.57592541960754
 40
0.9999999999999998
 40
-0.0000000000000001
 40
0.0
 40
415.1004584790946
 40
0.0
 40
0.0
 40
1.0
 40
0.0
 40
0.0
 40
0.0
 40
0.0
 40
1.0
330
119D
100
AcDbAssocArrayItem
 90
        0
 90
        1
 90
        2
 90
        0
 90
       12
 40
0.0
 40
-1.0
 40
0.0
 40
81.69724576316719
 40
0.9999999999999998
 40
-0.0000000000000001
 40
0.0
 40
412.979138135535
 40
0.0
 40
0.0
 40
1.0
 40
0.0
 40
0.0
 40
0.0
 40
0.0
 40
1.0
330
119E
100
AcDbAssocArrayItem
 90
        0
 90
        1
 90
        3
 90
        0
 90
       12
 40
0.0
 40
-1.0
 40
0.0
 40
83.81856610672683
 40
0.9999999999999998
 40
-0.0000000000000001
 40
0.0
 40
410.8578177919754
 40
0.0
 40
0.0
 40
1.0
 40
0.0
 40
0.0
 40
0.0
 40
0.0
 40
1.0
330
119F
100
AcDbAssocArrayItem
 90
        0
 90
        1
 90
        4
 90
        0
 90
       12
 40
0.0
 40
-1.0
 40
0.0
 40
85.93988645028646
 40
0.9999999999999998
 40
-0.0000000000000001
 40
0.0
 40
408.7364974484157
 40
0.0
 40
0.0
 40
1.0
 40
0.0
 40
0.0
 40
0.0
 40
0.0
 40
1.0
330
11A0
100
AcDbAssocArrayItem
 90
        0
 90
        1
 90
        5
 90
        0
 90
       12
 40
0.0
 40
-1.0
 40
0.0
 40
88.0612067938461
 40
0.9999999999999998
 40
-0.0000000000000001
 40
0.0
 40
406.6151771048561
 40
0.0
 40
0.0
 40
1.0
 40
0.0
 40
0.0
 40
0.0
 40
0.0
 40
1.0
330
11A1
100
AcDbAssocArrayItem
 90
        0
 90
        1
 90
        6
 90
        0
 90
       12
 40
0.0
 40
-1.0
 40
0.0
 40
90.18252713740576
 40
0.9999999999999998
 40
-0.0000000000000001
 40
0.0
 40
404.4938567612964
 40
0.0
 40
0.0
 40
1.0
 40
0.0
 40
0.0
 40
0.0
 40
0.0
 40
1.0
330
11A2
100
AcDbAssocArrayItem
 90
        0
 90
        1
 90
        7
 90
        0
 90
       12
 40
0.0
 40
-1.0
 40
0.0
 40
92.3038474809654
 40
0.9999999999999998
 40
-0.0000000000000001
 40
0.0
 40
402.3725364177368
 40
0.0
 40
0.0
 40
1.0
 40
0.0
 40
0.0
 40
0.0
 40
0.0
 40
1.0
330
11A3
100
AcDbAssocArrayItem
 90
        0
 90
        1
 90
        8
 90
        0
 90
       12
 40
0.0
 40
-1.0
 40
0.0
 40
94.42516782452504
 40
0.9999999999999998
 40
-0.0000000000000001
 40
0.0
 40
400.2512160741771
 40
0.0
 40
0.0
 40
1.0
 40
0.0
 40
0.0
 40
0.0
 40
0.0
 40
1.0
330
11A4
100
AcDbAssocArrayItem
 90
        0
 90
        1
 90
        9
 90
        0
 90
       12
 40
0.0
 40
-1.0
 40
0.0
 40
96.54648816808467
 40
0.9999999999999998
 40
-0.0000000000000001
 40
0.0
 40
398.1298957306175
 40
0.0
 40
0.0
 40
1.0
 40
0.0
 40
0.0
 40
0.0
 40
0.0
 40
1.0
330
11A5
100
AcDbAssocArrayItem
 90
        0
 90
        2
 90
        0
 90
        0
 90
       12
 40
-0.9999999999999998
 40
0.0000000000000004
 40
0.0
 40
77.45460507604789
 40
-0.0000000000000005
 40
-1.0
 40
0.0
 40
422.2774158433668
 40
0.0
 40
0.0
 40
1.0
 40
0.0
 40
0.0
 40
0.0
 40
0.0
 40
1.0
330
11A6
100
AcDbAssocArrayItem
 90
        0
 90
        2
 90
        1
 90
        0
 90
       12
 40
-0.9999999999999998
 40
0.0000000000000004
 40
0.0
 40
79.57592541960754
 40
-0.0000000000000005
 40
-1.0
 40
0.0
 40
424.3987361869264
 40
0.0
 40
0.0
 40
1.0
 40
0.0
 40
0.0
 40
0.0
 40
0.0
 40
1.0
330
11A7
100
AcDbAssocArrayItem
 90
        0
 90
        2
 90
        2
 90
        0
 90
       12
 40
-0.9999999999999998
 40
0.0000000000000004
 40
0.0
 40
81.69724576316719
 40
-0.0000000000000005
 40
-1.0
 40
0.0
 40
426.520056530486
 40
0.0
 40
0.0
 40
1.0
 40
0.0
 40
0.0
 40
0.0
 40
0.0
 40
1.0
330
11A8
100
AcDbAssocArrayItem
 90
        0
 90
        2
 90
        3
 90
        0
 90
       12
 40
-0.9999999999999998
 40
0.0000000000000004
 40
0.0
 40
83.81856610672683
 40
-0.0000000000000005
 40
-1.0
 40
0.0
 40
428.6413768740457
 40
0.0
 40
0.0
 40
1.0
 40
0.0
 40
0.0
 40
0.0
 40
0.0
 40
1.0
330
11A9
100
AcDbAssocArrayItem
 90
        0
 90
        2
 90
        4
 90
        0
 90
       12
 40
-0.9999999999999998
 40
0.0000000000000004
 40
0.0
 40
85.93988645028646
 40
-0.0000000000000005
 40
-1.0
 40
0.0
 40
430.7626972176054
 40
0.0
 40
0.0
 40
1.0
 40
0.0
 40
0.0
 40
0.0
 40
0.0
 40
1.0
330
11AA
100
AcDbAssocArrayItem
 90
        0
 90
        2
 90
        5
 90
        0
 90
       12
 40
-0.9999999999999998
 40
0.0000000000000004
 40
0.0
 40
88.0612067938461
 40
-0.0000000000000005
 40
-1.0
 40
0.0
 40
432.8840175611651
 40
0.0
 40
0.0
 40
1.0
 40
0.0
 40
0.0
 40
0.0
 40
0.0
 40
1.0
330
11AB
100
AcDbAssocArrayItem
 90
        0
 90
        2
 90
        6
 90
        0
 90
       12
 40
-0.9999999999999998
 40
0.0000000000000004
 40
0.0
 40
90.18252713740574
 40
-0.0000000000000005
 40
-1.0
 40
0.0
 40
435.0053379047246
 40
0.0
 40
0.0
 40
1.0
 40
0.0
 40
0.0
 40
0.0
 40
0.0
 40
1.0
330
11AC
100
AcDbAssocArrayItem
 90
        0
 90
        2
 90
        7
 90
        0
 90
       12
 40
-0.9999999999999998
 40
0.0000000000000004
 40
0.0
 40
92.30384748096538
 40
-0.0000000000000005
 40
-1.0
 40
0.0
 40
437.1266582482843
 40
0.0
 40
0.0
 40
1.0
 40
0.0
 40
0.0
 40
0.0
 40
0.0
 40
1.0
330
11AD
100
AcDbAssocArrayItem
 90
        0
 90
        2
 90
        8
 90
        0
 90
       12
 40
-0.9999999999999998
 40
0.0000000000000004
 40
0.0
 40
94.42516782452504
 40
-0.0000000000000005
 40
-1.0
 40
0.0
 40
439.247978591844
 40
0.0
 40
0.0
 40
1.0
 40
0.0
 40
0.0
 40
0.0
 40
0.0
 40
1.0
330
11AE
100
AcDbAssocArrayItem
 90
        0
 90
        2
 90
        9
 90
        0
 90
       12
 40
-0.9999999999999998
 40
0.0000000000000004
 40
0.0
 40
96.54648816808467
 40
-0.0000000000000005
 40
-1.0
 40
0.0
 40
441.3692989354037
 40
0.0
 40
0.0
 40
1.0
 40
0.0
 40
0.0
 40
0.0
 40
0.0
 40
1.0
330
11AF
100
AcDbAssocArrayItem
 90
        0
 90
        3
 90
        0
 90
        0
 90
       12
 40
-0.0000000000000003
 40
1.0
 40
0.0
 40
72.3989680553353
 40
-0.9999999999999998
 40
-0.0000000000000005
 40
0.0
 40
422.2774158433668
 40
0.0
 40
0.0
 40
1.0
 40
0.0
 40
0.0
 40
0.0
 40
0.0
 40
1.0
330
11B0
100
AcDbAssocArrayItem
 90
        0
 90
        3
 90
        1
 90
        0
 90
       12
 40
-0.0000000000000003
 40
1.0
 40
0.0
 40
70.27764771177565
 40
-0.9999999999999998
 40
-0.0000000000000005
 40
0.0
 40
424.3987361869264
 40
0.0
 40
0.0
 40
1.0
 40
0.0
 40
0.0
 40
0.0
 40
0.0
 40
1.0
330
11B1
100
AcDbAssocArrayItem
 90
        0
 90
        3
 90
        2
 90
        0
 90
       12
 40
-0.0000000000000003
 40
1.0
 40
0.0
 40
68.15632736821601
 40
-0.9999999999999998
 40
-0.0000000000000005
 40
0.0
 40
426.520056530486
 40
0.0
 40
0.0
 40
1.0
 40
0.0
 40
0.0
 40
0.0
 40
0.0
 40
1.0
330
11B2
100
AcDbAssocArrayItem
 90
        0
 90
        3
 90
        3
 90
        0
 90
       12
 40
-0.0000000000000003
 40
1.0
 40
0.0
 40
66.03500702465638
 40
-0.9999999999999998
 40
-0.0000000000000005
 40
0.0
 40
428.6413768740457
 40
0.0
 40
0.0
 40
1.0
 40
0.0
 40
0.0
 40
0.0
 40
0.0
 40
1.0
330
11B3
100
AcDbAssocArrayItem
 90
        0
 90
        3
 90
        4
 90
        0
 90
       12
 40
-0.0000000000000003
 40
1.0
 40
0.0
 40
63.91368668109674
 40
-0.9999999999999998
 40
-0.0000000000000005
 40
0.0
 40
430.7626972176054
 40
0.0
 40
0.0
 40
1.0
 40
0.0
 40
0.0
 40
0.0
 40
0.0
 40
1.0
330
11B4
100
AcDbAssocArrayItem
 90
        0
 90
        3
 90
        5
 90
        0
 90
       12
 40
-0.0000000000000003
 40
1.0
 40
0.0
 40
61.79236633753709
 40
-0.9999999999999998
 40
-0.0000000000000005
 40
0.0
 40
432.8840175611651
 40
0.0
 40
0.0
 40
1.0
 40
0.0
 40
0.0
 40
0.0
 40
0.0
 40
1.0
330
11B5
100
AcDbAssocArrayItem
 90
        0
 90
        3
 90
        6
 90
        0
 90
       12
 40
-0.0000000000000003
 40
1.0
 40
0.0
 40
59.67104599397745
 40
-0.9999999999999998
 40
-0.0000000000000005
 40
0.0
 40
435.0053379047246
 40
0.0
 40
0.0
 40
1.0
 40
0.0
 40
0.0
 40
0.0
 40
0.0
 40
1.0
330
11B6
100
AcDbAssocArrayItem
 90
        0
 90
        3
 90
        7
 90
        0
 90
       12
 40
-0.0000000000000003
 40
1.0
 40
0.0
 40
57.5497256504178
 40
-0.9999999999999998
 40
-0.0000000000000005
 40
0.0
 40
437.1266582482843
 40
0.0
 40
0.0
 40
1.0
 40
0.0
 40
0.0
 40
0.0
 40
0.0
 40
1.0
330
11B7
100
AcDbAssocArrayItem
 90
        0
 90
        3
 90
        8
 90
        0
 90
       12
 40
-0.0000000000000003
 40
1.0
 40
0.0
 40
55.42840530685817
 40
-0.9999999999999998
 40
-0.0000000000000005
 40
0.0
 40
439.247978591844
 40
0.0
 40
0.0
 40
1.0
 40
0.0
 40
0.0
 40
0.0
 40
0.0
 40
1.0
330
11B8
100
AcDbAssocArrayItem
 90
        0
 90
        3
 90
        9
 90
        0
 90
       12
 40
-0.0000000000000003
 40
1.0
 40
0.0
 40
53.30708496329852
 40
-0.9999999999999998
 40
-0.0000000000000005
 40
0.0
 40
441.3692989354036
 40
0.0
 40
0.0
 40
1.0
 40
0.0
 40
0.0
 40
0.0
 40
0.0
 40
1.0
330
11B9
 40
1.0
 40
0.0
 40
0.0
 40
-0.9930324598148558
 40
0.0
 40
1.0
 40
0.0
 40
-291.9708140016718
 40
0.0
 40
0.0
 40
1.0
 40
0.0
 40
0.0
 40
0.0
 40
0.0
 40
1.0
  0
ACDBASSOCDEPENDENCY
  5
11BD
330
11BB
100
AcDbAssocDependency
 90
        2
 90
        0
290
     0
290
     1
290
     1
290
     1
 90
        0
330
1190
290
     0
330
0
330
0
360
0
 90
        1
  0
ACDBASSOCDEPENDENCY
  5
11BE
330
11BB
100
AcDbAssocDependency
 90
        2
 90
        0
290
     1
290
     0
290
     1
290
     1
 90
        0
330
118C
290
     0
330
0
330
0
360
0
 90
        2
  0
ACDBASSOCDEPENDENCY
  5
11BF
330
11BB
100
AcDbAssocDependency
 90
        2
 90
        0
290
     1
290
     1
290
     1
290
     1
 90
-2147483648
330
E1D
290
     0
330
0
330
0
360
0
 90
        3
  0
ACDBASSOCVERTEXACTIONPARAM
  5
11C0
330
11BB
100
AcDbAssocActionParam
 90
        1
 90
        0
  1
BaseNormal
100
AcDbAssocSingleDependencyActionParam
 90
        0
330
0
100
AcDbAssocVertexActionParam
 90
        0
 10
0.0
 20
0.0
 30
1.0
  0
ACDBASSOCVERTEXACTIONPARAM
  5
11C1
330
11BB
100
AcDbAssocActionParam
 90
        1
 90
        0
  1
Origin
100
AcDbAssocSingleDependencyActionParam
 90
        0
330
0
100
AcDbAssocVertexActionParam
 90
        0
 10
74.9267865656916
 20
419.7495973330105
 30
0.0
  0
ACDBASSOCVERTEXACTIONPARAM
  5
11C2
330
11BB
100
AcDbAssocActionParam
 90
        1
 90
        0
  1
basePoint
100
AcDbAssocSingleDependencyActionParam
 90
        0
330
0
100
AcDbAssocVertexActionParam
 90
        0
 10
0.0
 20
0.0
 30
0.0
  0
ENDSEC
  0
SECTION
  2
ACDSDATA
 70
     2
 71
     8
  0
ACDSSCHEMA
 90
        0
  1
AcDb_Thumbnail_Schema
  2
AcDbDs::ID
280
    10
 91
        8
  2
Thumbnail_Data
280
    15
 91
        0
101
ACDSRECORD
 95
        0
 90
        1
  2
AcDbDs::TreatedAsObjectData
280
     1
291
     1
101
ACDSRECORD
 95
        0
 90
        2
  2
AcDbDs::Legacy
280
     1
291
     1
101
ACDSRECORD
  1
AcDbDs::ID
 90
        3
  2
AcDs:Indexable
280
     1
291
     1
101
ACDSRECORD
  1
AcDbDs::ID
 90
        4
  2
AcDbDs::HandleAttribute
280
     7
282
     1
  0
ACDSSCHEMA
 90
        1
  1
AcDbDs::TreatedAsObjectDataSchema
  2
AcDbDs::TreatedAsObjectData
280
     1
 91
        0
  0
ACDSSCHEMA
 90
        2
  1
AcDbDs::LegacySchema
  2
AcDbDs::Legacy
280
     1
 91
        0
  0
ACDSSCHEMA
 90
        3
  1
AcDbDs::IndexedPropertySchema
  2
AcDs:Indexable
280
     1
 91
        0
  0
ACDSSCHEMA
 90
        4
  1
AcDbDs::HandleAttributeSchema
  2
AcDbDs::HandleAttribute
280
     7
 91
        1
284
     1
  0
ACDSRECORD
 90
        0
  2
AcDbDs::ID
280
    10
320
22
  2
Thumbnail_Data
280
    15
 94
     1590
310
89504E470D0A1A0A0000000D49484452000001000000007F080300000037AFECF400000300504C5445212830FFFFFF2128300000000000000000000000000000000000000000000000000000330000660000990000CC0000FF0033000033330033660033990033CC0033FF0066000066330066660066990066CC0066FF0099
310
000099330099660099990099CC0099FF00CC0000CC3300CC6600CC9900CCCC00CCFF00FF0000FF3300FF6600FF9900FFCC00FFFF3300003300333300663300993300CC3300FF3333003333333333663333993333CC3333FF3366003366333366663366993366CC3366FF3399003399333399663399993399CC3399FF33CC00
310
33CC3333CC6633CC9933CCCC33CCFF33FF0033FF3333FF6633FF9933FFCC33FFFF6600006600336600666600996600CC6600FF6633006633336633666633996633CC6633FF6666006666336666666666996666CC6666FF6699006699336699666699996699CC6699FF66CC0066CC3366CC6666CC9966CCCC66CCFF66FF0066
310
FF3366FF6666FF9966FFCC66FFFF9900009900339900669900999900CC9900FF9933009933339933669933999933CC9933FF9966009966339966669966999966CC9966FF9999009999339999669999999999CC9999FF99CC0099CC3399CC6699CC9999CCCC99CCFF99FF0099FF3399FF6699FF9999FFCC99FFFFCC0000CC00
310
33CC0066CC0099CC00CCCC00FFCC3300CC3333CC3366CC3399CC33CCCC33FFCC6600CC6633CC6666CC6699CC66CCCC66FFCC9900CC9933CC9966CC9999CC99CCCC99FFCCCC00CCCC33CCCC66CCCC99CCCCCCCCCCFFCCFF00CCFF33CCFF66CCFF99CCFFCCCCFFFFFF0000FF0033FF0066FF0099FF00CCFF00FFFF3300FF3333
310
FF3366FF3399FF33CCFF33FFFF6600FF6633FF6666FF6699FF66CCFF66FFFF9900FF9933FF9966FF9999FF99CCFF99FFFFCC00FFCC33FFCC66FFCC99FFCCCCFFCCFFFFFF00FFFF33FFFF66FFFF99FFFFCCFFFFFF0000000D0D0D1A1A1A2828283535354343435050505D5D5D6B6B6B787878868686939393A1A1A1AEAEAEBB
310
BBBBC9C9C9D6D6D6E4E4E4F1F1F1FFFFFF0000000000000000000000000000000000000000000000000000000000002E4550F1000000F64944415478DAEDDACB0E82301040D17E75FFBC7B5183DA064B43DC38738E2B123673A93C94520000000000000000000000007EA92E8B1A60ADCC64C77F0FD0EE0E47EE33C55F01E3
310
CC5956C07BFCF9573E7680C721AED74E1611029C8F1F3DC0C2452E7280E795A027409E00DBFA3F1F3F74807DB6C9F43902643D090A903E402D020820800002647E1A5CD92B7580E59B052B206A8022800002A40ED0920768DBC70A881A20FDDFE3DE0FF81224D1D36037602D479BB16F85BB433E06C8F07EC02C4011400001
310
F204A8C365B0E608F09AB87ED4D8B7F3BC25D6AF868399FD1E10FF59A0B5D6DDFC0F9B050000000000000000AEB9018D7E345F9CF050940000000049454E44AE426082132104B47E3C2267AF80C25D6169AF81E7FB014E670DE82860F80CF00A33E0FE76B87201578AE0AEF39566401A9B8200EFC616F04DEE2020063FB400
310
1F861032609D090E5E03B48C827F27800C5033131A3B0310F057021C0210309A003FB800A5536132801A808024E0EAF918393E32A37257B8E799219DE705EE6F0B2BCF0039582E367FCA27BA6B807F7F321223F4F1EAF66597F49DC2A2B97E01CB5BF08E3174B3AC3D9BD7FA55C0B6B9810C78BFC7AFD8E61A7F2A60DBDC82
310
803CD11B0494CDF50B906B02C4B400B7186816B01404FD02BCBB2460D3FC48C0B37F5C040108A0067C1A06254E76F22B5687C1BD80937BED0990700E7E8E27CD04D3F1781FBF4422F11D48CD8DAC059643D3A16C49F8E2CC6E59BB5CD836B7B11A74FBD5606D5D2FEB46A8A9D5E0DD47D5043C7727A4614768392D55DB0F39
310
F8FF7247C8C5436841C1607B823E0F5983803E2814D0F7B7C48200453FA30300000000000000000000000000009DF905C90B36E8BAC53E350000000049454E44AE426082A3FC419894FE27980000000049454E44AE426082A0B7921FF6F7CDB0830000BD44AAC2FC650CE413DFA4FF6300BDDF2647019C7C3F7CE2BEEFB4AC
310
A56873042DAFD282200882200882200882200882200882200882200882BEA63F07AA0D0791DF86FF0000000049454E44AE42608251B50000000049454E44AE426082
  0
ENDSEC
  0
EOF
