  0
SECTION
  2
HEADER
  9
$ACADVER
  1
AC1027
  9
$ACADMAINTVER
 70
   125
  9
$DWGCODEPAGE
  3
ANSI_1252
  9
$LASTSAVEDBY
  1
smeet sangani
  9
$REQUIREDVERSIONS
160
                 0
  9
$INSBASE
 10
0.0
 20
0.0
 30
0.0
  9
$EXTMIN
 10
2024.01444342973
 20
1440.684058858564
 30
0.0
  9
$EXTMAX
 10
2614.341967052468
 20
1818.709417926054
 30
0.0
  9
$LIMMIN
 10
0.0
 20
0.0
  9
$LIMMAX
 10
420.0
 20
297.0
  9
$ORTHOMODE
 70
     0
  9
$REGENMODE
 70
     1
  9
$FILLMODE
 70
     1
  9
$QTEXTMODE
 70
     0
  9
$MIRRTEXT
 70
     0
  9
$LTSCALE
 40
1.0
  9
$ATTMODE
 70
     1
  9
$TEXTSIZE
 40
2.5
  9
$TRACEWID
 40
1.0
  9
$TEXTSTYLE
  7
Standard
  9
$CLAYER
  8
0
  9
$CELTYPE
  6
ByLayer
  9
$CECOLOR
 62
   256
  9
$CELTSCALE
 40
1.0
  9
$DISPSILH
 70
     0
  9
$DIMSCALE
 40
1.0
  9
$DIMASZ
 40
2.5
  9
$DIMEXO
 40
0.625
  9
$DIMDLI
 40
3.75
  9
$DIMRND
 40
0.0
  9
$DIMDLE
 40
0.0
  9
$DIMEXE
 40
1.25
  9
$DIMTP
 40
0.0
  9
$DIMTM
 40
0.0
  9
$DIMTXT
 40
2.5
  9
$DIMCEN
 40
2.5
  9
$DIMTSZ
 40
0.0
  9
$DIMTOL
 70
     0
  9
$DIMLIM
 70
     0
  9
$DIMTIH
 70
     0
  9
$DIMTOH
 70
     0
  9
$DIMSE1
 70
     0
  9
$DIMSE2
 70
     0
  9
$DIMTAD
 70
     1
  9
$DIMZIN
 70
     8
  9
$DIMBLK
  1

  9
$DIMASO
 70
     1
  9
$DIMSHO
 70
     1
  9
$DIMPOST
  1

  9
$DIMAPOST
  1

  9
$DIMALT
 70
     0
  9
$DIMALTD
 70
     3
  9
$DIMALTF
 40
0.03937007874016
  9
$DIMLFAC
 40
1.0
  9
$DIMTOFL
 70
     1
  9
$DIMTVP
 40
0.0
  9
$DIMTIX
 70
     0
  9
$DIMSOXD
 70
     0
  9
$DIMSAH
 70
     0
  9
$DIMBLK1
  1

  9
$DIMBLK2
  1

  9
$DIMSTYLE
  2
ISO-25
  9
$DIMCLRD
 70
     0
  9
$DIMCLRE
 70
     0
  9
$DIMCLRT
 70
     0
  9
$DIMTFAC
 40
1.0
  9
$DIMGAP
 40
0.625
  9
$DIMJUST
 70
     0
  9
$DIMSD1
 70
     0
  9
$DIMSD2
 70
     0
  9
$DIMTOLJ
 70
     0
  9
$DIMTZIN
 70
     8
  9
$DIMALTZ
 70
     0
  9
$DIMALTTZ
 70
     0
  9
$DIMUPT
 70
     0
  9
$DIMDEC
 70
     2
  9
$DIMTDEC
 70
     2
  9
$DIMALTU
 70
     2
  9
$DIMALTTD
 70
     3
  9
$DIMTXSTY
  7
Standard
  9
$DIMAUNIT
 70
     0
  9
$DIMADEC
 70
     0
  9
$DIMALTRND
 40
0.0
  9
$DIMAZIN
 70
     0
  9
$DIMDSEP
 70
    44
  9
$DIMATFIT
 70
     3
  9
$DIMFRAC
 70
     0
  9
$DIMLDRBLK
  1

  9
$DIMLUNIT
 70
     2
  9
$DIMLWD
 70
    -2
  9
$DIMLWE
 70
    -2
  9
$DIMTMOVE
 70
     0
  9
$DIMFXL
 40
1.0
  9
$DIMFXLON
 70
     0
  9
$DIMJOGANG
 40
0.7853981633974483
  9
$DIMTFILL
 70
     0
  9
$DIMTFILLCLR
 70
     0
  9
$DIMARCSYM
 70
     0
  9
$DIMLTYPE
  6

  9
$DIMLTEX1
  6

  9
$DIMLTEX2
  6

  9
$DIMTXTDIRECTION
 70
     0
  9
$LUNITS
 70
     2
  9
$LUPREC
 70
     4
  9
$SKETCHINC
 40
1.0
  9
$FILLETRAD
 40
0.0
  9
$AUNITS
 70
     0
  9
$AUPREC
 70
     0
  9
$MENU
  1
.
  9
$ELEVATION
 40
0.0
  9
$PELEVATION
 40
0.0
  9
$THICKNESS
 40
0.0
  9
$LIMCHECK
 70
     0
  9
$CHAMFERA
 40
0.0
  9
$CHAMFERB
 40
0.0
  9
$CHAMFERC
 40
0.0
  9
$CHAMFERD
 40
0.0
  9
$SKPOLY
 70
     0
  9
$TDCREATE
 40
2458964.805648148
  9
$TDUCREATE
 40
2458964.576481482
  9
$TDUPDATE
 40
2458965.848645833
  9
$TDUUPDATE
 40
2458965.619479167
  9
$TDINDWG
 40
0.0021180556
  9
$TDUSRTIMER
 40
0.0021180556
  9
$USRTIMER
 70
     1
  9
$ANGBASE
 50
0.0
  9
$ANGDIR
 70
     0
  9
$PDMODE
 70
     0
  9
$PDSIZE
 40
0.0
  9
$PLINEWID
 40
0.0
  9
$SPLFRAME
 70
     0
  9
$SPLINETYPE
 70
     6
  9
$SPLINESEGS
 70
     8
  9
$HANDSEED
  5
EC8
  9
$SURFTAB1
 70
     6
  9
$SURFTAB2
 70
     6
  9
$SURFTYPE
 70
     6
  9
$SURFU
 70
     6
  9
$SURFV
 70
     6
  9
$UCSBASE
  2

  9
$UCSNAME
  2

  9
$UCSORG
 10
0.0
 20
0.0
 30
0.0
  9
$UCSXDIR
 10
1.0
 20
0.0
 30
0.0
  9
$UCSYDIR
 10
0.0
 20
1.0
 30
0.0
  9
$UCSORTHOREF
  2

  9
$UCSORTHOVIEW
 70
     0
  9
$UCSORGTOP
 10
0.0
 20
0.0
 30
0.0
  9
$UCSORGBOTTOM
 10
0.0
 20
0.0
 30
0.0
  9
$UCSORGLEFT
 10
0.0
 20
0.0
 30
0.0
  9
$UCSORGRIGHT
 10
0.0
 20
0.0
 30
0.0
  9
$UCSORGFRONT
 10
0.0
 20
0.0
 30
0.0
  9
$UCSORGBACK
 10
0.0
 20
0.0
 30
0.0
  9
$PUCSBASE
  2

  9
$PUCSNAME
  2

  9
$PUCSORG
 10
0.0
 20
0.0
 30
0.0
  9
$PUCSXDIR
 10
1.0
 20
0.0
 30
0.0
  9
$PUCSYDIR
 10
0.0
 20
1.0
 30
0.0
  9
$PUCSORTHOREF
  2

  9
$PUCSORTHOVIEW
 70
     0
  9
$PUCSORGTOP
 10
0.0
 20
0.0
 30
0.0
  9
$PUCSORGBOTTOM
 10
0.0
 20
0.0
 30
0.0
  9
$PUCSORGLEFT
 10
0.0
 20
0.0
 30
0.0
  9
$PUCSORGRIGHT
 10
0.0
 20
0.0
 30
0.0
  9
$PUCSORGFRONT
 10
0.0
 20
0.0
 30
0.0
  9
$PUCSORGBACK
 10
0.0
 20
0.0
 30
0.0
  9
$USERI1
 70
     0
  9
$USERI2
 70
     0
  9
$USERI3
 70
     0
  9
$USERI4
 70
     0
  9
$USERI5
 70
     0
  9
$USERR1
 40
0.0
  9
$USERR2
 40
0.0
  9
$USERR3
 40
0.0
  9
$USERR4
 40
0.0
  9
$USERR5
 40
0.0
  9
$WORLDVIEW
 70
     1
  9
$SHADEDGE
 70
     3
  9
$SHADEDIF
 70
    70
  9
$TILEMODE
 70
     1
  9
$MAXACTVP
 70
    64
  9
$PINSBASE
 10
0.0
 20
0.0
 30
0.0
  9
$PLIMCHECK
 70
     0
  9
$PEXTMIN
 10
0.0
 20
0.0
 30
0.0
  9
$PEXTMAX
 10
0.0
 20
0.0
 30
0.0
  9
$PLIMMIN
 10
0.0
 20
0.0
  9
$PLIMMAX
 10
12.0
 20
9.0
  9
$UNITMODE
 70
     0
  9
$VISRETAIN
 70
     1
  9
$PLINEGEN
 70
     0
  9
$PSLTSCALE
 70
     1
  9
$TREEDEPTH
 70
  3020
  9
$CMLSTYLE
  2
Standard
  9
$CMLJUST
 70
     0
  9
$CMLSCALE
 40
20.0
  9
$PROXYGRAPHICS
 70
     1
  9
$MEASUREMENT
 70
     1
  9
$CELWEIGHT
370
    -1
  9
$ENDCAPS
280
     0
  9
$JOINSTYLE
280
     0
  9
$LWDISPLAY
290
     0
  9
$INSUNITS
 70
     4
  9
$HYPERLINKBASE
  1

  9
$STYLESHEET
  1

  9
$XEDIT
290
     1
  9
$CEPSNTYPE
380
     0
  9
$PSTYLEMODE
290
     1
  9
$FINGERPRINTGUID
  2
{AACA55E5-5CB4-A244-81D4-7B88B0DFF684}
  9
$VERSIONGUID
  2
{4DD1F161-05BE-5A4E-BEEC-9FEFD8A44D3B}
  9
$EXTNAMES
290
     1
  9
$PSVPSCALE
 40
0.0
  9
$OLESTARTUP
290
     0
  9
$SORTENTS
280
   127
  9
$INDEXCTL
280
     0
  9
$HIDETEXT
280
     1
  9
$XCLIPFRAME
280
     2
  9
$HALOGAP
280
     0
  9
$OBSCOLOR
 70
   257
  9
$OBSLTYPE
280
     0
  9
$INTERSECTIONDISPLAY
280
     0
  9
$INTERSECTIONCOLOR
 70
   257
  9
$DIMASSOC
280
     2
  9
$PROJECTNAME
  1

  9
$CAMERADISPLAY
290
     0
  9
$LENSLENGTH
 40
50.0
  9
$CAMERAHEIGHT
 40
0.0
  9
$STEPSPERSEC
 40
2.0
  9
$STEPSIZE
 40
6.0
  9
$3DDWFPREC
 40
2.0
  9
$PSOLWIDTH
 40
5.0
  9
$PSOLHEIGHT
 40
80.0
  9
$LOFTANG1
 40
1.570796326794896
  9
$LOFTANG2
 40
1.570796326794896
  9
$LOFTMAG1
 40
0.0
  9
$LOFTMAG2
 40
0.0
  9
$LOFTPARAM
 70
     7
  9
$LOFTNORMALS
280
     1
  9
$LATITUDE
 40
37.795
  9
$LONGITUDE
 40
-122.394
  9
$NORTHDIRECTION
 40
0.0
  9
$TIMEZONE
 70
 -8000
  9
$LIGHTGLYPHDISPLAY
280
     1
  9
$TILEMODELIGHTSYNCH
280
     1
  9
$CMATERIAL
347
EC
  9
$SOLIDHIST
280
     0
  9
$SHOWHIST
280
     1
  9
$DWFFRAME
280
     2
  9
$DGNFRAME
280
     0
  9
$REALWORLDSCALE
290
     1
  9
$INTERFERECOLOR
 62
     1
  9
$INTERFEREOBJVS
345
F9
  9
$INTERFEREVPVS
346
F6
  9
$CSHADOW
280
     0
  9
$SHADOWPLANELOCATION
 40
0.0
  0
ENDSEC
  0
SECTION
  2
CLASSES
  0
CLASS
  1
ACDBDICTIONARYWDFLT
  2
AcDbDictionaryWithDefault
  3
ObjectDBX Classes
 90
        0
 91
        1
280
     0
281
     0
  0
CLASS
  1
DICTIONARYVAR
  2
AcDbDictionaryVar
  3
ObjectDBX Classes
 90
        0
 91
       11
280
     0
281
     0
  0
CLASS
  1
TABLESTYLE
  2
AcDbTableStyle
  3
ObjectDBX Classes
 90
     4095
 91
        1
280
     0
281
     0
  0
CLASS
  1
MATERIAL
  2
AcDbMaterial
  3
ObjectDBX Classes
 90
     1153
 91
        3
280
     0
281
     0
  0
CLASS
  1
VISUALSTYLE
  2
AcDbVisualStyle
  3
ObjectDBX Classes
 90
     4095
 91
       24
280
     0
281
     0
  0
CLASS
  1
SCALE
  2
AcDbScale
  3
ObjectDBX Classes
 90
     1153
 91
       17
280
     0
281
     0
  0
CLASS
  1
MLEADERSTYLE
  2
AcDbMLeaderStyle
  3
ACDB_MLEADERSTYLE_CLASS
 90
     4095
 91
        2
280
     0
281
     0
  0
CLASS
  1
CELLSTYLEMAP
  2
AcDbCellStyleMap
  3
ObjectDBX Classes
 90
     1152
 91
        2
280
     0
281
     0
  0
CLASS
  1
EXACXREFPANELOBJECT
  2
ExAcXREFPanelObject
  3
EXAC_ESW
 90
     1025
 91
        0
280
     0
281
     0
  0
CLASS
  1
NPOCOLLECTION
  2
AcDbImpNonPersistentObjectsCollection
  3
ObjectDBX Classes
 90
     1153
 91
        0
280
     0
281
     0
  0
CLASS
  1
LAYER_INDEX
  2
AcDbLayerIndex
  3
ObjectDBX Classes
 90
        0
 91
        0
280
     0
281
     0
  0
CLASS
  1
SPATIAL_INDEX
  2
AcDbSpatialIndex
  3
ObjectDBX Classes
 90
        0
 91
        0
280
     0
281
     0
  0
CLASS
  1
IDBUFFER
  2
AcDbIdBuffer
  3
ObjectDBX Classes
 90
        0
 91
        0
280
     0
281
     0
  0
CLASS
  1
ACDBSECTIONVIEWSTYLE
  2
AcDbSectionViewStyle
  3
ObjectDBX Classes
 90
     1025
 91
        1
280
     0
281
     0
  0
CLASS
  1
ACDBDETAILVIEWSTYLE
  2
AcDbDetailViewStyle
  3
ObjectDBX Classes
 90
     1025
 91
        1
280
     0
281
     0
  0
CLASS
  1
DIMASSOC
  2
AcDbDimAssoc
  3
"AcDbDimAssoc|Product Desc:     AcDim ARX App For Dimension|Company:          Autodesk, Inc.|WEB Address:      www.autodesk.com"
 90
        0
 91
        7
280
     0
281
     0
  0
CLASS
  1
SORTENTSTABLE
  2
AcDbSortentsTable
  3
ObjectDBX Classes
 90
        0
 91
        0
280
     0
281
     0
  0
ENDSEC
  0
SECTION
  2
TABLES
  0
TABLE
  2
VPORT
  5
8
330
0
100
AcDbSymbolTable
 70
     1
1001
ACAD
1000
DbSaveVer
1071
       51
  0
VPORT
  5
EA
330
8
100
AcDbSymbolTableRecord
100
AcDbViewportTableRecord
  2
*Active
 70
     0
 10
0.0
 20
0.0
 11
1.0
 21
1.0
 12
2893.807844520998
 22
1539.381276324056
 13
0.0
 23
0.0
 14
10.0
 24
10.0
 15
10.0
 25
10.0
 16
0.0
 26
0.0
 36
1.0
 17
0.0
 27
0.0
 37
0.0
 40
896.7084593184216
 41
2.327649208282582
 42
50.0
 43
0.0
 44
0.0
 50
0.0
 51
0.0
 71
     0
 72
  1000
 73
     1
 74
     3
 75
     0
 76
     1
 77
     0
 78
     0
281
     0
 65
     1
110
0.0
120
0.0
130
0.0
111
1.0
121
0.0
131
0.0
112
0.0
122
1.0
132
0.0
 79
     0
146
0.0
348
F5
 60
     3
 61
     5
292
     1
282
     1
141
0.0
142
0.0
 63
   250
421
  3355443
1001
ACAD_NAV_VCDISPLAY
1070
     3
  0
ENDTAB
  0
TABLE
  2
LTYPE
  5
5
330
0
100
AcDbSymbolTable
 70
     1
  0
LTYPE
  5
14
330
5
100
AcDbSymbolTableRecord
100
AcDbLinetypeTableRecord
  2
ByBlock
 70
     0
  3

 72
    65
 73
     0
 40
0.0
  0
LTYPE
  5
15
330
5
100
AcDbSymbolTableRecord
100
AcDbLinetypeTableRecord
  2
ByLayer
 70
     0
  3

 72
    65
 73
     0
 40
0.0
  0
LTYPE
  5
16
330
5
100
AcDbSymbolTableRecord
100
AcDbLinetypeTableRecord
  2
Continuous
 70
     0
  3
Solid line
 72
    65
 73
     0
 40
0.0
  0
ENDTAB
  0
TABLE
  2
LAYER
  5
2
102
{ACAD_XDICTIONARY
360
1FF
102
}
330
0
100
AcDbSymbolTable
 70
     3
  0
LAYER
  5
10
102
{ACAD_XDICTIONARY
360
13C
102
}
330
2
100
AcDbSymbolTableRecord
100
AcDbLayerTableRecord
  2
0
 70
     0
 62
     7
  6
Continuous
370
    -3
390
F
347
EE
348
0
  0
LAYER
  5
2C8
330
2
100
AcDbSymbolTableRecord
100
AcDbLayerTableRecord
  2
Defpoints
 70
     0
 62
     7
  6
Continuous
290
     0
370
    -3
390
F
347
EE
348
0
  0
LAYER
  5
2C9
330
2
100
AcDbSymbolTableRecord
100
AcDbLayerTableRecord
  2
groove
 70
     0
 62
    10
  6
Continuous
370
    -3
390
F
347
EE
348
0
1001
AcAecLayerStandard
1000

1000

1001
AcCmTransparency
1071
        0
  0
ENDTAB
  0
TABLE
  2
STYLE
  5
3
330
0
100
AcDbSymbolTable
 70
     2
  0
STYLE
  5
11
330
3
100
AcDbSymbolTableRecord
100
AcDbTextStyleTableRecord
  2
Standard
 70
     0
 40
0.0
 41
1.0
 50
0.0
 71
     0
 42
2.5
  3
arial.ttf
  4

1001
ACAD
1000
Arial
1071
       34
  0
STYLE
  5
132
330
3
100
AcDbSymbolTableRecord
100
AcDbTextStyleTableRecord
  2
Annotative
 70
     0
 40
0.0
 41
1.0
 50
0.0
 71
     0
 42
2.5
  3
arial.ttf
  4

1001
AcadAnnotative
1000
AnnotativeData
1002
{
1070
     1
1070
     1
1002
}
1001
ACAD
1000
Arial
1071
       34
  0
ENDTAB
  0
TABLE
  2
VIEW
  5
6
330
0
100
AcDbSymbolTable
 70
     0
  0
ENDTAB
  0
TABLE
  2
UCS
  5
7
330
0
100
AcDbSymbolTable
 70
     0
  0
ENDTAB
  0
TABLE
  2
APPID
  5
9
330
0
100
AcDbSymbolTable
 70
    10
  0
APPID
  5
12
330
9
100
AcDbSymbolTableRecord
100
AcDbRegAppTableRecord
  2
ACAD
 70
     0
  0
APPID
  5
9E
330
9
100
AcDbSymbolTableRecord
100
AcDbRegAppTableRecord
  2
ACAD_PSEXT
 70
     0
  0
APPID
  5
133
330
9
100
AcDbSymbolTableRecord
100
AcDbRegAppTableRecord
  2
AcadAnnoPO
 70
     0
  0
APPID
  5
134
330
9
100
AcDbSymbolTableRecord
100
AcDbRegAppTableRecord
  2
AcadAnnotative
 70
     0
  0
APPID
  5
135
330
9
100
AcDbSymbolTableRecord
100
AcDbRegAppTableRecord
  2
ACAD_DSTYLE_DIMJAG
 70
     0
  0
APPID
  5
136
330
9
100
AcDbSymbolTableRecord
100
AcDbRegAppTableRecord
  2
ACAD_DSTYLE_DIMTALN
 70
     0
  0
APPID
  5
165
330
9
100
AcDbSymbolTableRecord
100
AcDbRegAppTableRecord
  2
ACAD_MLEADERVER
 70
     0
  0
APPID
  5
217
330
9
100
AcDbSymbolTableRecord
100
AcDbRegAppTableRecord
  2
ACAD_NAV_VCDISPLAY
 70
     0
  0
APPID
  5
2CA
330
9
100
AcDbSymbolTableRecord
100
AcDbRegAppTableRecord
  2
AcAecLayerStandard
 70
     0
  0
APPID
  5
2CB
330
9
100
AcDbSymbolTableRecord
100
AcDbRegAppTableRecord
  2
AcCmTransparency
 70
     0
  0
ENDTAB
  0
TABLE
  2
DIMSTYLE
  5
A
330
0
100
AcDbSymbolTable
 70
     3
100
AcDbDimStyleTable
 71
     2
340
27
340
137
  0
DIMSTYLE
105
1B0
330
A
100
AcDbSymbolTableRecord
100
AcDbDimStyleTableRecord
  2
Standard
 70
     0
340
11
  0
DIMSTYLE
105
137
330
A
100
AcDbSymbolTableRecord
100
AcDbDimStyleTableRecord
  2
Annotative
 70
     0
 40
0.0
 41
2.5
 42
0.625
 43
3.75
 44
1.25
 73
     0
 74
     0
 77
     1
 78
     8
140
2.5
141
2.5
143
0.03937007874016
147
0.625
171
     3
172
     1
271
     2
272
     2
274
     3
278
    44
283
     0
284
     8
340
11
1001
AcadAnnotative
1000
AnnotativeData
1002
{
1070
     1
1070
     1
1002
}
1001
ACAD_DSTYLE_DIMJAG
1070
   388
1040
1.5
1001
ACAD_DSTYLE_DIMTALN
1070
   392
1070
     0
  0
DIMSTYLE
105
27
102
{ACAD_REACTORS
330
C76
330
C79
330
CB1
330
CB4
330
CB7
102
}
330
A
100
AcDbSymbolTableRecord
100
AcDbDimStyleTableRecord
  2
ISO-25
 70
     0
 41
2.5
 42
0.625
 43
3.75
 44
1.25
 73
     0
 74
     0
 77
     1
 78
     8
140
2.5
141
2.5
143
0.03937007874016
147
0.625
171
     3
172
     1
271
     2
272
     2
274
     3
278
    44
283
     0
284
     8
340
11
  0
ENDTAB
  0
TABLE
  2
BLOCK_RECORD
  5
1
330
0
100
AcDbSymbolTable
 70
    15
  0
BLOCK_RECORD
  5
1F
102
{ACAD_XDICTIONARY
360
1CE
102
}
330
1
100
AcDbSymbolTableRecord
100
AcDbBlockTableRecord
  2
*Model_Space
340
22
 70
     0
280
     1
281
     0
  0
BLOCK_RECORD
  5
D2
330
1
100
AcDbSymbolTableRecord
100
AcDbBlockTableRecord
  2
*Paper_Space
340
D3
 70
     0
280
     1
281
     0
  0
BLOCK_RECORD
  5
D6
330
1
100
AcDbSymbolTableRecord
100
AcDbBlockTableRecord
  2
*Paper_Space0
340
D7
 70
     0
280
     1
281
     0
  0
BLOCK_RECORD
  5
274
330
1
100
AcDbSymbolTableRecord
100
AcDbBlockTableRecord
  2
*D1
340
0
 70
     0
280
     1
281
     0
  0
BLOCK_RECORD
  5
280
330
1
100
AcDbSymbolTableRecord
100
AcDbBlockTableRecord
  2
*D2
340
0
 70
     0
280
     1
281
     0
  0
BLOCK_RECORD
  5
28C
330
1
100
AcDbSymbolTableRecord
100
AcDbBlockTableRecord
  2
*D3
340
0
 70
     0
280
     1
281
     0
  0
BLOCK_RECORD
  5
298
330
1
100
AcDbSymbolTableRecord
100
AcDbBlockTableRecord
  2
*D4
340
0
 70
     0
280
     1
281
     0
  0
BLOCK_RECORD
  5
2A4
330
1
100
AcDbSymbolTableRecord
100
AcDbBlockTableRecord
  2
*D5
340
0
 70
     0
280
     1
281
     0
  0
BLOCK_RECORD
  5
2B0
330
1
100
AcDbSymbolTableRecord
100
AcDbBlockTableRecord
  2
*D6
340
0
 70
     0
280
     1
281
     0
  0
BLOCK_RECORD
  5
2BC
330
1
100
AcDbSymbolTableRecord
100
AcDbBlockTableRecord
  2
*D7
340
0
 70
     0
280
     1
281
     0
  0
BLOCK_RECORD
  5
E53
330
1
100
AcDbSymbolTableRecord
100
AcDbBlockTableRecord
  2
*D8
340
0
 70
     0
280
     1
281
     0
  0
BLOCK_RECORD
  5
E5F
330
1
100
AcDbSymbolTableRecord
100
AcDbBlockTableRecord
  2
*D9
340
0
 70
     0
280
     1
281
     0
  0
BLOCK_RECORD
  5
E6B
330
1
100
AcDbSymbolTableRecord
100
AcDbBlockTableRecord
  2
*D10
340
0
 70
     0
280
     1
281
     0
  0
BLOCK_RECORD
  5
E77
330
1
100
AcDbSymbolTableRecord
100
AcDbBlockTableRecord
  2
*D11
340
0
 70
     0
280
     1
281
     0
  0
BLOCK_RECORD
  5
E83
330
1
100
AcDbSymbolTableRecord
100
AcDbBlockTableRecord
  2
*D12
340
0
 70
     0
280
     1
281
     0
  0
BLOCK_RECORD
  5
E8F
330
1
100
AcDbSymbolTableRecord
100
AcDbBlockTableRecord
  2
*D13
340
0
 70
     0
280
     1
281
     0
  0
BLOCK_RECORD
  5
E9B
330
1
100
AcDbSymbolTableRecord
100
AcDbBlockTableRecord
  2
*D14
340
0
 70
     0
280
     1
281
     0
  0
ENDTAB
  0
ENDSEC
  0
SECTION
  2
BLOCKS
  0
BLOCK
  5
20
330
1F
100
AcDbEntity
  8
0
100
AcDbBlockBegin
  2
*Model_Space
 70
     0
 10
0.0
 20
0.0
 30
0.0
  3
*Model_Space
  1

  0
ENDBLK
  5
21
330
1F
100
AcDbEntity
  8
0
100
AcDbBlockEnd
  0
BLOCK
  5
D4
330
D2
100
AcDbEntity
 67
     1
  8
0
100
AcDbBlockBegin
  2
*Paper_Space
 70
     0
 10
0.0
 20
0.0
 30
0.0
  3
*Paper_Space
  1

  0
ENDBLK
  5
D5
330
D2
100
AcDbEntity
 67
     1
  8
0
100
AcDbBlockEnd
  0
BLOCK
  5
D8
330
D6
100
AcDbEntity
 67
     1
  8
0
100
AcDbBlockBegin
  2
*Paper_Space0
 70
     0
 10
0.0
 20
0.0
 30
0.0
  3
*Paper_Space0
  1

  0
ENDBLK
  5
D9
330
D6
100
AcDbEntity
 67
     1
  8
0
100
AcDbBlockEnd
  0
BLOCK
  5
275
330
274
100
AcDbEntity
  8
0
100
AcDbBlockBegin
  2
*D1
 70
     1
 10
0.0
 20
0.0
 30
0.0
  3
*D1
  1

  0
LINE
  5
276
330
274
100
AcDbEntity
  8
groove
 62
     0
440
 16777216
370
    -2
100
AcDbLine
 10
1725.503020776097
 20
1728.192526050175
 30
0.0
 11
1694.554077581042
 21
1728.192526050175
 31
0.0
  0
LINE
  5
277
330
274
100
AcDbEntity
  8
groove
 62
     0
440
 16777216
370
    -2
100
AcDbLine
 10
1725.503020776097
 20
1676.192526050175
 30
0.0
 11
1694.554077581042
 21
1676.192526050175
 31
0.0
  0
LINE
  5
278
330
274
100
AcDbEntity
  8
groove
 62
     0
440
 16777216
370
    -2
100
AcDbLine
 10
1695.804077581042
 20
1725.692526050175
 30
0.0
 11
1695.804077581042
 21
1678.692526050175
 31
0.0
  0
SOLID
  5
279
330
274
100
AcDbEntity
  8
groove
 62
     0
440
 16777216
100
AcDbTrace
 10
1695.387410914375
 20
1725.692526050175
 30
0.0
 11
1696.220744247709
 21
1725.692526050175
 31
0.0
 12
1695.804077581042
 22
1728.192526050175
 32
0.0
 13
1695.804077581042
 23
1728.192526050175
 33
0.0
  0
SOLID
  5
27A
330
274
100
AcDbEntity
  8
groove
 62
     0
440
 16777216
100
AcDbTrace
 10
1695.387410914375
 20
1678.692526050175
 30
0.0
 11
1696.220744247709
 21
1678.692526050175
 31
0.0
 12
1695.804077581042
 22
1676.192526050175
 32
0.0
 13
1695.804077581042
 23
1676.192526050175
 33
0.0
  0
MTEXT
  5
27B
330
274
100
AcDbEntity
  8
groove
 62
     0
440
 16777216
100
AcDbMText
 10
1693.902645111738
 20
1702.192526050174
 30
0.0
 40
2.5
 41
0.0
 46
0.0
 71
     5
 72
     1
  1
52
 11
0.0000000000000001
 21
1.0
 31
0.0
 73
     1
 44
1.0
  0
POINT
  5
27C
330
274
100
AcDbEntity
  8
Defpoints
 62
     0
440
 16777216
100
AcDbPoint
 10
1726.128020776097
 20
1728.192526050175
 30
0.0
  0
POINT
  5
27D
330
274
100
AcDbEntity
  8
Defpoints
 62
     0
440
 16777216
100
AcDbPoint
 10
1726.128020776097
 20
1676.192526050175
 30
0.0
  0
POINT
  5
27E
330
274
100
AcDbEntity
  8
Defpoints
 62
     0
440
 16777216
100
AcDbPoint
 10
1695.804077581042
 20
1676.192526050175
 30
0.0
  0
ENDBLK
  5
27F
330
274
100
AcDbEntity
  8
0
100
AcDbBlockEnd
  0
BLOCK
  5
281
330
280
100
AcDbEntity
  8
0
100
AcDbBlockBegin
  2
*D2
 70
     1
 10
0.0
 20
0.0
 30
0.0
  3
*D2
  1

  0
LINE
  5
282
330
280
100
AcDbEntity
  8
groove
 62
     0
440
 16777216
370
    -2
100
AcDbLine
 10
1713.228020776094
 20
1726.817526050174
 30
0.0
 11
1713.228020776094
 21
1738.278928855103
 31
0.0
  0
LINE
  5
283
330
280
100
AcDbEntity
  8
groove
 62
     0
440
 16777216
370
    -2
100
AcDbLine
 10
1949.028020776095
 20
1726.817526050174
 30
0.0
 11
1949.028020776095
 21
1738.278928855103
 31
0.0
  0
LINE
  5
284
330
280
100
AcDbEntity
  8
groove
 62
     0
440
 16777216
370
    -2
100
AcDbLine
 10
1715.728020776094
 20
1737.028928855103
 30
0.0
 11
1946.528020776096
 21
1737.028928855103
 31
0.0
  0
SOLID
  5
285
330
280
100
AcDbEntity
  8
groove
 62
     0
440
 16777216
100
AcDbTrace
 10
1715.728020776094
 20
1737.445595521769
 30
0.0
 11
1715.728020776094
 21
1736.612262188436
 31
0.0
 12
1713.228020776094
 22
1737.028928855103
 32
0.0
 13
1713.228020776094
 23
1737.028928855103
 33
0.0
  0
SOLID
  5
286
330
280
100
AcDbEntity
  8
groove
 62
     0
440
 16777216
100
AcDbTrace
 10
1946.528020776096
 20
1737.445595521769
 30
0.0
 11
1946.528020776096
 21
1736.612262188436
 31
0.0
 12
1949.028020776095
 22
1737.028928855103
 32
0.0
 13
1949.028020776095
 23
1737.028928855103
 33
0.0
  0
MTEXT
  5
287
330
280
100
AcDbEntity
  8
groove
 62
     0
440
 16777216
100
AcDbMText
 10
1831.128020776095
 20
1739.156316303943
 30
0.0
 40
2.5
 41
0.0
 46
0.0
 71
     5
 72
     1
  1
235,8
 73
     1
 44
1.0
  0
POINT
  5
288
330
280
100
AcDbEntity
  8
Defpoints
 62
     0
440
 16777216
100
AcDbPoint
 10
1713.228020776094
 20
1726.192526050174
 30
0.0
  0
POINT
  5
289
330
280
100
AcDbEntity
  8
Defpoints
 62
     0
440
 16777216
100
AcDbPoint
 10
1949.028020776095
 20
1726.192526050174
 30
0.0
  0
POINT
  5
28A
330
280
100
AcDbEntity
  8
Defpoints
 62
     0
440
 16777216
100
AcDbPoint
 10
1949.028020776095
 20
1737.028928855103
 30
0.0
  0
ENDBLK
  5
28B
330
280
100
AcDbEntity
  8
0
100
AcDbBlockEnd
  0
BLOCK
  5
28D
330
28C
100
AcDbEntity
  8
0
100
AcDbBlockBegin
  2
*D3
 70
     1
 10
0.0
 20
0.0
 30
0.0
  3
*D3
  1

  0
LINE
  5
28E
330
28C
100
AcDbEntity
  8
groove
 62
     0
440
 16777216
370
    -2
100
AcDbLine
 10
1706.309676951044
 20
1548.651067546177
 30
0.0
 11
1678.978734876591
 21
1548.651067546177
 31
0.0
  0
LINE
  5
28F
330
28C
100
AcDbEntity
  8
groove
 62
     0
440
 16777216
370
    -2
100
AcDbLine
 10
1706.309676951044
 20
1486.151067546177
 30
0.0
 11
1678.978734876591
 21
1486.151067546177
 31
0.0
  0
LINE
  5
290
330
28C
100
AcDbEntity
  8
groove
 62
     0
440
 16777216
370
    -2
100
AcDbLine
 10
1680.228734876591
 20
1546.151067546177
 30
0.0
 11
1680.228734876591
 21
1488.651067546177
 31
0.0
  0
SOLID
  5
291
330
28C
100
AcDbEntity
  8
groove
 62
     0
440
 16777216
100
AcDbTrace
 10
1679.812068209924
 20
1546.151067546177
 30
0.0
 11
1680.645401543258
 21
1546.151067546177
 31
0.0
 12
1680.228734876591
 22
1548.651067546177
 32
0.0
 13
1680.228734876591
 23
1548.651067546177
 33
0.0
  0
SOLID
  5
292
330
28C
100
AcDbEntity
  8
groove
 62
     0
440
 16777216
100
AcDbTrace
 10
1679.812068209924
 20
1488.651067546177
 30
0.0
 11
1680.645401543258
 21
1488.651067546177
 31
0.0
 12
1680.228734876591
 22
1486.151067546177
 32
0.0
 13
1680.228734876591
 23
1486.151067546177
 33
0.0
  0
MTEXT
  5
293
330
28C
100
AcDbEntity
  8
groove
 62
     0
440
 16777216
100
AcDbMText
 10
1678.101347427751
 20
1517.401067546176
 30
0.0
 40
2.5
 41
0.0
 46
0.0
 71
     5
 72
     1
  1
62,5
 11
0.0000000000000001
 21
1.0
 31
0.0
 73
     1
 44
1.0
  0
POINT
  5
294
330
28C
100
AcDbEntity
  8
Defpoints
 62
     0
440
 16777216
100
AcDbPoint
 10
1706.934676951044
 20
1548.651067546177
 30
0.0
  0
POINT
  5
295
330
28C
100
AcDbEntity
  8
Defpoints
 62
     0
440
 16777216
100
AcDbPoint
 10
1706.934676951044
 20
1486.151067546177
 30
0.0
  0
POINT
  5
296
330
28C
100
AcDbEntity
  8
Defpoints
 62
     0
440
 16777216
100
AcDbPoint
 10
1680.228734876591
 20
1486.151067546177
 30
0.0
  0
ENDBLK
  5
297
330
28C
100
AcDbEntity
  8
0
100
AcDbBlockEnd
  0
BLOCK
  5
299
330
298
100
AcDbEntity
  8
0
100
AcDbBlockBegin
  2
*D4
 70
     1
 10
0.0
 20
0.0
 30
0.0
  3
*D4
  1

  0
LINE
  5
29A
330
298
100
AcDbEntity
  8
groove
 62
     0
440
 16777216
370
    -2
100
AcDbLine
 10
1710.328982058734
 20
1614.974000470088
 30
0.0
 11
1686.68066298964
 21
1614.974000470088
 31
0.0
  0
LINE
  5
29B
330
298
100
AcDbEntity
  8
groove
 62
     0
440
 16777216
370
    -2
100
AcDbLine
 10
1710.328982058734
 20
1556.474000470088
 30
0.0
 11
1686.68066298964
 21
1556.474000470088
 31
0.0
  0
LINE
  5
29C
330
298
100
AcDbEntity
  8
groove
 62
     0
440
 16777216
370
    -2
100
AcDbLine
 10
1687.930662989639
 20
1612.474000470088
 30
0.0
 11
1687.930662989639
 21
1558.974000470088
 31
0.0
  0
SOLID
  5
29D
330
298
100
AcDbEntity
  8
groove
 62
     0
440
 16777216
100
AcDbTrace
 10
1687.513996322973
 20
1612.474000470088
 30
0.0
 11
1688.347329656307
 21
1612.474000470088
 31
0.0
 12
1687.930662989639
 22
1614.974000470088
 32
0.0
 13
1687.930662989639
 23
1614.974000470088
 33
0.0
  0
SOLID
  5
29E
330
298
100
AcDbEntity
  8
groove
 62
     0
440
 16777216
100
AcDbTrace
 10
1687.513996322973
 20
1558.974000470088
 30
0.0
 11
1688.347329656307
 21
1558.974000470088
 31
0.0
 12
1687.930662989639
 22
1556.474000470088
 32
0.0
 13
1687.930662989639
 23
1556.474000470088
 33
0.0
  0
MTEXT
  5
29F
330
298
100
AcDbEntity
  8
groove
 62
     0
440
 16777216
100
AcDbMText
 10
1685.8032755408
 20
1585.724000470087
 30
0.0
 40
2.5
 41
0.0
 46
0.0
 71
     5
 72
     1
  1
58,5
 11
0.0000000000000001
 21
1.0
 31
0.0
 73
     1
 44
1.0
  0
POINT
  5
2A0
330
298
100
AcDbEntity
  8
Defpoints
 62
     0
440
 16777216
100
AcDbPoint
 10
1710.953982058734
 20
1614.974000470088
 30
0.0
  0
POINT
  5
2A1
330
298
100
AcDbEntity
  8
Defpoints
 62
     0
440
 16777216
100
AcDbPoint
 10
1710.953982058734
 20
1556.474000470088
 30
0.0
  0
POINT
  5
2A2
330
298
100
AcDbEntity
  8
Defpoints
 62
     0
440
 16777216
100
AcDbPoint
 10
1687.930662989639
 20
1556.474000470088
 30
0.0
  0
ENDBLK
  5
2A3
330
298
100
AcDbEntity
  8
0
100
AcDbBlockEnd
  0
BLOCK
  5
2A5
330
2A4
100
AcDbEntity
  8
0
100
AcDbBlockBegin
  2
*D5
 70
     1
 10
0.0
 20
0.0
 30
0.0
  3
*D5
  1

  0
LINE
  5
2A6
330
2A4
100
AcDbEntity
  8
groove
 62
     0
440
 16777216
370
    -2
100
AcDbLine
 10
1710.756012927902
 20
1483.602467736043
 30
0.0
 11
1679.360894672425
 21
1483.602467736043
 31
0.0
  0
LINE
  5
2A7
330
2A4
100
AcDbEntity
  8
groove
 62
     0
440
 16777216
370
    -2
100
AcDbLine
 10
1710.756012927902
 20
1431.599138423633
 30
0.0
 11
1679.360894672425
 21
1431.599138423633
 31
0.0
  0
LINE
  5
2A8
330
2A4
100
AcDbEntity
  8
groove
 62
     0
440
 16777216
370
    -2
100
AcDbLine
 10
1680.610894672424
 20
1481.102467736043
 30
0.0
 11
1680.610894672424
 21
1434.099138423633
 31
0.0
  0
SOLID
  5
2A9
330
2A4
100
AcDbEntity
  8
groove
 62
     0
440
 16777216
100
AcDbTrace
 10
1680.194228005758
 20
1481.102467736043
 30
0.0
 11
1681.027561339092
 21
1481.102467736043
 31
0.0
 12
1680.610894672424
 22
1483.602467736043
 32
0.0
 13
1680.610894672424
 23
1483.602467736043
 33
0.0
  0
SOLID
  5
2AA
330
2A4
100
AcDbEntity
  8
groove
 62
     0
440
 16777216
100
AcDbTrace
 10
1680.194228005758
 20
1434.099138423633
 30
0.0
 11
1681.027561339092
 21
1434.099138423633
 31
0.0
 12
1680.610894672424
 22
1431.599138423633
 32
0.0
 13
1680.610894672424
 23
1431.599138423633
 33
0.0
  0
MTEXT
  5
2AB
330
2A4
100
AcDbEntity
  8
groove
 62
     0
440
 16777216
100
AcDbMText
 10
1678.709462203121
 20
1457.600803079837
 30
0.0
 40
2.5
 41
0.0
 46
0.0
 71
     5
 72
     1
  1
52
 11
0.0000000000000001
 21
1.0
 31
0.0
 73
     1
 44
1.0
  0
POINT
  5
2AC
330
2A4
100
AcDbEntity
  8
Defpoints
 62
     0
440
 16777216
100
AcDbPoint
 10
1711.381012927903
 20
1483.602467736043
 30
0.0
  0
POINT
  5
2AD
330
2A4
100
AcDbEntity
  8
Defpoints
 62
     0
440
 16777216
100
AcDbPoint
 10
1711.381012927903
 20
1431.599138423633
 30
0.0
  0
POINT
  5
2AE
330
2A4
100
AcDbEntity
  8
Defpoints
 62
     0
440
 16777216
100
AcDbPoint
 10
1680.610894672424
 20
1431.599138423633
 30
0.0
  0
ENDBLK
  5
2AF
330
2A4
100
AcDbEntity
  8
0
100
AcDbBlockEnd
  0
BLOCK
  5
2B1
330
2B0
100
AcDbEntity
  8
0
100
AcDbBlockBegin
  2
*D6
 70
     1
 10
0.0
 20
0.0
 30
0.0
  3
*D6
  1

  0
LINE
  5
2B2
330
2B0
100
AcDbEntity
  8
groove
 62
     0
440
 16777216
370
    -2
100
AcDbLine
 10
2092.757210085928
 20
1711.106212066743
 30
0.0
 11
2112.072324284406
 21
1711.203727784733
 31
0.0
  0
LINE
  5
2B3
330
2B0
100
AcDbEntity
  8
groove
 62
     0
440
 16777216
370
    -2
100
AcDbLine
 10
2093.110617277266
 20
1641.106212066743
 30
0.0
 11
2112.425731475745
 21
1641.203727784733
 31
0.0
  0
LINE
  5
2B4
330
2B0
100
AcDbEntity
  8
groove
 62
     0
440
 16777216
370
    -2
100
AcDbLine
 10
2110.834961739346
 20
1708.697448883237
 30
0.0
 11
2111.163125881584
 21
1643.697385161678
 31
0.0
  0
SOLID
  5
2B5
330
2B0
100
AcDbEntity
  8
groove
 62
     0
440
 16777216
100
AcDbTrace
 10
2111.251623095883
 20
1708.699552470662
 30
0.0
 11
2110.41830038281
 21
1708.695345295812
 31
0.0
 12
2110.822340214796
 22
1711.197417022457
 32
0.0
 13
2110.822340214796
 23
1711.197417022457
 33
0.0
  0
SOLID
  5
2B6
330
2B0
100
AcDbEntity
  8
groove
 62
     0
440
 16777216
100
AcDbTrace
 10
2111.579787238121
 20
1643.699488749103
 30
0.0
 11
2110.746464525047
 21
1643.695281574253
 31
0.0
 12
2111.175747406135
 22
1641.197417022457
 32
0.0
 13
2111.175747406135
 23
1641.197417022457
 33
0.0
  0
MTEXT
  5
2B7
330
2B0
100
AcDbEntity
  8
groove
 62
     0
440
 16777216
100
AcDbMText
 10
2112.900452047322
 20
1676.207016613094
 30
0.0
 40
2.5
 41
0.0
 46
0.0
 71
     5
 72
     1
  1
70
 11
0.0050486098200971
 21
-0.9999872556882333
 31
0.0
 73
     1
 44
1.0
  0
POINT
  5
2B8
330
2B0
100
AcDbEntity
  8
Defpoints
 62
     0
440
 16777216
100
AcDbPoint
 10
2092.132218051123
 20
1711.103056685606
 30
0.0
  0
POINT
  5
2B9
330
2B0
100
AcDbEntity
  8
Defpoints
 62
     0
440
 16777216
100
AcDbPoint
 10
2092.485625242462
 20
1641.103056685605
 30
0.0
  0
POINT
  5
2BA
330
2B0
100
AcDbEntity
  8
Defpoints
 62
     0
440
 16777216
100
AcDbPoint
 10
2111.175747406135
 20
1641.197417022457
 30
0.0
  0
ENDBLK
  5
2BB
330
2B0
100
AcDbEntity
  8
0
100
AcDbBlockEnd
  0
BLOCK
  5
2BD
330
2BC
100
AcDbEntity
  8
0
100
AcDbBlockBegin
  2
*D7
 70
     1
 10
0.0
 20
0.0
 30
0.0
  3
*D7
  1

  0
LINE
  5
2BE
330
2BC
100
AcDbEntity
  8
groove
 62
     0
440
 16777216
370
    -2
100
AcDbLine
 10
1972.132218051124
 20
1711.728056685606
 30
0.0
 11
1972.132218051124
 21
1720.454986186803
 31
0.0
  0
LINE
  5
2BF
330
2BC
100
AcDbEntity
  8
groove
 62
     0
440
 16777216
370
    -2
100
AcDbLine
 10
2092.132218051123
 20
1711.728056685606
 30
0.0
 11
2092.132218051123
 21
1720.454986186803
 31
0.0
  0
LINE
  5
2C0
330
2BC
100
AcDbEntity
  8
groove
 62
     0
440
 16777216
370
    -2
100
AcDbLine
 10
1974.632218051123
 20
1719.204986186803
 30
0.0
 11
2089.632218051123
 21
1719.204986186803
 31
0.0
  0
SOLID
  5
2C1
330
2BC
100
AcDbEntity
  8
groove
 62
     0
440
 16777216
100
AcDbTrace
 10
1974.632218051123
 20
1719.62165285347
 30
0.0
 11
1974.632218051123
 21
1718.788319520137
 31
0.0
 12
1972.132218051124
 22
1719.204986186803
 32
0.0
 13
1972.132218051124
 23
1719.204986186803
 33
0.0
  0
SOLID
  5
2C2
330
2BC
100
AcDbEntity
  8
groove
 62
     0
440
 16777216
100
AcDbTrace
 10
2089.632218051123
 20
1719.62165285347
 30
0.0
 11
2089.632218051123
 21
1718.788319520137
 31
0.0
 12
2092.132218051123
 22
1719.204986186803
 32
0.0
 13
2092.132218051123
 23
1719.204986186803
 33
0.0
  0
MTEXT
  5
2C3
330
2BC
100
AcDbEntity
  8
groove
 62
     0
440
 16777216
100
AcDbMText
 10
2032.132218051124
 20
1721.106418656107
 30
0.0
 40
2.5
 41
0.0
 46
0.0
 71
     5
 72
     1
  1
120
 73
     1
 44
1.0
  0
POINT
  5
2C4
330
2BC
100
AcDbEntity
  8
Defpoints
 62
     0
440
 16777216
100
AcDbPoint
 10
1972.132218051124
 20
1711.103056685606
 30
0.0
  0
POINT
  5
2C5
330
2BC
100
AcDbEntity
  8
Defpoints
 62
     0
440
 16777216
100
AcDbPoint
 10
2092.132218051123
 20
1711.103056685606
 30
0.0
  0
POINT
  5
2C6
330
2BC
100
AcDbEntity
  8
Defpoints
 62
     0
440
 16777216
100
AcDbPoint
 10
2092.132218051123
 20
1719.204986186803
 30
0.0
  0
ENDBLK
  5
2C7
330
2BC
100
AcDbEntity
  8
0
100
AcDbBlockEnd
  0
BLOCK
  5
E54
330
E53
100
AcDbEntity
  8
0
100
AcDbBlockBegin
  2
*D8
 70
     1
 10
0.0
 20
0.0
 30
0.0
  3
*D8
  1

  0
LINE
  5
E56
330
E53
100
AcDbEntity
  8
groove
 62
     0
440
 16777216
370
    -2
100
AcDbLine
 10
2440.824126006051
 20
1788.50549377071
 30
0.0
 11
2460.139240204529
 21
1788.603009488699
 31
0.0
  0
LINE
  5
E57
330
E53
100
AcDbEntity
  8
groove
 62
     0
440
 16777216
370
    -2
100
AcDbLine
 10
2441.177533197389
 20
1718.50549377071
 30
0.0
 11
2460.492647395867
 21
1718.6030094887
 31
0.0
  0
LINE
  5
E58
330
E53
100
AcDbEntity
  8
groove
 62
     0
440
 16777216
370
    -2
100
AcDbLine
 10
2458.901877659469
 20
1786.096730587204
 30
0.0
 11
2459.230041801706
 21
1721.096666865645
 31
0.0
  0
SOLID
  5
E59
330
E53
100
AcDbEntity
  8
groove
 62
     0
440
 16777216
100
AcDbTrace
 10
2459.318539016005
 20
1786.098834174629
 30
0.0
 11
2458.485216302932
 21
1786.094626999779
 31
0.0
 12
2458.889256134918
 22
1788.596698726425
 32
0.0
 13
2458.889256134918
 23
1788.596698726425
 33
0.0
  0
SOLID
  5
E5A
330
E53
100
AcDbEntity
  8
groove
 62
     0
440
 16777216
100
AcDbTrace
 10
2459.646703158244
 20
1721.09877045307
 30
0.0
 11
2458.81338044517
 21
1721.09456327822
 31
0.0
 12
2459.242663326256
 22
1718.596698726425
 32
0.0
 13
2459.242663326256
 23
1718.596698726425
 33
0.0
  0
MTEXT
  5
E5B
330
E53
100
AcDbEntity
  8
groove
 62
     0
440
 16777216
100
AcDbMText
 10
2460.967367967445
 20
1753.606298317061
 30
0.0
 40
2.5
 41
0.0
 46
0.0
 71
     5
 72
     1
  1
70
 11
0.0050486098200971
 21
-0.9999872556882333
 31
0.0
 73
     1
 44
1.0
  0
POINT
  5
E5C
330
E53
100
AcDbEntity
  8
Defpoints
 62
     0
440
 16777216
100
AcDbPoint
 10
2440.199133971245
 20
1788.502338389573
 30
0.0
  0
POINT
  5
E5D
330
E53
100
AcDbEntity
  8
Defpoints
 62
     0
440
 16777216
100
AcDbPoint
 10
2440.552541162583
 20
1718.502338389573
 30
0.0
  0
POINT
  5
E5E
330
E53
100
AcDbEntity
  8
Defpoints
 62
     0
440
 16777216
100
AcDbPoint
 10
2459.242663326256
 20
1718.596698726425
 30
0.0
  0
ENDBLK
  5
E55
330
E53
100
AcDbEntity
  8
0
100
AcDbBlockEnd
  0
BLOCK
  5
E60
330
E5F
100
AcDbEntity
  8
0
100
AcDbBlockBegin
  2
*D9
 70
     1
 10
0.0
 20
0.0
 30
0.0
  3
*D9
  1

  0
LINE
  5
E62
330
E5F
100
AcDbEntity
  8
groove
 62
     0
440
 16777216
370
    -2
100
AcDbLine
 10
2320.199133971246
 20
1789.127338389573
 30
0.0
 11
2320.199133971246
 21
1797.854267890771
 31
0.0
  0
LINE
  5
E63
330
E5F
100
AcDbEntity
  8
groove
 62
     0
440
 16777216
370
    -2
100
AcDbLine
 10
2440.199133971246
 20
1789.127338389573
 30
0.0
 11
2440.199133971246
 21
1797.854267890771
 31
0.0
  0
LINE
  5
E64
330
E5F
100
AcDbEntity
  8
groove
 62
     0
440
 16777216
370
    -2
100
AcDbLine
 10
2322.699133971246
 20
1796.604267890771
 30
0.0
 11
2437.699133971246
 21
1796.604267890771
 31
0.0
  0
SOLID
  5
E65
330
E5F
100
AcDbEntity
  8
groove
 62
     0
440
 16777216
100
AcDbTrace
 10
2322.699133971246
 20
1797.020934557437
 30
0.0
 11
2322.699133971246
 21
1796.187601224104
 31
0.0
 12
2320.199133971246
 22
1796.604267890771
 32
0.0
 13
2320.199133971246
 23
1796.604267890771
 33
0.0
  0
SOLID
  5
E66
330
E5F
100
AcDbEntity
  8
groove
 62
     0
440
 16777216
100
AcDbTrace
 10
2437.699133971246
 20
1797.020934557437
 30
0.0
 11
2437.699133971246
 21
1796.187601224104
 31
0.0
 12
2440.199133971246
 22
1796.604267890771
 32
0.0
 13
2440.199133971246
 23
1796.604267890771
 33
0.0
  0
MTEXT
  5
E67
330
E5F
100
AcDbEntity
  8
groove
 62
     0
440
 16777216
100
AcDbMText
 10
2380.199133971246
 20
1798.505700360075
 30
0.0
 40
2.5
 41
0.0
 46
0.0
 71
     5
 72
     1
  1
120
 73
     1
 44
1.0
  0
POINT
  5
E68
330
E5F
100
AcDbEntity
  8
Defpoints
 62
     0
440
 16777216
100
AcDbPoint
 10
2320.199133971246
 20
1788.502338389573
 30
0.0
  0
POINT
  5
E69
330
E5F
100
AcDbEntity
  8
Defpoints
 62
     0
440
 16777216
100
AcDbPoint
 10
2440.199133971246
 20
1788.502338389573
 30
0.0
  0
POINT
  5
E6A
330
E5F
100
AcDbEntity
  8
Defpoints
 62
     0
440
 16777216
100
AcDbPoint
 10
2440.199133971246
 20
1796.604267890771
 30
0.0
  0
ENDBLK
  5
E61
330
E5F
100
AcDbEntity
  8
0
100
AcDbBlockEnd
  0
BLOCK
  5
E6C
330
E6B
100
AcDbEntity
  8
0
100
AcDbBlockBegin
  2
*D10
 70
     1
 10
0.0
 20
0.0
 30
0.0
  3
*D10
  1

  0
LINE
  5
E6E
330
E6B
100
AcDbEntity
  8
groove
 62
     0
440
 16777216
370
    -2
100
AcDbLine
 10
2073.56993669622
 20
1805.591807754142
 30
0.0
 11
2042.620993501166
 21
1805.591807754142
 31
0.0
  0
LINE
  5
E6F
330
E6B
100
AcDbEntity
  8
groove
 62
     0
440
 16777216
370
    -2
100
AcDbLine
 10
2073.56993669622
 20
1753.591807754142
 30
0.0
 11
2042.620993501166
 21
1753.591807754142
 31
0.0
  0
LINE
  5
E70
330
E6B
100
AcDbEntity
  8
groove
 62
     0
440
 16777216
370
    -2
100
AcDbLine
 10
2043.870993501166
 20
1803.091807754142
 30
0.0
 11
2043.870993501166
 21
1756.091807754142
 31
0.0
  0
SOLID
  5
E71
330
E6B
100
AcDbEntity
  8
groove
 62
     0
440
 16777216
100
AcDbTrace
 10
2043.454326834499
 20
1803.091807754142
 30
0.0
 11
2044.287660167833
 21
1803.091807754142
 31
0.0
 12
2043.870993501166
 22
1805.591807754142
 32
0.0
 13
2043.870993501166
 23
1805.591807754142
 33
0.0
  0
SOLID
  5
E72
330
E6B
100
AcDbEntity
  8
groove
 62
     0
440
 16777216
100
AcDbTrace
 10
2043.454326834499
 20
1756.091807754142
 30
0.0
 11
2044.287660167833
 21
1756.091807754142
 31
0.0
 12
2043.870993501166
 22
1753.591807754142
 32
0.0
 13
2043.870993501166
 23
1753.591807754142
 33
0.0
  0
MTEXT
  5
E73
330
E6B
100
AcDbEntity
  8
groove
 62
     0
440
 16777216
100
AcDbMText
 10
2041.969561031862
 20
1779.591807754141
 30
0.0
 40
2.5
 41
0.0
 46
0.0
 71
     5
 72
     1
  1
52
 11
0.0000000000000001
 21
1.0
 31
0.0
 73
     1
 44
1.0
  0
POINT
  5
E74
330
E6B
100
AcDbEntity
  8
Defpoints
 62
     0
440
 16777216
100
AcDbPoint
 10
2074.19493669622
 20
1805.591807754142
 30
0.0
  0
POINT
  5
E75
330
E6B
100
AcDbEntity
  8
Defpoints
 62
     0
440
 16777216
100
AcDbPoint
 10
2074.19493669622
 20
1753.591807754142
 30
0.0
  0
POINT
  5
E76
330
E6B
100
AcDbEntity
  8
Defpoints
 62
     0
440
 16777216
100
AcDbPoint
 10
2043.870993501166
 20
1753.591807754142
 30
0.0
  0
ENDBLK
  5
E6D
330
E6B
100
AcDbEntity
  8
0
100
AcDbBlockEnd
  0
BLOCK
  5
E78
330
E77
100
AcDbEntity
  8
0
100
AcDbBlockBegin
  2
*D11
 70
     1
 10
0.0
 20
0.0
 30
0.0
  3
*D11
  1

  0
LINE
  5
E7A
330
E77
100
AcDbEntity
  8
groove
 62
     0
440
 16777216
370
    -2
100
AcDbLine
 10
2061.294936696217
 20
1804.216807754141
 30
0.0
 11
2061.294936696217
 21
1815.67821055907
 31
0.0
  0
LINE
  5
E7B
330
E77
100
AcDbEntity
  8
groove
 62
     0
440
 16777216
370
    -2
100
AcDbLine
 10
2297.094936696218
 20
1804.216807754141
 30
0.0
 11
2297.094936696218
 21
1815.67821055907
 31
0.0
  0
LINE
  5
E7C
330
E77
100
AcDbEntity
  8
groove
 62
     0
440
 16777216
370
    -2
100
AcDbLine
 10
2063.794936696217
 20
1814.42821055907
 30
0.0
 11
2294.594936696218
 21
1814.42821055907
 31
0.0
  0
SOLID
  5
E7D
330
E77
100
AcDbEntity
  8
groove
 62
     0
440
 16777216
100
AcDbTrace
 10
2063.794936696217
 20
1814.844877225737
 30
0.0
 11
2063.794936696217
 21
1814.011543892403
 31
0.0
 12
2061.294936696217
 22
1814.42821055907
 32
0.0
 13
2061.294936696217
 23
1814.42821055907
 33
0.0
  0
SOLID
  5
E7E
330
E77
100
AcDbEntity
  8
groove
 62
     0
440
 16777216
100
AcDbTrace
 10
2294.594936696218
 20
1814.844877225737
 30
0.0
 11
2294.594936696218
 21
1814.011543892403
 31
0.0
 12
2297.094936696218
 22
1814.42821055907
 32
0.0
 13
2297.094936696218
 23
1814.42821055907
 33
0.0
  0
MTEXT
  5
E7F
330
E77
100
AcDbEntity
  8
groove
 62
     0
440
 16777216
100
AcDbMText
 10
2179.194936696217
 20
1816.55559800791
 30
0.0
 40
2.5
 41
0.0
 46
0.0
 71
     5
 72
     1
  1
235,8
 73
     1
 44
1.0
  0
POINT
  5
E80
330
E77
100
AcDbEntity
  8
Defpoints
 62
     0
440
 16777216
100
AcDbPoint
 10
2061.294936696217
 20
1803.591807754141
 30
0.0
  0
POINT
  5
E81
330
E77
100
AcDbEntity
  8
Defpoints
 62
     0
440
 16777216
100
AcDbPoint
 10
2297.094936696218
 20
1803.591807754141
 30
0.0
  0
POINT
  5
E82
330
E77
100
AcDbEntity
  8
Defpoints
 62
     0
440
 16777216
100
AcDbPoint
 10
2297.094936696218
 20
1814.42821055907
 30
0.0
  0
ENDBLK
  5
E79
330
E77
100
AcDbEntity
  8
0
100
AcDbBlockEnd
  0
BLOCK
  5
E84
330
E83
100
AcDbEntity
  8
0
100
AcDbBlockBegin
  2
*D12
 70
     1
 10
0.0
 20
0.0
 30
0.0
  3
*D12
  1

  0
LINE
  5
E86
330
E83
100
AcDbEntity
  8
groove
 62
     0
440
 16777216
370
    -2
100
AcDbLine
 10
2054.376592871166
 20
1626.050349250144
 30
0.0
 11
2027.045650796715
 21
1626.050349250144
 31
0.0
  0
LINE
  5
E87
330
E83
100
AcDbEntity
  8
groove
 62
     0
440
 16777216
370
    -2
100
AcDbLine
 10
2054.376592871166
 20
1563.550349250144
 30
0.0
 11
2027.045650796715
 21
1563.550349250144
 31
0.0
  0
LINE
  5
E88
330
E83
100
AcDbEntity
  8
groove
 62
     0
440
 16777216
370
    -2
100
AcDbLine
 10
2028.295650796716
 20
1623.550349250144
 30
0.0
 11
2028.295650796716
 21
1566.050349250144
 31
0.0
  0
SOLID
  5
E89
330
E83
100
AcDbEntity
  8
groove
 62
     0
440
 16777216
100
AcDbTrace
 10
2027.878984130048
 20
1623.550349250144
 30
0.0
 11
2028.712317463382
 21
1623.550349250144
 31
0.0
 12
2028.295650796716
 22
1626.050349250144
 32
0.0
 13
2028.295650796716
 23
1626.050349250144
 33
0.0
  0
SOLID
  5
E8A
330
E83
100
AcDbEntity
  8
groove
 62
     0
440
 16777216
100
AcDbTrace
 10
2027.878984130048
 20
1566.050349250144
 30
0.0
 11
2028.712317463382
 21
1566.050349250144
 31
0.0
 12
2028.295650796716
 22
1563.550349250144
 32
0.0
 13
2028.295650796716
 23
1563.550349250144
 33
0.0
  0
MTEXT
  5
E8B
330
E83
100
AcDbEntity
  8
groove
 62
     0
440
 16777216
100
AcDbMText
 10
2026.168263347874
 20
1594.800349250143
 30
0.0
 40
2.5
 41
0.0
 46
0.0
 71
     5
 72
     1
  1
62,5
 11
0.0000000000000001
 21
1.0
 31
0.0
 73
     1
 44
1.0
  0
POINT
  5
E8C
330
E83
100
AcDbEntity
  8
Defpoints
 62
     0
440
 16777216
100
AcDbPoint
 10
2055.001592871167
 20
1626.050349250144
 30
0.0
  0
POINT
  5
E8D
330
E83
100
AcDbEntity
  8
Defpoints
 62
     0
440
 16777216
100
AcDbPoint
 10
2055.001592871167
 20
1563.550349250144
 30
0.0
  0
POINT
  5
E8E
330
E83
100
AcDbEntity
  8
Defpoints
 62
     0
440
 16777216
100
AcDbPoint
 10
2028.295650796716
 20
1563.550349250144
 30
0.0
  0
ENDBLK
  5
E85
330
E83
100
AcDbEntity
  8
0
100
AcDbBlockEnd
  0
BLOCK
  5
E90
330
E8F
100
AcDbEntity
  8
0
100
AcDbBlockBegin
  2
*D13
 70
     1
 10
0.0
 20
0.0
 30
0.0
  3
*D13
  1

  0
LINE
  5
E92
330
E8F
100
AcDbEntity
  8
groove
 62
     0
440
 16777216
370
    -2
100
AcDbLine
 10
2058.395897978857
 20
1692.373282174054
 30
0.0
 11
2034.747578909763
 21
1692.373282174054
 31
0.0
  0
LINE
  5
E93
330
E8F
100
AcDbEntity
  8
groove
 62
     0
440
 16777216
370
    -2
100
AcDbLine
 10
2058.395897978857
 20
1633.873282174056
 30
0.0
 11
2034.747578909763
 21
1633.873282174056
 31
0.0
  0
LINE
  5
E94
330
E8F
100
AcDbEntity
  8
groove
 62
     0
440
 16777216
370
    -2
100
AcDbLine
 10
2035.997578909764
 20
1689.873282174055
 30
0.0
 11
2035.997578909764
 21
1636.373282174055
 31
0.0
  0
SOLID
  5
E95
330
E8F
100
AcDbEntity
  8
groove
 62
     0
440
 16777216
100
AcDbTrace
 10
2035.580912243097
 20
1689.873282174055
 30
0.0
 11
2036.41424557643
 21
1689.873282174055
 31
0.0
 12
2035.997578909764
 22
1692.373282174054
 32
0.0
 13
2035.997578909764
 23
1692.373282174054
 33
0.0
  0
SOLID
  5
E96
330
E8F
100
AcDbEntity
  8
groove
 62
     0
440
 16777216
100
AcDbTrace
 10
2035.580912243097
 20
1636.373282174055
 30
0.0
 11
2036.41424557643
 21
1636.373282174055
 31
0.0
 12
2035.997578909764
 22
1633.873282174056
 32
0.0
 13
2035.997578909764
 23
1633.873282174056
 33
0.0
  0
MTEXT
  5
E97
330
E8F
100
AcDbEntity
  8
groove
 62
     0
440
 16777216
100
AcDbMText
 10
2033.870191460923
 20
1663.123282174054
 30
0.0
 40
2.5
 41
0.0
 46
0.0
 71
     5
 72
     1
  1
58,5
 11
0.0000000000000001
 21
1.0
 31
0.0
 73
     1
 44
1.0
  0
POINT
  5
E98
330
E8F
100
AcDbEntity
  8
Defpoints
 62
     0
440
 16777216
100
AcDbPoint
 10
2059.020897978857
 20
1692.373282174054
 30
0.0
  0
POINT
  5
E99
330
E8F
100
AcDbEntity
  8
Defpoints
 62
     0
440
 16777216
100
AcDbPoint
 10
2059.020897978857
 20
1633.873282174056
 30
0.0
  0
POINT
  5
E9A
330
E8F
100
AcDbEntity
  8
Defpoints
 62
     0
440
 16777216
100
AcDbPoint
 10
2035.997578909764
 20
1633.873282174056
 30
0.0
  0
ENDBLK
  5
E91
330
E8F
100
AcDbEntity
  8
0
100
AcDbBlockEnd
  0
BLOCK
  5
E9C
330
E9B
100
AcDbEntity
  8
0
100
AcDbBlockBegin
  2
*D14
 70
     1
 10
0.0
 20
0.0
 30
0.0
  3
*D14
  1

  0
LINE
  5
E9E
330
E9B
100
AcDbEntity
  8
groove
 62
     0
440
 16777216
370
    -2
100
AcDbLine
 10
2058.822928848025
 20
1561.001749440011
 30
0.0
 11
2027.427810592548
 21
1561.001749440011
 31
0.0
  0
LINE
  5
E9F
330
E9B
100
AcDbEntity
  8
groove
 62
     0
440
 16777216
370
    -2
100
AcDbLine
 10
2058.822928848025
 20
1508.9984201276
 30
0.0
 11
2027.427810592548
 21
1508.9984201276
 31
0.0
  0
LINE
  5
EA0
330
E9B
100
AcDbEntity
  8
groove
 62
     0
440
 16777216
370
    -2
100
AcDbLine
 10
2028.677810592549
 20
1558.501749440011
 30
0.0
 11
2028.677810592549
 21
1511.4984201276
 31
0.0
  0
SOLID
  5
EA1
330
E9B
100
AcDbEntity
  8
groove
 62
     0
440
 16777216
100
AcDbTrace
 10
2028.261143925882
 20
1558.501749440011
 30
0.0
 11
2029.094477259215
 21
1558.501749440011
 31
0.0
 12
2028.677810592549
 22
1561.001749440011
 32
0.0
 13
2028.677810592549
 23
1561.001749440011
 33
0.0
  0
SOLID
  5
EA2
330
E9B
100
AcDbEntity
  8
groove
 62
     0
440
 16777216
100
AcDbTrace
 10
2028.261143925882
 20
1511.4984201276
 30
0.0
 11
2029.094477259215
 21
1511.4984201276
 31
0.0
 12
2028.677810592549
 22
1508.9984201276
 32
0.0
 13
2028.677810592549
 23
1508.9984201276
 33
0.0
  0
MTEXT
  5
EA3
330
E9B
100
AcDbEntity
  8
groove
 62
     0
440
 16777216
100
AcDbMText
 10
2026.776378123244
 20
1535.000084783804
 30
0.0
 40
2.5
 41
0.0
 46
0.0
 71
     5
 72
     1
  1
52
 11
0.0000000000000001
 21
1.0
 31
0.0
 73
     1
 44
1.0
  0
POINT
  5
EA4
330
E9B
100
AcDbEntity
  8
Defpoints
 62
     0
440
 16777216
100
AcDbPoint
 10
2059.447928848025
 20
1561.001749440011
 30
0.0
  0
POINT
  5
EA5
330
E9B
100
AcDbEntity
  8
Defpoints
 62
     0
440
 16777216
100
AcDbPoint
 10
2059.447928848025
 20
1508.9984201276
 30
0.0
  0
POINT
  5
EA6
330
E9B
100
AcDbEntity
  8
Defpoints
 62
     0
440
 16777216
100
AcDbPoint
 10
2028.677810592549
 20
1508.9984201276
 30
0.0
  0
ENDBLK
  5
E9D
330
E9B
100
AcDbEntity
  8
0
100
AcDbBlockEnd
  0
ENDSEC
  0
SECTION
  2
ENTITIES
  0
LINE
  5
893
330
1F
100
AcDbEntity
  8
0
100
AcDbLine
 10
2192.320897978858
 20
1684.398282174054
 30
0.0
 11
2222.720897978858
 21
1684.398282174054
 31
0.0
  0
LINE
  5
894
330
1F
100
AcDbEntity
  8
0
100
AcDbLine
 10
2222.720897978858
 20
1684.398282174054
 30
0.0
 11
2222.720897978858
 21
1682.494282174054
 31
0.0
  0
LINE
  5
895
330
1F
100
AcDbEntity
  8
0
100
AcDbLine
 10
2192.320897978858
 20
1684.398282174054
 30
0.0
 11
2192.320897978856
 21
1682.494282174054
 31
0.0
  0
LINE
  5
896
330
1F
100
AcDbEntity
  8
0
100
AcDbLine
 10
2222.720897978858
 20
1682.494282174054
 30
0.0
 11
2192.320897978858
 21
1682.494282174054
 31
0.0
  0
LINE
  5
897
330
1F
100
AcDbEntity
  8
0
100
AcDbLine
 10
2178.962565650754
 20
1663.998282174054
 30
0.0
 11
2178.962565650754
 21
1662.098282174055
 31
0.0
  0
LINE
  5
898
330
1F
100
AcDbEntity
  8
0
100
AcDbLine
 10
2170.962565650754
 20
1662.098282174055
 30
0.0
 11
2170.962565650754
 21
1663.998282174054
 31
0.0
  0
LINE
  5
899
330
1F
100
AcDbEntity
  8
0
100
AcDbLine
 10
2174.920897978855
 20
1645.227512869606
 30
0.0
 11
2178.920897978857
 21
1645.227512869606
 31
0.0
  0
LINE
  5
89A
330
1F
100
AcDbEntity
  8
0
100
AcDbLine
 10
2178.920897978857
 20
1645.227512869606
 30
0.0
 11
2178.920897978857
 21
1643.327512869605
 31
0.0
  0
LINE
  5
89B
330
1F
100
AcDbEntity
  8
0
100
AcDbLine
 10
2178.920897978857
 20
1643.327512869605
 30
0.0
 11
2170.920897978856
 21
1643.327512869605
 31
0.0
  0
LINE
  5
89C
330
1F
100
AcDbEntity
  8
0
100
AcDbLine
 10
2170.920897978856
 20
1643.327512869605
 30
0.0
 11
2170.920897978856
 21
1645.227512869606
 31
0.0
  0
LINE
  5
89D
330
1F
100
AcDbEntity
  8
0
100
AcDbLine
 10
2170.920897978856
 20
1645.227512869606
 30
0.0
 11
2174.920897978855
 21
1645.227512869606
 31
0.0
  0
LWPOLYLINE
  5
89E
330
1F
100
AcDbEntity
  8
0
100
AcDbPolyline
 90
        2
 70
     0
 43
0.0
 10
2059.020897978856
 20
1638.123282174055
 10
2059.020897978856
 20
1653.123282174053
  0
LWPOLYLINE
  5
89F
330
1F
100
AcDbEntity
  8
0
100
AcDbPolyline
 90
        3
 70
     0
 43
0.0
 10
2059.020897978856
 20
1633.873282174054
 10
2059.020897978856
 20
1684.373282174053
 10
2059.020897978856
 20
1692.373282174054
  0
LWPOLYLINE
  5
8A0
102
{ACAD_REACTORS
330
CB6
102
}
330
1F
100
AcDbEntity
  8
0
100
AcDbPolyline
 90
        3
 70
     0
 43
0.0
 10
2059.020897978856
 20
1692.373282174054
 10
2082.020897978855
 20
1692.373282174054
 10
2290.904233322652
 20
1692.373282174054
  0
LINE
  5
8A1
102
{ACAD_REACTORS
330
CB6
102
}
330
1F
100
AcDbEntity
  8
0
100
AcDbLine
 10
2059.020897978856
 20
1633.873282174054
 30
0.0
 11
2290.904233322652
 21
1633.873282174054
 31
0.0
  0
LWPOLYLINE
  5
8A2
330
1F
100
AcDbEntity
  8
0
100
AcDbPolyline
 90
        2
 70
     0
 43
0.0
 10
2290.904233322652
 20
1633.873282174054
 10
2290.904233322652
 20
1692.373282174054
  0
LINE
  5
8A3
330
1F
100
AcDbEntity
  8
0
100
AcDbLine
 10
2174.962565650754
 20
1663.998282174054
 30
0.0
 11
2178.962565650754
 21
1663.998282174054
 31
0.0
  0
LINE
  5
8A4
330
1F
100
AcDbEntity
  8
0
100
AcDbLine
 10
2178.962565650754
 20
1662.098282174056
 30
0.0
 11
2170.962565650754
 21
1662.098282174056
 31
0.0
  0
LINE
  5
8A5
330
1F
100
AcDbEntity
  8
0
100
AcDbLine
 10
2170.962565650754
 20
1663.998282174054
 30
0.0
 11
2174.962565650754
 21
1663.998282174054
 31
0.0
  0
LINE
  5
8A6
330
1F
100
AcDbEntity
  8
0
100
AcDbLine
 10
2081.920897978857
 20
1684.398282174054
 30
0.0
 11
2112.320897978857
 21
1684.398282174054
 31
0.0
  0
LINE
  5
8A7
330
1F
100
AcDbEntity
  8
0
100
AcDbLine
 10
2112.320897978857
 20
1684.398282174054
 30
0.0
 11
2112.320897978857
 21
1682.494282174054
 31
0.0
  0
LINE
  5
8A8
330
1F
100
AcDbEntity
  8
0
100
AcDbLine
 10
2081.920897978857
 20
1684.398282174054
 30
0.0
 11
2081.920897978856
 21
1682.494282174054
 31
0.0
  0
LINE
  5
8A9
330
1F
100
AcDbEntity
  8
0
100
AcDbLine
 10
2112.320897978857
 20
1682.494282174054
 30
0.0
 11
2081.920897978857
 21
1682.494282174054
 31
0.0
  0
LINE
  5
8AA
330
1F
100
AcDbEntity
  8
0
100
AcDbLine
 10
2127.120897978857
 20
1684.400282174055
 30
0.0
 11
2127.120897978857
 21
1682.496282174054
 31
0.0
  0
LINE
  5
8AB
330
1F
100
AcDbEntity
  8
0
100
AcDbLine
 10
2177.420897978857
 20
1671.973282174055
 30
0.0
 11
2172.420897978858
 21
1671.973282174055
 31
0.0
  0
LINE
  5
8AC
330
1F
100
AcDbEntity
  8
0
100
AcDbLine
 10
2172.420897978858
 20
1671.973282174055
 30
0.0
 11
2172.420897978858
 21
1675.273282174055
 31
0.0
  0
LINE
  5
8AD
330
1F
100
AcDbEntity
  8
0
100
AcDbLine
 10
2172.420897978858
 20
1675.273282174055
 30
0.0
 11
2177.420897978857
 21
1675.273282174055
 31
0.0
  0
LINE
  5
8AE
330
1F
100
AcDbEntity
  8
0
100
AcDbLine
 10
2177.420897978857
 20
1675.273282174055
 30
0.0
 11
2177.420897978857
 21
1671.973282174055
 31
0.0
  0
LINE
  5
8AF
330
1F
100
AcDbEntity
  8
0
100
AcDbLine
 10
2177.420897978857
 20
1654.273282174054
 30
0.0
 11
2172.420897978858
 21
1654.273282174054
 31
0.0
  0
LINE
  5
8B0
330
1F
100
AcDbEntity
  8
0
100
AcDbLine
 10
2172.420897978858
 20
1654.273282174054
 30
0.0
 11
2172.420897978858
 21
1650.973282174055
 31
0.0
  0
LINE
  5
8B1
330
1F
100
AcDbEntity
  8
0
100
AcDbLine
 10
2172.420897978858
 20
1650.973282174055
 30
0.0
 11
2177.420897978857
 21
1650.973282174055
 31
0.0
  0
LINE
  5
8B2
330
1F
100
AcDbEntity
  8
0
100
AcDbLine
 10
2177.420897978857
 20
1650.973282174055
 30
0.0
 11
2177.420897978857
 21
1654.273282174054
 31
0.0
  0
LINE
  5
8B3
330
1F
100
AcDbEntity
  8
0
100
AcDbLine
 10
2231.870897978857
 20
1665.623282174054
 30
0.0
 11
2231.870897978857
 21
1660.623282174054
 31
0.0
  0
LINE
  5
8B4
330
1F
100
AcDbEntity
  8
0
100
AcDbLine
 10
2231.870897978857
 20
1660.623282174054
 30
0.0
 11
2228.570897978857
 21
1660.623282174054
 31
0.0
  0
LINE
  5
8B5
330
1F
100
AcDbEntity
  8
0
100
AcDbLine
 10
2228.570897978857
 20
1660.623282174054
 30
0.0
 11
2228.570897978857
 21
1665.623282174054
 31
0.0
  0
LINE
  5
8B6
330
1F
100
AcDbEntity
  8
0
100
AcDbLine
 10
2228.570897978857
 20
1665.623282174054
 30
0.0
 11
2231.870897978857
 21
1665.623282174054
 31
0.0
  0
LINE
  5
8B7
330
1F
100
AcDbEntity
  8
0
100
AcDbLine
 10
2118.054233322653
 20
1665.623282174054
 30
0.0
 11
2118.054233322653
 21
1660.623282174054
 31
0.0
  0
LINE
  5
8B8
330
1F
100
AcDbEntity
  8
0
100
AcDbLine
 10
2118.054233322653
 20
1660.623282174054
 30
0.0
 11
2121.354233322652
 21
1660.623282174054
 31
0.0
  0
LINE
  5
8B9
330
1F
100
AcDbEntity
  8
0
100
AcDbLine
 10
2121.354233322652
 20
1660.623282174054
 30
0.0
 11
2121.354233322652
 21
1665.623282174054
 31
0.0
  0
LINE
  5
8BA
330
1F
100
AcDbEntity
  8
0
100
AcDbLine
 10
2121.354233322652
 20
1665.623282174054
 30
0.0
 11
2118.054233322653
 21
1665.623282174054
 31
0.0
  0
LINE
  5
8BB
330
1F
100
AcDbEntity
  8
0
100
AcDbLine
 10
2127.120897978858
 20
1684.400282174054
 30
0.0
 11
2157.520897978858
 21
1684.400282174054
 31
0.0
  0
LINE
  5
8BC
330
1F
100
AcDbEntity
  8
0
100
AcDbLine
 10
2157.520897978858
 20
1682.496282174054
 30
0.0
 11
2127.120897978858
 21
1682.496282174054
 31
0.0
  0
LINE
  5
8BD
330
1F
100
AcDbEntity
  8
0
100
AcDbLine
 10
2157.520897978858
 20
1684.400282174054
 30
0.0
 11
2157.520897978858
 21
1682.496282174054
 31
0.0
  0
LINE
  5
8BE
330
1F
100
AcDbEntity
  8
0
100
AcDbLine
 10
2081.920897978857
 20
1680.058282174054
 30
0.0
 11
2112.320897978857
 21
1680.058282174054
 31
0.0
  0
LINE
  5
8BF
330
1F
100
AcDbEntity
  8
0
100
AcDbLine
 10
2112.320897978857
 20
1680.058282174054
 30
0.0
 11
2112.320897978857
 21
1678.154282174054
 31
0.0
  0
LINE
  5
8C0
330
1F
100
AcDbEntity
  8
0
100
AcDbLine
 10
2081.920897978857
 20
1680.058282174054
 30
0.0
 11
2081.920897978856
 21
1678.154282174054
 31
0.0
  0
LINE
  5
8C1
330
1F
100
AcDbEntity
  8
0
100
AcDbLine
 10
2112.320897978857
 20
1678.154282174054
 30
0.0
 11
2081.920897978857
 21
1678.154282174054
 31
0.0
  0
LINE
  5
8C2
330
1F
100
AcDbEntity
  8
0
100
AcDbLine
 10
2081.920897978857
 20
1675.718282174054
 30
0.0
 11
2112.320897978857
 21
1675.718282174054
 31
0.0
  0
LINE
  5
8C3
330
1F
100
AcDbEntity
  8
0
100
AcDbLine
 10
2112.320897978857
 20
1675.718282174054
 30
0.0
 11
2112.320897978857
 21
1673.814282174054
 31
0.0
  0
LINE
  5
8C4
330
1F
100
AcDbEntity
  8
0
100
AcDbLine
 10
2081.920897978857
 20
1675.718282174054
 30
0.0
 11
2081.920897978856
 21
1673.814282174054
 31
0.0
  0
LINE
  5
8C5
330
1F
100
AcDbEntity
  8
0
100
AcDbLine
 10
2112.320897978857
 20
1673.814282174054
 30
0.0
 11
2081.920897978857
 21
1673.814282174054
 31
0.0
  0
LINE
  5
8C6
330
1F
100
AcDbEntity
  8
0
100
AcDbLine
 10
2081.920897978857
 20
1671.378282174053
 30
0.0
 11
2112.320897978857
 21
1671.378282174053
 31
0.0
  0
LINE
  5
8C7
330
1F
100
AcDbEntity
  8
0
100
AcDbLine
 10
2112.320897978857
 20
1671.378282174053
 30
0.0
 11
2112.320897978857
 21
1669.474282174054
 31
0.0
  0
LINE
  5
8C8
330
1F
100
AcDbEntity
  8
0
100
AcDbLine
 10
2081.920897978857
 20
1671.378282174053
 30
0.0
 11
2081.920897978856
 21
1669.474282174054
 31
0.0
  0
LINE
  5
8C9
330
1F
100
AcDbEntity
  8
0
100
AcDbLine
 10
2112.320897978857
 20
1669.474282174054
 30
0.0
 11
2081.920897978857
 21
1669.474282174054
 31
0.0
  0
LINE
  5
8CA
330
1F
100
AcDbEntity
  8
0
100
AcDbLine
 10
2081.920897978857
 20
1667.038282174052
 30
0.0
 11
2112.320897978857
 21
1667.038282174052
 31
0.0
  0
LINE
  5
8CB
330
1F
100
AcDbEntity
  8
0
100
AcDbLine
 10
2112.320897978857
 20
1667.038282174052
 30
0.0
 11
2112.320897978857
 21
1665.134282174053
 31
0.0
  0
LINE
  5
8CC
330
1F
100
AcDbEntity
  8
0
100
AcDbLine
 10
2081.920897978857
 20
1667.038282174052
 30
0.0
 11
2081.920897978856
 21
1665.134282174053
 31
0.0
  0
LINE
  5
8CD
330
1F
100
AcDbEntity
  8
0
100
AcDbLine
 10
2112.320897978857
 20
1665.134282174053
 30
0.0
 11
2081.920897978857
 21
1665.134282174053
 31
0.0
  0
LINE
  5
8CE
330
1F
100
AcDbEntity
  8
0
100
AcDbLine
 10
2081.920897978857
 20
1662.698282174054
 30
0.0
 11
2112.320897978857
 21
1662.698282174054
 31
0.0
  0
LINE
  5
8CF
330
1F
100
AcDbEntity
  8
0
100
AcDbLine
 10
2112.320897978857
 20
1662.698282174054
 30
0.0
 11
2112.320897978857
 21
1660.794282174054
 31
0.0
  0
LINE
  5
8D0
330
1F
100
AcDbEntity
  8
0
100
AcDbLine
 10
2081.920897978857
 20
1662.698282174054
 30
0.0
 11
2081.920897978856
 21
1660.794282174054
 31
0.0
  0
LINE
  5
8D1
330
1F
100
AcDbEntity
  8
0
100
AcDbLine
 10
2112.320897978857
 20
1660.794282174054
 30
0.0
 11
2081.920897978857
 21
1660.794282174054
 31
0.0
  0
LINE
  5
8D2
330
1F
100
AcDbEntity
  8
0
100
AcDbLine
 10
2081.920897978857
 20
1658.358282174054
 30
0.0
 11
2112.320897978857
 21
1658.358282174054
 31
0.0
  0
LINE
  5
8D3
330
1F
100
AcDbEntity
  8
0
100
AcDbLine
 10
2112.320897978857
 20
1658.358282174054
 30
0.0
 11
2112.320897978857
 21
1656.454282174054
 31
0.0
  0
LINE
  5
8D4
330
1F
100
AcDbEntity
  8
0
100
AcDbLine
 10
2081.920897978857
 20
1658.358282174054
 30
0.0
 11
2081.920897978856
 21
1656.454282174054
 31
0.0
  0
LINE
  5
8D5
330
1F
100
AcDbEntity
  8
0
100
AcDbLine
 10
2112.320897978857
 20
1656.454282174054
 30
0.0
 11
2081.920897978857
 21
1656.454282174054
 31
0.0
  0
LINE
  5
8D6
330
1F
100
AcDbEntity
  8
0
100
AcDbLine
 10
2081.920897978857
 20
1654.018282174053
 30
0.0
 11
2112.320897978857
 21
1654.018282174053
 31
0.0
  0
LINE
  5
8D7
330
1F
100
AcDbEntity
  8
0
100
AcDbLine
 10
2112.320897978857
 20
1654.018282174053
 30
0.0
 11
2112.320897978857
 21
1652.114282174053
 31
0.0
  0
LINE
  5
8D8
330
1F
100
AcDbEntity
  8
0
100
AcDbLine
 10
2081.920897978857
 20
1654.018282174053
 30
0.0
 11
2081.920897978856
 21
1652.114282174053
 31
0.0
  0
LINE
  5
8D9
330
1F
100
AcDbEntity
  8
0
100
AcDbLine
 10
2112.320897978857
 20
1652.114282174053
 30
0.0
 11
2081.920897978857
 21
1652.114282174053
 31
0.0
  0
LINE
  5
8DA
330
1F
100
AcDbEntity
  8
0
100
AcDbLine
 10
2081.920897978857
 20
1649.678282174054
 30
0.0
 11
2112.320897978857
 21
1649.678282174054
 31
0.0
  0
LINE
  5
8DB
330
1F
100
AcDbEntity
  8
0
100
AcDbLine
 10
2112.320897978857
 20
1649.678282174054
 30
0.0
 11
2112.320897978857
 21
1647.774282174054
 31
0.0
  0
LINE
  5
8DC
330
1F
100
AcDbEntity
  8
0
100
AcDbLine
 10
2081.920897978857
 20
1649.678282174054
 30
0.0
 11
2081.920897978856
 21
1647.774282174054
 31
0.0
  0
LINE
  5
8DD
330
1F
100
AcDbEntity
  8
0
100
AcDbLine
 10
2112.320897978857
 20
1647.774282174054
 30
0.0
 11
2081.920897978857
 21
1647.774282174054
 31
0.0
  0
LINE
  5
8DE
330
1F
100
AcDbEntity
  8
0
100
AcDbLine
 10
2081.920897978857
 20
1645.338282174053
 30
0.0
 11
2112.320897978857
 21
1645.338282174053
 31
0.0
  0
LINE
  5
8DF
330
1F
100
AcDbEntity
  8
0
100
AcDbLine
 10
2112.320897978857
 20
1645.338282174053
 30
0.0
 11
2112.320897978857
 21
1643.434282174053
 31
0.0
  0
LINE
  5
8E0
330
1F
100
AcDbEntity
  8
0
100
AcDbLine
 10
2081.920897978857
 20
1645.338282174053
 30
0.0
 11
2081.920897978856
 21
1643.434282174053
 31
0.0
  0
LINE
  5
8E1
330
1F
100
AcDbEntity
  8
0
100
AcDbLine
 10
2112.320897978857
 20
1643.434282174053
 30
0.0
 11
2081.920897978857
 21
1643.434282174053
 31
0.0
  0
LINE
  5
8E2
330
1F
100
AcDbEntity
  8
0
100
AcDbLine
 10
2127.120897978857
 20
1680.060282174055
 30
0.0
 11
2157.520897978858
 21
1680.060282174055
 31
0.0
  0
LINE
  5
8E3
330
1F
100
AcDbEntity
  8
0
100
AcDbLine
 10
2157.520897978858
 20
1680.060282174055
 30
0.0
 11
2157.520897978858
 21
1678.156282174056
 31
0.0
  0
LINE
  5
8E4
330
1F
100
AcDbEntity
  8
0
100
AcDbLine
 10
2127.120897978857
 20
1680.060282174055
 30
0.0
 11
2127.120897978856
 21
1678.156282174056
 31
0.0
  0
LINE
  5
8E5
330
1F
100
AcDbEntity
  8
0
100
AcDbLine
 10
2157.520897978858
 20
1678.156282174056
 30
0.0
 11
2127.120897978857
 21
1678.156282174056
 31
0.0
  0
LINE
  5
8E6
330
1F
100
AcDbEntity
  8
0
100
AcDbLine
 10
2127.120897978857
 20
1675.720282174055
 30
0.0
 11
2157.520897978858
 21
1675.720282174055
 31
0.0
  0
LINE
  5
8E7
330
1F
100
AcDbEntity
  8
0
100
AcDbLine
 10
2157.520897978858
 20
1675.720282174055
 30
0.0
 11
2157.520897978858
 21
1673.816282174055
 31
0.0
  0
LINE
  5
8E8
330
1F
100
AcDbEntity
  8
0
100
AcDbLine
 10
2127.120897978857
 20
1675.720282174055
 30
0.0
 11
2127.120897978856
 21
1673.816282174055
 31
0.0
  0
LINE
  5
8E9
330
1F
100
AcDbEntity
  8
0
100
AcDbLine
 10
2157.520897978858
 20
1673.816282174055
 30
0.0
 11
2127.120897978857
 21
1673.816282174055
 31
0.0
  0
LINE
  5
8EA
330
1F
100
AcDbEntity
  8
0
100
AcDbLine
 10
2127.120897978857
 20
1671.380282174055
 30
0.0
 11
2157.520897978858
 21
1671.380282174055
 31
0.0
  0
LINE
  5
8EB
330
1F
100
AcDbEntity
  8
0
100
AcDbLine
 10
2157.520897978858
 20
1671.380282174055
 30
0.0
 11
2157.520897978858
 21
1669.476282174055
 31
0.0
  0
LINE
  5
8EC
330
1F
100
AcDbEntity
  8
0
100
AcDbLine
 10
2127.120897978857
 20
1671.380282174055
 30
0.0
 11
2127.120897978856
 21
1669.476282174055
 31
0.0
  0
LINE
  5
8ED
330
1F
100
AcDbEntity
  8
0
100
AcDbLine
 10
2157.520897978858
 20
1669.476282174055
 30
0.0
 11
2127.120897978857
 21
1669.476282174055
 31
0.0
  0
LINE
  5
8EE
330
1F
100
AcDbEntity
  8
0
100
AcDbLine
 10
2127.120897978857
 20
1667.040282174055
 30
0.0
 11
2157.520897978858
 21
1667.040282174055
 31
0.0
  0
LINE
  5
8EF
330
1F
100
AcDbEntity
  8
0
100
AcDbLine
 10
2157.520897978858
 20
1667.040282174055
 30
0.0
 11
2157.520897978858
 21
1665.136282174055
 31
0.0
  0
LINE
  5
8F0
330
1F
100
AcDbEntity
  8
0
100
AcDbLine
 10
2127.120897978857
 20
1667.040282174055
 30
0.0
 11
2127.120897978856
 21
1665.136282174055
 31
0.0
  0
LINE
  5
8F1
330
1F
100
AcDbEntity
  8
0
100
AcDbLine
 10
2157.520897978858
 20
1665.136282174055
 30
0.0
 11
2127.120897978857
 21
1665.136282174055
 31
0.0
  0
LINE
  5
8F2
330
1F
100
AcDbEntity
  8
0
100
AcDbLine
 10
2127.120897978857
 20
1662.700282174055
 30
0.0
 11
2157.520897978858
 21
1662.700282174055
 31
0.0
  0
LINE
  5
8F3
330
1F
100
AcDbEntity
  8
0
100
AcDbLine
 10
2157.520897978858
 20
1662.700282174055
 30
0.0
 11
2157.520897978858
 21
1660.796282174055
 31
0.0
  0
LINE
  5
8F4
330
1F
100
AcDbEntity
  8
0
100
AcDbLine
 10
2127.120897978857
 20
1662.700282174055
 30
0.0
 11
2127.120897978856
 21
1660.796282174055
 31
0.0
  0
LINE
  5
8F5
330
1F
100
AcDbEntity
  8
0
100
AcDbLine
 10
2157.520897978858
 20
1660.796282174055
 30
0.0
 11
2127.120897978857
 21
1660.796282174055
 31
0.0
  0
LINE
  5
8F6
330
1F
100
AcDbEntity
  8
0
100
AcDbLine
 10
2127.120897978857
 20
1658.360282174055
 30
0.0
 11
2157.520897978858
 21
1658.360282174055
 31
0.0
  0
LINE
  5
8F7
330
1F
100
AcDbEntity
  8
0
100
AcDbLine
 10
2157.520897978858
 20
1658.360282174055
 30
0.0
 11
2157.520897978858
 21
1656.456282174055
 31
0.0
  0
LINE
  5
8F8
330
1F
100
AcDbEntity
  8
0
100
AcDbLine
 10
2127.120897978857
 20
1658.360282174055
 30
0.0
 11
2127.120897978856
 21
1656.456282174055
 31
0.0
  0
LINE
  5
8F9
330
1F
100
AcDbEntity
  8
0
100
AcDbLine
 10
2157.520897978858
 20
1656.456282174055
 30
0.0
 11
2127.120897978857
 21
1656.456282174055
 31
0.0
  0
LINE
  5
8FA
330
1F
100
AcDbEntity
  8
0
100
AcDbLine
 10
2127.120897978857
 20
1654.020282174055
 30
0.0
 11
2157.520897978858
 21
1654.020282174055
 31
0.0
  0
LINE
  5
8FB
330
1F
100
AcDbEntity
  8
0
100
AcDbLine
 10
2157.520897978858
 20
1654.020282174055
 30
0.0
 11
2157.520897978858
 21
1652.116282174054
 31
0.0
  0
LINE
  5
8FC
330
1F
100
AcDbEntity
  8
0
100
AcDbLine
 10
2127.120897978857
 20
1654.020282174055
 30
0.0
 11
2127.120897978856
 21
1652.116282174054
 31
0.0
  0
LINE
  5
8FD
330
1F
100
AcDbEntity
  8
0
100
AcDbLine
 10
2157.520897978858
 20
1652.116282174054
 30
0.0
 11
2127.120897978857
 21
1652.116282174054
 31
0.0
  0
LINE
  5
8FE
330
1F
100
AcDbEntity
  8
0
100
AcDbLine
 10
2127.120897978857
 20
1649.680282174055
 30
0.0
 11
2157.520897978858
 21
1649.680282174055
 31
0.0
  0
LINE
  5
8FF
330
1F
100
AcDbEntity
  8
0
100
AcDbLine
 10
2157.520897978858
 20
1649.680282174055
 30
0.0
 11
2157.520897978858
 21
1647.776282174055
 31
0.0
  0
LINE
  5
900
330
1F
100
AcDbEntity
  8
0
100
AcDbLine
 10
2127.120897978857
 20
1649.680282174055
 30
0.0
 11
2127.120897978856
 21
1647.776282174055
 31
0.0
  0
LINE
  5
901
330
1F
100
AcDbEntity
  8
0
100
AcDbLine
 10
2157.520897978858
 20
1647.776282174055
 30
0.0
 11
2127.120897978857
 21
1647.776282174055
 31
0.0
  0
LINE
  5
902
330
1F
100
AcDbEntity
  8
0
100
AcDbLine
 10
2127.120897978857
 20
1645.340282174054
 30
0.0
 11
2157.520897978858
 21
1645.340282174054
 31
0.0
  0
LINE
  5
903
330
1F
100
AcDbEntity
  8
0
100
AcDbLine
 10
2157.520897978858
 20
1645.340282174054
 30
0.0
 11
2157.520897978858
 21
1643.436282174054
 31
0.0
  0
LINE
  5
904
330
1F
100
AcDbEntity
  8
0
100
AcDbLine
 10
2127.120897978857
 20
1645.340282174054
 30
0.0
 11
2127.120897978856
 21
1643.436282174054
 31
0.0
  0
LINE
  5
905
330
1F
100
AcDbEntity
  8
0
100
AcDbLine
 10
2157.520897978858
 20
1643.436282174054
 30
0.0
 11
2127.120897978857
 21
1643.436282174054
 31
0.0
  0
LINE
  5
906
330
1F
100
AcDbEntity
  8
0
100
AcDbLine
 10
2192.320897978858
 20
1680.060282174009
 30
0.0
 11
2222.720897978858
 21
1680.060282174009
 31
0.0
  0
LINE
  5
907
330
1F
100
AcDbEntity
  8
0
100
AcDbLine
 10
2222.720897978858
 20
1680.060282174009
 30
0.0
 11
2222.720897978858
 21
1678.156282174009
 31
0.0
  0
LINE
  5
908
330
1F
100
AcDbEntity
  8
0
100
AcDbLine
 10
2192.320897978858
 20
1680.060282174009
 30
0.0
 11
2192.320897978856
 21
1678.156282174009
 31
0.0
  0
LINE
  5
909
330
1F
100
AcDbEntity
  8
0
100
AcDbLine
 10
2222.720897978858
 20
1678.156282174009
 30
0.0
 11
2192.320897978858
 21
1678.156282174009
 31
0.0
  0
LINE
  5
90A
330
1F
100
AcDbEntity
  8
0
100
AcDbLine
 10
2192.320897978858
 20
1675.720282174008
 30
0.0
 11
2222.720897978858
 21
1675.720282174008
 31
0.0
  0
LINE
  5
90B
330
1F
100
AcDbEntity
  8
0
100
AcDbLine
 10
2222.720897978858
 20
1675.720282174008
 30
0.0
 11
2222.720897978858
 21
1673.816282174009
 31
0.0
  0
LINE
  5
90C
330
1F
100
AcDbEntity
  8
0
100
AcDbLine
 10
2192.320897978858
 20
1675.720282174008
 30
0.0
 11
2192.320897978856
 21
1673.816282174009
 31
0.0
  0
LINE
  5
90D
330
1F
100
AcDbEntity
  8
0
100
AcDbLine
 10
2222.720897978858
 20
1673.816282174009
 30
0.0
 11
2192.320897978858
 21
1673.816282174009
 31
0.0
  0
LINE
  5
90E
330
1F
100
AcDbEntity
  8
0
100
AcDbLine
 10
2192.320897978858
 20
1671.380282174009
 30
0.0
 11
2222.720897978858
 21
1671.380282174009
 31
0.0
  0
LINE
  5
90F
330
1F
100
AcDbEntity
  8
0
100
AcDbLine
 10
2222.720897978858
 20
1671.380282174009
 30
0.0
 11
2222.720897978858
 21
1669.476282174009
 31
0.0
  0
LINE
  5
910
330
1F
100
AcDbEntity
  8
0
100
AcDbLine
 10
2192.320897978858
 20
1671.380282174009
 30
0.0
 11
2192.320897978856
 21
1669.476282174009
 31
0.0
  0
LINE
  5
911
330
1F
100
AcDbEntity
  8
0
100
AcDbLine
 10
2222.720897978858
 20
1669.476282174009
 30
0.0
 11
2192.320897978858
 21
1669.476282174009
 31
0.0
  0
LINE
  5
912
330
1F
100
AcDbEntity
  8
0
100
AcDbLine
 10
2192.320897978858
 20
1667.040282174009
 30
0.0
 11
2222.720897978858
 21
1667.040282174009
 31
0.0
  0
LINE
  5
913
330
1F
100
AcDbEntity
  8
0
100
AcDbLine
 10
2222.720897978858
 20
1667.040282174009
 30
0.0
 11
2222.720897978858
 21
1665.136282174009
 31
0.0
  0
LINE
  5
914
330
1F
100
AcDbEntity
  8
0
100
AcDbLine
 10
2192.320897978858
 20
1667.040282174009
 30
0.0
 11
2192.320897978856
 21
1665.136282174009
 31
0.0
  0
LINE
  5
915
330
1F
100
AcDbEntity
  8
0
100
AcDbLine
 10
2222.720897978858
 20
1665.136282174009
 30
0.0
 11
2192.320897978858
 21
1665.136282174009
 31
0.0
  0
LINE
  5
916
330
1F
100
AcDbEntity
  8
0
100
AcDbLine
 10
2192.320897978858
 20
1662.700282174009
 30
0.0
 11
2222.720897978858
 21
1662.700282174009
 31
0.0
  0
LINE
  5
917
330
1F
100
AcDbEntity
  8
0
100
AcDbLine
 10
2222.720897978858
 20
1662.700282174009
 30
0.0
 11
2222.720897978858
 21
1660.796282174009
 31
0.0
  0
LINE
  5
918
330
1F
100
AcDbEntity
  8
0
100
AcDbLine
 10
2192.320897978858
 20
1662.700282174009
 30
0.0
 11
2192.320897978856
 21
1660.796282174009
 31
0.0
  0
LINE
  5
919
330
1F
100
AcDbEntity
  8
0
100
AcDbLine
 10
2222.720897978858
 20
1660.796282174009
 30
0.0
 11
2192.320897978858
 21
1660.796282174009
 31
0.0
  0
LINE
  5
91A
330
1F
100
AcDbEntity
  8
0
100
AcDbLine
 10
2192.320897978858
 20
1658.360282174009
 30
0.0
 11
2222.720897978858
 21
1658.360282174009
 31
0.0
  0
LINE
  5
91B
330
1F
100
AcDbEntity
  8
0
100
AcDbLine
 10
2222.720897978858
 20
1658.360282174009
 30
0.0
 11
2222.720897978858
 21
1656.456282174008
 31
0.0
  0
LINE
  5
91C
330
1F
100
AcDbEntity
  8
0
100
AcDbLine
 10
2192.320897978858
 20
1658.360282174009
 30
0.0
 11
2192.320897978856
 21
1656.456282174008
 31
0.0
  0
LINE
  5
91D
330
1F
100
AcDbEntity
  8
0
100
AcDbLine
 10
2222.720897978858
 20
1656.456282174008
 30
0.0
 11
2192.320897978858
 21
1656.456282174008
 31
0.0
  0
LINE
  5
91E
330
1F
100
AcDbEntity
  8
0
100
AcDbLine
 10
2192.320897978858
 20
1654.020282174007
 30
0.0
 11
2222.720897978858
 21
1654.020282174007
 31
0.0
  0
LINE
  5
91F
330
1F
100
AcDbEntity
  8
0
100
AcDbLine
 10
2222.720897978858
 20
1654.020282174007
 30
0.0
 11
2222.720897978858
 21
1652.116282174008
 31
0.0
  0
LINE
  5
920
330
1F
100
AcDbEntity
  8
0
100
AcDbLine
 10
2192.320897978858
 20
1654.020282174007
 30
0.0
 11
2192.320897978856
 21
1652.116282174008
 31
0.0
  0
LINE
  5
921
330
1F
100
AcDbEntity
  8
0
100
AcDbLine
 10
2222.720897978858
 20
1652.116282174008
 30
0.0
 11
2192.320897978858
 21
1652.116282174008
 31
0.0
  0
LINE
  5
922
330
1F
100
AcDbEntity
  8
0
100
AcDbLine
 10
2192.320897978858
 20
1649.680282174007
 30
0.0
 11
2222.720897978858
 21
1649.680282174007
 31
0.0
  0
LINE
  5
923
330
1F
100
AcDbEntity
  8
0
100
AcDbLine
 10
2222.720897978858
 20
1649.680282174007
 30
0.0
 11
2222.720897978858
 21
1647.776282174007
 31
0.0
  0
LINE
  5
924
330
1F
100
AcDbEntity
  8
0
100
AcDbLine
 10
2192.320897978858
 20
1649.680282174007
 30
0.0
 11
2192.320897978856
 21
1647.776282174007
 31
0.0
  0
LINE
  5
925
330
1F
100
AcDbEntity
  8
0
100
AcDbLine
 10
2222.720897978858
 20
1647.776282174007
 30
0.0
 11
2192.320897978858
 21
1647.776282174007
 31
0.0
  0
LINE
  5
926
330
1F
100
AcDbEntity
  8
0
100
AcDbLine
 10
2192.320897978858
 20
1645.340282174007
 30
0.0
 11
2222.720897978858
 21
1645.340282174007
 31
0.0
  0
LINE
  5
927
330
1F
100
AcDbEntity
  8
0
100
AcDbLine
 10
2222.720897978858
 20
1645.340282174007
 30
0.0
 11
2222.720897978858
 21
1643.436282174008
 31
0.0
  0
LINE
  5
928
330
1F
100
AcDbEntity
  8
0
100
AcDbLine
 10
2192.320897978858
 20
1645.340282174007
 30
0.0
 11
2192.320897978856
 21
1643.436282174008
 31
0.0
  0
LINE
  5
929
330
1F
100
AcDbEntity
  8
0
100
AcDbLine
 10
2222.720897978858
 20
1643.436282174008
 30
0.0
 11
2192.320897978858
 21
1643.436282174008
 31
0.0
  0
LINE
  5
92A
330
1F
100
AcDbEntity
  8
0
100
AcDbLine
 10
2237.520897978857
 20
1680.210282174009
 30
0.0
 11
2267.920897978859
 21
1680.210282174009
 31
0.0
  0
LINE
  5
92B
330
1F
100
AcDbEntity
  8
0
100
AcDbLine
 10
2267.920897978859
 20
1680.210282174009
 30
0.0
 11
2267.920897978859
 21
1678.306282174009
 31
0.0
  0
LINE
  5
92C
330
1F
100
AcDbEntity
  8
0
100
AcDbLine
 10
2237.520897978857
 20
1680.210282174009
 30
0.0
 11
2237.520897978856
 21
1678.306282174009
 31
0.0
  0
LINE
  5
92D
330
1F
100
AcDbEntity
  8
0
100
AcDbLine
 10
2267.920897978859
 20
1678.306282174009
 30
0.0
 11
2237.520897978857
 21
1678.306282174009
 31
0.0
  0
LINE
  5
92E
330
1F
100
AcDbEntity
  8
0
100
AcDbLine
 10
2237.520897978857
 20
1675.87028217401
 30
0.0
 11
2267.920897978859
 21
1675.87028217401
 31
0.0
  0
LINE
  5
92F
330
1F
100
AcDbEntity
  8
0
100
AcDbLine
 10
2267.920897978859
 20
1675.87028217401
 30
0.0
 11
2267.920897978859
 21
1673.966282174009
 31
0.0
  0
LINE
  5
930
330
1F
100
AcDbEntity
  8
0
100
AcDbLine
 10
2237.520897978857
 20
1675.87028217401
 30
0.0
 11
2237.520897978856
 21
1673.966282174009
 31
0.0
  0
LINE
  5
931
330
1F
100
AcDbEntity
  8
0
100
AcDbLine
 10
2267.920897978859
 20
1673.966282174009
 30
0.0
 11
2237.520897978857
 21
1673.966282174009
 31
0.0
  0
LINE
  5
932
330
1F
100
AcDbEntity
  8
0
100
AcDbLine
 10
2237.520897978857
 20
1671.530282174009
 30
0.0
 11
2267.920897978859
 21
1671.530282174009
 31
0.0
  0
LINE
  5
933
330
1F
100
AcDbEntity
  8
0
100
AcDbLine
 10
2267.920897978859
 20
1671.530282174009
 30
0.0
 11
2267.920897978859
 21
1669.626282174009
 31
0.0
  0
LINE
  5
934
330
1F
100
AcDbEntity
  8
0
100
AcDbLine
 10
2237.520897978857
 20
1671.530282174009
 30
0.0
 11
2237.520897978856
 21
1669.626282174009
 31
0.0
  0
LINE
  5
935
330
1F
100
AcDbEntity
  8
0
100
AcDbLine
 10
2267.920897978859
 20
1669.626282174009
 30
0.0
 11
2237.520897978857
 21
1669.626282174009
 31
0.0
  0
LINE
  5
936
330
1F
100
AcDbEntity
  8
0
100
AcDbLine
 10
2237.520897978857
 20
1667.19028217401
 30
0.0
 11
2267.920897978859
 21
1667.19028217401
 31
0.0
  0
LINE
  5
937
330
1F
100
AcDbEntity
  8
0
100
AcDbLine
 10
2267.920897978859
 20
1667.19028217401
 30
0.0
 11
2267.920897978859
 21
1665.286282174009
 31
0.0
  0
LINE
  5
938
330
1F
100
AcDbEntity
  8
0
100
AcDbLine
 10
2237.520897978857
 20
1667.19028217401
 30
0.0
 11
2237.520897978856
 21
1665.286282174009
 31
0.0
  0
LINE
  5
939
330
1F
100
AcDbEntity
  8
0
100
AcDbLine
 10
2267.920897978859
 20
1665.286282174009
 30
0.0
 11
2237.520897978857
 21
1665.286282174009
 31
0.0
  0
LINE
  5
93A
330
1F
100
AcDbEntity
  8
0
100
AcDbLine
 10
2237.520897978857
 20
1662.850282174009
 30
0.0
 11
2267.920897978859
 21
1662.850282174009
 31
0.0
  0
LINE
  5
93B
330
1F
100
AcDbEntity
  8
0
100
AcDbLine
 10
2267.920897978859
 20
1662.850282174009
 30
0.0
 11
2267.920897978859
 21
1660.946282174009
 31
0.0
  0
LINE
  5
93C
330
1F
100
AcDbEntity
  8
0
100
AcDbLine
 10
2237.520897978857
 20
1662.850282174009
 30
0.0
 11
2237.520897978856
 21
1660.946282174009
 31
0.0
  0
LINE
  5
93D
330
1F
100
AcDbEntity
  8
0
100
AcDbLine
 10
2267.920897978859
 20
1660.946282174009
 30
0.0
 11
2237.520897978857
 21
1660.946282174009
 31
0.0
  0
LINE
  5
93E
330
1F
100
AcDbEntity
  8
0
100
AcDbLine
 10
2237.520897978857
 20
1658.510282174009
 30
0.0
 11
2267.920897978859
 21
1658.510282174009
 31
0.0
  0
LINE
  5
93F
330
1F
100
AcDbEntity
  8
0
100
AcDbLine
 10
2267.920897978859
 20
1658.510282174009
 30
0.0
 11
2267.920897978859
 21
1656.606282174008
 31
0.0
  0
LINE
  5
940
330
1F
100
AcDbEntity
  8
0
100
AcDbLine
 10
2237.520897978857
 20
1658.510282174009
 30
0.0
 11
2237.520897978856
 21
1656.606282174008
 31
0.0
  0
LINE
  5
941
330
1F
100
AcDbEntity
  8
0
100
AcDbLine
 10
2267.920897978859
 20
1656.606282174008
 30
0.0
 11
2237.520897978857
 21
1656.606282174008
 31
0.0
  0
LINE
  5
942
330
1F
100
AcDbEntity
  8
0
100
AcDbLine
 10
2237.520897978857
 20
1654.170282174009
 30
0.0
 11
2267.920897978859
 21
1654.170282174009
 31
0.0
  0
LINE
  5
943
330
1F
100
AcDbEntity
  8
0
100
AcDbLine
 10
2267.920897978859
 20
1654.170282174009
 30
0.0
 11
2267.920897978859
 21
1652.266282174007
 31
0.0
  0
LINE
  5
944
330
1F
100
AcDbEntity
  8
0
100
AcDbLine
 10
2237.520897978857
 20
1654.170282174009
 30
0.0
 11
2237.520897978856
 21
1652.266282174007
 31
0.0
  0
LINE
  5
945
330
1F
100
AcDbEntity
  8
0
100
AcDbLine
 10
2267.920897978859
 20
1652.266282174007
 30
0.0
 11
2237.520897978857
 21
1652.266282174007
 31
0.0
  0
LINE
  5
946
330
1F
100
AcDbEntity
  8
0
100
AcDbLine
 10
2237.520897978857
 20
1649.830282174007
 30
0.0
 11
2267.920897978859
 21
1649.830282174007
 31
0.0
  0
LINE
  5
947
330
1F
100
AcDbEntity
  8
0
100
AcDbLine
 10
2267.920897978859
 20
1649.830282174007
 30
0.0
 11
2267.920897978859
 21
1647.926282174007
 31
0.0
  0
LINE
  5
948
330
1F
100
AcDbEntity
  8
0
100
AcDbLine
 10
2237.520897978857
 20
1649.830282174007
 30
0.0
 11
2237.520897978856
 21
1647.926282174007
 31
0.0
  0
LINE
  5
949
330
1F
100
AcDbEntity
  8
0
100
AcDbLine
 10
2267.920897978859
 20
1647.926282174007
 30
0.0
 11
2237.520897978857
 21
1647.926282174007
 31
0.0
  0
LINE
  5
94A
330
1F
100
AcDbEntity
  8
0
100
AcDbLine
 10
2237.520897978857
 20
1645.490282174008
 30
0.0
 11
2267.920897978859
 21
1645.490282174008
 31
0.0
  0
LINE
  5
94B
330
1F
100
AcDbEntity
  8
0
100
AcDbLine
 10
2267.920897978859
 20
1645.490282174008
 30
0.0
 11
2267.920897978859
 21
1643.586282174008
 31
0.0
  0
LINE
  5
94C
330
1F
100
AcDbEntity
  8
0
100
AcDbLine
 10
2237.520897978857
 20
1645.490282174008
 30
0.0
 11
2237.520897978856
 21
1643.586282174008
 31
0.0
  0
LINE
  5
94D
330
1F
100
AcDbEntity
  8
0
100
AcDbLine
 10
2267.920897978859
 20
1643.586282174008
 30
0.0
 11
2237.520897978857
 21
1643.586282174008
 31
0.0
  0
LINE
  5
94E
330
1F
100
AcDbEntity
  8
0
100
AcDbLine
 10
2237.520897978857
 20
1684.548282174054
 30
0.0
 11
2267.920897978859
 21
1684.548282174054
 31
0.0
  0
LINE
  5
94F
330
1F
100
AcDbEntity
  8
0
100
AcDbLine
 10
2267.920897978859
 20
1684.548282174054
 30
0.0
 11
2267.920897978859
 21
1682.644282174055
 31
0.0
  0
LINE
  5
950
330
1F
100
AcDbEntity
  8
0
100
AcDbLine
 10
2237.520897978857
 20
1684.548282174054
 30
0.0
 11
2237.520897978856
 21
1682.644282174055
 31
0.0
  0
LINE
  5
951
330
1F
100
AcDbEntity
  8
0
100
AcDbLine
 10
2267.920897978859
 20
1682.644282174055
 30
0.0
 11
2237.520897978857
 21
1682.644282174055
 31
0.0
  0
LWPOLYLINE
  5
952
330
1F
100
AcDbEntity
  8
0
100
AcDbPolyline
 90
        2
 70
     0
 43
0.0
 10
2104.194936696217
 20
1803.591807754141
 10
2134.194936696218
 20
1803.591807754141
  0
LWPOLYLINE
  5
953
330
1F
100
AcDbEntity
  8
0
100
AcDbPolyline
 90
        2
 70
     0
 43
0.0
 10
2164.194936696217
 20
1803.591807754141
 10
2194.194936696217
 20
1803.591807754141
  0
LWPOLYLINE
  5
954
330
1F
100
AcDbEntity
  8
0
100
AcDbPolyline
 90
        2
 70
     0
 43
0.0
 10
2224.194936696217
 20
1803.591807754141
 10
2254.19493669622
 20
1803.591807754141
  0
LINE
  5
955
102
{ACAD_REACTORS
330
C7B
102
}
330
1F
100
AcDbEntity
  8
0
100
AcDbLine
 10
2284.194936696218
 20
1803.591807754141
 30
0.0
 11
2297.094936696218
 21
1803.591807754141
 31
0.0
  0
LINE
  5
956
330
1F
100
AcDbEntity
  8
0
100
AcDbLine
 10
2061.294936696217
 20
1803.591807754141
 30
0.0
 11
2074.194936696219
 21
1803.591807754141
 31
0.0
  0
LWPOLYLINE
  5
957
330
1F
100
AcDbEntity
  8
0
100
AcDbPolyline
 90
        2
 70
     0
 43
0.0
 10
2134.194936696218
 20
1805.591807754141
 10
2164.194936696217
 20
1805.591807754141
  0
LWPOLYLINE
  5
958
330
1F
100
AcDbEntity
  8
0
100
AcDbPolyline
 90
        2
 70
     0
 43
0.0
 10
2194.194936696217
 20
1805.591807754141
 10
2224.194936696217
 20
1805.591807754141
  0
LWPOLYLINE
  5
959
330
1F
100
AcDbEntity
  8
0
100
AcDbPolyline
 90
        3
 70
     0
 43
0.0
 10
2254.19493669622
 20
1805.591807754141
 10
2272.094936696218
 20
1805.591807754141
 10
2284.194936696218
 20
1805.591807754141
  0
LWPOLYLINE
  5
95A
330
1F
100
AcDbEntity
  8
0
100
AcDbPolyline
 90
        3
 70
     0
 43
0.0
 10
2074.194936696219
 20
1805.591807754141
 10
2086.294936696217
 20
1805.591807754141
 10
2104.194936696217
 20
1805.591807754141
  0
LINE
  5
95B
330
1F
100
AcDbEntity
  8
0
100
AcDbLine
 10
2164.194936696217
 20
1805.591807754141
 30
0.0
 11
2164.194936696217
 21
1803.591807754141
 31
0.0
  0
LINE
  5
95C
330
1F
100
AcDbEntity
  8
0
100
AcDbLine
 10
2134.194936696218
 20
1805.591807754141
 30
0.0
 11
2134.194936696218
 21
1803.591807754141
 31
0.0
  0
LINE
  5
95D
330
1F
100
AcDbEntity
  8
0
100
AcDbLine
 10
2104.194936696217
 20
1805.591807754141
 30
0.0
 11
2104.194936696217
 21
1803.591807754141
 31
0.0
  0
LINE
  5
95E
102
{ACAD_REACTORS
330
C78
102
}
330
1F
100
AcDbEntity
  8
0
100
AcDbLine
 10
2074.194936696219
 20
1805.591807754141
 30
0.0
 11
2074.194936696219
 21
1803.591807754141
 31
0.0
  0
LINE
  5
95F
330
1F
100
AcDbEntity
  8
0
100
AcDbLine
 10
2194.194936696217
 20
1805.591807754141
 30
0.0
 11
2194.194936696217
 21
1803.591807754141
 31
0.0
  0
LINE
  5
960
330
1F
100
AcDbEntity
  8
0
100
AcDbLine
 10
2224.194936696217
 20
1805.591807754141
 30
0.0
 11
2224.194936696217
 21
1803.591807754141
 31
0.0
  0
LINE
  5
961
330
1F
100
AcDbEntity
  8
0
100
AcDbLine
 10
2254.19493669622
 20
1805.591807754141
 30
0.0
 11
2254.19493669622
 21
1803.591807754141
 31
0.0
  0
LINE
  5
962
330
1F
100
AcDbEntity
  8
0
100
AcDbLine
 10
2284.194936696218
 20
1805.591807754141
 30
0.0
 11
2284.194936696218
 21
1803.591807754141
 31
0.0
  0
LINE
  5
963
102
{ACAD_REACTORS
330
C7B
102
}
330
1F
100
AcDbEntity
  8
0
100
AcDbLine
 10
2061.294936696217
 20
1803.591807754141
 30
0.0
 11
2061.294936696217
 21
1755.591807754141
 31
0.0
  0
LWPOLYLINE
  5
964
330
1F
100
AcDbEntity
  8
0
100
AcDbPolyline
 90
        2
 70
     0
 43
0.0
 10
2104.194936696217
 20
1755.591807754141
 10
2134.194936696218
 20
1755.591807754141
  0
LWPOLYLINE
  5
965
330
1F
100
AcDbEntity
  8
0
100
AcDbPolyline
 90
        2
 70
     0
 43
0.0
 10
2164.194936696217
 20
1755.591807754141
 10
2194.194936696217
 20
1755.591807754141
  0
LWPOLYLINE
  5
966
330
1F
100
AcDbEntity
  8
0
100
AcDbPolyline
 90
        2
 70
     0
 43
0.0
 10
2224.194936696217
 20
1755.591807754141
 10
2254.19493669622
 20
1755.591807754141
  0
LINE
  5
967
330
1F
100
AcDbEntity
  8
0
100
AcDbLine
 10
2284.194936696218
 20
1755.591807754141
 30
0.0
 11
2297.094936696218
 21
1755.591807754141
 31
0.0
  0
LINE
  5
968
330
1F
100
AcDbEntity
  8
0
100
AcDbLine
 10
2061.294936696217
 20
1755.591807754141
 30
0.0
 11
2074.194936696219
 21
1755.591807754141
 31
0.0
  0
LWPOLYLINE
  5
969
330
1F
100
AcDbEntity
  8
0
100
AcDbPolyline
 90
        2
 70
     0
 43
0.0
 10
2134.194936696218
 20
1753.591807754141
 10
2164.194936696217
 20
1753.591807754141
  0
LWPOLYLINE
  5
96A
330
1F
100
AcDbEntity
  8
0
100
AcDbPolyline
 90
        2
 70
     0
 43
0.0
 10
2194.194936696217
 20
1753.591807754141
 10
2224.194936696217
 20
1753.591807754141
  0
LWPOLYLINE
  5
96B
330
1F
100
AcDbEntity
  8
0
100
AcDbPolyline
 90
        3
 70
     0
 43
0.0
 10
2254.19493669622
 20
1753.591807754141
 10
2272.094936696218
 20
1753.591807754141
 10
2284.194936696218
 20
1753.591807754141
  0
LWPOLYLINE
  5
96C
330
1F
100
AcDbEntity
  8
0
100
AcDbPolyline
 90
        3
 70
     0
 43
0.0
 10
2074.194936696219
 20
1753.591807754141
 10
2086.294936696217
 20
1753.591807754141
 10
2104.194936696217
 20
1753.591807754141
  0
LINE
  5
96D
330
1F
100
AcDbEntity
  8
0
100
AcDbLine
 10
2164.194936696217
 20
1753.591807754141
 30
0.0
 11
2164.194936696217
 21
1755.591807754141
 31
0.0
  0
LINE
  5
96E
330
1F
100
AcDbEntity
  8
0
100
AcDbLine
 10
2134.194936696218
 20
1753.591807754141
 30
0.0
 11
2134.194936696218
 21
1755.591807754141
 31
0.0
  0
LINE
  5
96F
330
1F
100
AcDbEntity
  8
0
100
AcDbLine
 10
2104.194936696217
 20
1753.591807754141
 30
0.0
 11
2104.194936696217
 21
1755.591807754141
 31
0.0
  0
LINE
  5
970
102
{ACAD_REACTORS
330
C78
102
}
330
1F
100
AcDbEntity
  8
0
100
AcDbLine
 10
2074.194936696219
 20
1753.591807754141
 30
0.0
 11
2074.194936696219
 21
1755.591807754141
 31
0.0
  0
LINE
  5
971
330
1F
100
AcDbEntity
  8
0
100
AcDbLine
 10
2194.194936696217
 20
1753.591807754141
 30
0.0
 11
2194.194936696217
 21
1755.591807754141
 31
0.0
  0
LINE
  5
972
330
1F
100
AcDbEntity
  8
0
100
AcDbLine
 10
2224.194936696217
 20
1753.591807754141
 30
0.0
 11
2224.194936696217
 21
1755.591807754141
 31
0.0
  0
LINE
  5
973
330
1F
100
AcDbEntity
  8
0
100
AcDbLine
 10
2254.19493669622
 20
1753.591807754141
 30
0.0
 11
2254.19493669622
 21
1755.591807754141
 31
0.0
  0
LINE
  5
974
330
1F
100
AcDbEntity
  8
0
100
AcDbLine
 10
2284.194936696218
 20
1753.591807754141
 30
0.0
 11
2284.194936696218
 21
1755.591807754141
 31
0.0
  0
LINE
  5
975
330
1F
100
AcDbEntity
  8
0
100
AcDbLine
 10
2297.178272040012
 20
1803.591807754141
 30
0.0
 11
2297.094936696218
 21
1755.591807754141
 31
0.0
  0
LWPOLYLINE
  5
976
330
1F
100
AcDbEntity
  8
0
100
AcDbPolyline
 90
        2
 70
     0
 43
0.0
 10
2104.15975052906
 20
1749.83354291252
 10
2134.159750529061
 20
1749.83354291252
  0
LWPOLYLINE
  5
977
330
1F
100
AcDbEntity
  8
0
100
AcDbPolyline
 90
        2
 70
     0
 43
0.0
 10
2164.15975052906
 20
1749.83354291252
 10
2194.15975052906
 20
1749.83354291252
  0
LWPOLYLINE
  5
978
330
1F
100
AcDbEntity
  8
0
100
AcDbPolyline
 90
        2
 70
     0
 43
0.0
 10
2224.15975052906
 20
1749.83354291252
 10
2254.159750529062
 20
1749.83354291252
  0
LINE
  5
979
330
1F
100
AcDbEntity
  8
0
100
AcDbLine
 10
2284.159750529061
 20
1749.83354291252
 30
0.0
 11
2297.059750529061
 21
1749.83354291252
 31
0.0
  0
LINE
  5
97A
330
1F
100
AcDbEntity
  8
0
100
AcDbLine
 10
2061.25975052906
 20
1749.83354291252
 30
0.0
 11
2074.159750529062
 21
1749.83354291252
 31
0.0
  0
LWPOLYLINE
  5
97B
330
1F
100
AcDbEntity
  8
0
100
AcDbPolyline
 90
        2
 70
     0
 43
0.0
 10
2134.159750529061
 20
1751.833542912519
 10
2164.15975052906
 20
1751.833542912519
  0
LWPOLYLINE
  5
97C
330
1F
100
AcDbEntity
  8
0
100
AcDbPolyline
 90
        2
 70
     0
 43
0.0
 10
2194.15975052906
 20
1751.833542912519
 10
2224.15975052906
 20
1751.833542912519
  0
LWPOLYLINE
  5
97D
330
1F
100
AcDbEntity
  8
0
100
AcDbPolyline
 90
        3
 70
     0
 43
0.0
 10
2254.159750529062
 20
1751.833542912519
 10
2272.059750529061
 20
1751.833542912519
 10
2284.159750529061
 20
1751.833542912519
  0
LWPOLYLINE
  5
97E
330
1F
100
AcDbEntity
  8
0
100
AcDbPolyline
 90
        3
 70
     0
 43
0.0
 10
2074.159750529062
 20
1751.833542912519
 10
2086.25975052906
 20
1751.833542912519
 10
2104.15975052906
 20
1751.833542912519
  0
LINE
  5
97F
330
1F
100
AcDbEntity
  8
0
100
AcDbLine
 10
2164.15975052906
 20
1751.833542912519
 30
0.0
 11
2164.15975052906
 21
1749.83354291252
 31
0.0
  0
LINE
  5
980
330
1F
100
AcDbEntity
  8
0
100
AcDbLine
 10
2134.159750529061
 20
1751.833542912519
 30
0.0
 11
2134.159750529061
 21
1749.83354291252
 31
0.0
  0
LINE
  5
981
330
1F
100
AcDbEntity
  8
0
100
AcDbLine
 10
2104.15975052906
 20
1751.833542912519
 30
0.0
 11
2104.15975052906
 21
1749.83354291252
 31
0.0
  0
LINE
  5
982
330
1F
100
AcDbEntity
  8
0
100
AcDbLine
 10
2074.159750529062
 20
1751.833542912519
 30
0.0
 11
2074.159750529062
 21
1749.83354291252
 31
0.0
  0
LINE
  5
983
330
1F
100
AcDbEntity
  8
0
100
AcDbLine
 10
2194.15975052906
 20
1751.833542912519
 30
0.0
 11
2194.15975052906
 21
1749.83354291252
 31
0.0
  0
LINE
  5
984
330
1F
100
AcDbEntity
  8
0
100
AcDbLine
 10
2224.15975052906
 20
1751.833542912519
 30
0.0
 11
2224.15975052906
 21
1749.83354291252
 31
0.0
  0
LINE
  5
985
330
1F
100
AcDbEntity
  8
0
100
AcDbLine
 10
2254.159750529062
 20
1751.833542912519
 30
0.0
 11
2254.159750529062
 21
1749.83354291252
 31
0.0
  0
LINE
  5
986
330
1F
100
AcDbEntity
  8
0
100
AcDbLine
 10
2284.159750529061
 20
1751.833542912519
 30
0.0
 11
2284.159750529061
 21
1749.83354291252
 31
0.0
  0
LINE
  5
987
330
1F
100
AcDbEntity
  8
0
100
AcDbLine
 10
2061.25975052906
 20
1749.83354291252
 30
0.0
 11
2061.25975052906
 21
1701.83354291252
 31
0.0
  0
LWPOLYLINE
  5
988
330
1F
100
AcDbEntity
  8
0
100
AcDbPolyline
 90
        2
 70
     0
 43
0.0
 10
2104.15975052906
 20
1701.83354291252
 10
2134.159750529061
 20
1701.83354291252
  0
LWPOLYLINE
  5
989
330
1F
100
AcDbEntity
  8
0
100
AcDbPolyline
 90
        2
 70
     0
 43
0.0
 10
2164.15975052906
 20
1701.83354291252
 10
2194.15975052906
 20
1701.83354291252
  0
LWPOLYLINE
  5
98A
330
1F
100
AcDbEntity
  8
0
100
AcDbPolyline
 90
        2
 70
     0
 43
0.0
 10
2224.15975052906
 20
1701.83354291252
 10
2254.159750529062
 20
1701.83354291252
  0
LINE
  5
98B
330
1F
100
AcDbEntity
  8
0
100
AcDbLine
 10
2284.159750529061
 20
1701.83354291252
 30
0.0
 11
2297.059750529061
 21
1701.83354291252
 31
0.0
  0
LINE
  5
98C
330
1F
100
AcDbEntity
  8
0
100
AcDbLine
 10
2061.25975052906
 20
1701.83354291252
 30
0.0
 11
2074.159750529062
 21
1701.83354291252
 31
0.0
  0
LWPOLYLINE
  5
98D
330
1F
100
AcDbEntity
  8
0
100
AcDbPolyline
 90
        2
 70
     0
 43
0.0
 10
2134.159750529061
 20
1699.83354291252
 10
2164.15975052906
 20
1699.83354291252
  0
LWPOLYLINE
  5
98E
330
1F
100
AcDbEntity
  8
0
100
AcDbPolyline
 90
        2
 70
     0
 43
0.0
 10
2194.15975052906
 20
1699.83354291252
 10
2224.15975052906
 20
1699.83354291252
  0
LWPOLYLINE
  5
98F
330
1F
100
AcDbEntity
  8
0
100
AcDbPolyline
 90
        3
 70
     0
 43
0.0
 10
2254.159750529062
 20
1699.83354291252
 10
2272.059750529061
 20
1699.83354291252
 10
2284.159750529061
 20
1699.83354291252
  0
LWPOLYLINE
  5
990
330
1F
100
AcDbEntity
  8
0
100
AcDbPolyline
 90
        3
 70
     0
 43
0.0
 10
2074.159750529062
 20
1699.83354291252
 10
2086.25975052906
 20
1699.83354291252
 10
2104.15975052906
 20
1699.83354291252
  0
LINE
  5
991
330
1F
100
AcDbEntity
  8
0
100
AcDbLine
 10
2164.15975052906
 20
1699.83354291252
 30
0.0
 11
2164.15975052906
 21
1701.83354291252
 31
0.0
  0
LINE
  5
992
330
1F
100
AcDbEntity
  8
0
100
AcDbLine
 10
2134.159750529061
 20
1699.83354291252
 30
0.0
 11
2134.159750529061
 21
1701.83354291252
 31
0.0
  0
LINE
  5
993
330
1F
100
AcDbEntity
  8
0
100
AcDbLine
 10
2104.15975052906
 20
1699.83354291252
 30
0.0
 11
2104.15975052906
 21
1701.83354291252
 31
0.0
  0
LINE
  5
994
330
1F
100
AcDbEntity
  8
0
100
AcDbLine
 10
2074.159750529062
 20
1699.83354291252
 30
0.0
 11
2074.159750529062
 21
1701.83354291252
 31
0.0
  0
LINE
  5
995
330
1F
100
AcDbEntity
  8
0
100
AcDbLine
 10
2194.15975052906
 20
1699.83354291252
 30
0.0
 11
2194.15975052906
 21
1701.83354291252
 31
0.0
  0
LINE
  5
996
330
1F
100
AcDbEntity
  8
0
100
AcDbLine
 10
2224.15975052906
 20
1699.83354291252
 30
0.0
 11
2224.15975052906
 21
1701.83354291252
 31
0.0
  0
LINE
  5
997
330
1F
100
AcDbEntity
  8
0
100
AcDbLine
 10
2254.159750529062
 20
1699.83354291252
 30
0.0
 11
2254.159750529062
 21
1701.83354291252
 31
0.0
  0
LINE
  5
998
330
1F
100
AcDbEntity
  8
0
100
AcDbLine
 10
2284.159750529061
 20
1699.83354291252
 30
0.0
 11
2284.159750529061
 21
1701.83354291252
 31
0.0
  0
LINE
  5
999
330
1F
100
AcDbEntity
  8
0
100
AcDbLine
 10
2297.143085872855
 20
1749.83354291252
 30
0.0
 11
2297.059750529061
 21
1701.83354291252
 31
0.0
  0
LWPOLYLINE
  5
99A
330
1F
100
AcDbEntity
  8
0
100
AcDbPolyline
 90
        2
 70
     0
 43
0.0
 10
2097.901592871164
 20
1626.050349250143
 10
2127.901592871165
 20
1626.050349250143
  0
LWPOLYLINE
  5
99B
330
1F
100
AcDbEntity
  8
0
100
AcDbPolyline
 90
        2
 70
     0
 43
0.0
 10
2157.901592871165
 20
1626.050349250143
 10
2187.901592871165
 20
1626.050349250143
  0
LWPOLYLINE
  5
99C
330
1F
100
AcDbEntity
  8
0
100
AcDbPolyline
 90
        2
 70
     0
 43
0.0
 10
2217.901592871164
 20
1626.050349250143
 10
2247.901592871165
 20
1626.050349250143
  0
LINE
  5
99D
330
1F
100
AcDbEntity
  8
0
100
AcDbLine
 10
2277.901592871165
 20
1626.050349250143
 30
0.0
 11
2290.801592871167
 21
1626.050349250143
 31
0.0
  0
LINE
  5
99E
330
1F
100
AcDbEntity
  8
0
100
AcDbLine
 10
2055.001592871166
 20
1563.550349250143
 30
0.0
 11
2055.001592871166
 21
1569.800349250143
 31
0.0
  0
LINE
  5
99F
330
1F
100
AcDbEntity
  8
0
100
AcDbLine
 10
2055.001592871166
 20
1584.800349250143
 30
0.0
 11
2055.001592871166
 21
1604.800349250143
 31
0.0
  0
LINE
  5
9A0
330
1F
100
AcDbEntity
  8
0
100
AcDbLine
 10
2055.001592871166
 20
1619.800349250143
 30
0.0
 11
2055.001592871166
 21
1626.050349250143
 31
0.0
  0
LINE
  5
9A1
102
{ACAD_REACTORS
330
CB3
102
}
330
1F
100
AcDbEntity
  8
0
100
AcDbLine
 10
2055.001592871166
 20
1626.050349250143
 30
0.0
 11
2067.901592871167
 21
1626.050349250143
 31
0.0
  0
LWPOLYLINE
  5
9A2
330
1F
100
AcDbEntity
  8
0
100
AcDbPolyline
 90
        2
 70
     0
 43
0.0
 10
2127.901592871165
 20
1624.050349250143
 10
2157.901592871165
 20
1624.050349250143
  0
LWPOLYLINE
  5
9A3
330
1F
100
AcDbEntity
  8
0
100
AcDbPolyline
 90
        2
 70
     0
 43
0.0
 10
2187.901592871165
 20
1624.050349250143
 10
2217.901592871164
 20
1624.050349250143
  0
LWPOLYLINE
  5
9A4
330
1F
100
AcDbEntity
  8
0
100
AcDbPolyline
 90
        3
 70
     0
 43
0.0
 10
2247.901592871165
 20
1624.050349250143
 10
2265.801592871167
 20
1624.050349250143
 10
2277.901592871165
 20
1624.050349250143
  0
LWPOLYLINE
  5
9A5
330
1F
100
AcDbEntity
  8
0
100
AcDbPolyline
 90
        2
 70
     0
 43
0.0
 10
2057.001592871166
 20
1569.800349250143
 10
2057.001592871166
 20
1584.800349250143
  0
LWPOLYLINE
  5
9A6
330
1F
100
AcDbEntity
  8
0
100
AcDbPolyline
 90
        3
 70
     0
 43
0.0
 10
2057.001592871166
 20
1604.800349250143
 10
2057.001592871166
 20
1616.050349250143
 10
2057.001592871166
 20
1619.800349250143
  0
LWPOLYLINE
  5
9A7
330
1F
100
AcDbEntity
  8
0
100
AcDbPolyline
 90
        3
 70
     0
 43
0.0
 10
2067.901592871167
 20
1624.050349250143
 10
2080.001592871166
 20
1624.050349250143
 10
2097.901592871164
 20
1624.050349250143
  0
LINE
  5
9A8
330
1F
100
AcDbEntity
  8
0
100
AcDbLine
 10
2157.901592871165
 20
1624.050349250143
 30
0.0
 11
2157.901592871165
 21
1626.050349250143
 31
0.0
  0
LINE
  5
9A9
330
1F
100
AcDbEntity
  8
0
100
AcDbLine
 10
2127.901592871165
 20
1624.050349250143
 30
0.0
 11
2127.901592871165
 21
1626.050349250143
 31
0.0
  0
LINE
  5
9AA
330
1F
100
AcDbEntity
  8
0
100
AcDbLine
 10
2097.901592871164
 20
1624.050349250143
 30
0.0
 11
2097.901592871164
 21
1626.050349250143
 31
0.0
  0
LINE
  5
9AB
330
1F
100
AcDbEntity
  8
0
100
AcDbLine
 10
2067.901592871167
 20
1624.050349250143
 30
0.0
 11
2067.901592871167
 21
1626.050349250143
 31
0.0
  0
LINE
  5
9AC
330
1F
100
AcDbEntity
  8
0
100
AcDbLine
 10
2187.901592871165
 20
1624.050349250143
 30
0.0
 11
2187.901592871165
 21
1626.050349250143
 31
0.0
  0
LINE
  5
9AD
330
1F
100
AcDbEntity
  8
0
100
AcDbLine
 10
2217.901592871164
 20
1624.050349250143
 30
0.0
 11
2217.901592871164
 21
1626.050349250143
 31
0.0
  0
LINE
  5
9AE
330
1F
100
AcDbEntity
  8
0
100
AcDbLine
 10
2247.901592871165
 20
1624.050349250143
 30
0.0
 11
2247.901592871165
 21
1626.050349250143
 31
0.0
  0
LINE
  5
9AF
330
1F
100
AcDbEntity
  8
0
100
AcDbLine
 10
2277.901592871165
 20
1624.050349250143
 30
0.0
 11
2277.901592871165
 21
1626.050349250143
 31
0.0
  0
LINE
  5
9B0
330
1F
100
AcDbEntity
  8
0
100
AcDbLine
 10
2055.001592871166
 20
1584.800349250143
 30
0.0
 11
2057.001592871166
 21
1584.800349250143
 31
0.0
  0
LINE
  5
9B1
330
1F
100
AcDbEntity
  8
0
100
AcDbLine
 10
2055.001592871166
 20
1569.800349250143
 30
0.0
 11
2057.001592871166
 21
1569.800349250143
 31
0.0
  0
LINE
  5
9B2
330
1F
100
AcDbEntity
  8
0
100
AcDbLine
 10
2055.001592871166
 20
1604.800349250143
 30
0.0
 11
2057.001592871166
 21
1604.800349250143
 31
0.0
  0
LINE
  5
9B3
330
1F
100
AcDbEntity
  8
0
100
AcDbLine
 10
2055.001592871166
 20
1619.800349250143
 30
0.0
 11
2057.001592871166
 21
1619.800349250143
 31
0.0
  0
LWPOLYLINE
  5
9B4
330
1F
100
AcDbEntity
  8
0
100
AcDbPolyline
 90
        2
 70
     0
 43
0.0
 10
2097.901592871164
 20
1563.550349250143
 10
2127.901592871165
 20
1563.550349250143
  0
LWPOLYLINE
  5
9B5
330
1F
100
AcDbEntity
  8
0
100
AcDbPolyline
 90
        2
 70
     0
 43
0.0
 10
2157.901592871165
 20
1563.550349250143
 10
2187.901592871165
 20
1563.550349250143
  0
LWPOLYLINE
  5
9B6
330
1F
100
AcDbEntity
  8
0
100
AcDbPolyline
 90
        2
 70
     0
 43
0.0
 10
2217.901592871164
 20
1563.550349250143
 10
2247.901592871165
 20
1563.550349250143
  0
LINE
  5
9B7
330
1F
100
AcDbEntity
  8
0
100
AcDbLine
 10
2277.901592871165
 20
1563.550349250143
 30
0.0
 11
2290.801592871167
 21
1563.550349250143
 31
0.0
  0
LINE
  5
9B8
102
{ACAD_REACTORS
330
CB3
102
}
330
1F
100
AcDbEntity
  8
0
100
AcDbLine
 10
2055.001592871166
 20
1563.550349250143
 30
0.0
 11
2067.901592871167
 21
1563.550349250143
 31
0.0
  0
LWPOLYLINE
  5
9B9
330
1F
100
AcDbEntity
  8
0
100
AcDbPolyline
 90
        2
 70
     0
 43
0.0
 10
2127.901592871165
 20
1565.550349250143
 10
2157.901592871165
 20
1565.550349250143
  0
LWPOLYLINE
  5
9BA
330
1F
100
AcDbEntity
  8
0
100
AcDbPolyline
 90
        2
 70
     0
 43
0.0
 10
2187.901592871165
 20
1565.550349250143
 10
2217.901592871164
 20
1565.550349250143
  0
LWPOLYLINE
  5
9BB
330
1F
100
AcDbEntity
  8
0
100
AcDbPolyline
 90
        3
 70
     0
 43
0.0
 10
2247.901592871165
 20
1565.550349250143
 10
2265.801592871167
 20
1565.550349250143
 10
2277.901592871165
 20
1565.550349250143
  0
LWPOLYLINE
  5
9BC
330
1F
100
AcDbEntity
  8
0
100
AcDbPolyline
 90
        3
 70
     0
 43
0.0
 10
2067.901592871167
 20
1565.550349250143
 10
2080.001592871166
 20
1565.550349250143
 10
2097.901592871164
 20
1565.550349250143
  0
LINE
  5
9BD
330
1F
100
AcDbEntity
  8
0
100
AcDbLine
 10
2157.901592871165
 20
1565.550349250143
 30
0.0
 11
2157.901592871165
 21
1563.550349250143
 31
0.0
  0
LINE
  5
9BE
330
1F
100
AcDbEntity
  8
0
100
AcDbLine
 10
2127.901592871165
 20
1565.550349250143
 30
0.0
 11
2127.901592871165
 21
1563.550349250143
 31
0.0
  0
LINE
  5
9BF
330
1F
100
AcDbEntity
  8
0
100
AcDbLine
 10
2097.901592871164
 20
1565.550349250143
 30
0.0
 11
2097.901592871164
 21
1563.550349250143
 31
0.0
  0
LINE
  5
9C0
330
1F
100
AcDbEntity
  8
0
100
AcDbLine
 10
2067.901592871167
 20
1565.550349250143
 30
0.0
 11
2067.901592871167
 21
1563.550349250143
 31
0.0
  0
LINE
  5
9C1
330
1F
100
AcDbEntity
  8
0
100
AcDbLine
 10
2187.901592871165
 20
1565.550349250143
 30
0.0
 11
2187.901592871165
 21
1563.550349250143
 31
0.0
  0
LINE
  5
9C2
330
1F
100
AcDbEntity
  8
0
100
AcDbLine
 10
2217.901592871164
 20
1565.550349250143
 30
0.0
 11
2217.901592871164
 21
1563.550349250143
 31
0.0
  0
LINE
  5
9C3
330
1F
100
AcDbEntity
  8
0
100
AcDbLine
 10
2247.901592871165
 20
1565.550349250143
 30
0.0
 11
2247.901592871165
 21
1563.550349250143
 31
0.0
  0
LINE
  5
9C4
330
1F
100
AcDbEntity
  8
0
100
AcDbLine
 10
2277.901592871165
 20
1565.550349250143
 30
0.0
 11
2277.901592871165
 21
1563.550349250143
 31
0.0
  0
LINE
  5
9C5
330
1F
100
AcDbEntity
  8
0
100
AcDbLine
 10
2290.884928214961
 20
1563.550349250143
 30
0.0
 11
2290.884928214961
 21
1569.800349250143
 31
0.0
  0
LINE
  5
9C6
330
1F
100
AcDbEntity
  8
0
100
AcDbLine
 10
2290.884928214961
 20
1584.800349250143
 30
0.0
 11
2290.884928214961
 21
1604.800349250143
 31
0.0
  0
LINE
  5
9C7
330
1F
100
AcDbEntity
  8
0
100
AcDbLine
 10
2290.884928214961
 20
1619.800349250143
 30
0.0
 11
2290.884928214961
 21
1626.050349250143
 31
0.0
  0
LWPOLYLINE
  5
9C8
330
1F
100
AcDbEntity
  8
0
100
AcDbPolyline
 90
        2
 70
     0
 43
0.0
 10
2288.884928214962
 20
1569.800349250143
 10
2288.884928214962
 20
1584.800349250143
  0
LWPOLYLINE
  5
9C9
330
1F
100
AcDbEntity
  8
0
100
AcDbPolyline
 90
        3
 70
     0
 43
0.0
 10
2288.884928214962
 20
1604.800349250143
 10
2288.884928214962
 20
1616.050349250143
 10
2288.884928214962
 20
1619.800349250143
  0
LINE
  5
9CA
330
1F
100
AcDbEntity
  8
0
100
AcDbLine
 10
2290.884928214961
 20
1584.800349250143
 30
0.0
 11
2288.884928214962
 21
1584.800349250143
 31
0.0
  0
LINE
  5
9CB
330
1F
100
AcDbEntity
  8
0
100
AcDbLine
 10
2290.884928214961
 20
1569.800349250143
 30
0.0
 11
2288.884928214962
 21
1569.800349250143
 31
0.0
  0
LINE
  5
9CC
330
1F
100
AcDbEntity
  8
0
100
AcDbLine
 10
2290.884928214961
 20
1604.800349250143
 30
0.0
 11
2288.884928214962
 21
1604.800349250143
 31
0.0
  0
LINE
  5
9CD
330
1F
100
AcDbEntity
  8
0
100
AcDbLine
 10
2290.884928214961
 20
1619.800349250143
 30
0.0
 11
2288.884928214962
 21
1619.800349250143
 31
0.0
  0
LINE
  5
9CE
330
1F
100
AcDbEntity
  8
0
100
AcDbLine
 10
2190.301592871167
 20
1616.075349250143
 30
0.0
 11
2220.701592871168
 21
1616.075349250143
 31
0.0
  0
LINE
  5
9CF
330
1F
100
AcDbEntity
  8
0
100
AcDbLine
 10
2220.701592871168
 20
1616.075349250143
 30
0.0
 11
2220.701592871168
 21
1614.171349250143
 31
0.0
  0
LINE
  5
9D0
330
1F
100
AcDbEntity
  8
0
100
AcDbLine
 10
2190.301592871167
 20
1616.075349250143
 30
0.0
 11
2190.301592871166
 21
1614.171349250143
 31
0.0
  0
LINE
  5
9D1
330
1F
100
AcDbEntity
  8
0
100
AcDbLine
 10
2220.701592871168
 20
1614.171349250143
 30
0.0
 11
2190.301592871167
 21
1614.171349250143
 31
0.0
  0
LWPOLYLINE
  5
9D2
330
1F
100
AcDbEntity
  8
0
100
AcDbPolyline
 90
        2
 70
     0
 43
0.0
 10
2057.001592871166
 20
1569.800349250143
 10
2057.001592871166
 20
1584.800349250143
  0
LINE
  5
9D3
330
1F
100
AcDbEntity
  8
0
100
AcDbLine
 10
2079.901592871167
 20
1616.075349250143
 30
0.0
 11
2110.301592871167
 21
1616.075349250143
 31
0.0
  0
LINE
  5
9D4
330
1F
100
AcDbEntity
  8
0
100
AcDbLine
 10
2110.301592871167
 20
1616.075349250143
 30
0.0
 11
2110.301592871167
 21
1614.171349250143
 31
0.0
  0
LINE
  5
9D5
330
1F
100
AcDbEntity
  8
0
100
AcDbLine
 10
2079.901592871167
 20
1616.075349250143
 30
0.0
 11
2079.901592871165
 21
1614.171349250143
 31
0.0
  0
LINE
  5
9D6
330
1F
100
AcDbEntity
  8
0
100
AcDbLine
 10
2110.301592871167
 20
1614.171349250143
 30
0.0
 11
2079.901592871167
 21
1614.171349250143
 31
0.0
  0
LINE
  5
9D7
330
1F
100
AcDbEntity
  8
0
100
AcDbLine
 10
2125.101592871168
 20
1616.077349250144
 30
0.0
 11
2125.101592871168
 21
1614.173349250143
 31
0.0
  0
LINE
  5
9D8
330
1F
100
AcDbEntity
  8
0
100
AcDbLine
 10
2125.101592871168
 20
1616.077349250143
 30
0.0
 11
2155.501592871167
 21
1616.077349250143
 31
0.0
  0
LINE
  5
9D9
330
1F
100
AcDbEntity
  8
0
100
AcDbLine
 10
2155.501592871167
 20
1614.173349250143
 30
0.0
 11
2125.101592871168
 21
1614.173349250143
 31
0.0
  0
LINE
  5
9DA
330
1F
100
AcDbEntity
  8
0
100
AcDbLine
 10
2155.501592871167
 20
1616.077349250143
 30
0.0
 11
2155.501592871167
 21
1614.173349250143
 31
0.0
  0
LINE
  5
9DB
330
1F
100
AcDbEntity
  8
0
100
AcDbLine
 10
2079.901592871167
 20
1611.735349250143
 30
0.0
 11
2110.301592871167
 21
1611.735349250143
 31
0.0
  0
LINE
  5
9DC
330
1F
100
AcDbEntity
  8
0
100
AcDbLine
 10
2110.301592871167
 20
1611.735349250143
 30
0.0
 11
2110.301592871167
 21
1609.831349250143
 31
0.0
  0
LINE
  5
9DD
330
1F
100
AcDbEntity
  8
0
100
AcDbLine
 10
2079.901592871167
 20
1611.735349250143
 30
0.0
 11
2079.901592871165
 21
1609.831349250143
 31
0.0
  0
LINE
  5
9DE
330
1F
100
AcDbEntity
  8
0
100
AcDbLine
 10
2110.301592871167
 20
1609.831349250143
 30
0.0
 11
2079.901592871167
 21
1609.831349250143
 31
0.0
  0
LINE
  5
9DF
330
1F
100
AcDbEntity
  8
0
100
AcDbLine
 10
2079.901592871167
 20
1607.395349250143
 30
0.0
 11
2110.301592871167
 21
1607.395349250143
 31
0.0
  0
LINE
  5
9E0
330
1F
100
AcDbEntity
  8
0
100
AcDbLine
 10
2110.301592871167
 20
1607.395349250143
 30
0.0
 11
2110.301592871167
 21
1605.491349250143
 31
0.0
  0
LINE
  5
9E1
330
1F
100
AcDbEntity
  8
0
100
AcDbLine
 10
2079.901592871167
 20
1607.395349250143
 30
0.0
 11
2079.901592871165
 21
1605.491349250143
 31
0.0
  0
LINE
  5
9E2
330
1F
100
AcDbEntity
  8
0
100
AcDbLine
 10
2110.301592871167
 20
1605.491349250143
 30
0.0
 11
2079.901592871167
 21
1605.491349250143
 31
0.0
  0
LINE
  5
9E3
330
1F
100
AcDbEntity
  8
0
100
AcDbLine
 10
2079.901592871167
 20
1603.055349250142
 30
0.0
 11
2110.301592871167
 21
1603.055349250142
 31
0.0
  0
LINE
  5
9E4
330
1F
100
AcDbEntity
  8
0
100
AcDbLine
 10
2110.301592871167
 20
1603.055349250142
 30
0.0
 11
2110.301592871167
 21
1601.151349250142
 31
0.0
  0
LINE
  5
9E5
330
1F
100
AcDbEntity
  8
0
100
AcDbLine
 10
2079.901592871167
 20
1603.055349250142
 30
0.0
 11
2079.901592871165
 21
1601.151349250142
 31
0.0
  0
LINE
  5
9E6
330
1F
100
AcDbEntity
  8
0
100
AcDbLine
 10
2110.301592871167
 20
1601.151349250142
 30
0.0
 11
2079.901592871167
 21
1601.151349250142
 31
0.0
  0
LINE
  5
9E7
330
1F
100
AcDbEntity
  8
0
100
AcDbLine
 10
2079.901592871167
 20
1598.715349250142
 30
0.0
 11
2110.301592871167
 21
1598.715349250142
 31
0.0
  0
LINE
  5
9E8
330
1F
100
AcDbEntity
  8
0
100
AcDbLine
 10
2110.301592871167
 20
1598.715349250142
 30
0.0
 11
2110.301592871167
 21
1596.811349250142
 31
0.0
  0
LINE
  5
9E9
330
1F
100
AcDbEntity
  8
0
100
AcDbLine
 10
2079.901592871167
 20
1598.715349250142
 30
0.0
 11
2079.901592871165
 21
1596.811349250142
 31
0.0
  0
LINE
  5
9EA
330
1F
100
AcDbEntity
  8
0
100
AcDbLine
 10
2110.301592871167
 20
1596.811349250142
 30
0.0
 11
2079.901592871167
 21
1596.811349250142
 31
0.0
  0
LINE
  5
9EB
330
1F
100
AcDbEntity
  8
0
100
AcDbLine
 10
2079.901592871167
 20
1594.375349250143
 30
0.0
 11
2110.301592871167
 21
1594.375349250143
 31
0.0
  0
LINE
  5
9EC
330
1F
100
AcDbEntity
  8
0
100
AcDbLine
 10
2110.301592871167
 20
1594.375349250143
 30
0.0
 11
2110.301592871167
 21
1592.471349250143
 31
0.0
  0
LINE
  5
9ED
330
1F
100
AcDbEntity
  8
0
100
AcDbLine
 10
2079.901592871167
 20
1594.375349250143
 30
0.0
 11
2079.901592871165
 21
1592.471349250143
 31
0.0
  0
LINE
  5
9EE
330
1F
100
AcDbEntity
  8
0
100
AcDbLine
 10
2110.301592871167
 20
1592.471349250143
 30
0.0
 11
2079.901592871167
 21
1592.471349250143
 31
0.0
  0
LINE
  5
9EF
330
1F
100
AcDbEntity
  8
0
100
AcDbLine
 10
2079.901592871167
 20
1590.035349250143
 30
0.0
 11
2110.301592871167
 21
1590.035349250143
 31
0.0
  0
LINE
  5
9F0
330
1F
100
AcDbEntity
  8
0
100
AcDbLine
 10
2110.301592871167
 20
1590.035349250143
 30
0.0
 11
2110.301592871167
 21
1588.131349250143
 31
0.0
  0
LINE
  5
9F1
330
1F
100
AcDbEntity
  8
0
100
AcDbLine
 10
2079.901592871167
 20
1590.035349250143
 30
0.0
 11
2079.901592871165
 21
1588.131349250143
 31
0.0
  0
LINE
  5
9F2
330
1F
100
AcDbEntity
  8
0
100
AcDbLine
 10
2110.301592871167
 20
1588.131349250143
 30
0.0
 11
2079.901592871167
 21
1588.131349250143
 31
0.0
  0
LINE
  5
9F3
330
1F
100
AcDbEntity
  8
0
100
AcDbLine
 10
2079.901592871167
 20
1585.695349250142
 30
0.0
 11
2110.301592871167
 21
1585.695349250142
 31
0.0
  0
LINE
  5
9F4
330
1F
100
AcDbEntity
  8
0
100
AcDbLine
 10
2110.301592871167
 20
1585.695349250142
 30
0.0
 11
2110.301592871167
 21
1583.791349250142
 31
0.0
  0
LINE
  5
9F5
330
1F
100
AcDbEntity
  8
0
100
AcDbLine
 10
2079.901592871167
 20
1585.695349250142
 30
0.0
 11
2079.901592871165
 21
1583.791349250142
 31
0.0
  0
LINE
  5
9F6
330
1F
100
AcDbEntity
  8
0
100
AcDbLine
 10
2110.301592871167
 20
1583.791349250142
 30
0.0
 11
2079.901592871167
 21
1583.791349250142
 31
0.0
  0
LINE
  5
9F7
330
1F
100
AcDbEntity
  8
0
100
AcDbLine
 10
2079.901592871167
 20
1581.355349250143
 30
0.0
 11
2110.301592871167
 21
1581.355349250143
 31
0.0
  0
LINE
  5
9F8
330
1F
100
AcDbEntity
  8
0
100
AcDbLine
 10
2110.301592871167
 20
1581.355349250143
 30
0.0
 11
2110.301592871167
 21
1579.451349250143
 31
0.0
  0
LINE
  5
9F9
330
1F
100
AcDbEntity
  8
0
100
AcDbLine
 10
2079.901592871167
 20
1581.355349250143
 30
0.0
 11
2079.901592871165
 21
1579.451349250143
 31
0.0
  0
LINE
  5
9FA
330
1F
100
AcDbEntity
  8
0
100
AcDbLine
 10
2110.301592871167
 20
1579.451349250143
 30
0.0
 11
2079.901592871167
 21
1579.451349250143
 31
0.0
  0
LINE
  5
9FB
330
1F
100
AcDbEntity
  8
0
100
AcDbLine
 10
2079.901592871167
 20
1577.015349250142
 30
0.0
 11
2110.301592871167
 21
1577.015349250142
 31
0.0
  0
LINE
  5
9FC
330
1F
100
AcDbEntity
  8
0
100
AcDbLine
 10
2110.301592871167
 20
1577.015349250142
 30
0.0
 11
2110.301592871167
 21
1575.111349250142
 31
0.0
  0
LINE
  5
9FD
330
1F
100
AcDbEntity
  8
0
100
AcDbLine
 10
2079.901592871167
 20
1577.015349250142
 30
0.0
 11
2079.901592871165
 21
1575.111349250142
 31
0.0
  0
LINE
  5
9FE
330
1F
100
AcDbEntity
  8
0
100
AcDbLine
 10
2110.301592871167
 20
1575.111349250142
 30
0.0
 11
2079.901592871167
 21
1575.111349250142
 31
0.0
  0
LINE
  5
9FF
330
1F
100
AcDbEntity
  8
0
100
AcDbLine
 10
2125.101592871168
 20
1611.737349250145
 30
0.0
 11
2155.501592871167
 21
1611.737349250145
 31
0.0
  0
LINE
  5
A00
330
1F
100
AcDbEntity
  8
0
100
AcDbLine
 10
2155.501592871167
 20
1611.737349250145
 30
0.0
 11
2155.501592871167
 21
1609.833349250144
 31
0.0
  0
LINE
  5
A01
330
1F
100
AcDbEntity
  8
0
100
AcDbLine
 10
2125.101592871168
 20
1611.737349250145
 30
0.0
 11
2125.101592871166
 21
1609.833349250144
 31
0.0
  0
LINE
  5
A02
330
1F
100
AcDbEntity
  8
0
100
AcDbLine
 10
2155.501592871167
 20
1609.833349250144
 30
0.0
 11
2125.101592871168
 21
1609.833349250144
 31
0.0
  0
LINE
  5
A03
330
1F
100
AcDbEntity
  8
0
100
AcDbLine
 10
2125.101592871168
 20
1607.397349250144
 30
0.0
 11
2155.501592871167
 21
1607.397349250144
 31
0.0
  0
LINE
  5
A04
330
1F
100
AcDbEntity
  8
0
100
AcDbLine
 10
2155.501592871167
 20
1607.397349250144
 30
0.0
 11
2155.501592871167
 21
1605.493349250143
 31
0.0
  0
LINE
  5
A05
330
1F
100
AcDbEntity
  8
0
100
AcDbLine
 10
2125.101592871168
 20
1607.397349250144
 30
0.0
 11
2125.101592871166
 21
1605.493349250143
 31
0.0
  0
LINE
  5
A06
330
1F
100
AcDbEntity
  8
0
100
AcDbLine
 10
2155.501592871167
 20
1605.493349250143
 30
0.0
 11
2125.101592871168
 21
1605.493349250143
 31
0.0
  0
LINE
  5
A07
330
1F
100
AcDbEntity
  8
0
100
AcDbLine
 10
2125.101592871168
 20
1603.057349250143
 30
0.0
 11
2155.501592871167
 21
1603.057349250143
 31
0.0
  0
LINE
  5
A08
330
1F
100
AcDbEntity
  8
0
100
AcDbLine
 10
2155.501592871167
 20
1603.057349250143
 30
0.0
 11
2155.501592871167
 21
1601.153349250143
 31
0.0
  0
LINE
  5
A09
330
1F
100
AcDbEntity
  8
0
100
AcDbLine
 10
2125.101592871168
 20
1603.057349250143
 30
0.0
 11
2125.101592871166
 21
1601.153349250143
 31
0.0
  0
LINE
  5
A0A
330
1F
100
AcDbEntity
  8
0
100
AcDbLine
 10
2155.501592871167
 20
1601.153349250143
 30
0.0
 11
2125.101592871168
 21
1601.153349250143
 31
0.0
  0
LINE
  5
A0B
330
1F
100
AcDbEntity
  8
0
100
AcDbLine
 10
2125.101592871168
 20
1598.717349250144
 30
0.0
 11
2155.501592871167
 21
1598.717349250144
 31
0.0
  0
LINE
  5
A0C
330
1F
100
AcDbEntity
  8
0
100
AcDbLine
 10
2155.501592871167
 20
1598.717349250144
 30
0.0
 11
2155.501592871167
 21
1596.813349250144
 31
0.0
  0
LINE
  5
A0D
330
1F
100
AcDbEntity
  8
0
100
AcDbLine
 10
2125.101592871168
 20
1598.717349250144
 30
0.0
 11
2125.101592871166
 21
1596.813349250144
 31
0.0
  0
LINE
  5
A0E
330
1F
100
AcDbEntity
  8
0
100
AcDbLine
 10
2155.501592871167
 20
1596.813349250144
 30
0.0
 11
2125.101592871168
 21
1596.813349250144
 31
0.0
  0
LINE
  5
A0F
330
1F
100
AcDbEntity
  8
0
100
AcDbLine
 10
2125.101592871168
 20
1594.377349250144
 30
0.0
 11
2155.501592871167
 21
1594.377349250144
 31
0.0
  0
LINE
  5
A10
330
1F
100
AcDbEntity
  8
0
100
AcDbLine
 10
2155.501592871167
 20
1594.377349250144
 30
0.0
 11
2155.501592871167
 21
1592.473349250143
 31
0.0
  0
LINE
  5
A11
330
1F
100
AcDbEntity
  8
0
100
AcDbLine
 10
2125.101592871168
 20
1594.377349250144
 30
0.0
 11
2125.101592871166
 21
1592.473349250143
 31
0.0
  0
LINE
  5
A12
330
1F
100
AcDbEntity
  8
0
100
AcDbLine
 10
2155.501592871167
 20
1592.473349250143
 30
0.0
 11
2125.101592871168
 21
1592.473349250143
 31
0.0
  0
LINE
  5
A13
330
1F
100
AcDbEntity
  8
0
100
AcDbLine
 10
2125.101592871168
 20
1590.037349250143
 30
0.0
 11
2155.501592871167
 21
1590.037349250143
 31
0.0
  0
LINE
  5
A14
330
1F
100
AcDbEntity
  8
0
100
AcDbLine
 10
2155.501592871167
 20
1590.037349250143
 30
0.0
 11
2155.501592871167
 21
1588.133349250143
 31
0.0
  0
LINE
  5
A15
330
1F
100
AcDbEntity
  8
0
100
AcDbLine
 10
2125.101592871168
 20
1590.037349250143
 30
0.0
 11
2125.101592871166
 21
1588.133349250143
 31
0.0
  0
LINE
  5
A16
330
1F
100
AcDbEntity
  8
0
100
AcDbLine
 10
2155.501592871167
 20
1588.133349250143
 30
0.0
 11
2125.101592871168
 21
1588.133349250143
 31
0.0
  0
LINE
  5
A17
330
1F
100
AcDbEntity
  8
0
100
AcDbLine
 10
2125.101592871168
 20
1585.697349250143
 30
0.0
 11
2155.501592871167
 21
1585.697349250143
 31
0.0
  0
LINE
  5
A18
330
1F
100
AcDbEntity
  8
0
100
AcDbLine
 10
2155.501592871167
 20
1585.697349250143
 30
0.0
 11
2155.501592871167
 21
1583.793349250143
 31
0.0
  0
LINE
  5
A19
330
1F
100
AcDbEntity
  8
0
100
AcDbLine
 10
2125.101592871168
 20
1585.697349250143
 30
0.0
 11
2125.101592871166
 21
1583.793349250143
 31
0.0
  0
LINE
  5
A1A
330
1F
100
AcDbEntity
  8
0
100
AcDbLine
 10
2155.501592871167
 20
1583.793349250143
 30
0.0
 11
2125.101592871168
 21
1583.793349250143
 31
0.0
  0
LINE
  5
A1B
330
1F
100
AcDbEntity
  8
0
100
AcDbLine
 10
2125.101592871168
 20
1581.357349250144
 30
0.0
 11
2155.501592871167
 21
1581.357349250144
 31
0.0
  0
LINE
  5
A1C
330
1F
100
AcDbEntity
  8
0
100
AcDbLine
 10
2155.501592871167
 20
1581.357349250144
 30
0.0
 11
2155.501592871167
 21
1579.453349250143
 31
0.0
  0
LINE
  5
A1D
330
1F
100
AcDbEntity
  8
0
100
AcDbLine
 10
2125.101592871168
 20
1581.357349250144
 30
0.0
 11
2125.101592871166
 21
1579.453349250143
 31
0.0
  0
LINE
  5
A1E
330
1F
100
AcDbEntity
  8
0
100
AcDbLine
 10
2155.501592871167
 20
1579.453349250143
 30
0.0
 11
2125.101592871168
 21
1579.453349250143
 31
0.0
  0
LINE
  5
A1F
330
1F
100
AcDbEntity
  8
0
100
AcDbLine
 10
2125.101592871168
 20
1577.017349250143
 30
0.0
 11
2155.501592871167
 21
1577.017349250143
 31
0.0
  0
LINE
  5
A20
330
1F
100
AcDbEntity
  8
0
100
AcDbLine
 10
2155.501592871167
 20
1577.017349250143
 30
0.0
 11
2155.501592871167
 21
1575.113349250143
 31
0.0
  0
LINE
  5
A21
330
1F
100
AcDbEntity
  8
0
100
AcDbLine
 10
2125.101592871168
 20
1577.017349250143
 30
0.0
 11
2125.101592871166
 21
1575.113349250143
 31
0.0
  0
LINE
  5
A22
330
1F
100
AcDbEntity
  8
0
100
AcDbLine
 10
2155.501592871167
 20
1575.113349250143
 30
0.0
 11
2125.101592871168
 21
1575.113349250143
 31
0.0
  0
LINE
  5
A23
330
1F
100
AcDbEntity
  8
0
100
AcDbLine
 10
2190.301592871167
 20
1611.737349250098
 30
0.0
 11
2220.701592871168
 21
1611.737349250098
 31
0.0
  0
LINE
  5
A24
330
1F
100
AcDbEntity
  8
0
100
AcDbLine
 10
2220.701592871168
 20
1611.737349250098
 30
0.0
 11
2220.701592871168
 21
1609.833349250098
 31
0.0
  0
LINE
  5
A25
330
1F
100
AcDbEntity
  8
0
100
AcDbLine
 10
2190.301592871167
 20
1611.737349250098
 30
0.0
 11
2190.301592871166
 21
1609.833349250098
 31
0.0
  0
LINE
  5
A26
330
1F
100
AcDbEntity
  8
0
100
AcDbLine
 10
2220.701592871168
 20
1609.833349250098
 30
0.0
 11
2190.301592871167
 21
1609.833349250098
 31
0.0
  0
LINE
  5
A27
330
1F
100
AcDbEntity
  8
0
100
AcDbLine
 10
2190.301592871167
 20
1607.397349250097
 30
0.0
 11
2220.701592871168
 21
1607.397349250097
 31
0.0
  0
LINE
  5
A28
330
1F
100
AcDbEntity
  8
0
100
AcDbLine
 10
2220.701592871168
 20
1607.397349250097
 30
0.0
 11
2220.701592871168
 21
1605.493349250098
 31
0.0
  0
LINE
  5
A29
330
1F
100
AcDbEntity
  8
0
100
AcDbLine
 10
2190.301592871167
 20
1607.397349250097
 30
0.0
 11
2190.301592871166
 21
1605.493349250098
 31
0.0
  0
LINE
  5
A2A
330
1F
100
AcDbEntity
  8
0
100
AcDbLine
 10
2220.701592871168
 20
1605.493349250098
 30
0.0
 11
2190.301592871167
 21
1605.493349250098
 31
0.0
  0
LINE
  5
A2B
330
1F
100
AcDbEntity
  8
0
100
AcDbLine
 10
2190.301592871167
 20
1603.057349250098
 30
0.0
 11
2220.701592871168
 21
1603.057349250098
 31
0.0
  0
LINE
  5
A2C
330
1F
100
AcDbEntity
  8
0
100
AcDbLine
 10
2220.701592871168
 20
1603.057349250098
 30
0.0
 11
2220.701592871168
 21
1601.153349250098
 31
0.0
  0
LINE
  5
A2D
330
1F
100
AcDbEntity
  8
0
100
AcDbLine
 10
2190.301592871167
 20
1603.057349250098
 30
0.0
 11
2190.301592871166
 21
1601.153349250098
 31
0.0
  0
LINE
  5
A2E
330
1F
100
AcDbEntity
  8
0
100
AcDbLine
 10
2220.701592871168
 20
1601.153349250098
 30
0.0
 11
2190.301592871167
 21
1601.153349250098
 31
0.0
  0
LINE
  5
A2F
330
1F
100
AcDbEntity
  8
0
100
AcDbLine
 10
2190.301592871167
 20
1598.717349250098
 30
0.0
 11
2220.701592871168
 21
1598.717349250098
 31
0.0
  0
LINE
  5
A30
330
1F
100
AcDbEntity
  8
0
100
AcDbLine
 10
2220.701592871168
 20
1598.717349250098
 30
0.0
 11
2220.701592871168
 21
1596.813349250098
 31
0.0
  0
LINE
  5
A31
330
1F
100
AcDbEntity
  8
0
100
AcDbLine
 10
2190.301592871167
 20
1598.717349250098
 30
0.0
 11
2190.301592871166
 21
1596.813349250098
 31
0.0
  0
LINE
  5
A32
330
1F
100
AcDbEntity
  8
0
100
AcDbLine
 10
2220.701592871168
 20
1596.813349250098
 30
0.0
 11
2190.301592871167
 21
1596.813349250098
 31
0.0
  0
LINE
  5
A33
330
1F
100
AcDbEntity
  8
0
100
AcDbLine
 10
2190.301592871167
 20
1594.377349250098
 30
0.0
 11
2220.701592871168
 21
1594.377349250098
 31
0.0
  0
LINE
  5
A34
330
1F
100
AcDbEntity
  8
0
100
AcDbLine
 10
2220.701592871168
 20
1594.377349250098
 30
0.0
 11
2220.701592871168
 21
1592.473349250098
 31
0.0
  0
LINE
  5
A35
330
1F
100
AcDbEntity
  8
0
100
AcDbLine
 10
2190.301592871167
 20
1594.377349250098
 30
0.0
 11
2190.301592871166
 21
1592.473349250098
 31
0.0
  0
LINE
  5
A36
330
1F
100
AcDbEntity
  8
0
100
AcDbLine
 10
2220.701592871168
 20
1592.473349250098
 30
0.0
 11
2190.301592871167
 21
1592.473349250098
 31
0.0
  0
LINE
  5
A37
330
1F
100
AcDbEntity
  8
0
100
AcDbLine
 10
2190.301592871167
 20
1590.037349250098
 30
0.0
 11
2220.701592871168
 21
1590.037349250098
 31
0.0
  0
LINE
  5
A38
330
1F
100
AcDbEntity
  8
0
100
AcDbLine
 10
2220.701592871168
 20
1590.037349250098
 30
0.0
 11
2220.701592871168
 21
1588.133349250097
 31
0.0
  0
LINE
  5
A39
330
1F
100
AcDbEntity
  8
0
100
AcDbLine
 10
2190.301592871167
 20
1590.037349250098
 30
0.0
 11
2190.301592871166
 21
1588.133349250097
 31
0.0
  0
LINE
  5
A3A
330
1F
100
AcDbEntity
  8
0
100
AcDbLine
 10
2220.701592871168
 20
1588.133349250097
 30
0.0
 11
2190.301592871167
 21
1588.133349250097
 31
0.0
  0
LINE
  5
A3B
330
1F
100
AcDbEntity
  8
0
100
AcDbLine
 10
2190.301592871167
 20
1585.697349250096
 30
0.0
 11
2220.701592871168
 21
1585.697349250096
 31
0.0
  0
LINE
  5
A3C
330
1F
100
AcDbEntity
  8
0
100
AcDbLine
 10
2220.701592871168
 20
1585.697349250096
 30
0.0
 11
2220.701592871168
 21
1583.793349250096
 31
0.0
  0
LINE
  5
A3D
330
1F
100
AcDbEntity
  8
0
100
AcDbLine
 10
2190.301592871167
 20
1585.697349250096
 30
0.0
 11
2190.301592871166
 21
1583.793349250096
 31
0.0
  0
LINE
  5
A3E
330
1F
100
AcDbEntity
  8
0
100
AcDbLine
 10
2220.701592871168
 20
1583.793349250096
 30
0.0
 11
2190.301592871167
 21
1583.793349250096
 31
0.0
  0
LINE
  5
A3F
330
1F
100
AcDbEntity
  8
0
100
AcDbLine
 10
2190.301592871167
 20
1581.357349250096
 30
0.0
 11
2220.701592871168
 21
1581.357349250096
 31
0.0
  0
LINE
  5
A40
330
1F
100
AcDbEntity
  8
0
100
AcDbLine
 10
2220.701592871168
 20
1581.357349250096
 30
0.0
 11
2220.701592871168
 21
1579.453349250096
 31
0.0
  0
LINE
  5
A41
330
1F
100
AcDbEntity
  8
0
100
AcDbLine
 10
2190.301592871167
 20
1581.357349250096
 30
0.0
 11
2190.301592871166
 21
1579.453349250096
 31
0.0
  0
LINE
  5
A42
330
1F
100
AcDbEntity
  8
0
100
AcDbLine
 10
2220.701592871168
 20
1579.453349250096
 30
0.0
 11
2190.301592871167
 21
1579.453349250096
 31
0.0
  0
LINE
  5
A43
330
1F
100
AcDbEntity
  8
0
100
AcDbLine
 10
2190.301592871167
 20
1577.017349250097
 30
0.0
 11
2220.701592871168
 21
1577.017349250097
 31
0.0
  0
LINE
  5
A44
330
1F
100
AcDbEntity
  8
0
100
AcDbLine
 10
2220.701592871168
 20
1577.017349250097
 30
0.0
 11
2220.701592871168
 21
1575.113349250097
 31
0.0
  0
LINE
  5
A45
330
1F
100
AcDbEntity
  8
0
100
AcDbLine
 10
2190.301592871167
 20
1577.017349250097
 30
0.0
 11
2190.301592871166
 21
1575.113349250097
 31
0.0
  0
LINE
  5
A46
330
1F
100
AcDbEntity
  8
0
100
AcDbLine
 10
2220.701592871168
 20
1575.113349250097
 30
0.0
 11
2190.301592871167
 21
1575.113349250097
 31
0.0
  0
LINE
  5
A47
330
1F
100
AcDbEntity
  8
0
100
AcDbLine
 10
2235.501592871167
 20
1611.887349250098
 30
0.0
 11
2265.901592871168
 21
1611.887349250098
 31
0.0
  0
LINE
  5
A48
330
1F
100
AcDbEntity
  8
0
100
AcDbLine
 10
2265.901592871168
 20
1611.887349250098
 30
0.0
 11
2265.901592871168
 21
1609.983349250098
 31
0.0
  0
LINE
  5
A49
330
1F
100
AcDbEntity
  8
0
100
AcDbLine
 10
2235.501592871167
 20
1611.887349250098
 30
0.0
 11
2235.501592871166
 21
1609.983349250098
 31
0.0
  0
LINE
  5
A4A
330
1F
100
AcDbEntity
  8
0
100
AcDbLine
 10
2265.901592871168
 20
1609.983349250098
 30
0.0
 11
2235.501592871167
 21
1609.983349250098
 31
0.0
  0
LINE
  5
A4B
330
1F
100
AcDbEntity
  8
0
100
AcDbLine
 10
2235.501592871167
 20
1607.547349250098
 30
0.0
 11
2265.901592871168
 21
1607.547349250098
 31
0.0
  0
LINE
  5
A4C
330
1F
100
AcDbEntity
  8
0
100
AcDbLine
 10
2265.901592871168
 20
1607.547349250098
 30
0.0
 11
2265.901592871168
 21
1605.643349250098
 31
0.0
  0
LINE
  5
A4D
330
1F
100
AcDbEntity
  8
0
100
AcDbLine
 10
2235.501592871167
 20
1607.547349250098
 30
0.0
 11
2235.501592871166
 21
1605.643349250098
 31
0.0
  0
LINE
  5
A4E
330
1F
100
AcDbEntity
  8
0
100
AcDbLine
 10
2265.901592871168
 20
1605.643349250098
 30
0.0
 11
2235.501592871167
 21
1605.643349250098
 31
0.0
  0
LINE
  5
A4F
330
1F
100
AcDbEntity
  8
0
100
AcDbLine
 10
2235.501592871167
 20
1603.207349250098
 30
0.0
 11
2265.901592871168
 21
1603.207349250098
 31
0.0
  0
LINE
  5
A50
330
1F
100
AcDbEntity
  8
0
100
AcDbLine
 10
2265.901592871168
 20
1603.207349250098
 30
0.0
 11
2265.901592871168
 21
1601.303349250098
 31
0.0
  0
LINE
  5
A51
330
1F
100
AcDbEntity
  8
0
100
AcDbLine
 10
2235.501592871167
 20
1603.207349250098
 30
0.0
 11
2235.501592871166
 21
1601.303349250098
 31
0.0
  0
LINE
  5
A52
330
1F
100
AcDbEntity
  8
0
100
AcDbLine
 10
2265.901592871168
 20
1601.303349250098
 30
0.0
 11
2235.501592871167
 21
1601.303349250098
 31
0.0
  0
LINE
  5
A53
330
1F
100
AcDbEntity
  8
0
100
AcDbLine
 10
2235.501592871167
 20
1598.867349250099
 30
0.0
 11
2265.901592871168
 21
1598.867349250099
 31
0.0
  0
LINE
  5
A54
330
1F
100
AcDbEntity
  8
0
100
AcDbLine
 10
2265.901592871168
 20
1598.867349250099
 30
0.0
 11
2265.901592871168
 21
1596.963349250098
 31
0.0
  0
LINE
  5
A55
330
1F
100
AcDbEntity
  8
0
100
AcDbLine
 10
2235.501592871167
 20
1598.867349250099
 30
0.0
 11
2235.501592871166
 21
1596.963349250098
 31
0.0
  0
LINE
  5
A56
330
1F
100
AcDbEntity
  8
0
100
AcDbLine
 10
2265.901592871168
 20
1596.963349250098
 30
0.0
 11
2235.501592871167
 21
1596.963349250098
 31
0.0
  0
LINE
  5
A57
330
1F
100
AcDbEntity
  8
0
100
AcDbLine
 10
2235.501592871167
 20
1594.527349250098
 30
0.0
 11
2265.901592871168
 21
1594.527349250098
 31
0.0
  0
LINE
  5
A58
330
1F
100
AcDbEntity
  8
0
100
AcDbLine
 10
2265.901592871168
 20
1594.527349250098
 30
0.0
 11
2265.901592871168
 21
1592.623349250098
 31
0.0
  0
LINE
  5
A59
330
1F
100
AcDbEntity
  8
0
100
AcDbLine
 10
2235.501592871167
 20
1594.527349250098
 30
0.0
 11
2235.501592871166
 21
1592.623349250098
 31
0.0
  0
LINE
  5
A5A
330
1F
100
AcDbEntity
  8
0
100
AcDbLine
 10
2265.901592871168
 20
1592.623349250098
 30
0.0
 11
2235.501592871167
 21
1592.623349250098
 31
0.0
  0
LINE
  5
A5B
330
1F
100
AcDbEntity
  8
0
100
AcDbLine
 10
2235.501592871167
 20
1590.187349250097
 30
0.0
 11
2265.901592871168
 21
1590.187349250097
 31
0.0
  0
LINE
  5
A5C
330
1F
100
AcDbEntity
  8
0
100
AcDbLine
 10
2265.901592871168
 20
1590.187349250097
 30
0.0
 11
2265.901592871168
 21
1588.283349250097
 31
0.0
  0
LINE
  5
A5D
330
1F
100
AcDbEntity
  8
0
100
AcDbLine
 10
2235.501592871167
 20
1590.187349250097
 30
0.0
 11
2235.501592871166
 21
1588.283349250097
 31
0.0
  0
LINE
  5
A5E
330
1F
100
AcDbEntity
  8
0
100
AcDbLine
 10
2265.901592871168
 20
1588.283349250097
 30
0.0
 11
2235.501592871167
 21
1588.283349250097
 31
0.0
  0
LINE
  5
A5F
330
1F
100
AcDbEntity
  8
0
100
AcDbLine
 10
2235.501592871167
 20
1585.847349250098
 30
0.0
 11
2265.901592871168
 21
1585.847349250098
 31
0.0
  0
LINE
  5
A60
330
1F
100
AcDbEntity
  8
0
100
AcDbLine
 10
2265.901592871168
 20
1585.847349250098
 30
0.0
 11
2265.901592871168
 21
1583.943349250096
 31
0.0
  0
LINE
  5
A61
330
1F
100
AcDbEntity
  8
0
100
AcDbLine
 10
2235.501592871167
 20
1585.847349250098
 30
0.0
 11
2235.501592871166
 21
1583.943349250096
 31
0.0
  0
LINE
  5
A62
330
1F
100
AcDbEntity
  8
0
100
AcDbLine
 10
2265.901592871168
 20
1583.943349250096
 30
0.0
 11
2235.501592871167
 21
1583.943349250096
 31
0.0
  0
LINE
  5
A63
330
1F
100
AcDbEntity
  8
0
100
AcDbLine
 10
2235.501592871167
 20
1581.507349250096
 30
0.0
 11
2265.901592871168
 21
1581.507349250096
 31
0.0
  0
LINE
  5
A64
330
1F
100
AcDbEntity
  8
0
100
AcDbLine
 10
2265.901592871168
 20
1581.507349250096
 30
0.0
 11
2265.901592871168
 21
1579.603349250096
 31
0.0
  0
LINE
  5
A65
330
1F
100
AcDbEntity
  8
0
100
AcDbLine
 10
2235.501592871167
 20
1581.507349250096
 30
0.0
 11
2235.501592871166
 21
1579.603349250096
 31
0.0
  0
LINE
  5
A66
330
1F
100
AcDbEntity
  8
0
100
AcDbLine
 10
2265.901592871168
 20
1579.603349250096
 30
0.0
 11
2235.501592871167
 21
1579.603349250096
 31
0.0
  0
LINE
  5
A67
330
1F
100
AcDbEntity
  8
0
100
AcDbLine
 10
2235.501592871167
 20
1577.167349250097
 30
0.0
 11
2265.901592871168
 21
1577.167349250097
 31
0.0
  0
LINE
  5
A68
330
1F
100
AcDbEntity
  8
0
100
AcDbLine
 10
2265.901592871168
 20
1577.167349250097
 30
0.0
 11
2265.901592871168
 21
1575.263349250097
 31
0.0
  0
LINE
  5
A69
330
1F
100
AcDbEntity
  8
0
100
AcDbLine
 10
2235.501592871167
 20
1577.167349250097
 30
0.0
 11
2235.501592871166
 21
1575.263349250097
 31
0.0
  0
LINE
  5
A6A
330
1F
100
AcDbEntity
  8
0
100
AcDbLine
 10
2265.901592871168
 20
1575.263349250097
 30
0.0
 11
2235.501592871167
 21
1575.263349250097
 31
0.0
  0
LINE
  5
A6B
330
1F
100
AcDbEntity
  8
0
100
AcDbLine
 10
2235.501592871167
 20
1616.225349250143
 30
0.0
 11
2265.901592871169
 21
1616.225349250143
 31
0.0
  0
LINE
  5
A6C
330
1F
100
AcDbEntity
  8
0
100
AcDbLine
 10
2265.901592871169
 20
1616.225349250143
 30
0.0
 11
2265.901592871169
 21
1614.321349250143
 31
0.0
  0
LINE
  5
A6D
330
1F
100
AcDbEntity
  8
0
100
AcDbLine
 10
2235.501592871167
 20
1616.225349250143
 30
0.0
 11
2235.501592871166
 21
1614.321349250143
 31
0.0
  0
LINE
  5
A6E
330
1F
100
AcDbEntity
  8
0
100
AcDbLine
 10
2265.901592871169
 20
1614.321349250143
 30
0.0
 11
2235.501592871167
 21
1614.321349250143
 31
0.0
  0
LINE
  5
A6F
330
1F
100
AcDbEntity
  8
0
100
AcDbLine
 10
2176.943260543064
 20
1595.675349250868
 30
0.0
 11
2176.943260543064
 21
1593.775349250865
 31
0.0
  0
LINE
  5
A70
330
1F
100
AcDbEntity
  8
0
100
AcDbLine
 10
2168.943260543062
 20
1593.775349250865
 30
0.0
 11
2168.943260543062
 21
1595.675349250868
 31
0.0
  0
LINE
  5
A71
330
1F
100
AcDbEntity
  8
0
100
AcDbLine
 10
2172.901592871165
 20
1576.904579946417
 30
0.0
 11
2176.901592871165
 21
1576.904579946417
 31
0.0
  0
LINE
  5
A72
330
1F
100
AcDbEntity
  8
0
100
AcDbLine
 10
2176.901592871165
 20
1576.904579946417
 30
0.0
 11
2176.901592871165
 21
1575.004579946417
 31
0.0
  0
LINE
  5
A73
330
1F
100
AcDbEntity
  8
0
100
AcDbLine
 10
2176.901592871165
 20
1575.004579946417
 30
0.0
 11
2168.901592871165
 21
1575.004579946417
 31
0.0
  0
LINE
  5
A74
330
1F
100
AcDbEntity
  8
0
100
AcDbLine
 10
2168.901592871165
 20
1575.004579946417
 30
0.0
 11
2168.901592871165
 21
1576.904579946417
 31
0.0
  0
LINE
  5
A75
330
1F
100
AcDbEntity
  8
0
100
AcDbLine
 10
2168.901592871165
 20
1576.904579946417
 30
0.0
 11
2172.901592871165
 21
1576.904579946417
 31
0.0
  0
LINE
  5
A76
330
1F
100
AcDbEntity
  8
0
100
AcDbLine
 10
2172.943260543061
 20
1595.675349250868
 30
0.0
 11
2176.943260543064
 21
1595.675349250868
 31
0.0
  0
LINE
  5
A77
330
1F
100
AcDbEntity
  8
0
100
AcDbLine
 10
2176.943260543064
 20
1593.775349250868
 30
0.0
 11
2168.943260543062
 21
1593.775349250868
 31
0.0
  0
LINE
  5
A78
330
1F
100
AcDbEntity
  8
0
100
AcDbLine
 10
2168.943260543062
 20
1595.675349250868
 30
0.0
 11
2172.943260543061
 21
1595.675349250868
 31
0.0
  0
CIRCLE
  5
A79
330
1F
100
AcDbEntity
  8
0
100
AcDbCircle
 10
2285.946024147898
 20
1725.852910383324
 30
0.0
 40
1.909765888394953
  0
CIRCLE
  5
A7A
330
1F
100
AcDbEntity
  8
0
100
AcDbCircle
 10
2072.373476910221
 20
1725.852910383324
 30
0.0
 40
1.909765888394953
  0
LINE
  5
A7B
330
1F
100
AcDbEntity
  8
0
100
AcDbLine
 10
2206.531224550874
 20
1554.812375482431
 30
0.0
 11
2208.531224550874
 21
1554.812375482431
 31
0.0
  0
LINE
  5
A7C
330
1F
100
AcDbEntity
  8
0
100
AcDbLine
 10
2213.531224550874
 20
1554.812375482431
 30
0.0
 11
2215.531224550874
 21
1554.812375482431
 31
0.0
  0
LINE
  5
A7D
330
1F
100
AcDbEntity
  8
0
100
AcDbLine
 10
2211.031224550874
 20
1558.112375482431
 30
0.0
 11
2213.531224550874
 21
1558.112375482431
 31
0.0
  0
LINE
  5
A7E
330
1F
100
AcDbEntity
  8
0
100
AcDbLine
 10
2213.531224550874
 20
1558.112375482431
 30
0.0
 11
2213.531224550874
 21
1554.81237548243
 31
0.0
  0
LINE
  5
A7F
330
1F
100
AcDbEntity
  8
0
100
AcDbLine
 10
2211.031224550874
 20
1558.112375482431
 30
0.0
 11
2208.531224550874
 21
1558.112375482431
 31
0.0
  0
LINE
  5
A80
330
1F
100
AcDbEntity
  8
0
100
AcDbLine
 10
2208.531224550874
 20
1558.112375482431
 30
0.0
 11
2208.531224550874
 21
1554.81237548243
 31
0.0
  0
LINE
  5
A81
330
1F
100
AcDbEntity
  8
0
100
AcDbLine
 10
2215.531224550874
 20
1554.812375482431
 30
0.0
 11
2220.531224550874
 21
1554.812375482431
 31
0.0
  0
LINE
  5
A82
330
1F
100
AcDbEntity
  8
0
100
AcDbLine
 10
2220.531224550874
 20
1554.812375482431
 30
0.0
 11
2220.531224550874
 21
1525.112375482431
 31
0.0
  0
LINE
  5
A83
330
1F
100
AcDbEntity
  8
0
100
AcDbLine
 10
2206.531224550874
 20
1554.812375482431
 30
0.0
 11
2201.531224550874
 21
1554.812375482431
 31
0.0
  0
LINE
  5
A84
330
1F
100
AcDbEntity
  8
0
100
AcDbLine
 10
2201.531224550874
 20
1554.812375482431
 30
0.0
 11
2201.531224550874
 21
1525.112375482431
 31
0.0
  0
LINE
  5
A85
330
1F
100
AcDbEntity
  8
0
100
AcDbLine
 10
2201.531224550874
 20
1525.112375482431
 30
0.0
 11
2220.547398793603
 21
1525.112375482431
 31
0.0
  0
LINE
  5
A86
330
1F
100
AcDbEntity
  8
0
100
AcDbLine
 10
2225.547398793603
 20
1554.812375482431
 30
0.0
 11
2227.547398793603
 21
1554.812375482431
 31
0.0
  0
LINE
  5
A87
330
1F
100
AcDbEntity
  8
0
100
AcDbLine
 10
2232.547398793603
 20
1554.812375482431
 30
0.0
 11
2234.547398793603
 21
1554.812375482431
 31
0.0
  0
LINE
  5
A88
330
1F
100
AcDbEntity
  8
0
100
AcDbLine
 10
2232.547398793603
 20
1558.112375482431
 30
0.0
 11
2232.547398793603
 21
1554.812375482431
 31
0.0
  0
LINE
  5
A89
330
1F
100
AcDbEntity
  8
0
100
AcDbLine
 10
2227.547398793603
 20
1558.112375482431
 30
0.0
 11
2227.547398793603
 21
1554.812375482431
 31
0.0
  0
LINE
  5
A8A
330
1F
100
AcDbEntity
  8
0
100
AcDbLine
 10
2234.547398793603
 20
1554.812375482431
 30
0.0
 11
2239.547398793603
 21
1554.812375482431
 31
0.0
  0
LINE
  5
A8B
330
1F
100
AcDbEntity
  8
0
100
AcDbLine
 10
2239.547398793603
 20
1554.812375482431
 30
0.0
 11
2239.547398793603
 21
1525.112375482431
 31
0.0
  0
LINE
  5
A8C
330
1F
100
AcDbEntity
  8
0
100
AcDbLine
 10
2225.547398793603
 20
1554.812375482431
 30
0.0
 11
2220.547398793603
 21
1554.812375482431
 31
0.0
  0
LINE
  5
A8D
330
1F
100
AcDbEntity
  8
0
100
AcDbLine
 10
2220.547398793603
 20
1525.112375482431
 30
0.0
 11
2239.563573036332
 21
1525.112375482431
 31
0.0
  0
LINE
  5
A8E
330
1F
100
AcDbEntity
  8
0
100
AcDbLine
 10
2188.069433488878
 20
1523.575352176873
 30
0.0
 11
2188.069433488878
 21
1553.275352176872
 31
0.0
  0
LINE
  5
A8F
330
1F
100
AcDbEntity
  8
0
100
AcDbLine
 10
2188.069433488878
 20
1553.275352176872
 30
0.0
 11
2190.069433488877
 21
1553.275352176872
 31
0.0
  0
LINE
  5
A90
330
1F
100
AcDbEntity
  8
0
100
AcDbLine
 10
2195.069433488878
 20
1553.275352176872
 30
0.0
 11
2197.069433488878
 21
1553.275352176872
 31
0.0
  0
LINE
  5
A91
330
1F
100
AcDbEntity
  8
0
100
AcDbLine
 10
2188.069433488878
 20
1523.575352176873
 30
0.0
 11
2197.069433488878
 21
1523.575352176873
 31
0.0
  0
LINE
  5
A92
330
1F
100
AcDbEntity
  8
0
100
AcDbLine
 10
2192.569433488878
 20
1556.575352176873
 30
0.0
 11
2195.069433488878
 21
1556.575352176873
 31
0.0
  0
LINE
  5
A93
330
1F
100
AcDbEntity
  8
0
100
AcDbLine
 10
2195.069433488878
 20
1556.575352176873
 30
0.0
 11
2195.069433488878
 21
1553.275352176872
 31
0.0
  0
LINE
  5
A94
330
1F
100
AcDbEntity
  8
0
100
AcDbLine
 10
2192.569433488878
 20
1556.575352176873
 30
0.0
 11
2190.069433488877
 21
1556.575352176873
 31
0.0
  0
LINE
  5
A95
330
1F
100
AcDbEntity
  8
0
100
AcDbLine
 10
2190.069433488877
 20
1556.575352176873
 30
0.0
 11
2190.069433488877
 21
1553.275352176872
 31
0.0
  0
LINE
  5
A96
330
1F
100
AcDbEntity
  8
0
100
AcDbLine
 10
2179.069433488878
 20
1523.575352176873
 30
0.0
 11
2179.069433488878
 21
1553.275352176872
 31
0.0
  0
LINE
  5
A97
330
1F
100
AcDbEntity
  8
0
100
AcDbLine
 10
2179.069433488878
 20
1553.275352176872
 30
0.0
 11
2181.069433488878
 21
1553.275352176872
 31
0.0
  0
LINE
  5
A98
330
1F
100
AcDbEntity
  8
0
100
AcDbLine
 10
2186.069433488878
 20
1553.275352176872
 30
0.0
 11
2188.069433488878
 21
1553.275352176872
 31
0.0
  0
LINE
  5
A99
330
1F
100
AcDbEntity
  8
0
100
AcDbLine
 10
2179.069433488878
 20
1523.575352176873
 30
0.0
 11
2188.069433488878
 21
1523.575352176873
 31
0.0
  0
LINE
  5
A9A
330
1F
100
AcDbEntity
  8
0
100
AcDbLine
 10
2183.569433488878
 20
1556.575352176873
 30
0.0
 11
2186.069433488878
 21
1556.575352176873
 31
0.0
  0
LINE
  5
A9B
330
1F
100
AcDbEntity
  8
0
100
AcDbLine
 10
2186.069433488878
 20
1556.575352176873
 30
0.0
 11
2186.069433488878
 21
1553.275352176872
 31
0.0
  0
LINE
  5
A9C
330
1F
100
AcDbEntity
  8
0
100
AcDbLine
 10
2183.569433488878
 20
1556.575352176873
 30
0.0
 11
2181.069433488878
 21
1556.575352176873
 31
0.0
  0
LINE
  5
A9D
330
1F
100
AcDbEntity
  8
0
100
AcDbLine
 10
2181.069433488878
 20
1556.575352176873
 30
0.0
 11
2181.069433488878
 21
1553.275352176872
 31
0.0
  0
LINE
  5
A9E
330
1F
100
AcDbEntity
  8
0
100
AcDbLine
 10
2197.069433488878
 20
1553.275352176872
 30
0.0
 11
2197.069433488878
 21
1523.575352176873
 31
0.0
  0
LINE
  5
A9F
330
1F
100
AcDbEntity
  8
groove
100
AcDbLine
 10
2090.720897978857
 20
1683.446282174054
 30
0.0
 11
2090.720897978857
 21
1684.646282174055
 31
0.0
  0
LINE
  5
AA0
330
1F
100
AcDbEntity
  8
groove
100
AcDbLine
 10
2090.720897978857
 20
1684.646282174055
 30
0.0
 11
2087.520897978857
 21
1684.646282174055
 31
0.0
  0
LINE
  5
AA1
330
1F
100
AcDbEntity
  8
groove
100
AcDbLine
 10
2087.520897978857
 20
1684.646282174055
 30
0.0
 11
2087.520897978857
 21
1682.246282174055
 31
0.0
  0
LINE
  5
AA2
330
1F
100
AcDbEntity
  8
groove
100
AcDbLine
 10
2087.520897978857
 20
1682.246282174055
 30
0.0
 11
2090.720897978857
 21
1682.246282174055
 31
0.0
  0
LINE
  5
AA3
330
1F
100
AcDbEntity
  8
groove
100
AcDbLine
 10
2090.720897978857
 20
1682.246282174055
 30
0.0
 11
2090.720897978857
 21
1683.446282174054
 31
0.0
  0
LINE
  5
AA4
330
1F
100
AcDbEntity
  8
groove
100
AcDbLine
 10
2103.520897978857
 20
1683.446282174054
 30
0.0
 11
2103.520897978857
 21
1684.646282174055
 31
0.0
  0
LINE
  5
AA5
330
1F
100
AcDbEntity
  8
groove
100
AcDbLine
 10
2103.520897978857
 20
1684.646282174055
 30
0.0
 11
2106.720897978857
 21
1684.646282174055
 31
0.0
  0
LINE
  5
AA6
330
1F
100
AcDbEntity
  8
groove
100
AcDbLine
 10
2106.720897978857
 20
1684.646282174055
 30
0.0
 11
2106.720897978857
 21
1682.246282174055
 31
0.0
  0
LINE
  5
AA7
330
1F
100
AcDbEntity
  8
groove
100
AcDbLine
 10
2106.720897978857
 20
1682.246282174055
 30
0.0
 11
2103.520897978857
 21
1682.246282174055
 31
0.0
  0
LINE
  5
AA8
330
1F
100
AcDbEntity
  8
groove
100
AcDbLine
 10
2103.520897978857
 20
1682.246282174055
 30
0.0
 11
2103.520897978857
 21
1683.446282174054
 31
0.0
  0
LINE
  5
AA9
330
1F
100
AcDbEntity
  8
groove
100
AcDbLine
 10
2090.720897978857
 20
1679.106282174054
 30
0.0
 11
2090.720897978857
 21
1680.306282174054
 31
0.0
  0
LINE
  5
AAA
330
1F
100
AcDbEntity
  8
groove
100
AcDbLine
 10
2090.720897978857
 20
1680.306282174054
 30
0.0
 11
2087.520897978857
 21
1680.306282174054
 31
0.0
  0
LINE
  5
AAB
330
1F
100
AcDbEntity
  8
groove
100
AcDbLine
 10
2087.520897978857
 20
1680.306282174054
 30
0.0
 11
2087.520897978857
 21
1677.906282174054
 31
0.0
  0
LINE
  5
AAC
330
1F
100
AcDbEntity
  8
groove
100
AcDbLine
 10
2087.520897978857
 20
1677.906282174054
 30
0.0
 11
2090.720897978857
 21
1677.906282174054
 31
0.0
  0
LINE
  5
AAD
330
1F
100
AcDbEntity
  8
groove
100
AcDbLine
 10
2090.720897978857
 20
1677.906282174054
 30
0.0
 11
2090.720897978857
 21
1679.106282174054
 31
0.0
  0
LINE
  5
AAE
330
1F
100
AcDbEntity
  8
groove
100
AcDbLine
 10
2103.520897978857
 20
1679.106282174054
 30
0.0
 11
2103.520897978857
 21
1680.306282174054
 31
0.0
  0
LINE
  5
AAF
330
1F
100
AcDbEntity
  8
groove
100
AcDbLine
 10
2103.520897978857
 20
1680.306282174054
 30
0.0
 11
2106.720897978857
 21
1680.306282174054
 31
0.0
  0
LINE
  5
AB0
330
1F
100
AcDbEntity
  8
groove
100
AcDbLine
 10
2106.720897978857
 20
1680.306282174054
 30
0.0
 11
2106.720897978857
 21
1677.906282174054
 31
0.0
  0
LINE
  5
AB1
330
1F
100
AcDbEntity
  8
groove
100
AcDbLine
 10
2106.720897978857
 20
1677.906282174054
 30
0.0
 11
2103.520897978857
 21
1677.906282174054
 31
0.0
  0
LINE
  5
AB2
330
1F
100
AcDbEntity
  8
groove
100
AcDbLine
 10
2103.520897978857
 20
1677.906282174054
 30
0.0
 11
2103.520897978857
 21
1679.106282174054
 31
0.0
  0
LINE
  5
AB3
330
1F
100
AcDbEntity
  8
groove
100
AcDbLine
 10
2090.720897978857
 20
1674.766282174054
 30
0.0
 11
2090.720897978857
 21
1675.966282174054
 31
0.0
  0
LINE
  5
AB4
330
1F
100
AcDbEntity
  8
groove
100
AcDbLine
 10
2090.720897978857
 20
1675.966282174054
 30
0.0
 11
2087.520897978857
 21
1675.966282174054
 31
0.0
  0
LINE
  5
AB5
330
1F
100
AcDbEntity
  8
groove
100
AcDbLine
 10
2087.520897978857
 20
1675.966282174054
 30
0.0
 11
2087.520897978857
 21
1673.566282174054
 31
0.0
  0
LINE
  5
AB6
330
1F
100
AcDbEntity
  8
groove
100
AcDbLine
 10
2087.520897978857
 20
1673.566282174054
 30
0.0
 11
2090.720897978857
 21
1673.566282174054
 31
0.0
  0
LINE
  5
AB7
330
1F
100
AcDbEntity
  8
groove
100
AcDbLine
 10
2090.720897978857
 20
1673.566282174054
 30
0.0
 11
2090.720897978857
 21
1674.766282174054
 31
0.0
  0
LINE
  5
AB8
330
1F
100
AcDbEntity
  8
groove
100
AcDbLine
 10
2103.520897978857
 20
1674.766282174054
 30
0.0
 11
2103.520897978857
 21
1675.966282174054
 31
0.0
  0
LINE
  5
AB9
330
1F
100
AcDbEntity
  8
groove
100
AcDbLine
 10
2103.520897978857
 20
1675.966282174054
 30
0.0
 11
2106.720897978857
 21
1675.966282174054
 31
0.0
  0
LINE
  5
ABA
330
1F
100
AcDbEntity
  8
groove
100
AcDbLine
 10
2106.720897978857
 20
1675.966282174054
 30
0.0
 11
2106.720897978857
 21
1673.566282174054
 31
0.0
  0
LINE
  5
ABB
330
1F
100
AcDbEntity
  8
groove
100
AcDbLine
 10
2106.720897978857
 20
1673.566282174054
 30
0.0
 11
2103.520897978857
 21
1673.566282174054
 31
0.0
  0
LINE
  5
ABC
330
1F
100
AcDbEntity
  8
groove
100
AcDbLine
 10
2103.520897978857
 20
1673.566282174054
 30
0.0
 11
2103.520897978857
 21
1674.766282174054
 31
0.0
  0
LINE
  5
ABD
330
1F
100
AcDbEntity
  8
groove
100
AcDbLine
 10
2090.720897978857
 20
1670.426282174054
 30
0.0
 11
2090.720897978857
 21
1671.626282174054
 31
0.0
  0
LINE
  5
ABE
330
1F
100
AcDbEntity
  8
groove
100
AcDbLine
 10
2090.720897978857
 20
1671.626282174054
 30
0.0
 11
2087.520897978857
 21
1671.626282174054
 31
0.0
  0
LINE
  5
ABF
330
1F
100
AcDbEntity
  8
groove
100
AcDbLine
 10
2087.520897978857
 20
1671.626282174054
 30
0.0
 11
2087.520897978857
 21
1669.226282174054
 31
0.0
  0
LINE
  5
AC0
330
1F
100
AcDbEntity
  8
groove
100
AcDbLine
 10
2087.520897978857
 20
1669.226282174054
 30
0.0
 11
2090.720897978857
 21
1669.226282174054
 31
0.0
  0
LINE
  5
AC1
330
1F
100
AcDbEntity
  8
groove
100
AcDbLine
 10
2090.720897978857
 20
1669.226282174054
 30
0.0
 11
2090.720897978857
 21
1670.426282174054
 31
0.0
  0
LINE
  5
AC2
330
1F
100
AcDbEntity
  8
groove
100
AcDbLine
 10
2103.520897978857
 20
1670.426282174054
 30
0.0
 11
2103.520897978857
 21
1671.626282174054
 31
0.0
  0
LINE
  5
AC3
330
1F
100
AcDbEntity
  8
groove
100
AcDbLine
 10
2103.520897978857
 20
1671.626282174054
 30
0.0
 11
2106.720897978857
 21
1671.626282174054
 31
0.0
  0
LINE
  5
AC4
330
1F
100
AcDbEntity
  8
groove
100
AcDbLine
 10
2106.720897978857
 20
1671.626282174054
 30
0.0
 11
2106.720897978857
 21
1669.226282174054
 31
0.0
  0
LINE
  5
AC5
330
1F
100
AcDbEntity
  8
groove
100
AcDbLine
 10
2106.720897978857
 20
1669.226282174054
 30
0.0
 11
2103.520897978857
 21
1669.226282174054
 31
0.0
  0
LINE
  5
AC6
330
1F
100
AcDbEntity
  8
groove
100
AcDbLine
 10
2103.520897978857
 20
1669.226282174054
 30
0.0
 11
2103.520897978857
 21
1670.426282174054
 31
0.0
  0
LINE
  5
AC7
330
1F
100
AcDbEntity
  8
groove
100
AcDbLine
 10
2090.720897978857
 20
1666.086282174054
 30
0.0
 11
2090.720897978857
 21
1667.286282174053
 31
0.0
  0
LINE
  5
AC8
330
1F
100
AcDbEntity
  8
groove
100
AcDbLine
 10
2090.720897978857
 20
1667.286282174053
 30
0.0
 11
2087.520897978857
 21
1667.286282174053
 31
0.0
  0
LINE
  5
AC9
330
1F
100
AcDbEntity
  8
groove
100
AcDbLine
 10
2087.520897978857
 20
1667.286282174053
 30
0.0
 11
2087.520897978857
 21
1664.886282174053
 31
0.0
  0
LINE
  5
ACA
330
1F
100
AcDbEntity
  8
groove
100
AcDbLine
 10
2087.520897978857
 20
1664.886282174053
 30
0.0
 11
2090.720897978857
 21
1664.886282174053
 31
0.0
  0
LINE
  5
ACB
330
1F
100
AcDbEntity
  8
groove
100
AcDbLine
 10
2090.720897978857
 20
1664.886282174053
 30
0.0
 11
2090.720897978857
 21
1666.086282174054
 31
0.0
  0
LINE
  5
ACC
330
1F
100
AcDbEntity
  8
groove
100
AcDbLine
 10
2103.520897978857
 20
1666.086282174054
 30
0.0
 11
2103.520897978857
 21
1667.286282174053
 31
0.0
  0
LINE
  5
ACD
330
1F
100
AcDbEntity
  8
groove
100
AcDbLine
 10
2103.520897978857
 20
1667.286282174053
 30
0.0
 11
2106.720897978857
 21
1667.286282174053
 31
0.0
  0
LINE
  5
ACE
330
1F
100
AcDbEntity
  8
groove
100
AcDbLine
 10
2106.720897978857
 20
1667.286282174053
 30
0.0
 11
2106.720897978857
 21
1664.886282174053
 31
0.0
  0
LINE
  5
ACF
330
1F
100
AcDbEntity
  8
groove
100
AcDbLine
 10
2106.720897978857
 20
1664.886282174053
 30
0.0
 11
2103.520897978857
 21
1664.886282174053
 31
0.0
  0
LINE
  5
AD0
330
1F
100
AcDbEntity
  8
groove
100
AcDbLine
 10
2103.520897978857
 20
1664.886282174053
 30
0.0
 11
2103.520897978857
 21
1666.086282174054
 31
0.0
  0
LINE
  5
AD1
330
1F
100
AcDbEntity
  8
groove
100
AcDbLine
 10
2090.720897978857
 20
1661.746282174054
 30
0.0
 11
2090.720897978857
 21
1662.946282174054
 31
0.0
  0
LINE
  5
AD2
330
1F
100
AcDbEntity
  8
groove
100
AcDbLine
 10
2090.720897978857
 20
1662.946282174054
 30
0.0
 11
2087.520897978857
 21
1662.946282174054
 31
0.0
  0
LINE
  5
AD3
330
1F
100
AcDbEntity
  8
groove
100
AcDbLine
 10
2087.520897978857
 20
1662.946282174054
 30
0.0
 11
2087.520897978857
 21
1660.546282174054
 31
0.0
  0
LINE
  5
AD4
330
1F
100
AcDbEntity
  8
groove
100
AcDbLine
 10
2087.520897978857
 20
1660.546282174054
 30
0.0
 11
2090.720897978857
 21
1660.546282174054
 31
0.0
  0
LINE
  5
AD5
330
1F
100
AcDbEntity
  8
groove
100
AcDbLine
 10
2090.720897978857
 20
1660.546282174054
 30
0.0
 11
2090.720897978857
 21
1661.746282174054
 31
0.0
  0
LINE
  5
AD6
330
1F
100
AcDbEntity
  8
groove
100
AcDbLine
 10
2103.520897978857
 20
1661.746282174054
 30
0.0
 11
2103.520897978857
 21
1662.946282174054
 31
0.0
  0
LINE
  5
AD7
330
1F
100
AcDbEntity
  8
groove
100
AcDbLine
 10
2103.520897978857
 20
1662.946282174054
 30
0.0
 11
2106.720897978857
 21
1662.946282174054
 31
0.0
  0
LINE
  5
AD8
330
1F
100
AcDbEntity
  8
groove
100
AcDbLine
 10
2106.720897978857
 20
1662.946282174054
 30
0.0
 11
2106.720897978857
 21
1660.546282174054
 31
0.0
  0
LINE
  5
AD9
330
1F
100
AcDbEntity
  8
groove
100
AcDbLine
 10
2106.720897978857
 20
1660.546282174054
 30
0.0
 11
2103.520897978857
 21
1660.546282174054
 31
0.0
  0
LINE
  5
ADA
330
1F
100
AcDbEntity
  8
groove
100
AcDbLine
 10
2103.520897978857
 20
1660.546282174054
 30
0.0
 11
2103.520897978857
 21
1661.746282174054
 31
0.0
  0
LINE
  5
ADB
330
1F
100
AcDbEntity
  8
groove
100
AcDbLine
 10
2090.720897978857
 20
1657.406282174054
 30
0.0
 11
2090.720897978857
 21
1658.606282174053
 31
0.0
  0
LINE
  5
ADC
330
1F
100
AcDbEntity
  8
groove
100
AcDbLine
 10
2090.720897978857
 20
1658.606282174053
 30
0.0
 11
2087.520897978857
 21
1658.606282174053
 31
0.0
  0
LINE
  5
ADD
330
1F
100
AcDbEntity
  8
groove
100
AcDbLine
 10
2087.520897978857
 20
1658.606282174053
 30
0.0
 11
2087.520897978857
 21
1656.206282174053
 31
0.0
  0
LINE
  5
ADE
330
1F
100
AcDbEntity
  8
groove
100
AcDbLine
 10
2087.520897978857
 20
1656.206282174053
 30
0.0
 11
2090.720897978857
 21
1656.206282174053
 31
0.0
  0
LINE
  5
ADF
330
1F
100
AcDbEntity
  8
groove
100
AcDbLine
 10
2090.720897978857
 20
1656.206282174053
 30
0.0
 11
2090.720897978857
 21
1657.406282174054
 31
0.0
  0
LINE
  5
AE0
330
1F
100
AcDbEntity
  8
groove
100
AcDbLine
 10
2103.520897978857
 20
1657.406282174054
 30
0.0
 11
2103.520897978857
 21
1658.606282174053
 31
0.0
  0
LINE
  5
AE1
330
1F
100
AcDbEntity
  8
groove
100
AcDbLine
 10
2103.520897978857
 20
1658.606282174053
 30
0.0
 11
2106.720897978857
 21
1658.606282174053
 31
0.0
  0
LINE
  5
AE2
330
1F
100
AcDbEntity
  8
groove
100
AcDbLine
 10
2106.720897978857
 20
1658.606282174053
 30
0.0
 11
2106.720897978857
 21
1656.206282174053
 31
0.0
  0
LINE
  5
AE3
330
1F
100
AcDbEntity
  8
groove
100
AcDbLine
 10
2106.720897978857
 20
1656.206282174053
 30
0.0
 11
2103.520897978857
 21
1656.206282174053
 31
0.0
  0
LINE
  5
AE4
330
1F
100
AcDbEntity
  8
groove
100
AcDbLine
 10
2103.520897978857
 20
1656.206282174053
 30
0.0
 11
2103.520897978857
 21
1657.406282174054
 31
0.0
  0
LINE
  5
AE5
330
1F
100
AcDbEntity
  8
groove
100
AcDbLine
 10
2090.720897978857
 20
1653.066282174054
 30
0.0
 11
2090.720897978857
 21
1654.266282174054
 31
0.0
  0
LINE
  5
AE6
330
1F
100
AcDbEntity
  8
groove
100
AcDbLine
 10
2090.720897978857
 20
1654.266282174054
 30
0.0
 11
2087.520897978857
 21
1654.266282174054
 31
0.0
  0
LINE
  5
AE7
330
1F
100
AcDbEntity
  8
groove
100
AcDbLine
 10
2087.520897978857
 20
1654.266282174054
 30
0.0
 11
2087.520897978857
 21
1651.866282174054
 31
0.0
  0
LINE
  5
AE8
330
1F
100
AcDbEntity
  8
groove
100
AcDbLine
 10
2087.520897978857
 20
1651.866282174054
 30
0.0
 11
2090.720897978857
 21
1651.866282174054
 31
0.0
  0
LINE
  5
AE9
330
1F
100
AcDbEntity
  8
groove
100
AcDbLine
 10
2090.720897978857
 20
1651.866282174054
 30
0.0
 11
2090.720897978857
 21
1653.066282174054
 31
0.0
  0
LINE
  5
AEA
330
1F
100
AcDbEntity
  8
groove
100
AcDbLine
 10
2103.520897978857
 20
1653.066282174054
 30
0.0
 11
2103.520897978857
 21
1654.266282174054
 31
0.0
  0
LINE
  5
AEB
330
1F
100
AcDbEntity
  8
groove
100
AcDbLine
 10
2103.520897978857
 20
1654.266282174054
 30
0.0
 11
2106.720897978857
 21
1654.266282174054
 31
0.0
  0
LINE
  5
AEC
330
1F
100
AcDbEntity
  8
groove
100
AcDbLine
 10
2106.720897978857
 20
1654.266282174054
 30
0.0
 11
2106.720897978857
 21
1651.866282174054
 31
0.0
  0
LINE
  5
AED
330
1F
100
AcDbEntity
  8
groove
100
AcDbLine
 10
2106.720897978857
 20
1651.866282174054
 30
0.0
 11
2103.520897978857
 21
1651.866282174054
 31
0.0
  0
LINE
  5
AEE
330
1F
100
AcDbEntity
  8
groove
100
AcDbLine
 10
2103.520897978857
 20
1651.866282174054
 30
0.0
 11
2103.520897978857
 21
1653.066282174054
 31
0.0
  0
LINE
  5
AEF
330
1F
100
AcDbEntity
  8
groove
100
AcDbLine
 10
2090.720897978857
 20
1648.726282174054
 30
0.0
 11
2090.720897978857
 21
1649.926282174054
 31
0.0
  0
LINE
  5
AF0
330
1F
100
AcDbEntity
  8
groove
100
AcDbLine
 10
2090.720897978857
 20
1649.926282174054
 30
0.0
 11
2087.520897978857
 21
1649.926282174054
 31
0.0
  0
LINE
  5
AF1
330
1F
100
AcDbEntity
  8
groove
100
AcDbLine
 10
2087.520897978857
 20
1649.926282174054
 30
0.0
 11
2087.520897978857
 21
1647.526282174054
 31
0.0
  0
LINE
  5
AF2
330
1F
100
AcDbEntity
  8
groove
100
AcDbLine
 10
2087.520897978857
 20
1647.526282174054
 30
0.0
 11
2090.720897978857
 21
1647.526282174054
 31
0.0
  0
LINE
  5
AF3
330
1F
100
AcDbEntity
  8
groove
100
AcDbLine
 10
2090.720897978857
 20
1647.526282174054
 30
0.0
 11
2090.720897978857
 21
1648.726282174054
 31
0.0
  0
LINE
  5
AF4
330
1F
100
AcDbEntity
  8
groove
100
AcDbLine
 10
2103.520897978857
 20
1648.726282174054
 30
0.0
 11
2103.520897978857
 21
1649.926282174054
 31
0.0
  0
LINE
  5
AF5
330
1F
100
AcDbEntity
  8
groove
100
AcDbLine
 10
2103.520897978857
 20
1649.926282174054
 30
0.0
 11
2106.720897978857
 21
1649.926282174054
 31
0.0
  0
LINE
  5
AF6
330
1F
100
AcDbEntity
  8
groove
100
AcDbLine
 10
2106.720897978857
 20
1649.926282174054
 30
0.0
 11
2106.720897978857
 21
1647.526282174054
 31
0.0
  0
LINE
  5
AF7
330
1F
100
AcDbEntity
  8
groove
100
AcDbLine
 10
2106.720897978857
 20
1647.526282174054
 30
0.0
 11
2103.520897978857
 21
1647.526282174054
 31
0.0
  0
LINE
  5
AF8
330
1F
100
AcDbEntity
  8
groove
100
AcDbLine
 10
2103.520897978857
 20
1647.526282174054
 30
0.0
 11
2103.520897978857
 21
1648.726282174054
 31
0.0
  0
LINE
  5
AF9
330
1F
100
AcDbEntity
  8
groove
100
AcDbLine
 10
2090.720897978857
 20
1644.386282174053
 30
0.0
 11
2090.720897978857
 21
1645.586282174053
 31
0.0
  0
LINE
  5
AFA
330
1F
100
AcDbEntity
  8
groove
100
AcDbLine
 10
2090.720897978857
 20
1645.586282174053
 30
0.0
 11
2087.520897978857
 21
1645.586282174053
 31
0.0
  0
LINE
  5
AFB
330
1F
100
AcDbEntity
  8
groove
100
AcDbLine
 10
2087.520897978857
 20
1645.586282174053
 30
0.0
 11
2087.520897978857
 21
1643.186282174053
 31
0.0
  0
LINE
  5
AFC
330
1F
100
AcDbEntity
  8
groove
100
AcDbLine
 10
2087.520897978857
 20
1643.186282174053
 30
0.0
 11
2090.720897978857
 21
1643.186282174053
 31
0.0
  0
LINE
  5
AFD
330
1F
100
AcDbEntity
  8
groove
100
AcDbLine
 10
2090.720897978857
 20
1643.186282174053
 30
0.0
 11
2090.720897978857
 21
1644.386282174053
 31
0.0
  0
LINE
  5
AFE
330
1F
100
AcDbEntity
  8
groove
100
AcDbLine
 10
2103.520897978857
 20
1644.386282174053
 30
0.0
 11
2103.520897978857
 21
1645.586282174053
 31
0.0
  0
LINE
  5
AFF
330
1F
100
AcDbEntity
  8
groove
100
AcDbLine
 10
2103.520897978857
 20
1645.586282174053
 30
0.0
 11
2106.720897978857
 21
1645.586282174053
 31
0.0
  0
LINE
  5
B00
330
1F
100
AcDbEntity
  8
groove
100
AcDbLine
 10
2106.720897978857
 20
1645.586282174053
 30
0.0
 11
2106.720897978857
 21
1643.186282174053
 31
0.0
  0
LINE
  5
B01
330
1F
100
AcDbEntity
  8
groove
100
AcDbLine
 10
2106.720897978857
 20
1643.186282174053
 30
0.0
 11
2103.520897978857
 21
1643.186282174053
 31
0.0
  0
LINE
  5
B02
330
1F
100
AcDbEntity
  8
groove
100
AcDbLine
 10
2103.520897978857
 20
1643.186282174053
 30
0.0
 11
2103.520897978857
 21
1644.386282174053
 31
0.0
  0
LINE
  5
B03
330
1F
100
AcDbEntity
  8
groove
100
AcDbLine
 10
2135.920897978857
 20
1683.448282174055
 30
0.0
 11
2135.920897978857
 21
1684.648282174055
 31
0.0
  0
LINE
  5
B04
330
1F
100
AcDbEntity
  8
groove
100
AcDbLine
 10
2135.920897978857
 20
1684.648282174055
 30
0.0
 11
2132.720897978856
 21
1684.648282174055
 31
0.0
  0
LINE
  5
B05
330
1F
100
AcDbEntity
  8
groove
100
AcDbLine
 10
2132.720897978856
 20
1684.648282174055
 30
0.0
 11
2132.720897978856
 21
1682.248282174055
 31
0.0
  0
LINE
  5
B06
330
1F
100
AcDbEntity
  8
groove
100
AcDbLine
 10
2132.720897978856
 20
1682.248282174055
 30
0.0
 11
2135.920897978857
 21
1682.248282174055
 31
0.0
  0
LINE
  5
B07
330
1F
100
AcDbEntity
  8
groove
100
AcDbLine
 10
2135.920897978857
 20
1682.248282174055
 30
0.0
 11
2135.920897978857
 21
1683.448282174055
 31
0.0
  0
LINE
  5
B08
330
1F
100
AcDbEntity
  8
groove
100
AcDbLine
 10
2148.720897978857
 20
1683.448282174055
 30
0.0
 11
2148.720897978857
 21
1684.648282174055
 31
0.0
  0
LINE
  5
B09
330
1F
100
AcDbEntity
  8
groove
100
AcDbLine
 10
2148.720897978857
 20
1684.648282174055
 30
0.0
 11
2151.920897978857
 21
1684.648282174055
 31
0.0
  0
LINE
  5
B0A
330
1F
100
AcDbEntity
  8
groove
100
AcDbLine
 10
2151.920897978857
 20
1684.648282174055
 30
0.0
 11
2151.920897978857
 21
1682.248282174055
 31
0.0
  0
LINE
  5
B0B
330
1F
100
AcDbEntity
  8
groove
100
AcDbLine
 10
2151.920897978857
 20
1682.248282174055
 30
0.0
 11
2148.720897978857
 21
1682.248282174055
 31
0.0
  0
LINE
  5
B0C
330
1F
100
AcDbEntity
  8
groove
100
AcDbLine
 10
2148.720897978857
 20
1682.248282174055
 30
0.0
 11
2148.720897978857
 21
1683.448282174055
 31
0.0
  0
LINE
  5
B0D
330
1F
100
AcDbEntity
  8
groove
100
AcDbLine
 10
2135.920897978857
 20
1679.108282174055
 30
0.0
 11
2135.920897978857
 21
1680.308282174055
 31
0.0
  0
LINE
  5
B0E
330
1F
100
AcDbEntity
  8
groove
100
AcDbLine
 10
2135.920897978857
 20
1680.308282174055
 30
0.0
 11
2132.720897978856
 21
1680.308282174055
 31
0.0
  0
LINE
  5
B0F
330
1F
100
AcDbEntity
  8
groove
100
AcDbLine
 10
2132.720897978856
 20
1680.308282174055
 30
0.0
 11
2132.720897978856
 21
1677.908282174055
 31
0.0
  0
LINE
  5
B10
330
1F
100
AcDbEntity
  8
groove
100
AcDbLine
 10
2132.720897978856
 20
1677.908282174055
 30
0.0
 11
2135.920897978857
 21
1677.908282174055
 31
0.0
  0
LINE
  5
B11
330
1F
100
AcDbEntity
  8
groove
100
AcDbLine
 10
2135.920897978857
 20
1677.908282174055
 30
0.0
 11
2135.920897978857
 21
1679.108282174055
 31
0.0
  0
LINE
  5
B12
330
1F
100
AcDbEntity
  8
groove
100
AcDbLine
 10
2148.720897978857
 20
1679.108282174055
 30
0.0
 11
2148.720897978857
 21
1680.308282174055
 31
0.0
  0
LINE
  5
B13
330
1F
100
AcDbEntity
  8
groove
100
AcDbLine
 10
2148.720897978857
 20
1680.308282174055
 30
0.0
 11
2151.920897978857
 21
1680.308282174055
 31
0.0
  0
LINE
  5
B14
330
1F
100
AcDbEntity
  8
groove
100
AcDbLine
 10
2151.920897978857
 20
1680.308282174055
 30
0.0
 11
2151.920897978857
 21
1677.908282174055
 31
0.0
  0
LINE
  5
B15
330
1F
100
AcDbEntity
  8
groove
100
AcDbLine
 10
2151.920897978857
 20
1677.908282174055
 30
0.0
 11
2148.720897978857
 21
1677.908282174055
 31
0.0
  0
LINE
  5
B16
330
1F
100
AcDbEntity
  8
groove
100
AcDbLine
 10
2148.720897978857
 20
1677.908282174055
 30
0.0
 11
2148.720897978857
 21
1679.108282174055
 31
0.0
  0
LINE
  5
B17
330
1F
100
AcDbEntity
  8
groove
100
AcDbLine
 10
2135.920897978857
 20
1674.768282174055
 30
0.0
 11
2135.920897978857
 21
1675.968282174055
 31
0.0
  0
LINE
  5
B18
330
1F
100
AcDbEntity
  8
groove
100
AcDbLine
 10
2135.920897978857
 20
1675.968282174055
 30
0.0
 11
2132.720897978856
 21
1675.968282174055
 31
0.0
  0
LINE
  5
B19
330
1F
100
AcDbEntity
  8
groove
100
AcDbLine
 10
2132.720897978856
 20
1675.968282174055
 30
0.0
 11
2132.720897978856
 21
1673.568282174054
 31
0.0
  0
LINE
  5
B1A
330
1F
100
AcDbEntity
  8
groove
100
AcDbLine
 10
2132.720897978856
 20
1673.568282174054
 30
0.0
 11
2135.920897978857
 21
1673.568282174054
 31
0.0
  0
LINE
  5
B1B
330
1F
100
AcDbEntity
  8
groove
100
AcDbLine
 10
2135.920897978857
 20
1673.568282174054
 30
0.0
 11
2135.920897978857
 21
1674.768282174055
 31
0.0
  0
LINE
  5
B1C
330
1F
100
AcDbEntity
  8
groove
100
AcDbLine
 10
2148.720897978857
 20
1674.768282174055
 30
0.0
 11
2148.720897978857
 21
1675.968282174055
 31
0.0
  0
LINE
  5
B1D
330
1F
100
AcDbEntity
  8
groove
100
AcDbLine
 10
2148.720897978857
 20
1675.968282174055
 30
0.0
 11
2151.920897978857
 21
1675.968282174055
 31
0.0
  0
LINE
  5
B1E
330
1F
100
AcDbEntity
  8
groove
100
AcDbLine
 10
2151.920897978857
 20
1675.968282174055
 30
0.0
 11
2151.920897978857
 21
1673.568282174054
 31
0.0
  0
LINE
  5
B1F
330
1F
100
AcDbEntity
  8
groove
100
AcDbLine
 10
2151.920897978857
 20
1673.568282174054
 30
0.0
 11
2148.720897978857
 21
1673.568282174054
 31
0.0
  0
LINE
  5
B20
330
1F
100
AcDbEntity
  8
groove
100
AcDbLine
 10
2148.720897978857
 20
1673.568282174054
 30
0.0
 11
2148.720897978857
 21
1674.768282174055
 31
0.0
  0
LINE
  5
B21
330
1F
100
AcDbEntity
  8
groove
100
AcDbLine
 10
2135.920897978857
 20
1670.428282174054
 30
0.0
 11
2135.920897978857
 21
1671.628282174054
 31
0.0
  0
LINE
  5
B22
330
1F
100
AcDbEntity
  8
groove
100
AcDbLine
 10
2135.920897978857
 20
1671.628282174054
 30
0.0
 11
2132.720897978856
 21
1671.628282174054
 31
0.0
  0
LINE
  5
B23
330
1F
100
AcDbEntity
  8
groove
100
AcDbLine
 10
2132.720897978856
 20
1671.628282174054
 30
0.0
 11
2132.720897978856
 21
1669.228282174054
 31
0.0
  0
LINE
  5
B24
330
1F
100
AcDbEntity
  8
groove
100
AcDbLine
 10
2132.720897978856
 20
1669.228282174054
 30
0.0
 11
2135.920897978857
 21
1669.228282174054
 31
0.0
  0
LINE
  5
B25
330
1F
100
AcDbEntity
  8
groove
100
AcDbLine
 10
2135.920897978857
 20
1669.228282174054
 30
0.0
 11
2135.920897978857
 21
1670.428282174054
 31
0.0
  0
LINE
  5
B26
330
1F
100
AcDbEntity
  8
groove
100
AcDbLine
 10
2148.720897978857
 20
1670.428282174054
 30
0.0
 11
2148.720897978857
 21
1671.628282174054
 31
0.0
  0
LINE
  5
B27
330
1F
100
AcDbEntity
  8
groove
100
AcDbLine
 10
2148.720897978857
 20
1671.628282174054
 30
0.0
 11
2151.920897978857
 21
1671.628282174054
 31
0.0
  0
LINE
  5
B28
330
1F
100
AcDbEntity
  8
groove
100
AcDbLine
 10
2151.920897978857
 20
1671.628282174054
 30
0.0
 11
2151.920897978857
 21
1669.228282174054
 31
0.0
  0
LINE
  5
B29
330
1F
100
AcDbEntity
  8
groove
100
AcDbLine
 10
2151.920897978857
 20
1669.228282174054
 30
0.0
 11
2148.720897978857
 21
1669.228282174054
 31
0.0
  0
LINE
  5
B2A
330
1F
100
AcDbEntity
  8
groove
100
AcDbLine
 10
2148.720897978857
 20
1669.228282174054
 30
0.0
 11
2148.720897978857
 21
1670.428282174054
 31
0.0
  0
LINE
  5
B2B
330
1F
100
AcDbEntity
  8
groove
100
AcDbLine
 10
2135.920897978857
 20
1666.088282174055
 30
0.0
 11
2135.920897978857
 21
1667.288282174055
 31
0.0
  0
LINE
  5
B2C
330
1F
100
AcDbEntity
  8
groove
100
AcDbLine
 10
2135.920897978857
 20
1667.288282174055
 30
0.0
 11
2132.720897978856
 21
1667.288282174055
 31
0.0
  0
LINE
  5
B2D
330
1F
100
AcDbEntity
  8
groove
100
AcDbLine
 10
2132.720897978856
 20
1667.288282174055
 30
0.0
 11
2132.720897978856
 21
1664.888282174054
 31
0.0
  0
LINE
  5
B2E
330
1F
100
AcDbEntity
  8
groove
100
AcDbLine
 10
2132.720897978856
 20
1664.888282174054
 30
0.0
 11
2135.920897978857
 21
1664.888282174054
 31
0.0
  0
LINE
  5
B2F
330
1F
100
AcDbEntity
  8
groove
100
AcDbLine
 10
2135.920897978857
 20
1664.888282174054
 30
0.0
 11
2135.920897978857
 21
1666.088282174055
 31
0.0
  0
LINE
  5
B30
330
1F
100
AcDbEntity
  8
groove
100
AcDbLine
 10
2148.720897978857
 20
1666.088282174055
 30
0.0
 11
2148.720897978857
 21
1667.288282174055
 31
0.0
  0
LINE
  5
B31
330
1F
100
AcDbEntity
  8
groove
100
AcDbLine
 10
2148.720897978857
 20
1667.288282174055
 30
0.0
 11
2151.920897978857
 21
1667.288282174055
 31
0.0
  0
LINE
  5
B32
330
1F
100
AcDbEntity
  8
groove
100
AcDbLine
 10
2151.920897978857
 20
1667.288282174055
 30
0.0
 11
2151.920897978857
 21
1664.888282174054
 31
0.0
  0
LINE
  5
B33
330
1F
100
AcDbEntity
  8
groove
100
AcDbLine
 10
2151.920897978857
 20
1664.888282174054
 30
0.0
 11
2148.720897978857
 21
1664.888282174054
 31
0.0
  0
LINE
  5
B34
330
1F
100
AcDbEntity
  8
groove
100
AcDbLine
 10
2148.720897978857
 20
1664.888282174054
 30
0.0
 11
2148.720897978857
 21
1666.088282174055
 31
0.0
  0
LINE
  5
B35
330
1F
100
AcDbEntity
  8
groove
100
AcDbLine
 10
2135.920897978857
 20
1661.748282174055
 30
0.0
 11
2135.920897978857
 21
1662.948282174055
 31
0.0
  0
LINE
  5
B36
330
1F
100
AcDbEntity
  8
groove
100
AcDbLine
 10
2135.920897978857
 20
1662.948282174055
 30
0.0
 11
2132.720897978856
 21
1662.948282174055
 31
0.0
  0
LINE
  5
B37
330
1F
100
AcDbEntity
  8
groove
100
AcDbLine
 10
2132.720897978856
 20
1662.948282174055
 30
0.0
 11
2132.720897978856
 21
1660.548282174055
 31
0.0
  0
LINE
  5
B38
330
1F
100
AcDbEntity
  8
groove
100
AcDbLine
 10
2132.720897978856
 20
1660.548282174055
 30
0.0
 11
2135.920897978857
 21
1660.548282174055
 31
0.0
  0
LINE
  5
B39
330
1F
100
AcDbEntity
  8
groove
100
AcDbLine
 10
2135.920897978857
 20
1660.548282174055
 30
0.0
 11
2135.920897978857
 21
1661.748282174055
 31
0.0
  0
LINE
  5
B3A
330
1F
100
AcDbEntity
  8
groove
100
AcDbLine
 10
2148.720897978857
 20
1661.748282174055
 30
0.0
 11
2148.720897978857
 21
1662.948282174055
 31
0.0
  0
LINE
  5
B3B
330
1F
100
AcDbEntity
  8
groove
100
AcDbLine
 10
2148.720897978857
 20
1662.948282174055
 30
0.0
 11
2151.920897978857
 21
1662.948282174055
 31
0.0
  0
LINE
  5
B3C
330
1F
100
AcDbEntity
  8
groove
100
AcDbLine
 10
2151.920897978857
 20
1662.948282174055
 30
0.0
 11
2151.920897978857
 21
1660.548282174055
 31
0.0
  0
LINE
  5
B3D
330
1F
100
AcDbEntity
  8
groove
100
AcDbLine
 10
2151.920897978857
 20
1660.548282174055
 30
0.0
 11
2148.720897978857
 21
1660.548282174055
 31
0.0
  0
LINE
  5
B3E
330
1F
100
AcDbEntity
  8
groove
100
AcDbLine
 10
2148.720897978857
 20
1660.548282174055
 30
0.0
 11
2148.720897978857
 21
1661.748282174055
 31
0.0
  0
LINE
  5
B3F
330
1F
100
AcDbEntity
  8
groove
100
AcDbLine
 10
2135.920897978857
 20
1657.408282174055
 30
0.0
 11
2135.920897978857
 21
1658.608282174055
 31
0.0
  0
LINE
  5
B40
330
1F
100
AcDbEntity
  8
groove
100
AcDbLine
 10
2135.920897978857
 20
1658.608282174055
 30
0.0
 11
2132.720897978856
 21
1658.608282174055
 31
0.0
  0
LINE
  5
B41
330
1F
100
AcDbEntity
  8
groove
100
AcDbLine
 10
2132.720897978856
 20
1658.608282174055
 30
0.0
 11
2132.720897978856
 21
1656.208282174054
 31
0.0
  0
LINE
  5
B42
330
1F
100
AcDbEntity
  8
groove
100
AcDbLine
 10
2132.720897978856
 20
1656.208282174054
 30
0.0
 11
2135.920897978857
 21
1656.208282174054
 31
0.0
  0
LINE
  5
B43
330
1F
100
AcDbEntity
  8
groove
100
AcDbLine
 10
2135.920897978857
 20
1656.208282174054
 30
0.0
 11
2135.920897978857
 21
1657.408282174055
 31
0.0
  0
LINE
  5
B44
330
1F
100
AcDbEntity
  8
groove
100
AcDbLine
 10
2148.720897978857
 20
1657.408282174055
 30
0.0
 11
2148.720897978857
 21
1658.608282174055
 31
0.0
  0
LINE
  5
B45
330
1F
100
AcDbEntity
  8
groove
100
AcDbLine
 10
2148.720897978857
 20
1658.608282174055
 30
0.0
 11
2151.920897978857
 21
1658.608282174055
 31
0.0
  0
LINE
  5
B46
330
1F
100
AcDbEntity
  8
groove
100
AcDbLine
 10
2151.920897978857
 20
1658.608282174055
 30
0.0
 11
2151.920897978857
 21
1656.208282174054
 31
0.0
  0
LINE
  5
B47
330
1F
100
AcDbEntity
  8
groove
100
AcDbLine
 10
2151.920897978857
 20
1656.208282174054
 30
0.0
 11
2148.720897978857
 21
1656.208282174054
 31
0.0
  0
LINE
  5
B48
330
1F
100
AcDbEntity
  8
groove
100
AcDbLine
 10
2148.720897978857
 20
1656.208282174054
 30
0.0
 11
2148.720897978857
 21
1657.408282174055
 31
0.0
  0
LINE
  5
B49
330
1F
100
AcDbEntity
  8
groove
100
AcDbLine
 10
2135.920897978857
 20
1653.068282174054
 30
0.0
 11
2135.920897978857
 21
1654.268282174054
 31
0.0
  0
LINE
  5
B4A
330
1F
100
AcDbEntity
  8
groove
100
AcDbLine
 10
2135.920897978857
 20
1654.268282174054
 30
0.0
 11
2132.720897978856
 21
1654.268282174054
 31
0.0
  0
LINE
  5
B4B
330
1F
100
AcDbEntity
  8
groove
100
AcDbLine
 10
2132.720897978856
 20
1654.268282174054
 30
0.0
 11
2132.720897978856
 21
1651.868282174054
 31
0.0
  0
LINE
  5
B4C
330
1F
100
AcDbEntity
  8
groove
100
AcDbLine
 10
2132.720897978856
 20
1651.868282174054
 30
0.0
 11
2135.920897978857
 21
1651.868282174054
 31
0.0
  0
LINE
  5
B4D
330
1F
100
AcDbEntity
  8
groove
100
AcDbLine
 10
2135.920897978857
 20
1651.868282174054
 30
0.0
 11
2135.920897978857
 21
1653.068282174054
 31
0.0
  0
LINE
  5
B4E
330
1F
100
AcDbEntity
  8
groove
100
AcDbLine
 10
2148.720897978857
 20
1653.068282174054
 30
0.0
 11
2148.720897978857
 21
1654.268282174054
 31
0.0
  0
LINE
  5
B4F
330
1F
100
AcDbEntity
  8
groove
100
AcDbLine
 10
2148.720897978857
 20
1654.268282174054
 30
0.0
 11
2151.920897978857
 21
1654.268282174054
 31
0.0
  0
LINE
  5
B50
330
1F
100
AcDbEntity
  8
groove
100
AcDbLine
 10
2151.920897978857
 20
1654.268282174054
 30
0.0
 11
2151.920897978857
 21
1651.868282174054
 31
0.0
  0
LINE
  5
B51
330
1F
100
AcDbEntity
  8
groove
100
AcDbLine
 10
2151.920897978857
 20
1651.868282174054
 30
0.0
 11
2148.720897978857
 21
1651.868282174054
 31
0.0
  0
LINE
  5
B52
330
1F
100
AcDbEntity
  8
groove
100
AcDbLine
 10
2148.720897978857
 20
1651.868282174054
 30
0.0
 11
2148.720897978857
 21
1653.068282174054
 31
0.0
  0
LINE
  5
B53
330
1F
100
AcDbEntity
  8
groove
100
AcDbLine
 10
2135.920897978857
 20
1648.728282174055
 30
0.0
 11
2135.920897978857
 21
1649.928282174055
 31
0.0
  0
LINE
  5
B54
330
1F
100
AcDbEntity
  8
groove
100
AcDbLine
 10
2135.920897978857
 20
1649.928282174055
 30
0.0
 11
2132.720897978856
 21
1649.928282174055
 31
0.0
  0
LINE
  5
B55
330
1F
100
AcDbEntity
  8
groove
100
AcDbLine
 10
2132.720897978856
 20
1649.928282174055
 30
0.0
 11
2132.720897978856
 21
1647.528282174055
 31
0.0
  0
LINE
  5
B56
330
1F
100
AcDbEntity
  8
groove
100
AcDbLine
 10
2132.720897978856
 20
1647.528282174055
 30
0.0
 11
2135.920897978857
 21
1647.528282174055
 31
0.0
  0
LINE
  5
B57
330
1F
100
AcDbEntity
  8
groove
100
AcDbLine
 10
2135.920897978857
 20
1647.528282174055
 30
0.0
 11
2135.920897978857
 21
1648.728282174055
 31
0.0
  0
LINE
  5
B58
330
1F
100
AcDbEntity
  8
groove
100
AcDbLine
 10
2148.720897978857
 20
1648.728282174055
 30
0.0
 11
2148.720897978857
 21
1649.928282174055
 31
0.0
  0
LINE
  5
B59
330
1F
100
AcDbEntity
  8
groove
100
AcDbLine
 10
2148.720897978857
 20
1649.928282174055
 30
0.0
 11
2151.920897978857
 21
1649.928282174055
 31
0.0
  0
LINE
  5
B5A
330
1F
100
AcDbEntity
  8
groove
100
AcDbLine
 10
2151.920897978857
 20
1649.928282174055
 30
0.0
 11
2151.920897978857
 21
1647.528282174055
 31
0.0
  0
LINE
  5
B5B
330
1F
100
AcDbEntity
  8
groove
100
AcDbLine
 10
2151.920897978857
 20
1647.528282174055
 30
0.0
 11
2148.720897978857
 21
1647.528282174055
 31
0.0
  0
LINE
  5
B5C
330
1F
100
AcDbEntity
  8
groove
100
AcDbLine
 10
2148.720897978857
 20
1647.528282174055
 30
0.0
 11
2148.720897978857
 21
1648.728282174055
 31
0.0
  0
LINE
  5
B5D
330
1F
100
AcDbEntity
  8
groove
100
AcDbLine
 10
2135.920897978857
 20
1644.388282174054
 30
0.0
 11
2135.920897978857
 21
1645.588282174054
 31
0.0
  0
LINE
  5
B5E
330
1F
100
AcDbEntity
  8
groove
100
AcDbLine
 10
2135.920897978857
 20
1645.588282174054
 30
0.0
 11
2132.720897978856
 21
1645.588282174054
 31
0.0
  0
LINE
  5
B5F
330
1F
100
AcDbEntity
  8
groove
100
AcDbLine
 10
2132.720897978856
 20
1645.588282174054
 30
0.0
 11
2132.720897978856
 21
1643.188282174054
 31
0.0
  0
LINE
  5
B60
330
1F
100
AcDbEntity
  8
groove
100
AcDbLine
 10
2132.720897978856
 20
1643.188282174054
 30
0.0
 11
2135.920897978857
 21
1643.188282174054
 31
0.0
  0
LINE
  5
B61
330
1F
100
AcDbEntity
  8
groove
100
AcDbLine
 10
2135.920897978857
 20
1643.188282174054
 30
0.0
 11
2135.920897978857
 21
1644.388282174054
 31
0.0
  0
LINE
  5
B62
330
1F
100
AcDbEntity
  8
groove
100
AcDbLine
 10
2148.720897978857
 20
1644.388282174054
 30
0.0
 11
2148.720897978857
 21
1645.588282174054
 31
0.0
  0
LINE
  5
B63
330
1F
100
AcDbEntity
  8
groove
100
AcDbLine
 10
2148.720897978857
 20
1645.588282174054
 30
0.0
 11
2151.920897978857
 21
1645.588282174054
 31
0.0
  0
LINE
  5
B64
330
1F
100
AcDbEntity
  8
groove
100
AcDbLine
 10
2151.920897978857
 20
1645.588282174054
 30
0.0
 11
2151.920897978857
 21
1643.188282174054
 31
0.0
  0
LINE
  5
B65
330
1F
100
AcDbEntity
  8
groove
100
AcDbLine
 10
2151.920897978857
 20
1643.188282174054
 30
0.0
 11
2148.720897978857
 21
1643.188282174054
 31
0.0
  0
LINE
  5
B66
330
1F
100
AcDbEntity
  8
groove
100
AcDbLine
 10
2148.720897978857
 20
1643.188282174054
 30
0.0
 11
2148.720897978857
 21
1644.388282174054
 31
0.0
  0
LINE
  5
B67
330
1F
100
AcDbEntity
  8
groove
100
AcDbLine
 10
2201.120897978858
 20
1683.446282173923
 30
0.0
 11
2201.120897978858
 21
1684.646282173923
 31
0.0
  0
LINE
  5
B68
330
1F
100
AcDbEntity
  8
groove
100
AcDbLine
 10
2201.120897978858
 20
1684.646282173923
 30
0.0
 11
2197.920897978858
 21
1684.646282173923
 31
0.0
  0
LINE
  5
B69
330
1F
100
AcDbEntity
  8
groove
100
AcDbLine
 10
2197.920897978858
 20
1684.646282173923
 30
0.0
 11
2197.920897978858
 21
1682.246282173923
 31
0.0
  0
LINE
  5
B6A
330
1F
100
AcDbEntity
  8
groove
100
AcDbLine
 10
2197.920897978858
 20
1682.246282173923
 30
0.0
 11
2201.120897978858
 21
1682.246282173923
 31
0.0
  0
LINE
  5
B6B
330
1F
100
AcDbEntity
  8
groove
100
AcDbLine
 10
2201.120897978858
 20
1682.246282173923
 30
0.0
 11
2201.120897978858
 21
1683.446282173923
 31
0.0
  0
LINE
  5
B6C
330
1F
100
AcDbEntity
  8
groove
100
AcDbLine
 10
2213.920897978858
 20
1683.446282173923
 30
0.0
 11
2213.920897978858
 21
1684.646282173923
 31
0.0
  0
LINE
  5
B6D
330
1F
100
AcDbEntity
  8
groove
100
AcDbLine
 10
2213.920897978858
 20
1684.646282173923
 30
0.0
 11
2217.120897978858
 21
1684.646282173923
 31
0.0
  0
LINE
  5
B6E
330
1F
100
AcDbEntity
  8
groove
100
AcDbLine
 10
2217.120897978858
 20
1684.646282173923
 30
0.0
 11
2217.120897978858
 21
1682.246282173923
 31
0.0
  0
LINE
  5
B6F
330
1F
100
AcDbEntity
  8
groove
100
AcDbLine
 10
2217.120897978858
 20
1682.246282173923
 30
0.0
 11
2213.920897978858
 21
1682.246282173923
 31
0.0
  0
LINE
  5
B70
330
1F
100
AcDbEntity
  8
groove
100
AcDbLine
 10
2213.920897978858
 20
1682.246282173923
 30
0.0
 11
2213.920897978858
 21
1683.446282173923
 31
0.0
  0
LINE
  5
B71
330
1F
100
AcDbEntity
  8
groove
100
AcDbLine
 10
2201.120897978858
 20
1679.106282173923
 30
0.0
 11
2201.120897978858
 21
1680.306282173923
 31
0.0
  0
LINE
  5
B72
330
1F
100
AcDbEntity
  8
groove
100
AcDbLine
 10
2201.120897978858
 20
1680.306282173923
 30
0.0
 11
2197.920897978858
 21
1680.306282173923
 31
0.0
  0
LINE
  5
B73
330
1F
100
AcDbEntity
  8
groove
100
AcDbLine
 10
2197.920897978858
 20
1680.306282173923
 30
0.0
 11
2197.920897978858
 21
1677.906282173923
 31
0.0
  0
LINE
  5
B74
330
1F
100
AcDbEntity
  8
groove
100
AcDbLine
 10
2197.920897978858
 20
1677.906282173923
 30
0.0
 11
2201.120897978858
 21
1677.906282173923
 31
0.0
  0
LINE
  5
B75
330
1F
100
AcDbEntity
  8
groove
100
AcDbLine
 10
2201.120897978858
 20
1677.906282173923
 30
0.0
 11
2201.120897978858
 21
1679.106282173923
 31
0.0
  0
LINE
  5
B76
330
1F
100
AcDbEntity
  8
groove
100
AcDbLine
 10
2213.920897978858
 20
1679.106282173923
 30
0.0
 11
2213.920897978858
 21
1680.306282173923
 31
0.0
  0
LINE
  5
B77
330
1F
100
AcDbEntity
  8
groove
100
AcDbLine
 10
2213.920897978858
 20
1680.306282173923
 30
0.0
 11
2217.120897978858
 21
1680.306282173923
 31
0.0
  0
LINE
  5
B78
330
1F
100
AcDbEntity
  8
groove
100
AcDbLine
 10
2217.120897978858
 20
1680.306282173923
 30
0.0
 11
2217.120897978858
 21
1677.906282173923
 31
0.0
  0
LINE
  5
B79
330
1F
100
AcDbEntity
  8
groove
100
AcDbLine
 10
2217.120897978858
 20
1677.906282173923
 30
0.0
 11
2213.920897978858
 21
1677.906282173923
 31
0.0
  0
LINE
  5
B7A
330
1F
100
AcDbEntity
  8
groove
100
AcDbLine
 10
2213.920897978858
 20
1677.906282173923
 30
0.0
 11
2213.920897978858
 21
1679.106282173923
 31
0.0
  0
LINE
  5
B7B
330
1F
100
AcDbEntity
  8
groove
100
AcDbLine
 10
2201.120897978858
 20
1674.766282173922
 30
0.0
 11
2201.120897978858
 21
1675.966282173922
 31
0.0
  0
LINE
  5
B7C
330
1F
100
AcDbEntity
  8
groove
100
AcDbLine
 10
2201.120897978858
 20
1675.966282173922
 30
0.0
 11
2197.920897978858
 21
1675.966282173922
 31
0.0
  0
LINE
  5
B7D
330
1F
100
AcDbEntity
  8
groove
100
AcDbLine
 10
2197.920897978858
 20
1675.966282173922
 30
0.0
 11
2197.920897978858
 21
1673.566282173922
 31
0.0
  0
LINE
  5
B7E
330
1F
100
AcDbEntity
  8
groove
100
AcDbLine
 10
2197.920897978858
 20
1673.566282173922
 30
0.0
 11
2201.120897978858
 21
1673.566282173922
 31
0.0
  0
LINE
  5
B7F
330
1F
100
AcDbEntity
  8
groove
100
AcDbLine
 10
2201.120897978858
 20
1673.566282173922
 30
0.0
 11
2201.120897978858
 21
1674.766282173922
 31
0.0
  0
LINE
  5
B80
330
1F
100
AcDbEntity
  8
groove
100
AcDbLine
 10
2213.920897978858
 20
1674.766282173922
 30
0.0
 11
2213.920897978858
 21
1675.966282173922
 31
0.0
  0
LINE
  5
B81
330
1F
100
AcDbEntity
  8
groove
100
AcDbLine
 10
2213.920897978858
 20
1675.966282173922
 30
0.0
 11
2217.120897978858
 21
1675.966282173922
 31
0.0
  0
LINE
  5
B82
330
1F
100
AcDbEntity
  8
groove
100
AcDbLine
 10
2217.120897978858
 20
1675.966282173922
 30
0.0
 11
2217.120897978858
 21
1673.566282173922
 31
0.0
  0
LINE
  5
B83
330
1F
100
AcDbEntity
  8
groove
100
AcDbLine
 10
2217.120897978858
 20
1673.566282173922
 30
0.0
 11
2213.920897978858
 21
1673.566282173922
 31
0.0
  0
LINE
  5
B84
330
1F
100
AcDbEntity
  8
groove
100
AcDbLine
 10
2213.920897978858
 20
1673.566282173922
 30
0.0
 11
2213.920897978858
 21
1674.766282173922
 31
0.0
  0
LINE
  5
B85
330
1F
100
AcDbEntity
  8
groove
100
AcDbLine
 10
2201.120897978858
 20
1670.426282173922
 30
0.0
 11
2201.120897978858
 21
1671.626282173922
 31
0.0
  0
LINE
  5
B86
330
1F
100
AcDbEntity
  8
groove
100
AcDbLine
 10
2201.120897978858
 20
1671.626282173922
 30
0.0
 11
2197.920897978858
 21
1671.626282173922
 31
0.0
  0
LINE
  5
B87
330
1F
100
AcDbEntity
  8
groove
100
AcDbLine
 10
2197.920897978858
 20
1671.626282173922
 30
0.0
 11
2197.920897978858
 21
1669.226282173922
 31
0.0
  0
LINE
  5
B88
330
1F
100
AcDbEntity
  8
groove
100
AcDbLine
 10
2197.920897978858
 20
1669.226282173922
 30
0.0
 11
2201.120897978858
 21
1669.226282173922
 31
0.0
  0
LINE
  5
B89
330
1F
100
AcDbEntity
  8
groove
100
AcDbLine
 10
2201.120897978858
 20
1669.226282173922
 30
0.0
 11
2201.120897978858
 21
1670.426282173922
 31
0.0
  0
LINE
  5
B8A
330
1F
100
AcDbEntity
  8
groove
100
AcDbLine
 10
2213.920897978858
 20
1670.426282173922
 30
0.0
 11
2213.920897978858
 21
1671.626282173922
 31
0.0
  0
LINE
  5
B8B
330
1F
100
AcDbEntity
  8
groove
100
AcDbLine
 10
2213.920897978858
 20
1671.626282173922
 30
0.0
 11
2217.120897978858
 21
1671.626282173922
 31
0.0
  0
LINE
  5
B8C
330
1F
100
AcDbEntity
  8
groove
100
AcDbLine
 10
2217.120897978858
 20
1671.626282173922
 30
0.0
 11
2217.120897978858
 21
1669.226282173922
 31
0.0
  0
LINE
  5
B8D
330
1F
100
AcDbEntity
  8
groove
100
AcDbLine
 10
2217.120897978858
 20
1669.226282173922
 30
0.0
 11
2213.920897978858
 21
1669.226282173922
 31
0.0
  0
LINE
  5
B8E
330
1F
100
AcDbEntity
  8
groove
100
AcDbLine
 10
2213.920897978858
 20
1669.226282173922
 30
0.0
 11
2213.920897978858
 21
1670.426282173922
 31
0.0
  0
LINE
  5
B8F
330
1F
100
AcDbEntity
  8
groove
100
AcDbLine
 10
2201.120897978858
 20
1666.086282173922
 30
0.0
 11
2201.120897978858
 21
1667.286282173922
 31
0.0
  0
LINE
  5
B90
330
1F
100
AcDbEntity
  8
groove
100
AcDbLine
 10
2201.120897978858
 20
1667.286282173922
 30
0.0
 11
2197.920897978858
 21
1667.286282173922
 31
0.0
  0
LINE
  5
B91
330
1F
100
AcDbEntity
  8
groove
100
AcDbLine
 10
2197.920897978858
 20
1667.286282173922
 30
0.0
 11
2197.920897978858
 21
1664.886282173922
 31
0.0
  0
LINE
  5
B92
330
1F
100
AcDbEntity
  8
groove
100
AcDbLine
 10
2197.920897978858
 20
1664.886282173922
 30
0.0
 11
2201.120897978858
 21
1664.886282173922
 31
0.0
  0
LINE
  5
B93
330
1F
100
AcDbEntity
  8
groove
100
AcDbLine
 10
2201.120897978858
 20
1664.886282173922
 30
0.0
 11
2201.120897978858
 21
1666.086282173922
 31
0.0
  0
LINE
  5
B94
330
1F
100
AcDbEntity
  8
groove
100
AcDbLine
 10
2213.920897978858
 20
1666.086282173922
 30
0.0
 11
2213.920897978858
 21
1667.286282173922
 31
0.0
  0
LINE
  5
B95
330
1F
100
AcDbEntity
  8
groove
100
AcDbLine
 10
2213.920897978858
 20
1667.286282173922
 30
0.0
 11
2217.120897978858
 21
1667.286282173922
 31
0.0
  0
LINE
  5
B96
330
1F
100
AcDbEntity
  8
groove
100
AcDbLine
 10
2217.120897978858
 20
1667.286282173922
 30
0.0
 11
2217.120897978858
 21
1664.886282173922
 31
0.0
  0
LINE
  5
B97
330
1F
100
AcDbEntity
  8
groove
100
AcDbLine
 10
2217.120897978858
 20
1664.886282173922
 30
0.0
 11
2213.920897978858
 21
1664.886282173922
 31
0.0
  0
LINE
  5
B98
330
1F
100
AcDbEntity
  8
groove
100
AcDbLine
 10
2213.920897978858
 20
1664.886282173922
 30
0.0
 11
2213.920897978858
 21
1666.086282173922
 31
0.0
  0
LINE
  5
B99
330
1F
100
AcDbEntity
  8
groove
100
AcDbLine
 10
2201.120897978858
 20
1661.746282173922
 30
0.0
 11
2201.120897978858
 21
1662.946282173922
 31
0.0
  0
LINE
  5
B9A
330
1F
100
AcDbEntity
  8
groove
100
AcDbLine
 10
2201.120897978858
 20
1662.946282173922
 30
0.0
 11
2197.920897978858
 21
1662.946282173922
 31
0.0
  0
LINE
  5
B9B
330
1F
100
AcDbEntity
  8
groove
100
AcDbLine
 10
2197.920897978858
 20
1662.946282173922
 30
0.0
 11
2197.920897978858
 21
1660.546282173922
 31
0.0
  0
LINE
  5
B9C
330
1F
100
AcDbEntity
  8
groove
100
AcDbLine
 10
2197.920897978858
 20
1660.546282173922
 30
0.0
 11
2201.120897978858
 21
1660.546282173922
 31
0.0
  0
LINE
  5
B9D
330
1F
100
AcDbEntity
  8
groove
100
AcDbLine
 10
2201.120897978858
 20
1660.546282173922
 30
0.0
 11
2201.120897978858
 21
1661.746282173922
 31
0.0
  0
LINE
  5
B9E
330
1F
100
AcDbEntity
  8
groove
100
AcDbLine
 10
2213.920897978858
 20
1661.746282173922
 30
0.0
 11
2213.920897978858
 21
1662.946282173922
 31
0.0
  0
LINE
  5
B9F
330
1F
100
AcDbEntity
  8
groove
100
AcDbLine
 10
2213.920897978858
 20
1662.946282173922
 30
0.0
 11
2217.120897978858
 21
1662.946282173922
 31
0.0
  0
LINE
  5
BA0
330
1F
100
AcDbEntity
  8
groove
100
AcDbLine
 10
2217.120897978858
 20
1662.946282173922
 30
0.0
 11
2217.120897978858
 21
1660.546282173922
 31
0.0
  0
LINE
  5
BA1
330
1F
100
AcDbEntity
  8
groove
100
AcDbLine
 10
2217.120897978858
 20
1660.546282173922
 30
0.0
 11
2213.920897978858
 21
1660.546282173922
 31
0.0
  0
LINE
  5
BA2
330
1F
100
AcDbEntity
  8
groove
100
AcDbLine
 10
2213.920897978858
 20
1660.546282173922
 30
0.0
 11
2213.920897978858
 21
1661.746282173922
 31
0.0
  0
LINE
  5
BA3
330
1F
100
AcDbEntity
  8
groove
100
AcDbLine
 10
2201.120897978858
 20
1657.406282173922
 30
0.0
 11
2201.120897978858
 21
1658.606282173922
 31
0.0
  0
LINE
  5
BA4
330
1F
100
AcDbEntity
  8
groove
100
AcDbLine
 10
2201.120897978858
 20
1658.606282173922
 30
0.0
 11
2197.920897978858
 21
1658.606282173922
 31
0.0
  0
LINE
  5
BA5
330
1F
100
AcDbEntity
  8
groove
100
AcDbLine
 10
2197.920897978858
 20
1658.606282173922
 30
0.0
 11
2197.920897978858
 21
1656.206282173922
 31
0.0
  0
LINE
  5
BA6
330
1F
100
AcDbEntity
  8
groove
100
AcDbLine
 10
2197.920897978858
 20
1656.206282173922
 30
0.0
 11
2201.120897978858
 21
1656.206282173922
 31
0.0
  0
LINE
  5
BA7
330
1F
100
AcDbEntity
  8
groove
100
AcDbLine
 10
2201.120897978858
 20
1656.206282173922
 30
0.0
 11
2201.120897978858
 21
1657.406282173922
 31
0.0
  0
LINE
  5
BA8
330
1F
100
AcDbEntity
  8
groove
100
AcDbLine
 10
2213.920897978858
 20
1657.406282173922
 30
0.0
 11
2213.920897978858
 21
1658.606282173922
 31
0.0
  0
LINE
  5
BA9
330
1F
100
AcDbEntity
  8
groove
100
AcDbLine
 10
2213.920897978858
 20
1658.606282173922
 30
0.0
 11
2217.120897978858
 21
1658.606282173922
 31
0.0
  0
LINE
  5
BAA
330
1F
100
AcDbEntity
  8
groove
100
AcDbLine
 10
2217.120897978858
 20
1658.606282173922
 30
0.0
 11
2217.120897978858
 21
1656.206282173922
 31
0.0
  0
LINE
  5
BAB
330
1F
100
AcDbEntity
  8
groove
100
AcDbLine
 10
2217.120897978858
 20
1656.206282173922
 30
0.0
 11
2213.920897978858
 21
1656.206282173922
 31
0.0
  0
LINE
  5
BAC
330
1F
100
AcDbEntity
  8
groove
100
AcDbLine
 10
2213.920897978858
 20
1656.206282173922
 30
0.0
 11
2213.920897978858
 21
1657.406282173922
 31
0.0
  0
LINE
  5
BAD
330
1F
100
AcDbEntity
  8
groove
100
AcDbLine
 10
2201.120897978858
 20
1653.066282173921
 30
0.0
 11
2201.120897978858
 21
1654.266282173922
 31
0.0
  0
LINE
  5
BAE
330
1F
100
AcDbEntity
  8
groove
100
AcDbLine
 10
2201.120897978858
 20
1654.266282173922
 30
0.0
 11
2197.920897978858
 21
1654.266282173922
 31
0.0
  0
LINE
  5
BAF
330
1F
100
AcDbEntity
  8
groove
100
AcDbLine
 10
2197.920897978858
 20
1654.266282173922
 30
0.0
 11
2197.920897978858
 21
1651.866282173921
 31
0.0
  0
LINE
  5
BB0
330
1F
100
AcDbEntity
  8
groove
100
AcDbLine
 10
2197.920897978858
 20
1651.866282173921
 30
0.0
 11
2201.120897978858
 21
1651.866282173921
 31
0.0
  0
LINE
  5
BB1
330
1F
100
AcDbEntity
  8
groove
100
AcDbLine
 10
2201.120897978858
 20
1651.866282173921
 30
0.0
 11
2201.120897978858
 21
1653.066282173921
 31
0.0
  0
LINE
  5
BB2
330
1F
100
AcDbEntity
  8
groove
100
AcDbLine
 10
2213.920897978858
 20
1653.066282173921
 30
0.0
 11
2213.920897978858
 21
1654.266282173922
 31
0.0
  0
LINE
  5
BB3
330
1F
100
AcDbEntity
  8
groove
100
AcDbLine
 10
2213.920897978858
 20
1654.266282173922
 30
0.0
 11
2217.120897978858
 21
1654.266282173922
 31
0.0
  0
LINE
  5
BB4
330
1F
100
AcDbEntity
  8
groove
100
AcDbLine
 10
2217.120897978858
 20
1654.266282173922
 30
0.0
 11
2217.120897978858
 21
1651.866282173921
 31
0.0
  0
LINE
  5
BB5
330
1F
100
AcDbEntity
  8
groove
100
AcDbLine
 10
2217.120897978858
 20
1651.866282173921
 30
0.0
 11
2213.920897978858
 21
1651.866282173921
 31
0.0
  0
LINE
  5
BB6
330
1F
100
AcDbEntity
  8
groove
100
AcDbLine
 10
2213.920897978858
 20
1651.866282173921
 30
0.0
 11
2213.920897978858
 21
1653.066282173921
 31
0.0
  0
LINE
  5
BB7
330
1F
100
AcDbEntity
  8
groove
100
AcDbLine
 10
2201.120897978858
 20
1648.726282173922
 30
0.0
 11
2201.120897978858
 21
1649.926282173922
 31
0.0
  0
LINE
  5
BB8
330
1F
100
AcDbEntity
  8
groove
100
AcDbLine
 10
2201.120897978858
 20
1649.926282173922
 30
0.0
 11
2197.920897978858
 21
1649.926282173922
 31
0.0
  0
LINE
  5
BB9
330
1F
100
AcDbEntity
  8
groove
100
AcDbLine
 10
2197.920897978858
 20
1649.926282173922
 30
0.0
 11
2197.920897978858
 21
1647.526282173922
 31
0.0
  0
LINE
  5
BBA
330
1F
100
AcDbEntity
  8
groove
100
AcDbLine
 10
2197.920897978858
 20
1647.526282173922
 30
0.0
 11
2201.120897978858
 21
1647.526282173922
 31
0.0
  0
LINE
  5
BBB
330
1F
100
AcDbEntity
  8
groove
100
AcDbLine
 10
2201.120897978858
 20
1647.526282173922
 30
0.0
 11
2201.120897978858
 21
1648.726282173922
 31
0.0
  0
LINE
  5
BBC
330
1F
100
AcDbEntity
  8
groove
100
AcDbLine
 10
2213.920897978858
 20
1648.726282173922
 30
0.0
 11
2213.920897978858
 21
1649.926282173922
 31
0.0
  0
LINE
  5
BBD
330
1F
100
AcDbEntity
  8
groove
100
AcDbLine
 10
2213.920897978858
 20
1649.926282173922
 30
0.0
 11
2217.120897978858
 21
1649.926282173922
 31
0.0
  0
LINE
  5
BBE
330
1F
100
AcDbEntity
  8
groove
100
AcDbLine
 10
2217.120897978858
 20
1649.926282173922
 30
0.0
 11
2217.120897978858
 21
1647.526282173922
 31
0.0
  0
LINE
  5
BBF
330
1F
100
AcDbEntity
  8
groove
100
AcDbLine
 10
2217.120897978858
 20
1647.526282173922
 30
0.0
 11
2213.920897978858
 21
1647.526282173922
 31
0.0
  0
LINE
  5
BC0
330
1F
100
AcDbEntity
  8
groove
100
AcDbLine
 10
2213.920897978858
 20
1647.526282173922
 30
0.0
 11
2213.920897978858
 21
1648.726282173922
 31
0.0
  0
LINE
  5
BC1
330
1F
100
AcDbEntity
  8
groove
100
AcDbLine
 10
2201.120897978858
 20
1644.386282173921
 30
0.0
 11
2201.120897978858
 21
1645.586282173921
 31
0.0
  0
LINE
  5
BC2
330
1F
100
AcDbEntity
  8
groove
100
AcDbLine
 10
2201.120897978858
 20
1645.586282173921
 30
0.0
 11
2197.920897978858
 21
1645.586282173921
 31
0.0
  0
LINE
  5
BC3
330
1F
100
AcDbEntity
  8
groove
100
AcDbLine
 10
2197.920897978858
 20
1645.586282173921
 30
0.0
 11
2197.920897978858
 21
1643.186282173921
 31
0.0
  0
LINE
  5
BC4
330
1F
100
AcDbEntity
  8
groove
100
AcDbLine
 10
2197.920897978858
 20
1643.186282173921
 30
0.0
 11
2201.120897978858
 21
1643.186282173921
 31
0.0
  0
LINE
  5
BC5
330
1F
100
AcDbEntity
  8
groove
100
AcDbLine
 10
2201.120897978858
 20
1643.186282173921
 30
0.0
 11
2201.120897978858
 21
1644.386282173921
 31
0.0
  0
LINE
  5
BC6
330
1F
100
AcDbEntity
  8
groove
100
AcDbLine
 10
2213.920897978858
 20
1644.386282173921
 30
0.0
 11
2213.920897978858
 21
1645.586282173921
 31
0.0
  0
LINE
  5
BC7
330
1F
100
AcDbEntity
  8
groove
100
AcDbLine
 10
2213.920897978858
 20
1645.586282173921
 30
0.0
 11
2217.120897978858
 21
1645.586282173921
 31
0.0
  0
LINE
  5
BC8
330
1F
100
AcDbEntity
  8
groove
100
AcDbLine
 10
2217.120897978858
 20
1645.586282173921
 30
0.0
 11
2217.120897978858
 21
1643.186282173921
 31
0.0
  0
LINE
  5
BC9
330
1F
100
AcDbEntity
  8
groove
100
AcDbLine
 10
2217.120897978858
 20
1643.186282173921
 30
0.0
 11
2213.920897978858
 21
1643.186282173921
 31
0.0
  0
LINE
  5
BCA
330
1F
100
AcDbEntity
  8
groove
100
AcDbLine
 10
2213.920897978858
 20
1643.186282173921
 30
0.0
 11
2213.920897978858
 21
1644.386282173921
 31
0.0
  0
LINE
  5
BCB
330
1F
100
AcDbEntity
  8
groove
100
AcDbLine
 10
2246.320897978857
 20
1683.596282174055
 30
0.0
 11
2246.320897978857
 21
1684.796282174055
 31
0.0
  0
LINE
  5
BCC
330
1F
100
AcDbEntity
  8
groove
100
AcDbLine
 10
2246.320897978857
 20
1684.796282174055
 30
0.0
 11
2243.120897978857
 21
1684.796282174055
 31
0.0
  0
LINE
  5
BCD
330
1F
100
AcDbEntity
  8
groove
100
AcDbLine
 10
2243.120897978857
 20
1684.796282174055
 30
0.0
 11
2243.120897978857
 21
1682.396282174055
 31
0.0
  0
LINE
  5
BCE
330
1F
100
AcDbEntity
  8
groove
100
AcDbLine
 10
2243.120897978857
 20
1682.396282174055
 30
0.0
 11
2246.320897978857
 21
1682.396282174055
 31
0.0
  0
LINE
  5
BCF
330
1F
100
AcDbEntity
  8
groove
100
AcDbLine
 10
2246.320897978857
 20
1682.396282174055
 30
0.0
 11
2246.320897978857
 21
1683.596282174055
 31
0.0
  0
LINE
  5
BD0
330
1F
100
AcDbEntity
  8
groove
100
AcDbLine
 10
2259.120897978857
 20
1683.596282174055
 30
0.0
 11
2259.120897978857
 21
1684.796282174055
 31
0.0
  0
LINE
  5
BD1
330
1F
100
AcDbEntity
  8
groove
100
AcDbLine
 10
2259.120897978857
 20
1684.796282174055
 30
0.0
 11
2262.320897978857
 21
1684.796282174055
 31
0.0
  0
LINE
  5
BD2
330
1F
100
AcDbEntity
  8
groove
100
AcDbLine
 10
2262.320897978857
 20
1684.796282174055
 30
0.0
 11
2262.320897978857
 21
1682.396282174055
 31
0.0
  0
LINE
  5
BD3
330
1F
100
AcDbEntity
  8
groove
100
AcDbLine
 10
2262.320897978857
 20
1682.396282174055
 30
0.0
 11
2259.120897978857
 21
1682.396282174055
 31
0.0
  0
LINE
  5
BD4
330
1F
100
AcDbEntity
  8
groove
100
AcDbLine
 10
2259.120897978857
 20
1682.396282174055
 30
0.0
 11
2259.120897978857
 21
1683.596282174055
 31
0.0
  0
LINE
  5
BD5
330
1F
100
AcDbEntity
  8
groove
100
AcDbLine
 10
2246.320897978857
 20
1679.256282174054
 30
0.0
 11
2246.320897978857
 21
1680.456282174055
 31
0.0
  0
LINE
  5
BD6
330
1F
100
AcDbEntity
  8
groove
100
AcDbLine
 10
2246.320897978857
 20
1680.456282174055
 30
0.0
 11
2243.120897978857
 21
1680.456282174055
 31
0.0
  0
LINE
  5
BD7
330
1F
100
AcDbEntity
  8
groove
100
AcDbLine
 10
2243.120897978857
 20
1680.456282174055
 30
0.0
 11
2243.120897978857
 21
1678.056282174054
 31
0.0
  0
LINE
  5
BD8
330
1F
100
AcDbEntity
  8
groove
100
AcDbLine
 10
2243.120897978857
 20
1678.056282174054
 30
0.0
 11
2246.320897978857
 21
1678.056282174054
 31
0.0
  0
LINE
  5
BD9
330
1F
100
AcDbEntity
  8
groove
100
AcDbLine
 10
2246.320897978857
 20
1678.056282174054
 30
0.0
 11
2246.320897978857
 21
1679.256282174054
 31
0.0
  0
LINE
  5
BDA
330
1F
100
AcDbEntity
  8
groove
100
AcDbLine
 10
2259.120897978857
 20
1679.256282174054
 30
0.0
 11
2259.120897978857
 21
1680.456282174055
 31
0.0
  0
LINE
  5
BDB
330
1F
100
AcDbEntity
  8
groove
100
AcDbLine
 10
2259.120897978857
 20
1680.456282174055
 30
0.0
 11
2262.320897978857
 21
1680.456282174055
 31
0.0
  0
LINE
  5
BDC
330
1F
100
AcDbEntity
  8
groove
100
AcDbLine
 10
2262.320897978857
 20
1680.456282174055
 30
0.0
 11
2262.320897978857
 21
1678.056282174054
 31
0.0
  0
LINE
  5
BDD
330
1F
100
AcDbEntity
  8
groove
100
AcDbLine
 10
2262.320897978857
 20
1678.056282174054
 30
0.0
 11
2259.120897978857
 21
1678.056282174054
 31
0.0
  0
LINE
  5
BDE
330
1F
100
AcDbEntity
  8
groove
100
AcDbLine
 10
2259.120897978857
 20
1678.056282174054
 30
0.0
 11
2259.120897978857
 21
1679.256282174054
 31
0.0
  0
LINE
  5
BDF
330
1F
100
AcDbEntity
  8
groove
100
AcDbLine
 10
2246.320897978857
 20
1674.916282174054
 30
0.0
 11
2246.320897978857
 21
1676.116282174054
 31
0.0
  0
LINE
  5
BE0
330
1F
100
AcDbEntity
  8
groove
100
AcDbLine
 10
2246.320897978857
 20
1676.116282174054
 30
0.0
 11
2243.120897978857
 21
1676.116282174054
 31
0.0
  0
LINE
  5
BE1
330
1F
100
AcDbEntity
  8
groove
100
AcDbLine
 10
2243.120897978857
 20
1676.116282174054
 30
0.0
 11
2243.120897978857
 21
1673.716282174054
 31
0.0
  0
LINE
  5
BE2
330
1F
100
AcDbEntity
  8
groove
100
AcDbLine
 10
2243.120897978857
 20
1673.716282174054
 30
0.0
 11
2246.320897978857
 21
1673.716282174054
 31
0.0
  0
LINE
  5
BE3
330
1F
100
AcDbEntity
  8
groove
100
AcDbLine
 10
2246.320897978857
 20
1673.716282174054
 30
0.0
 11
2246.320897978857
 21
1674.916282174054
 31
0.0
  0
LINE
  5
BE4
330
1F
100
AcDbEntity
  8
groove
100
AcDbLine
 10
2259.120897978857
 20
1674.916282174054
 30
0.0
 11
2259.120897978857
 21
1676.116282174054
 31
0.0
  0
LINE
  5
BE5
330
1F
100
AcDbEntity
  8
groove
100
AcDbLine
 10
2259.120897978857
 20
1676.116282174054
 30
0.0
 11
2262.320897978857
 21
1676.116282174054
 31
0.0
  0
LINE
  5
BE6
330
1F
100
AcDbEntity
  8
groove
100
AcDbLine
 10
2262.320897978857
 20
1676.116282174054
 30
0.0
 11
2262.320897978857
 21
1673.716282174054
 31
0.0
  0
LINE
  5
BE7
330
1F
100
AcDbEntity
  8
groove
100
AcDbLine
 10
2262.320897978857
 20
1673.716282174054
 30
0.0
 11
2259.120897978857
 21
1673.716282174054
 31
0.0
  0
LINE
  5
BE8
330
1F
100
AcDbEntity
  8
groove
100
AcDbLine
 10
2259.120897978857
 20
1673.716282174054
 30
0.0
 11
2259.120897978857
 21
1674.916282174054
 31
0.0
  0
LINE
  5
BE9
330
1F
100
AcDbEntity
  8
groove
100
AcDbLine
 10
2246.320897978857
 20
1670.576282174054
 30
0.0
 11
2246.320897978857
 21
1671.776282174054
 31
0.0
  0
LINE
  5
BEA
330
1F
100
AcDbEntity
  8
groove
100
AcDbLine
 10
2246.320897978857
 20
1671.776282174054
 30
0.0
 11
2243.120897978857
 21
1671.776282174054
 31
0.0
  0
LINE
  5
BEB
330
1F
100
AcDbEntity
  8
groove
100
AcDbLine
 10
2243.120897978857
 20
1671.776282174054
 30
0.0
 11
2243.120897978857
 21
1669.376282174054
 31
0.0
  0
LINE
  5
BEC
330
1F
100
AcDbEntity
  8
groove
100
AcDbLine
 10
2243.120897978857
 20
1669.376282174054
 30
0.0
 11
2246.320897978857
 21
1669.376282174054
 31
0.0
  0
LINE
  5
BED
330
1F
100
AcDbEntity
  8
groove
100
AcDbLine
 10
2246.320897978857
 20
1669.376282174054
 30
0.0
 11
2246.320897978857
 21
1670.576282174054
 31
0.0
  0
LINE
  5
BEE
330
1F
100
AcDbEntity
  8
groove
100
AcDbLine
 10
2259.120897978857
 20
1670.576282174054
 30
0.0
 11
2259.120897978857
 21
1671.776282174054
 31
0.0
  0
LINE
  5
BEF
330
1F
100
AcDbEntity
  8
groove
100
AcDbLine
 10
2259.120897978857
 20
1671.776282174054
 30
0.0
 11
2262.320897978857
 21
1671.776282174054
 31
0.0
  0
LINE
  5
BF0
330
1F
100
AcDbEntity
  8
groove
100
AcDbLine
 10
2262.320897978857
 20
1671.776282174054
 30
0.0
 11
2262.320897978857
 21
1669.376282174054
 31
0.0
  0
LINE
  5
BF1
330
1F
100
AcDbEntity
  8
groove
100
AcDbLine
 10
2262.320897978857
 20
1669.376282174054
 30
0.0
 11
2259.120897978857
 21
1669.376282174054
 31
0.0
  0
LINE
  5
BF2
330
1F
100
AcDbEntity
  8
groove
100
AcDbLine
 10
2259.120897978857
 20
1669.376282174054
 30
0.0
 11
2259.120897978857
 21
1670.576282174054
 31
0.0
  0
LINE
  5
BF3
330
1F
100
AcDbEntity
  8
groove
100
AcDbLine
 10
2246.320897978857
 20
1666.236282174053
 30
0.0
 11
2246.320897978857
 21
1667.436282174054
 31
0.0
  0
LINE
  5
BF4
330
1F
100
AcDbEntity
  8
groove
100
AcDbLine
 10
2246.320897978857
 20
1667.436282174054
 30
0.0
 11
2243.120897978857
 21
1667.436282174054
 31
0.0
  0
LINE
  5
BF5
330
1F
100
AcDbEntity
  8
groove
100
AcDbLine
 10
2243.120897978857
 20
1667.436282174054
 30
0.0
 11
2243.120897978857
 21
1665.036282174053
 31
0.0
  0
LINE
  5
BF6
330
1F
100
AcDbEntity
  8
groove
100
AcDbLine
 10
2243.120897978857
 20
1665.036282174053
 30
0.0
 11
2246.320897978857
 21
1665.036282174053
 31
0.0
  0
LINE
  5
BF7
330
1F
100
AcDbEntity
  8
groove
100
AcDbLine
 10
2246.320897978857
 20
1665.036282174053
 30
0.0
 11
2246.320897978857
 21
1666.236282174053
 31
0.0
  0
LINE
  5
BF8
330
1F
100
AcDbEntity
  8
groove
100
AcDbLine
 10
2259.120897978857
 20
1666.236282174053
 30
0.0
 11
2259.120897978857
 21
1667.436282174054
 31
0.0
  0
LINE
  5
BF9
330
1F
100
AcDbEntity
  8
groove
100
AcDbLine
 10
2259.120897978857
 20
1667.436282174054
 30
0.0
 11
2262.320897978857
 21
1667.436282174054
 31
0.0
  0
LINE
  5
BFA
330
1F
100
AcDbEntity
  8
groove
100
AcDbLine
 10
2262.320897978857
 20
1667.436282174054
 30
0.0
 11
2262.320897978857
 21
1665.036282174053
 31
0.0
  0
LINE
  5
BFB
330
1F
100
AcDbEntity
  8
groove
100
AcDbLine
 10
2262.320897978857
 20
1665.036282174053
 30
0.0
 11
2259.120897978857
 21
1665.036282174053
 31
0.0
  0
LINE
  5
BFC
330
1F
100
AcDbEntity
  8
groove
100
AcDbLine
 10
2259.120897978857
 20
1665.036282174053
 30
0.0
 11
2259.120897978857
 21
1666.236282174053
 31
0.0
  0
LINE
  5
BFD
330
1F
100
AcDbEntity
  8
groove
100
AcDbLine
 10
2246.320897978857
 20
1661.896282174054
 30
0.0
 11
2246.320897978857
 21
1663.096282174054
 31
0.0
  0
LINE
  5
BFE
330
1F
100
AcDbEntity
  8
groove
100
AcDbLine
 10
2246.320897978857
 20
1663.096282174054
 30
0.0
 11
2243.120897978857
 21
1663.096282174054
 31
0.0
  0
LINE
  5
BFF
330
1F
100
AcDbEntity
  8
groove
100
AcDbLine
 10
2243.120897978857
 20
1663.096282174054
 30
0.0
 11
2243.120897978857
 21
1660.696282174054
 31
0.0
  0
LINE
  5
C00
330
1F
100
AcDbEntity
  8
groove
100
AcDbLine
 10
2243.120897978857
 20
1660.696282174054
 30
0.0
 11
2246.320897978857
 21
1660.696282174054
 31
0.0
  0
LINE
  5
C01
330
1F
100
AcDbEntity
  8
groove
100
AcDbLine
 10
2246.320897978857
 20
1660.696282174054
 30
0.0
 11
2246.320897978857
 21
1661.896282174054
 31
0.0
  0
LINE
  5
C02
330
1F
100
AcDbEntity
  8
groove
100
AcDbLine
 10
2259.120897978857
 20
1661.896282174054
 30
0.0
 11
2259.120897978857
 21
1663.096282174054
 31
0.0
  0
LINE
  5
C03
330
1F
100
AcDbEntity
  8
groove
100
AcDbLine
 10
2259.120897978857
 20
1663.096282174054
 30
0.0
 11
2262.320897978857
 21
1663.096282174054
 31
0.0
  0
LINE
  5
C04
330
1F
100
AcDbEntity
  8
groove
100
AcDbLine
 10
2262.320897978857
 20
1663.096282174054
 30
0.0
 11
2262.320897978857
 21
1660.696282174054
 31
0.0
  0
LINE
  5
C05
330
1F
100
AcDbEntity
  8
groove
100
AcDbLine
 10
2262.320897978857
 20
1660.696282174054
 30
0.0
 11
2259.120897978857
 21
1660.696282174054
 31
0.0
  0
LINE
  5
C06
330
1F
100
AcDbEntity
  8
groove
100
AcDbLine
 10
2259.120897978857
 20
1660.696282174054
 30
0.0
 11
2259.120897978857
 21
1661.896282174054
 31
0.0
  0
LINE
  5
C07
330
1F
100
AcDbEntity
  8
groove
100
AcDbLine
 10
2246.320897978857
 20
1657.556282174054
 30
0.0
 11
2246.320897978857
 21
1658.756282174054
 31
0.0
  0
LINE
  5
C08
330
1F
100
AcDbEntity
  8
groove
100
AcDbLine
 10
2246.320897978857
 20
1658.756282174054
 30
0.0
 11
2243.120897978857
 21
1658.756282174054
 31
0.0
  0
LINE
  5
C09
330
1F
100
AcDbEntity
  8
groove
100
AcDbLine
 10
2243.120897978857
 20
1658.756282174054
 30
0.0
 11
2243.120897978857
 21
1656.356282174054
 31
0.0
  0
LINE
  5
C0A
330
1F
100
AcDbEntity
  8
groove
100
AcDbLine
 10
2243.120897978857
 20
1656.356282174054
 30
0.0
 11
2246.320897978857
 21
1656.356282174054
 31
0.0
  0
LINE
  5
C0B
330
1F
100
AcDbEntity
  8
groove
100
AcDbLine
 10
2246.320897978857
 20
1656.356282174054
 30
0.0
 11
2246.320897978857
 21
1657.556282174054
 31
0.0
  0
LINE
  5
C0C
330
1F
100
AcDbEntity
  8
groove
100
AcDbLine
 10
2259.120897978857
 20
1657.556282174054
 30
0.0
 11
2259.120897978857
 21
1658.756282174054
 31
0.0
  0
LINE
  5
C0D
330
1F
100
AcDbEntity
  8
groove
100
AcDbLine
 10
2259.120897978857
 20
1658.756282174054
 30
0.0
 11
2262.320897978857
 21
1658.756282174054
 31
0.0
  0
LINE
  5
C0E
330
1F
100
AcDbEntity
  8
groove
100
AcDbLine
 10
2262.320897978857
 20
1658.756282174054
 30
0.0
 11
2262.320897978857
 21
1656.356282174054
 31
0.0
  0
LINE
  5
C0F
330
1F
100
AcDbEntity
  8
groove
100
AcDbLine
 10
2262.320897978857
 20
1656.356282174054
 30
0.0
 11
2259.120897978857
 21
1656.356282174054
 31
0.0
  0
LINE
  5
C10
330
1F
100
AcDbEntity
  8
groove
100
AcDbLine
 10
2259.120897978857
 20
1656.356282174054
 30
0.0
 11
2259.120897978857
 21
1657.556282174054
 31
0.0
  0
LINE
  5
C11
330
1F
100
AcDbEntity
  8
groove
100
AcDbLine
 10
2246.320897978857
 20
1653.216282174054
 30
0.0
 11
2246.320897978857
 21
1654.416282174054
 31
0.0
  0
LINE
  5
C12
330
1F
100
AcDbEntity
  8
groove
100
AcDbLine
 10
2246.320897978857
 20
1654.416282174054
 30
0.0
 11
2243.120897978857
 21
1654.416282174054
 31
0.0
  0
LINE
  5
C13
330
1F
100
AcDbEntity
  8
groove
100
AcDbLine
 10
2243.120897978857
 20
1654.416282174054
 30
0.0
 11
2243.120897978857
 21
1652.016282174054
 31
0.0
  0
LINE
  5
C14
330
1F
100
AcDbEntity
  8
groove
100
AcDbLine
 10
2243.120897978857
 20
1652.016282174054
 30
0.0
 11
2246.320897978857
 21
1652.016282174054
 31
0.0
  0
LINE
  5
C15
330
1F
100
AcDbEntity
  8
groove
100
AcDbLine
 10
2246.320897978857
 20
1652.016282174054
 30
0.0
 11
2246.320897978857
 21
1653.216282174054
 31
0.0
  0
LINE
  5
C16
330
1F
100
AcDbEntity
  8
groove
100
AcDbLine
 10
2259.120897978857
 20
1653.216282174054
 30
0.0
 11
2259.120897978857
 21
1654.416282174054
 31
0.0
  0
LINE
  5
C17
330
1F
100
AcDbEntity
  8
groove
100
AcDbLine
 10
2259.120897978857
 20
1654.416282174054
 30
0.0
 11
2262.320897978857
 21
1654.416282174054
 31
0.0
  0
LINE
  5
C18
330
1F
100
AcDbEntity
  8
groove
100
AcDbLine
 10
2262.320897978857
 20
1654.416282174054
 30
0.0
 11
2262.320897978857
 21
1652.016282174054
 31
0.0
  0
LINE
  5
C19
330
1F
100
AcDbEntity
  8
groove
100
AcDbLine
 10
2262.320897978857
 20
1652.016282174054
 30
0.0
 11
2259.120897978857
 21
1652.016282174054
 31
0.0
  0
LINE
  5
C1A
330
1F
100
AcDbEntity
  8
groove
100
AcDbLine
 10
2259.120897978857
 20
1652.016282174054
 30
0.0
 11
2259.120897978857
 21
1653.216282174054
 31
0.0
  0
LINE
  5
C1B
330
1F
100
AcDbEntity
  8
groove
100
AcDbLine
 10
2246.320897978857
 20
1648.876282174054
 30
0.0
 11
2246.320897978857
 21
1650.076282174054
 31
0.0
  0
LINE
  5
C1C
330
1F
100
AcDbEntity
  8
groove
100
AcDbLine
 10
2246.320897978857
 20
1650.076282174054
 30
0.0
 11
2243.120897978857
 21
1650.076282174054
 31
0.0
  0
LINE
  5
C1D
330
1F
100
AcDbEntity
  8
groove
100
AcDbLine
 10
2243.120897978857
 20
1650.076282174054
 30
0.0
 11
2243.120897978857
 21
1647.676282174054
 31
0.0
  0
LINE
  5
C1E
330
1F
100
AcDbEntity
  8
groove
100
AcDbLine
 10
2243.120897978857
 20
1647.676282174054
 30
0.0
 11
2246.320897978857
 21
1647.676282174054
 31
0.0
  0
LINE
  5
C1F
330
1F
100
AcDbEntity
  8
groove
100
AcDbLine
 10
2246.320897978857
 20
1647.676282174054
 30
0.0
 11
2246.320897978857
 21
1648.876282174054
 31
0.0
  0
LINE
  5
C20
330
1F
100
AcDbEntity
  8
groove
100
AcDbLine
 10
2259.120897978857
 20
1648.876282174054
 30
0.0
 11
2259.120897978857
 21
1650.076282174054
 31
0.0
  0
LINE
  5
C21
330
1F
100
AcDbEntity
  8
groove
100
AcDbLine
 10
2259.120897978857
 20
1650.076282174054
 30
0.0
 11
2262.320897978857
 21
1650.076282174054
 31
0.0
  0
LINE
  5
C22
330
1F
100
AcDbEntity
  8
groove
100
AcDbLine
 10
2262.320897978857
 20
1650.076282174054
 30
0.0
 11
2262.320897978857
 21
1647.676282174054
 31
0.0
  0
LINE
  5
C23
330
1F
100
AcDbEntity
  8
groove
100
AcDbLine
 10
2262.320897978857
 20
1647.676282174054
 30
0.0
 11
2259.120897978857
 21
1647.676282174054
 31
0.0
  0
LINE
  5
C24
330
1F
100
AcDbEntity
  8
groove
100
AcDbLine
 10
2259.120897978857
 20
1647.676282174054
 30
0.0
 11
2259.120897978857
 21
1648.876282174054
 31
0.0
  0
LINE
  5
C25
330
1F
100
AcDbEntity
  8
groove
100
AcDbLine
 10
2246.320897978857
 20
1644.536282174053
 30
0.0
 11
2246.320897978857
 21
1645.736282174053
 31
0.0
  0
LINE
  5
C26
330
1F
100
AcDbEntity
  8
groove
100
AcDbLine
 10
2246.320897978857
 20
1645.736282174053
 30
0.0
 11
2243.120897978857
 21
1645.736282174053
 31
0.0
  0
LINE
  5
C27
330
1F
100
AcDbEntity
  8
groove
100
AcDbLine
 10
2243.120897978857
 20
1645.736282174053
 30
0.0
 11
2243.120897978857
 21
1643.336282174053
 31
0.0
  0
LINE
  5
C28
330
1F
100
AcDbEntity
  8
groove
100
AcDbLine
 10
2243.120897978857
 20
1643.336282174053
 30
0.0
 11
2246.320897978857
 21
1643.336282174053
 31
0.0
  0
LINE
  5
C29
330
1F
100
AcDbEntity
  8
groove
100
AcDbLine
 10
2246.320897978857
 20
1643.336282174053
 30
0.0
 11
2246.320897978857
 21
1644.536282174053
 31
0.0
  0
LINE
  5
C2A
330
1F
100
AcDbEntity
  8
groove
100
AcDbLine
 10
2259.120897978857
 20
1644.536282174053
 30
0.0
 11
2259.120897978857
 21
1645.736282174053
 31
0.0
  0
LINE
  5
C2B
330
1F
100
AcDbEntity
  8
groove
100
AcDbLine
 10
2259.120897978857
 20
1645.736282174053
 30
0.0
 11
2262.320897978857
 21
1645.736282174053
 31
0.0
  0
LINE
  5
C2C
330
1F
100
AcDbEntity
  8
groove
100
AcDbLine
 10
2262.320897978857
 20
1645.736282174053
 30
0.0
 11
2262.320897978857
 21
1643.336282174053
 31
0.0
  0
LINE
  5
C2D
330
1F
100
AcDbEntity
  8
groove
100
AcDbLine
 10
2262.320897978857
 20
1643.336282174053
 30
0.0
 11
2259.120897978857
 21
1643.336282174053
 31
0.0
  0
LINE
  5
C2E
330
1F
100
AcDbEntity
  8
groove
100
AcDbLine
 10
2259.120897978857
 20
1643.336282174053
 30
0.0
 11
2259.120897978857
 21
1644.536282174053
 31
0.0
  0
LINE
  5
C2F
330
1F
100
AcDbEntity
  8
groove
100
AcDbLine
 10
2174.803876031811
 20
1663.044282173968
 30
0.0
 11
2174.803876031811
 21
1664.244282173967
 31
0.0
  0
LINE
  5
C30
330
1F
100
AcDbEntity
  8
groove
100
AcDbLine
 10
2174.803876031811
 20
1664.244282173967
 30
0.0
 11
2171.603876031809
 21
1664.244282173967
 31
0.0
  0
LINE
  5
C31
330
1F
100
AcDbEntity
  8
groove
100
AcDbLine
 10
2171.603876031809
 20
1664.244282173967
 30
0.0
 11
2171.603876031809
 21
1661.844282173968
 31
0.0
  0
LINE
  5
C32
330
1F
100
AcDbEntity
  8
groove
100
AcDbLine
 10
2171.603876031809
 20
1661.844282173968
 30
0.0
 11
2174.803876031811
 21
1661.844282173968
 31
0.0
  0
LINE
  5
C33
330
1F
100
AcDbEntity
  8
groove
100
AcDbLine
 10
2174.803876031811
 20
1661.844282173968
 30
0.0
 11
2174.803876031811
 21
1663.044282173968
 31
0.0
  0
LINE
  5
C34
330
1F
100
AcDbEntity
  8
groove
100
AcDbLine
 10
2178.449339857814
 20
1663.044282173968
 30
0.0
 11
2178.449339857814
 21
1664.244282173967
 31
0.0
  0
LINE
  5
C35
330
1F
100
AcDbEntity
  8
groove
100
AcDbLine
 10
2178.449339857814
 20
1664.244282173967
 30
0.0
 11
2175.249339857814
 21
1664.244282173967
 31
0.0
  0
LINE
  5
C36
330
1F
100
AcDbEntity
  8
groove
100
AcDbLine
 10
2175.249339857814
 20
1664.244282173967
 30
0.0
 11
2175.249339857814
 21
1661.844282173968
 31
0.0
  0
LINE
  5
C37
330
1F
100
AcDbEntity
  8
groove
100
AcDbLine
 10
2175.249339857814
 20
1661.844282173968
 30
0.0
 11
2178.449339857814
 21
1661.844282173968
 31
0.0
  0
LINE
  5
C38
330
1F
100
AcDbEntity
  8
groove
100
AcDbLine
 10
2178.449339857814
 20
1661.844282173968
 30
0.0
 11
2178.449339857814
 21
1663.044282173968
 31
0.0
  0
LINE
  5
C39
330
1F
100
AcDbEntity
  8
groove
100
AcDbLine
 10
2174.803876031811
 20
1644.273512869519
 30
0.0
 11
2174.803876031811
 21
1645.473512869519
 31
0.0
  0
LINE
  5
C3A
330
1F
100
AcDbEntity
  8
groove
100
AcDbLine
 10
2174.803876031811
 20
1645.473512869519
 30
0.0
 11
2171.603876031809
 21
1645.473512869519
 31
0.0
  0
LINE
  5
C3B
330
1F
100
AcDbEntity
  8
groove
100
AcDbLine
 10
2171.603876031809
 20
1645.473512869519
 30
0.0
 11
2171.603876031809
 21
1643.073512869519
 31
0.0
  0
LINE
  5
C3C
330
1F
100
AcDbEntity
  8
groove
100
AcDbLine
 10
2171.603876031809
 20
1643.073512869519
 30
0.0
 11
2174.803876031811
 21
1643.073512869519
 31
0.0
  0
LINE
  5
C3D
330
1F
100
AcDbEntity
  8
groove
100
AcDbLine
 10
2174.803876031811
 20
1643.073512869519
 30
0.0
 11
2174.803876031811
 21
1644.273512869519
 31
0.0
  0
LINE
  5
C3E
330
1F
100
AcDbEntity
  8
groove
100
AcDbLine
 10
2178.449339857814
 20
1644.273512869519
 30
0.0
 11
2178.449339857814
 21
1645.473512869519
 31
0.0
  0
LINE
  5
C3F
330
1F
100
AcDbEntity
  8
groove
100
AcDbLine
 10
2178.449339857814
 20
1645.473512869519
 30
0.0
 11
2175.249339857814
 21
1645.473512869519
 31
0.0
  0
LINE
  5
C40
330
1F
100
AcDbEntity
  8
groove
100
AcDbLine
 10
2175.249339857814
 20
1645.473512869519
 30
0.0
 11
2175.249339857814
 21
1643.073512869519
 31
0.0
  0
LINE
  5
C41
330
1F
100
AcDbEntity
  8
groove
100
AcDbLine
 10
2175.249339857814
 20
1643.073512869519
 30
0.0
 11
2178.449339857814
 21
1643.073512869519
 31
0.0
  0
LINE
  5
C42
330
1F
100
AcDbEntity
  8
groove
100
AcDbLine
 10
2178.449339857814
 20
1643.073512869519
 30
0.0
 11
2178.449339857814
 21
1644.273512869519
 31
0.0
  0
LINE
  5
C43
330
1F
100
AcDbEntity
  8
0
100
AcDbLine
 10
2113.697928848024
 20
1510.9984201276
 30
0.0
 11
2109.447928848025
 21
1510.9984201276
 31
0.0
  0
LINE
  5
C44
330
1F
100
AcDbEntity
  8
0
100
AcDbLine
 10
2094.447928848024
 20
1510.9984201276
 30
0.0
 11
2074.447928848024
 21
1510.9984201276
 31
0.0
  0
LINE
  5
C45
330
1F
100
AcDbEntity
  8
0
100
AcDbLine
 10
2059.447928848024
 20
1510.9984201276
 30
0.0
 11
2055.197928848024
 21
1510.9984201276
 31
0.0
  0
LWPOLYLINE
  5
C46
330
1F
100
AcDbEntity
  8
0
100
AcDbPolyline
 90
        2
 70
     0
 43
0.0
 10
2109.447928848025
 20
1508.9984201276
 10
2094.447928848024
 20
1508.9984201276
  0
LWPOLYLINE
  5
C47
330
1F
100
AcDbEntity
  8
0
100
AcDbPolyline
 90
        3
 70
     0
 43
0.0
 10
2074.447928848024
 20
1508.9984201276
 10
2063.197928848024
 20
1508.9984201276
 10
2059.447928848024
 20
1508.9984201276
  0
LINE
  5
C48
330
1F
100
AcDbEntity
  8
0
100
AcDbLine
 10
2094.447928848024
 20
1510.9984201276
 30
0.0
 11
2094.447928848024
 21
1508.9984201276
 31
0.0
  0
LINE
  5
C49
330
1F
100
AcDbEntity
  8
0
100
AcDbLine
 10
2109.447928848025
 20
1510.9984201276
 30
0.0
 11
2109.447928848025
 21
1508.9984201276
 31
0.0
  0
LINE
  5
C4A
330
1F
100
AcDbEntity
  8
0
100
AcDbLine
 10
2074.447928848024
 20
1510.9984201276
 30
0.0
 11
2074.447928848024
 21
1508.9984201276
 31
0.0
  0
LINE
  5
C4B
102
{ACAD_REACTORS
330
CB9
102
}
330
1F
100
AcDbEntity
  8
0
100
AcDbLine
 10
2059.447928848024
 20
1510.9984201276
 30
0.0
 11
2059.447928848024
 21
1508.9984201276
 31
0.0
  0
LINE
  5
C4C
330
1F
100
AcDbEntity
  8
0
100
AcDbLine
 10
2055.197928848024
 20
1510.9984201276
 30
0.0
 11
2055.197928848024
 21
1559.00174944001
 31
0.0
  0
LINE
  5
C4D
330
1F
100
AcDbEntity
  8
0
100
AcDbLine
 10
2113.697928848024
 20
1510.9984201276
 30
0.0
 11
2113.697928848024
 21
1559.00174944001
 31
0.0
  0
LINE
  5
C4E
330
1F
100
AcDbEntity
  8
0
100
AcDbLine
 10
2113.697928848024
 20
1559.00174944001
 30
0.0
 11
2109.447928848025
 21
1559.00174944001
 31
0.0
  0
LINE
  5
C4F
330
1F
100
AcDbEntity
  8
0
100
AcDbLine
 10
2094.447928848024
 20
1559.00174944001
 30
0.0
 11
2074.447928848024
 21
1559.00174944001
 31
0.0
  0
LINE
  5
C50
330
1F
100
AcDbEntity
  8
0
100
AcDbLine
 10
2059.447928848024
 20
1559.00174944001
 30
0.0
 11
2055.197928848024
 21
1559.00174944001
 31
0.0
  0
LWPOLYLINE
  5
C51
330
1F
100
AcDbEntity
  8
0
100
AcDbPolyline
 90
        2
 70
     0
 43
0.0
 10
2109.447928848025
 20
1561.00174944001
 10
2094.447928848024
 20
1561.00174944001
  0
LWPOLYLINE
  5
C52
330
1F
100
AcDbEntity
  8
0
100
AcDbPolyline
 90
        3
 70
     0
 43
0.0
 10
2074.447928848024
 20
1561.00174944001
 10
2063.197928848024
 20
1561.00174944001
 10
2059.447928848024
 20
1561.00174944001
  0
LINE
  5
C53
330
1F
100
AcDbEntity
  8
0
100
AcDbLine
 10
2094.447928848024
 20
1559.00174944001
 30
0.0
 11
2094.447928848024
 21
1561.00174944001
 31
0.0
  0
LINE
  5
C54
330
1F
100
AcDbEntity
  8
0
100
AcDbLine
 10
2109.447928848025
 20
1559.00174944001
 30
0.0
 11
2109.447928848025
 21
1561.00174944001
 31
0.0
  0
LINE
  5
C55
330
1F
100
AcDbEntity
  8
0
100
AcDbLine
 10
2074.447928848024
 20
1559.00174944001
 30
0.0
 11
2074.447928848024
 21
1561.00174944001
 31
0.0
  0
LINE
  5
C56
102
{ACAD_REACTORS
330
CB9
102
}
330
1F
100
AcDbEntity
  8
0
100
AcDbLine
 10
2059.447928848024
 20
1559.00174944001
 30
0.0
 11
2059.447928848024
 21
1561.00174944001
 31
0.0
  0
LINE
  5
C57
330
1F
100
AcDbEntity
  8
0
100
AcDbLine
 10
2066.947928848025
 20
1515.002860593815
 30
0.0
 11
2077.947928848024
 21
1515.002860593815
 31
0.0
  0
LINE
  5
C58
330
1F
100
AcDbEntity
  8
0
100
AcDbLine
 10
2097.947928848023
 20
1515.002860593815
 30
0.0
 11
2106.947928848024
 21
1515.002860593815
 31
0.0
  0
LINE
  5
C59
330
1F
100
AcDbEntity
  8
0
100
AcDbLine
 10
2066.947928848025
 20
1515.002860593815
 30
0.0
 11
2066.947928848025
 21
1526.002860593814
 31
0.0
  0
LINE
  5
C5A
330
1F
100
AcDbEntity
  8
0
100
AcDbLine
 10
2077.947928848024
 20
1515.002860593815
 30
0.0
 11
2077.947928848024
 21
1526.002860593814
 31
0.0
  0
LINE
  5
C5B
330
1F
100
AcDbEntity
  8
0
100
AcDbLine
 10
2097.947928848023
 20
1515.002860593815
 30
0.0
 11
2097.947928848023
 21
1526.002860593814
 31
0.0
  0
LINE
  5
C5C
330
1F
100
AcDbEntity
  8
0
100
AcDbLine
 10
2066.947928848025
 20
1515.002860593815
 30
0.0
 11
2077.947928848024
 21
1515.002860593815
 31
0.0
  0
LINE
  5
C5D
330
1F
100
AcDbEntity
  8
0
100
AcDbLine
 10
2097.947928848023
 20
1515.002860593815
 30
0.0
 11
2106.947928848024
 21
1515.002860593815
 31
0.0
  0
LINE
  5
C5E
330
1F
100
AcDbEntity
  8
0
100
AcDbLine
 10
2106.947928848024
 20
1515.002860593815
 30
0.0
 11
2106.947928848024
 21
1526.002860593814
 31
0.0
  0
LINE
  5
C5F
330
1F
100
AcDbEntity
  8
0
100
AcDbLine
 10
2066.947928848025
 20
1526.002860593814
 30
0.0
 11
2077.947928848024
 21
1526.002860593814
 31
0.0
  0
LINE
  5
C60
330
1F
100
AcDbEntity
  8
0
100
AcDbLine
 10
2097.947928848023
 20
1526.002860593814
 30
0.0
 11
2106.947928848024
 21
1526.002860593814
 31
0.0
  0
LINE
  5
C61
330
1F
100
AcDbEntity
  8
0
100
AcDbLine
 10
2173.633414279319
 20
1510.9984201276
 30
0.0
 11
2169.38341427932
 21
1510.9984201276
 31
0.0
  0
LINE
  5
C62
330
1F
100
AcDbEntity
  8
0
100
AcDbLine
 10
2154.383414279319
 20
1510.9984201276
 30
0.0
 11
2134.383414279319
 21
1510.9984201276
 31
0.0
  0
LINE
  5
C63
330
1F
100
AcDbEntity
  8
0
100
AcDbLine
 10
2119.383414279319
 20
1510.9984201276
 30
0.0
 11
2115.133414279319
 21
1510.9984201276
 31
0.0
  0
LWPOLYLINE
  5
C64
330
1F
100
AcDbEntity
  8
0
100
AcDbPolyline
 90
        2
 70
     0
 43
0.0
 10
2169.38341427932
 20
1508.9984201276
 10
2154.383414279319
 20
1508.9984201276
  0
LWPOLYLINE
  5
C65
330
1F
100
AcDbEntity
  8
0
100
AcDbPolyline
 90
        3
 70
     0
 43
0.0
 10
2134.383414279319
 20
1508.9984201276
 10
2123.133414279319
 20
1508.9984201276
 10
2119.383414279319
 20
1508.9984201276
  0
LINE
  5
C66
330
1F
100
AcDbEntity
  8
0
100
AcDbLine
 10
2154.383414279319
 20
1510.9984201276
 30
0.0
 11
2154.383414279319
 21
1508.9984201276
 31
0.0
  0
LINE
  5
C67
330
1F
100
AcDbEntity
  8
0
100
AcDbLine
 10
2169.38341427932
 20
1510.9984201276
 30
0.0
 11
2169.38341427932
 21
1508.9984201276
 31
0.0
  0
LINE
  5
C68
330
1F
100
AcDbEntity
  8
0
100
AcDbLine
 10
2134.383414279319
 20
1510.9984201276
 30
0.0
 11
2134.383414279319
 21
1508.9984201276
 31
0.0
  0
LINE
  5
C69
330
1F
100
AcDbEntity
  8
0
100
AcDbLine
 10
2119.383414279319
 20
1510.9984201276
 30
0.0
 11
2119.383414279319
 21
1508.9984201276
 31
0.0
  0
LINE
  5
C6A
330
1F
100
AcDbEntity
  8
0
100
AcDbLine
 10
2115.133414279319
 20
1510.9984201276
 30
0.0
 11
2115.133414279319
 21
1559.00174944001
 31
0.0
  0
LINE
  5
C6B
330
1F
100
AcDbEntity
  8
0
100
AcDbLine
 10
2173.633414279319
 20
1510.9984201276
 30
0.0
 11
2173.633414279319
 21
1559.00174944001
 31
0.0
  0
LINE
  5
C6C
330
1F
100
AcDbEntity
  8
0
100
AcDbLine
 10
2173.633414279319
 20
1559.00174944001
 30
0.0
 11
2169.38341427932
 21
1559.00174944001
 31
0.0
  0
LINE
  5
C6D
330
1F
100
AcDbEntity
  8
0
100
AcDbLine
 10
2154.383414279319
 20
1559.00174944001
 30
0.0
 11
2134.383414279319
 21
1559.00174944001
 31
0.0
  0
LINE
  5
C6E
330
1F
100
AcDbEntity
  8
0
100
AcDbLine
 10
2119.383414279319
 20
1559.00174944001
 30
0.0
 11
2115.133414279319
 21
1559.00174944001
 31
0.0
  0
LWPOLYLINE
  5
C6F
330
1F
100
AcDbEntity
  8
0
100
AcDbPolyline
 90
        2
 70
     0
 43
0.0
 10
2169.38341427932
 20
1561.00174944001
 10
2154.383414279319
 20
1561.00174944001
  0
LWPOLYLINE
  5
C70
330
1F
100
AcDbEntity
  8
0
100
AcDbPolyline
 90
        3
 70
     0
 43
0.0
 10
2134.383414279319
 20
1561.00174944001
 10
2123.133414279319
 20
1561.00174944001
 10
2119.383414279319
 20
1561.00174944001
  0
LINE
  5
C71
330
1F
100
AcDbEntity
  8
0
100
AcDbLine
 10
2154.383414279319
 20
1559.00174944001
 30
0.0
 11
2154.383414279319
 21
1561.00174944001
 31
0.0
  0
LINE
  5
C72
330
1F
100
AcDbEntity
  8
0
100
AcDbLine
 10
2169.38341427932
 20
1559.00174944001
 30
0.0
 11
2169.38341427932
 21
1561.00174944001
 31
0.0
  0
LINE
  5
C73
330
1F
100
AcDbEntity
  8
0
100
AcDbLine
 10
2134.383414279319
 20
1559.00174944001
 30
0.0
 11
2134.383414279319
 21
1561.00174944001
 31
0.0
  0
LINE
  5
C74
330
1F
100
AcDbEntity
  8
0
100
AcDbLine
 10
2119.383414279319
 20
1559.00174944001
 30
0.0
 11
2119.383414279319
 21
1561.00174944001
 31
0.0
  0
LINE
  5
C75
330
1F
100
AcDbEntity
  8
0
100
AcDbLine
 10
2227.547398793603
 20
1558.112375482431
 30
0.0
 11
2232.547398793603
 21
1558.112375482431
 31
0.0
  0
DIMENSION
  5
C76
102
{ACAD_XDICTIONARY
360
C77
102
}
102
{ACAD_REACTORS
330
C78
102
}
330
1F
100
AcDbEntity
  8
groove
100
AcDbDimension
280
     0
  2
*D10
 10
2043.870993501166
 20
1753.591807754142
 30
0.0
 11
2041.969561031862
 21
1779.591807754141
 31
0.0
 70
    33
 71
     5
 42
52.0
 73
     0
 74
     0
 75
     0
  3
ISO-25
100
AcDbAlignedDimension
 13
2074.194936696219
 23
1805.591807754141
 33
0.0
 14
2074.194936696219
 24
1753.591807754141
 34
0.0
  0
DIMENSION
  5
C79
102
{ACAD_XDICTIONARY
360
C7A
102
}
102
{ACAD_REACTORS
330
C7B
102
}
330
1F
100
AcDbEntity
  8
groove
100
AcDbDimension
280
     0
  2
*D11
 10
2297.094936696218
 20
1814.42821055907
 30
0.0
 11
2179.194936696217
 21
1816.55559800791
 31
0.0
 70
    33
 71
     5
 42
235.8000000000016
 73
     0
 74
     0
 75
     0
  3
ISO-25
100
AcDbAlignedDimension
 13
2061.294936696217
 23
1803.591807754141
 33
0.0
 14
2297.094936696218
 24
1803.591807754141
 34
0.0
  0
LWPOLYLINE
  5
C7C
330
1F
100
AcDbEntity
  8
0
100
AcDbPolyline
 90
        2
 70
     0
 43
0.0
 10
2101.211583094119
 20
1503.184058858564
 10
2131.21158309412
 20
1503.184058858564
  0
LWPOLYLINE
  5
C7D
330
1F
100
AcDbEntity
  8
0
100
AcDbPolyline
 90
        2
 70
     0
 43
0.0
 10
2161.21158309412
 20
1503.184058858564
 10
2191.211583094121
 20
1503.184058858564
  0
LWPOLYLINE
  5
C7E
330
1F
100
AcDbEntity
  8
0
100
AcDbPolyline
 90
        2
 70
     0
 43
0.0
 10
2221.21158309412
 20
1503.184058858564
 10
2251.21158309412
 20
1503.184058858564
  0
LINE
  5
C7F
330
1F
100
AcDbEntity
  8
0
100
AcDbLine
 10
2281.21158309412
 20
1503.184058858564
 30
0.0
 11
2294.111583094122
 21
1503.184058858564
 31
0.0
  0
LINE
  5
C80
330
1F
100
AcDbEntity
  8
0
100
AcDbLine
 10
2058.311583094121
 20
1440.684058858564
 30
0.0
 11
2058.311583094121
 21
1446.934058858564
 31
0.0
  0
LINE
  5
C81
330
1F
100
AcDbEntity
  8
0
100
AcDbLine
 10
2058.311583094121
 20
1461.934058858564
 30
0.0
 11
2058.311583094121
 21
1481.934058858564
 31
0.0
  0
LINE
  5
C82
330
1F
100
AcDbEntity
  8
0
100
AcDbLine
 10
2058.311583094121
 20
1496.934058858564
 30
0.0
 11
2058.311583094121
 21
1503.184058858564
 31
0.0
  0
LINE
  5
C83
330
1F
100
AcDbEntity
  8
0
100
AcDbLine
 10
2058.311583094121
 20
1503.184058858564
 30
0.0
 11
2071.211583094122
 21
1503.184058858564
 31
0.0
  0
LWPOLYLINE
  5
C84
330
1F
100
AcDbEntity
  8
0
100
AcDbPolyline
 90
        2
 70
     0
 43
0.0
 10
2131.21158309412
 20
1501.184058858564
 10
2161.21158309412
 20
1501.184058858564
  0
LWPOLYLINE
  5
C85
330
1F
100
AcDbEntity
  8
0
100
AcDbPolyline
 90
        2
 70
     0
 43
0.0
 10
2191.211583094121
 20
1501.184058858564
 10
2221.21158309412
 20
1501.184058858564
  0
LWPOLYLINE
  5
C86
330
1F
100
AcDbEntity
  8
0
100
AcDbPolyline
 90
        3
 70
     0
 43
0.0
 10
2251.21158309412
 20
1501.184058858564
 10
2269.111583094122
 20
1501.184058858564
 10
2281.21158309412
 20
1501.184058858564
  0
LWPOLYLINE
  5
C87
330
1F
100
AcDbEntity
  8
0
100
AcDbPolyline
 90
        2
 70
     0
 43
0.0
 10
2060.31158309412
 20
1446.934058858564
 10
2060.31158309412
 20
1461.934058858564
  0
LWPOLYLINE
  5
C88
330
1F
100
AcDbEntity
  8
0
100
AcDbPolyline
 90
        3
 70
     0
 43
0.0
 10
2060.31158309412
 20
1481.934058858564
 10
2060.31158309412
 20
1493.184058858564
 10
2060.31158309412
 20
1496.934058858564
  0
LWPOLYLINE
  5
C89
330
1F
100
AcDbEntity
  8
0
100
AcDbPolyline
 90
        3
 70
     0
 43
0.0
 10
2071.211583094122
 20
1501.184058858564
 10
2083.311583094121
 20
1501.184058858564
 10
2101.211583094119
 20
1501.184058858564
  0
LINE
  5
C8A
330
1F
100
AcDbEntity
  8
0
100
AcDbLine
 10
2161.21158309412
 20
1501.184058858564
 30
0.0
 11
2161.21158309412
 21
1503.184058858564
 31
0.0
  0
LINE
  5
C8B
330
1F
100
AcDbEntity
  8
0
100
AcDbLine
 10
2131.21158309412
 20
1501.184058858564
 30
0.0
 11
2131.21158309412
 21
1503.184058858564
 31
0.0
  0
LINE
  5
C8C
330
1F
100
AcDbEntity
  8
0
100
AcDbLine
 10
2101.211583094119
 20
1501.184058858564
 30
0.0
 11
2101.211583094119
 21
1503.184058858564
 31
0.0
  0
LINE
  5
C8D
330
1F
100
AcDbEntity
  8
0
100
AcDbLine
 10
2071.211583094122
 20
1501.184058858564
 30
0.0
 11
2071.211583094122
 21
1503.184058858564
 31
0.0
  0
LINE
  5
C8E
330
1F
100
AcDbEntity
  8
0
100
AcDbLine
 10
2191.211583094121
 20
1501.184058858564
 30
0.0
 11
2191.211583094121
 21
1503.184058858564
 31
0.0
  0
LINE
  5
C8F
330
1F
100
AcDbEntity
  8
0
100
AcDbLine
 10
2221.21158309412
 20
1501.184058858564
 30
0.0
 11
2221.21158309412
 21
1503.184058858564
 31
0.0
  0
LINE
  5
C90
330
1F
100
AcDbEntity
  8
0
100
AcDbLine
 10
2251.21158309412
 20
1501.184058858564
 30
0.0
 11
2251.21158309412
 21
1503.184058858564
 31
0.0
  0
LINE
  5
C91
330
1F
100
AcDbEntity
  8
0
100
AcDbLine
 10
2281.21158309412
 20
1501.184058858564
 30
0.0
 11
2281.21158309412
 21
1503.184058858564
 31
0.0
  0
LINE
  5
C92
330
1F
100
AcDbEntity
  8
0
100
AcDbLine
 10
2058.311583094121
 20
1461.934058858564
 30
0.0
 11
2060.31158309412
 21
1461.934058858564
 31
0.0
  0
LINE
  5
C93
330
1F
100
AcDbEntity
  8
0
100
AcDbLine
 10
2058.311583094121
 20
1446.934058858564
 30
0.0
 11
2060.31158309412
 21
1446.934058858564
 31
0.0
  0
LINE
  5
C94
330
1F
100
AcDbEntity
  8
0
100
AcDbLine
 10
2058.311583094121
 20
1481.934058858564
 30
0.0
 11
2060.31158309412
 21
1481.934058858564
 31
0.0
  0
LINE
  5
C95
330
1F
100
AcDbEntity
  8
0
100
AcDbLine
 10
2058.311583094121
 20
1496.934058858564
 30
0.0
 11
2060.31158309412
 21
1496.934058858564
 31
0.0
  0
LWPOLYLINE
  5
C96
330
1F
100
AcDbEntity
  8
0
100
AcDbPolyline
 90
        2
 70
     0
 43
0.0
 10
2101.211583094119
 20
1440.684058858564
 10
2131.21158309412
 20
1440.684058858564
  0
LWPOLYLINE
  5
C97
330
1F
100
AcDbEntity
  8
0
100
AcDbPolyline
 90
        2
 70
     0
 43
0.0
 10
2161.21158309412
 20
1440.684058858564
 10
2191.211583094121
 20
1440.684058858564
  0
LWPOLYLINE
  5
C98
330
1F
100
AcDbEntity
  8
0
100
AcDbPolyline
 90
        2
 70
     0
 43
0.0
 10
2221.21158309412
 20
1440.684058858564
 10
2251.21158309412
 20
1440.684058858564
  0
LINE
  5
C99
330
1F
100
AcDbEntity
  8
0
100
AcDbLine
 10
2281.21158309412
 20
1440.684058858564
 30
0.0
 11
2294.111583094122
 21
1440.684058858564
 31
0.0
  0
LINE
  5
C9A
330
1F
100
AcDbEntity
  8
0
100
AcDbLine
 10
2058.311583094121
 20
1440.684058858564
 30
0.0
 11
2071.211583094122
 21
1440.684058858564
 31
0.0
  0
LWPOLYLINE
  5
C9B
330
1F
100
AcDbEntity
  8
0
100
AcDbPolyline
 90
        2
 70
     0
 43
0.0
 10
2131.21158309412
 20
1442.684058858564
 10
2161.21158309412
 20
1442.684058858564
  0
LWPOLYLINE
  5
C9C
330
1F
100
AcDbEntity
  8
0
100
AcDbPolyline
 90
        2
 70
     0
 43
0.0
 10
2191.211583094121
 20
1442.684058858564
 10
2221.21158309412
 20
1442.684058858564
  0
LWPOLYLINE
  5
C9D
330
1F
100
AcDbEntity
  8
0
100
AcDbPolyline
 90
        3
 70
     0
 43
0.0
 10
2251.21158309412
 20
1442.684058858564
 10
2269.111583094122
 20
1442.684058858564
 10
2281.21158309412
 20
1442.684058858564
  0
LWPOLYLINE
  5
C9E
330
1F
100
AcDbEntity
  8
0
100
AcDbPolyline
 90
        3
 70
     0
 43
0.0
 10
2071.211583094122
 20
1442.684058858564
 10
2083.311583094121
 20
1442.684058858564
 10
2101.211583094119
 20
1442.684058858564
  0
LINE
  5
C9F
330
1F
100
AcDbEntity
  8
0
100
AcDbLine
 10
2161.21158309412
 20
1442.684058858564
 30
0.0
 11
2161.21158309412
 21
1440.684058858564
 31
0.0
  0
LINE
  5
CA0
330
1F
100
AcDbEntity
  8
0
100
AcDbLine
 10
2131.21158309412
 20
1442.684058858564
 30
0.0
 11
2131.21158309412
 21
1440.684058858564
 31
0.0
  0
LINE
  5
CA1
330
1F
100
AcDbEntity
  8
0
100
AcDbLine
 10
2101.211583094119
 20
1442.684058858564
 30
0.0
 11
2101.211583094119
 21
1440.684058858564
 31
0.0
  0
LINE
  5
CA2
330
1F
100
AcDbEntity
  8
0
100
AcDbLine
 10
2071.211583094122
 20
1442.684058858564
 30
0.0
 11
2071.211583094122
 21
1440.684058858564
 31
0.0
  0
LINE
  5
CA3
330
1F
100
AcDbEntity
  8
0
100
AcDbLine
 10
2191.211583094121
 20
1442.684058858564
 30
0.0
 11
2191.211583094121
 21
1440.684058858564
 31
0.0
  0
LINE
  5
CA4
330
1F
100
AcDbEntity
  8
0
100
AcDbLine
 10
2221.21158309412
 20
1442.684058858564
 30
0.0
 11
2221.21158309412
 21
1440.684058858564
 31
0.0
  0
LINE
  5
CA5
330
1F
100
AcDbEntity
  8
0
100
AcDbLine
 10
2251.21158309412
 20
1442.684058858564
 30
0.0
 11
2251.21158309412
 21
1440.684058858564
 31
0.0
  0
LINE
  5
CA6
330
1F
100
AcDbEntity
  8
0
100
AcDbLine
 10
2281.21158309412
 20
1442.684058858564
 30
0.0
 11
2281.21158309412
 21
1440.684058858564
 31
0.0
  0
LINE
  5
CA7
330
1F
100
AcDbEntity
  8
0
100
AcDbLine
 10
2294.194918437916
 20
1440.684058858564
 30
0.0
 11
2294.194918437916
 21
1446.934058858564
 31
0.0
  0
LINE
  5
CA8
330
1F
100
AcDbEntity
  8
0
100
AcDbLine
 10
2294.194918437916
 20
1461.934058858564
 30
0.0
 11
2294.194918437916
 21
1481.934058858564
 31
0.0
  0
LINE
  5
CA9
330
1F
100
AcDbEntity
  8
0
100
AcDbLine
 10
2294.194918437916
 20
1496.934058858564
 30
0.0
 11
2294.194918437916
 21
1503.184058858564
 31
0.0
  0
LWPOLYLINE
  5
CAA
330
1F
100
AcDbEntity
  8
0
100
AcDbPolyline
 90
        2
 70
     0
 43
0.0
 10
2292.194918437917
 20
1446.934058858564
 10
2292.194918437917
 20
1461.934058858564
  0
LWPOLYLINE
  5
CAB
330
1F
100
AcDbEntity
  8
0
100
AcDbPolyline
 90
        3
 70
     0
 43
0.0
 10
2292.194918437917
 20
1481.934058858564
 10
2292.194918437917
 20
1493.184058858564
 10
2292.194918437917
 20
1496.934058858564
  0
LINE
  5
CAC
330
1F
100
AcDbEntity
  8
0
100
AcDbLine
 10
2294.194918437916
 20
1461.934058858564
 30
0.0
 11
2292.194918437917
 21
1461.934058858564
 31
0.0
  0
LINE
  5
CAD
330
1F
100
AcDbEntity
  8
0
100
AcDbLine
 10
2294.194918437916
 20
1446.934058858564
 30
0.0
 11
2292.194918437917
 21
1446.934058858564
 31
0.0
  0
LINE
  5
CAE
330
1F
100
AcDbEntity
  8
0
100
AcDbLine
 10
2294.194918437916
 20
1481.934058858564
 30
0.0
 11
2292.194918437917
 21
1481.934058858564
 31
0.0
  0
LINE
  5
CAF
330
1F
100
AcDbEntity
  8
0
100
AcDbLine
 10
2294.194918437916
 20
1496.934058858564
 30
0.0
 11
2292.194918437917
 21
1496.934058858564
 31
0.0
  0
LWPOLYLINE
  5
CB0
330
1F
100
AcDbEntity
  8
0
100
AcDbPolyline
 90
        2
 70
     0
 43
0.0
 10
2060.31158309412
 20
1446.934058858564
 10
2060.31158309412
 20
1461.934058858564
  0
DIMENSION
  5
CB1
102
{ACAD_XDICTIONARY
360
CB2
102
}
102
{ACAD_REACTORS
330
CB3
102
}
330
1F
100
AcDbEntity
  8
groove
100
AcDbDimension
280
     0
  2
*D12
 10
2028.295650796716
 20
1563.550349250144
 30
0.0
 11
2026.168263347874
 21
1594.800349250143
 31
0.0
 70
    33
 71
     5
 42
62.5
 73
     0
 74
     0
 75
     0
  3
ISO-25
100
AcDbAlignedDimension
 13
2055.001592871166
 23
1626.050349250143
 33
0.0
 14
2055.001592871166
 24
1563.550349250143
 34
0.0
  0
DIMENSION
  5
CB4
102
{ACAD_XDICTIONARY
360
CB5
102
}
102
{ACAD_REACTORS
330
CB6
102
}
330
1F
100
AcDbEntity
  8
groove
100
AcDbDimension
280
     0
  2
*D13
 10
2035.997578909764
 20
1633.873282174056
 30
0.0
 11
2033.870191460923
 21
1663.123282174054
 31
0.0
 70
    33
 71
     5
 42
58.5
 73
     0
 74
     0
 75
     0
  3
ISO-25
100
AcDbAlignedDimension
 13
2059.020897978856
 23
1692.373282174054
 33
0.0
 14
2059.020897978856
 24
1633.873282174054
 34
0.0
  0
DIMENSION
  5
CB7
102
{ACAD_XDICTIONARY
360
CB8
102
}
102
{ACAD_REACTORS
330
CB9
102
}
330
1F
100
AcDbEntity
  8
groove
100
AcDbDimension
280
     0
  2
*D14
 10
2028.677810592549
 20
1508.9984201276
 30
0.0
 11
2026.776378123244
 21
1535.000084783804
 31
0.0
 70
    33
 71
     5
 42
52.00332931241042
 73
     0
 74
     0
 75
     0
  3
ISO-25
100
AcDbAlignedDimension
 13
2059.447928848024
 23
1561.00174944001
 33
0.0
 14
2059.447928848024
 24
1508.9984201276
 34
0.0
  0
ENDSEC
  0
SECTION
  2
OBJECTS
  0
DICTIONARY
  5
C
330
0
100
AcDbDictionary
281
     1
  3
ACAD_CIP_PREVIOUS_PRODUCT_INFO
350
216
  3
ACAD_COLOR
350
6B
  3
ACAD_DETAILVIEWSTYLE
350
21B
  3
ACAD_GROUP
350
D
  3
ACAD_LAYOUT
350
1A
  3
ACAD_MATERIAL
350
6A
  3
ACAD_MLEADERSTYLE
350
12D
  3
ACAD_MLINESTYLE
350
17
  3
ACAD_PLOTSETTINGS
350
19
  3
ACAD_PLOTSTYLENAME
350
E
  3
ACAD_SCALELIST
350
10C
  3
ACAD_SECTIONVIEWSTYLE
350
219
  3
ACAD_TABLESTYLE
350
7E
  3
ACAD_VISUALSTYLE
350
EF
  3
ACDB_RECOMPOSE_DATA
350
EBB
  3
AcDbVariableDictionary
350
5E
  3
AcDsDecomposeData
350
EC1
  0
DICTIONARY
  5
1FF
330
2
100
AcDbDictionary
280
     1
281
     1
  3
ACAD_LAYERSTATES
360
200
  0
DICTIONARY
  5
13C
330
10
100
AcDbDictionary
280
     1
281
     1
  0
DICTIONARY
  5
1CE
330
1F
100
AcDbDictionary
280
     1
281
     1
  0
DICTIONARY
  5
C77
330
C76
100
AcDbDictionary
280
     1
281
     1
  3
ACAD_DIMASSOC
360
C78
  0
DICTIONARY
  5
C7A
330
C79
100
AcDbDictionary
280
     1
281
     1
  3
ACAD_DIMASSOC
360
C7B
  0
DICTIONARY
  5
CB2
330
CB1
100
AcDbDictionary
280
     1
281
     1
  3
ACAD_DIMASSOC
360
CB3
  0
DICTIONARY
  5
CB5
330
CB4
100
AcDbDictionary
280
     1
281
     1
  3
ACAD_DIMASSOC
360
CB6
  0
DICTIONARY
  5
CB8
330
CB7
100
AcDbDictionary
280
     1
281
     1
  3
ACAD_DIMASSOC
360
CB9
  0
XRECORD
  5
216
102
{ACAD_REACTORS
330
C
102
}
330
C
100
AcDbXrecord
280
     1
300
ACD
300
2018
300

  0
DICTIONARY
  5
6B
102
{ACAD_REACTORS
330
C
102
}
330
C
100
AcDbDictionary
281
     1
  0
DICTIONARY
  5
21B
102
{ACAD_REACTORS
330
C
102
}
330
C
100
AcDbDictionary
281
     1
  3
Metric50
350
21C
  0
DICTIONARY
  5
D
102
{ACAD_REACTORS
330
C
102
}
330
C
100
AcDbDictionary
281
     1
  0
DICTIONARY
  5
1A
102
{ACAD_REACTORS
330
C
102
}
330
C
100
AcDbDictionary
281
     1
  3
Layout1
350
D3
  3
Layout2
350
D7
  3
Model
350
22
  0
DICTIONARY
  5
6A
102
{ACAD_REACTORS
330
C
102
}
330
C
100
AcDbDictionary
281
     1
  3
ByBlock
350
ED
  3
ByLayer
350
EC
  3
Global
350
EE
  0
DICTIONARY
  5
12D
102
{ACAD_REACTORS
330
C
102
}
330
C
100
AcDbDictionary
281
     1
  3
Annotative
350
13B
  3
Standard
350
12E
  0
DICTIONARY
  5
17
102
{ACAD_REACTORS
330
C
102
}
330
C
100
AcDbDictionary
281
     1
  3
Standard
350
18
  0
DICTIONARY
  5
19
102
{ACAD_REACTORS
330
C
102
}
330
C
100
AcDbDictionary
281
     1
  0
ACDBDICTIONARYWDFLT
  5
E
102
{ACAD_REACTORS
330
C
102
}
330
C
100
AcDbDictionary
281
     1
  3
Normal
350
F
100
AcDbDictionaryWithDefault
340
F
  0
DICTIONARY
  5
10C
102
{ACAD_REACTORS
330
C
102
}
330
C
100
AcDbDictionary
281
     1
  3
A0
350
10D
  3
A1
350
1BE
  3
A2
350
1BF
  3
A3
350
1C0
  3
A4
350
1C1
  3
A5
350
1C2
  3
A6
350
1C3
  3
A7
350
1C4
  3
A8
350
1C5
  3
A9
350
1C6
  3
B0
350
1C7
  3
B1
350
1C8
  3
B2
350
1C9
  3
B3
350
1CA
  3
B4
350
1CB
  3
B5
350
1CC
  3
B6
350
1CD
  0
DICTIONARY
  5
219
102
{ACAD_REACTORS
330
C
102
}
330
C
100
AcDbDictionary
281
     1
  3
Metric50
350
21A
  0
DICTIONARY
  5
7E
102
{ACAD_REACTORS
330
C
102
}
330
C
100
AcDbDictionary
281
     1
  3
Standard
350
7F
  0
DICTIONARY
  5
EF
102
{ACAD_REACTORS
330
C
102
}
330
C
100
AcDbDictionary
281
     1
  3
2dWireframe
350
F5
  3
Basic
350
F4
  3
Brighten
350
FB
  3
ColorChange
350
FF
  3
Conceptual
350
F8
  3
Dim
350
FA
  3
EdgeColorOff
350
1E6
  3
Facepattern
350
FE
  3
Flat
350
F0
  3
FlatWithEdges
350
F1
  3
Gouraud
350
F2
  3
GouraudWithEdges
350
F3
  3
Hidden
350
F7
  3
JitterOff
350
1E4
  3
Linepattern
350
FD
  3
OverhangOff
350
1E5
  3
Realistic
350
F9
  3
Shaded
350
1F3
  3
Shaded with edges
350
1F2
  3
Shades of Gray
350
1EF
  3
Sketchy
350
1F0
  3
Thicken
350
FC
  3
Wireframe
350
F6
  3
X-Ray
350
1F1
  0
XRECORD
  5
EBB
102
{ACAD_REACTORS
330
C
102
}
330
C
100
AcDbXrecord
280
     1
 90
        1
330
7F
  0
DICTIONARY
  5
5E
102
{ACAD_REACTORS
330
C
102
}
330
C
100
AcDbDictionary
281
     1
  3
CANNOSCALE
350
146
  3
CENTEREXE
350
259
  3
CENTERLTYPEFILE
350
25A
  3
CMLEADERSTYLE
350
145
  3
CTABLESTYLE
350
84
  3
CVIEWDETAILSTYLE
350
227
  3
CVIEWSECTIONSTYLE
350
228
  3
DIMASSOC
350
5F
  3
HIDETEXT
350
63
  3
LAYEREVAL
350
1AE
  3
LAYERNOTIFY
350
1AF
  0
DICTIONARY
  5
EC1
102
{ACAD_REACTORS
330
C
102
}
330
C
100
AcDbDictionary
281
     1
  3
AcDsRecords
350
EC3
  3
AcDsSchemas
350
EC2
1001
ACAD
1070
     2
  0
DICTIONARY
  5
200
102
{ACAD_REACTORS
330
1FF
102
}
330
1FF
100
AcDbDictionary
281
     1
  0
DIMASSOC
  5
C78
102
{ACAD_REACTORS
330
C77
102
}
330
C77
100
AcDbDimAssoc
330
C76
 90
        3
 70
     0
 71
     0
  1
AcDbOsnapPointRef
 72
    13
331
95E
 73
     2
 91
        0
 40
0.0
 10
0.0
 20
0.0
 30
2.000000000000000E+50
 75
     0
  1
AcDbOsnapPointRef
 72
    13
331
970
 73
     2
 91
        0
 40
0.0
 10
0.0
 20
0.0
 30
2.000000000000000E+50
 75
     0
  0
DIMASSOC
  5
C7B
102
{ACAD_REACTORS
330
C7A
102
}
330
C7A
100
AcDbDimAssoc
330
C79
 90
        3
 70
     0
 71
     0
  1
AcDbOsnapPointRef
 72
    13
331
963
 73
     2
 91
        0
 40
0.0
 10
0.0
 20
0.0
 30
2.000000000000000E+50
 75
     0
  1
AcDbOsnapPointRef
 72
     1
331
955
 73
     2
 91
        0
 40
0.9999999999999998
 10
0.0
 20
0.0
 30
2.000000000000000E+50
 75
     0
  0
DIMASSOC
  5
CB3
102
{ACAD_REACTORS
330
CB2
102
}
330
CB2
100
AcDbDimAssoc
330
CB1
 90
        3
 70
     0
 71
     0
  1
AcDbOsnapPointRef
 72
    13
331
9A1
 73
     2
 91
        0
 40
0.0
 10
0.0
 20
0.0
 30
2.000000000000000E+50
 75
     0
  1
AcDbOsnapPointRef
 72
    13
331
9B8
 73
     2
 91
        0
 40
0.0
 10
0.0
 20
0.0
 30
2.000000000000000E+50
 75
     0
  0
DIMASSOC
  5
CB6
102
{ACAD_REACTORS
330
CB5
102
}
330
CB5
100
AcDbDimAssoc
330
CB4
 90
        3
 70
     0
 71
     0
  1
AcDbOsnapPointRef
 72
    13
331
8A0
 73
     2
 91
        1
 40
0.0
 10
0.0
 20
0.0
 30
2.000000000000000E+50
 75
     0
  1
AcDbOsnapPointRef
 72
    13
331
8A1
 73
     2
 91
        0
 40
0.0
 10
0.0
 20
0.0
 30
2.000000000000000E+50
 75
     0
  0
DIMASSOC
  5
CB9
102
{ACAD_REACTORS
330
CB8
102
}
330
CB8
100
AcDbDimAssoc
330
CB7
 90
        3
 70
     0
 71
     0
  1
AcDbOsnapPointRef
 72
     1
331
C56
 73
     2
 91
        0
 40
1.0
 10
0.0
 20
0.0
 30
2.000000000000000E+50
 75
     0
  1
AcDbOsnapPointRef
 72
     1
331
C4B
 73
     2
 91
        0
 40
1.0
 10
0.0
 20
0.0
 30
2.000000000000000E+50
 75
     0
  0
ACDBDETAILVIEWSTYLE
  5
21C
102
{ACAD_XDICTIONARY
360
EC6
102
}
102
{ACAD_REACTORS
330
21B
102
}
330
21B
100
AcDbModelDocViewStyle
 70
     0
  3
Metric50
290
     0
100
AcDbDetailViewStyle
 70
     0
 71
     0
 90
        3
 71
     1
340
11
 62
   256
 40
5.0
340
0
 62
   256
 40
5.0
300

 40
0.0
280
     1
 71
     2
340
16
 90
       25
 62
   256
 71
     3
340
11
 62
   256
 40
5.0
 90
        0
 40
15.0
 90
        1
300
%<\AcVar ViewDetailId>% (%<\AcVar ViewScale \f "%sn">%)
 71
     4
340
16
 90
       25
 62
   256
340
16
 90
       25
 62
   256
280
     0
  0
LAYOUT
  5
D3
102
{ACAD_REACTORS
330
1A
102
}
330
1A
100
AcDbPlotSettings
  1

  2
C:\Documents and Settings\basas\Application Data\Autodesk\AutoCAD 2005\R16.1\enu\plotters\Default Windows System Printer.pc3
  4

  6

 40
0.0
 41
0.0
 42
0.0
 43
0.0
 44
0.0
 45
0.0
 46
0.0
 47
0.0
 48
0.0
 49
0.0
140
0.0
141
0.0
142
1.0
143
1.0
 70
   688
 72
     0
 73
     0
 74
     5
  7

 75
    16
147
1.0
 76
     0
 77
     2
 78
   300
148
0.0
149
0.0
100
AcDbLayout
  1
Layout1
 70
     1
 71
     1
 10
0.0
 20
0.0
 11
12.0
 21
9.0
 12
0.0
 22
0.0
 32
0.0
 14
0.0
 24
0.0
 34
0.0
 15
0.0
 25
0.0
 35
0.0
146
0.0
 13
0.0
 23
0.0
 33
0.0
 16
1.0
 26
0.0
 36
0.0
 17
0.0
 27
1.0
 37
0.0
 76
     0
330
D2
  0
LAYOUT
  5
D7
102
{ACAD_REACTORS
330
1A
102
}
330
1A
100
AcDbPlotSettings
  1

  2
C:\Documents and Settings\basas\Application Data\Autodesk\AutoCAD 2005\R16.1\enu\plotters\Default Windows System Printer.pc3
  4

  6

 40
0.0
 41
0.0
 42
0.0
 43
0.0
 44
0.0
 45
0.0
 46
0.0
 47
0.0
 48
0.0
 49
0.0
140
0.0
141
0.0
142
1.0
143
1.0
 70
   688
 72
     0
 73
     0
 74
     5
  7

 75
    16
147
1.0
 76
     0
 77
     2
 78
   300
148
0.0
149
0.0
100
AcDbLayout
  1
Layout2
 70
     1
 71
     2
 10
0.0
 20
0.0
 11
12.0
 21
9.0
 12
0.0
 22
0.0
 32
0.0
 14
0.0
 24
0.0
 34
0.0
 15
0.0
 25
0.0
 35
0.0
146
0.0
 13
0.0
 23
0.0
 33
0.0
 16
1.0
 26
0.0
 36
0.0
 17
0.0
 27
1.0
 37
0.0
 76
     0
330
D6
  0
LAYOUT
  5
22
102
{ACAD_XDICTIONARY
360
205
102
}
102
{ACAD_REACTORS
330
1A
102
}
330
1A
100
AcDbPlotSettings
  1

  2
none_device
  4
ISO_A4_(210.00_x_297.00_MM)
  6

 40
7.5
 41
20.0
 42
7.5
 43
20.0
 44
210.0
 45
297.0
 46
11.54999923706054
 47
-13.65000009536743
 48
0.0
 49
0.0
140
0.0
141
0.0
142
1.0
143
8.704084754739808
 70
 11952
 72
     1
 73
     0
 74
     0
  7

 75
     0
147
0.1148885871608098
 76
     0
 77
     2
 78
   300
148
0.0
149
0.0
100
AcDbLayout
  1
Model
 70
     1
 71
     0
 10
0.0
 20
0.0
 11
12.0
 21
9.0
 12
0.0
 22
0.0
 32
0.0
 14
0.0
 24
0.0
 34
0.0
 15
0.0
 25
0.0
 35
0.0
146
0.0
 13
0.0
 23
0.0
 33
0.0
 16
1.0
 26
0.0
 36
0.0
 17
0.0
 27
1.0
 37
0.0
 76
     0
330
1F
331
EA
1001
ACAD_PSEXT
1000
None
1000
None
1000
Not applicable
1000
The layout will not be plotted unless a new plotter configuration name is selected.
1070
     0
  0
MATERIAL
  5
ED
102
{ACAD_XDICTIONARY
360
1F9
102
}
102
{ACAD_REACTORS
330
6A
102
}
330
6A
100
AcDbMaterial
  1
ByBlock
 94
       63
  0
MATERIAL
  5
EC
102
{ACAD_XDICTIONARY
360
1F7
102
}
102
{ACAD_REACTORS
330
6A
102
}
330
6A
100
AcDbMaterial
  1
ByLayer
 94
       63
  0
MATERIAL
  5
EE
102
{ACAD_XDICTIONARY
360
173
102
}
102
{ACAD_REACTORS
330
6A
102
}
330
6A
100
AcDbMaterial
  1
Global
 43
0.0007999999797903
 43
0.0
 43
0.0
 43
0.0
 43
0.0
 43
0.0007999999797903
 43
0.0
 43
0.0
 43
0.0
 43
0.0
 43
1.0
 43
0.0
 43
0.0
 43
0.0
 43
0.0
 43
1.0
 49
0.0007999999797903
 49
0.0
 49
0.0
 49
0.0
 49
0.0
 49
0.0007999999797903
 49
0.0
 49
0.0
 49
0.0
 49
0.0
 49
1.0
 49
0.0
 49
0.0
 49
0.0
 49
0.0
 49
1.0
142
0.0007999999797903
142
0.0
142
0.0
142
0.0
142
0.0
142
0.0007999999797903
142
0.0
142
0.0
142
0.0
142
0.0
142
1.0
142
0.0
142
0.0
142
0.0
142
0.0
142
1.0
144
0.0007999999797903
144
0.0
144
0.0
144
0.0
144
0.0
144
0.0007999999797903
144
0.0
144
0.0
144
0.0
144
0.0
144
1.0
144
0.0
144
0.0
144
0.0
144
0.0
144
1.0
 94
       63
1001
ACAD
1070
    -1
1070
     3
1070
     0
1000

1071
        0
1070
     0
  0
MLEADERSTYLE
  5
13B
102
{ACAD_REACTORS
330
12D
102
}
330
12D
100
AcDbMLeaderStyle
179
     2
170
     2
171
     1
172
     0
 90
        2
 40
0.0
 41
0.0
173
     1
 91
-1056964608
340
14
 92
       -2
290
     1
 42
2.0
291
     1
 43
8.0
  3
Standard
 44
4.0
300

342
11
174
     1
178
     1
175
     1
176
     0
 93
-1056964608
 45
4.0
292
     0
297
     0
 46
4.0
 94
-1056964608
 47
1.0
 49
1.0
140
1.0
293
     1
141
0.0
294
     1
177
     0
142
1.0
295
     0
296
     1
143
3.75
271
     0
272
     9
273
     9
298
     0
  0
MLEADERSTYLE
  5
12E
102
{ACAD_REACTORS
330
12D
102
}
330
12D
100
AcDbMLeaderStyle
179
     2
170
     2
171
     1
172
     0
 90
        2
 40
0.0
 41
0.0
173
     1
 91
-1056964608
340
14
 92
       -2
290
     1
 42
2.0
291
     1
 43
8.0
  3
Standard
 44
4.0
300

342
11
174
     1
178
     1
175
     1
176
     0
 93
-1056964608
 45
4.0
292
     0
297
     0
 46
4.0
 94
-1056964608
 47
1.0
 49
1.0
140
1.0
293
     1
141
0.0
294
     1
177
     0
142
1.0
295
     0
296
     0
143
3.75
271
     0
272
     9
273
     9
298
     0
  0
MLINESTYLE
  5
18
102
{ACAD_REACTORS
330
17
102
}
330
17
100
AcDbMlineStyle
  2
STANDARD
 70
     0
  3

 62
   256
 51
90.0
 52
90.0
 71
     2
 49
0.5
 62
   256
  6
BYLAYER
 49
-0.5
 62
   256
  6
BYLAYER
  0
ACDBPLACEHOLDER
  5
F
102
{ACAD_REACTORS
330
E
102
}
330
E
  0
SCALE
  5
10D
102
{ACAD_REACTORS
330
10C
102
}
330
10C
100
AcDbScale
 70
     0
300
1:1
140
1.0
141
1.0
290
     1
  0
SCALE
  5
1BE
102
{ACAD_REACTORS
330
10C
102
}
330
10C
100
AcDbScale
 70
     0
300
1:2
140
1.0
141
2.0
290
     0
  0
SCALE
  5
1BF
102
{ACAD_REACTORS
330
10C
102
}
330
10C
100
AcDbScale
 70
     0
300
1:4
140
1.0
141
4.0
290
     0
  0
SCALE
  5
1C0
102
{ACAD_REACTORS
330
10C
102
}
330
10C
100
AcDbScale
 70
     0
300
1:5
140
1.0
141
5.0
290
     0
  0
SCALE
  5
1C1
102
{ACAD_REACTORS
330
10C
102
}
330
10C
100
AcDbScale
 70
     0
300
1:8
140
1.0
141
8.0
290
     0
  0
SCALE
  5
1C2
102
{ACAD_REACTORS
330
10C
102
}
330
10C
100
AcDbScale
 70
     0
300
1:10
140
1.0
141
10.0
290
     0
  0
SCALE
  5
1C3
102
{ACAD_REACTORS
330
10C
102
}
330
10C
100
AcDbScale
 70
     0
300
1:16
140
1.0
141
16.0
290
     0
  0
SCALE
  5
1C4
102
{ACAD_REACTORS
330
10C
102
}
330
10C
100
AcDbScale
 70
     0
300
1:20
140
1.0
141
20.0
290
     0
  0
SCALE
  5
1C5
102
{ACAD_REACTORS
330
10C
102
}
330
10C
100
AcDbScale
 70
     0
300
1:30
140
1.0
141
30.0
290
     0
  0
SCALE
  5
1C6
102
{ACAD_REACTORS
330
10C
102
}
330
10C
100
AcDbScale
 70
     0
300
1:40
140
1.0
141
40.0
290
     0
  0
SCALE
  5
1C7
102
{ACAD_REACTORS
330
10C
102
}
330
10C
100
AcDbScale
 70
     0
300
1:50
140
1.0
141
50.0
290
     0
  0
SCALE
  5
1C8
102
{ACAD_REACTORS
330
10C
102
}
330
10C
100
AcDbScale
 70
     0
300
1:100
140
1.0
141
100.0
290
     0
  0
SCALE
  5
1C9
102
{ACAD_REACTORS
330
10C
102
}
330
10C
100
AcDbScale
 70
     0
300
2:1
140
2.0
141
1.0
290
     0
  0
SCALE
  5
1CA
102
{ACAD_REACTORS
330
10C
102
}
330
10C
100
AcDbScale
 70
     0
300
4:1
140
4.0
141
1.0
290
     0
  0
SCALE
  5
1CB
102
{ACAD_REACTORS
330
10C
102
}
330
10C
100
AcDbScale
 70
     0
300
8:1
140
8.0
141
1.0
290
     0
  0
SCALE
  5
1CC
102
{ACAD_REACTORS
330
10C
102
}
330
10C
100
AcDbScale
 70
     0
300
10:1
140
10.0
141
1.0
290
     0
  0
SCALE
  5
1CD
102
{ACAD_REACTORS
330
10C
102
}
330
10C
100
AcDbScale
 70
     0
300
100:1
140
100.0
141
1.0
290
     0
  0
ACDBSECTIONVIEWSTYLE
  5
21A
102
{ACAD_XDICTIONARY
360
EC4
102
}
102
{ACAD_REACTORS
330
219
102
}
330
219
100
AcDbModelDocViewStyle
 70
     0
  3
Metric50
290
     0
100
AcDbSectionViewStyle
 70
     0
 71
     0
 90
      102
 71
     1
340
11
 62
   256
 40
5.0
340
0
340
0
 62
   256
 40
5.0
300
I, O, Q, S, X, Z
 40
10.0
 90
        0
 40
2.5
 90
        0
 71
     2
340
16
 90
       25
 62
   256
340
16
 90
       50
 62
   256
 40
5.0
 40
2.5
 40
5.0
 71
     3
340
11
 62
   256
 40
5.0
 90
        0
 40
15.0
 90
        1
300
%<\AcVar ViewSectionStartId>%-%<\AcVar ViewSectionEndId>% (%<\AcVar ViewScale \f "%sn">%)
 71
     4
 62
   256
 62
   257
300
ANSI31
 40
1.0
 90
        0
290
     0
290
     0
 90
        6
 40
0.0
 40
1.570796326794896
 40
0.2617993877991494
 40
1.308996938995747
 40
-0.2617993877991494
 40
1.832595714594045
  0
TABLESTYLE
  5
7F
102
{ACAD_XDICTIONARY
360
162
102
}
102
{ACAD_REACTORS
330
7E
102
}
330
7E
100
AcDbTableStyle
280
     0
  3
Standard
 70
     0
 71
     0
 40
1.5
 41
1.5
280
     0
281
     0
  7
Standard
140
4.5
170
     2
 62
     0
 63
     7
283
     0
 90
      512
 91
        0
  1

274
    -2
284
     1
 64
     0
275
    -2
285
     1
 65
     0
276
    -2
286
     1
 66
     0
277
    -2
287
     1
 67
     0
278
    -2
288
     1
 68
     0
279
    -2
289
     1
 69
     0
  7
Standard
140
6.0
170
     5
 62
     0
 63
     7
283
     0
 90
      512
 91
        0
  1

274
    -2
284
     1
 64
     0
275
    -2
285
     1
 65
     0
276
    -2
286
     1
 66
     0
277
    -2
287
     1
 67
     0
278
    -2
288
     1
 68
     0
279
    -2
289
     1
 69
     0
  7
Standard
140
4.5
170
     5
 62
     0
 63
     7
283
     0
 90
      512
 91
        0
  1

274
    -2
284
     1
 64
     0
275
    -2
285
     1
 65
     0
276
    -2
286
     1
 66
     0
277
    -2
287
     1
 67
     0
278
    -2
288
     1
 68
     0
279
    -2
289
     1
 69
     0
  0
VISUALSTYLE
  5
F5
102
{ACAD_REACTORS
330
EF
102
}
330
EF
100
AcDbVisualStyle
  2
2dWireframe
 70
     4
177
     3
291
     0
 70
    58
 90
        0
176
     1
 90
        2
176
     1
 90
        1
176
     1
 90
        0
176
     1
 40
0.6
176
     1
 40
30.0
176
     1
 62
     7
420
 16777215
176
     1
 90
        1
176
     1
 90
        4
176
     1
 62
     7
176
     1
 62
   257
176
     1
 90
        1
176
     1
 90
        1
176
     1
 40
1.0
176
     1
 90
        0
176
     1
 62
   257
176
     1
 40
1.0
176
     1
 90
        1
176
     1
 90
        6
176
     1
 90
        2
176
     1
 62
     7
176
     1
 90
        5
176
     1
 90
        0
176
     1
 90
        0
176
     1
290
     0
176
     1
 90
        1
176
     1
 40
0.0
176
     1
 90
        0
176
     1
290
     1
176
     1
290
     1
176
     1
290
     0
176
     1
290
     0
176
     1
290
     0
176
     1
290
     0
176
     1
290
     0
176
     1
290
     0
176
     1
290
     0
176
     1
 90
       50
176
     1
 40
0.0
176
     1
 40
1.0
176
     1
 90
        0
176
     1
 62
    18
176
     1
 90
       50
176
     1
 90
        3
176
     1
 62
     5
420
      255
176
     1
290
     0
176
     1
 90
       50
176
     1
 90
       50
176
     1
 90
       50
176
     1
290
     0
176
     1
 90
       50
176
     1
 62
   256
176
     0
 40
1.0
176
     0
 90
        2
176
     1
  1
strokes_ogs.tif
176
     1
290
     0
176
     1
 40
1.0
176
     1
 40
1.0
176
     1
1001
ACAD
1000
AcDbSavedByObjectVersion
1070
     0
  0
VISUALSTYLE
  5
F4
102
{ACAD_REACTORS
330
EF
102
}
330
EF
100
AcDbVisualStyle
  2
Basic
 70
     7
177
     3
291
     1
 70
    58
 90
        1
176
     1
 90
        0
176
     1
 90
        1
176
     1
 90
        0
176
     1
 40
0.6
176
     1
 40
30.0
176
     1
 62
     7
420
 16777215
176
     1
 90
        0
176
     1
 90
        4
176
     1
 62
     7
176
     1
 62
   257
176
     1
 90
        1
176
     1
 90
        1
176
     1
 40
1.0
176
     1
 90
        8
176
     1
 62
     7
176
     1
 40
1.0
176
     1
 90
        1
176
     1
 90
        6
176
     1
 90
        2
176
     1
 62
     7
176
     1
 90
        5
176
     1
 90
        0
176
     1
 90
        0
176
     1
290
     0
176
     1
 90
        1
176
     1
 40
0.0
176
     1
 90
        0
176
     1
290
     0
176
     1
290
     1
176
     1
290
     1
176
     1
290
     0
176
     1
290
     0
176
     1
290
     0
176
     1
290
     0
176
     1
290
     0
176
     1
290
     0
176
     1
 90
       50
176
     1
 40
0.0
176
     1
 40
1.0
176
     1
 90
        0
176
     1
 62
    18
176
     1
 90
       50
176
     1
 90
        3
176
     1
 62
     5
420
      255
176
     1
290
     0
176
     1
 90
       50
176
     1
 90
       50
176
     1
 90
       50
176
     1
290
     0
176
     1
 90
       50
176
     1
 62
   256
176
     0
 40
1.0
176
     0
 90
        2
176
     1
  1
strokes_ogs.tif
176
     1
290
     0
176
     1
 40
1.0
176
     1
 40
1.0
176
     1
1001
ACAD
1000
AcDbSavedByObjectVersion
1070
     0
  0
VISUALSTYLE
  5
FB
102
{ACAD_REACTORS
330
EF
102
}
330
EF
100
AcDbVisualStyle
  2
Brighten
 70
    12
177
     3
291
     1
 70
    58
 90
        2
176
     1
 90
        2
176
     1
 90
        1
176
     1
 90
        0
176
     1
 40
0.6
176
     1
 40
30.0
176
     1
 62
     7
420
 16777215
176
     1
 90
        1
176
     1
 90
        4
176
     1
 62
     7
176
     1
 62
   257
176
     1
 90
        1
176
     1
 90
        1
176
     1
 40
1.0
176
     1
 90
        8
176
     1
 62
     7
176
     1
 40
1.0
176
     1
 90
        1
176
     1
 90
        6
176
     1
 90
        2
176
     1
 62
     7
176
     1
 90
        5
176
     1
 90
        0
176
     1
 90
        0
176
     1
290
     0
176
     1
 90
        1
176
     1
 40
50.0
176
     1
 90
        0
176
     1
290
     0
176
     1
290
     1
176
     1
290
     1
176
     1
290
     0
176
     1
290
     0
176
     1
290
     0
176
     1
290
     0
176
     1
290
     0
176
     1
290
     0
176
     1
 90
       50
176
     1
 40
0.0
176
     1
 40
1.0
176
     1
 90
        0
176
     1
 62
    18
176
     1
 90
       50
176
     1
 90
        3
176
     1
 62
     5
420
      255
176
     1
290
     0
176
     1
 90
       50
176
     1
 90
       50
176
     1
 90
       50
176
     1
290
     0
176
     1
 90
       50
176
     1
 62
   256
176
     0
 40
1.0
176
     0
 90
        2
176
     1
  1
strokes_ogs.tif
176
     1
290
     0
176
     1
 40
1.0
176
     1
 40
1.0
176
     1
1001
ACAD
1000
AcDbSavedByObjectVersion
1070
     0
  0
VISUALSTYLE
  5
FF
102
{ACAD_REACTORS
330
EF
102
}
330
EF
100
AcDbVisualStyle
  2
ColorChange
 70
    16
177
     3
291
     1
 70
    58
 90
        2
176
     1
 90
        2
176
     1
 90
        3
176
     1
 90
        0
176
     1
 40
0.6
176
     1
 40
30.0
176
     1
 62
     8
420
  8421504
176
     1
 90
        1
176
     1
 90
        4
176
     1
 62
     7
176
     1
 62
   257
176
     1
 90
        1
176
     1
 90
        1
176
     1
 40
1.0
176
     1
 90
        8
176
     1
 62
     8
420
  8421504
176
     1
 40
1.0
176
     1
 90
        1
176
     1
 90
        6
176
     1
 90
        2
176
     1
 62
     7
176
     1
 90
        5
176
     1
 90
        0
176
     1
 90
        0
176
     1
290
     0
176
     1
 90
        1
176
     1
 40
0.0
176
     1
 90
        0
176
     1
290
     0
176
     1
290
     1
176
     1
290
     1
176
     1
290
     0
176
     1
290
     0
176
     1
290
     0
176
     1
290
     0
176
     1
290
     0
176
     1
290
     0
176
     1
 90
       50
176
     1
 40
0.0
176
     1
 40
1.0
176
     1
 90
        0
176
     1
 62
    18
176
     1
 90
       50
176
     1
 90
        3
176
     1
 62
     5
420
      255
176
     1
290
     0
176
     1
 90
       50
176
     1
 90
       50
176
     1
 90
       50
176
     1
290
     0
176
     1
 90
       50
176
     1
 62
   256
176
     0
 40
1.0
176
     0
 90
        2
176
     1
  1
strokes_ogs.tif
176
     1
290
     0
176
     1
 40
1.0
176
     1
 40
1.0
176
     1
1001
ACAD
1000
AcDbSavedByObjectVersion
1070
     0
  0
VISUALSTYLE
  5
F8
102
{ACAD_REACTORS
330
EF
102
}
330
EF
100
AcDbVisualStyle
  2
Conceptual
 70
     9
177
     3
291
     0
 70
    58
 90
        3
176
     1
 90
        2
176
     1
 90
        1
176
     1
 90
        0
176
     1
 40
0.6
176
     1
 40
30.0
176
     1
 62
     7
420
 16777215
176
     1
 90
        2
176
     1
 90
        2
176
     1
 62
     7
176
     1
 62
   257
176
     1
 90
        1
176
     1
 90
        1
176
     1
 40
40.0
176
     1
 90
        8
176
     1
 62
     7
176
     1
 40
1.0
176
     1
 90
        1
176
     1
 90
        6
176
     1
 90
        2
176
     1
 62
     7
176
     1
 90
        3
176
     1
 90
        0
176
     1
 90
        0
176
     1
290
     0
176
     1
 90
        1
176
     1
 40
0.0
176
     1
 90
        0
176
     1
290
     0
176
     1
290
     1
176
     1
290
     1
176
     1
290
     0
176
     1
290
     0
176
     1
290
     0
176
     1
290
     0
176
     1
290
     0
176
     1
290
     0
176
     1
 90
       50
176
     1
 40
0.0
176
     1
 40
1.0
176
     1
 90
        0
176
     1
 62
    18
176
     1
 90
       50
176
     1
 90
        3
176
     1
 62
     5
420
      255
176
     1
290
     0
176
     1
 90
       50
176
     1
 90
       50
176
     1
 90
       50
176
     1
290
     0
176
     1
 90
       50
176
     1
 62
   256
176
     0
 40
1.0
176
     0
 90
        2
176
     1
  1
strokes_ogs.tif
176
     1
290
     0
176
     1
 40
1.0
176
     1
 40
1.0
176
     1
1001
ACAD
1000
AcDbSavedByObjectVersion
1070
     0
  0
VISUALSTYLE
  5
FA
102
{ACAD_REACTORS
330
EF
102
}
330
EF
100
AcDbVisualStyle
  2
Dim
 70
    11
177
     3
291
     1
 70
    58
 90
        2
176
     1
 90
        2
176
     1
 90
        1
176
     1
 90
        0
176
     1
 40
0.6
176
     1
 40
30.0
176
     1
 62
     7
420
 16777215
176
     1
 90
        1
176
     1
 90
        4
176
     1
 62
     7
176
     1
 62
   257
176
     1
 90
        1
176
     1
 90
        1
176
     1
 40
1.0
176
     1
 90
        8
176
     1
 62
     7
176
     1
 40
1.0
176
     1
 90
        1
176
     1
 90
        6
176
     1
 90
        2
176
     1
 62
     7
176
     1
 90
        5
176
     1
 90
        0
176
     1
 90
        0
176
     1
290
     0
176
     1
 90
        1
176
     1
 40
-50.0
176
     1
 90
        0
176
     1
290
     0
176
     1
290
     1
176
     1
290
     1
176
     1
290
     0
176
     1
290
     0
176
     1
290
     0
176
     1
290
     0
176
     1
290
     0
176
     1
290
     0
176
     1
 90
       50
176
     1
 40
0.0
176
     1
 40
1.0
176
     1
 90
        0
176
     1
 62
    18
176
     1
 90
       50
176
     1
 90
        3
176
     1
 62
     5
420
      255
176
     1
290
     0
176
     1
 90
       50
176
     1
 90
       50
176
     1
 90
       50
176
     1
290
     0
176
     1
 90
       50
176
     1
 62
   256
176
     0
 40
1.0
176
     0
 90
        2
176
     1
  1
strokes_ogs.tif
176
     1
290
     0
176
     1
 40
1.0
176
     1
 40
1.0
176
     1
1001
ACAD
1000
AcDbSavedByObjectVersion
1070
     0
  0
VISUALSTYLE
  5
1E6
102
{ACAD_REACTORS
330
EF
102
}
330
EF
100
AcDbVisualStyle
  2
EdgeColorOff
 70
    22
177
     3
291
     1
 70
    58
 90
        2
176
     0
 90
        2
176
     0
 90
        0
176
     0
 90
        0
176
     0
 40
0.6
176
     0
 40
30.0
176
     0
 62
     7
420
 16777215
176
     0
 90
        1
176
     0
 90
        4
176
     0
 62
     7
176
     0
 62
   257
176
     0
 90
        1
176
     0
 90
        1
176
     0
 40
1.0
176
     0
 90
        8
176
     2
 62
     7
176
     0
 40
1.0
176
     0
 90
        1
176
     0
 90
        6
176
     0
 90
        2
176
     0
 62
     7
176
     0
 90
        5
176
     0
 90
        0
176
     0
 90
        0
176
     0
290
     0
176
     0
 90
        1
176
     0
 40
0.0
176
     0
 90
        0
176
     0
290
     0
176
     1
290
     1
176
     1
290
     1
176
     1
290
     0
176
     1
290
     0
176
     1
290
     0
176
     1
290
     0
176
     1
290
     0
176
     1
290
     0
176
     1
 90
       50
176
     1
 40
0.0
176
     1
 40
1.0
176
     1
 90
        0
176
     1
 62
    18
176
     1
 90
       50
176
     1
 90
        3
176
     1
 62
     5
420
      255
176
     1
290
     0
176
     1
 90
       50
176
     1
 90
       50
176
     1
 90
       50
176
     1
290
     0
176
     1
 90
       50
176
     1
 62
   256
176
     0
 40
1.0
176
     0
 90
        2
176
     1
  1
strokes_ogs.tif
176
     1
290
     0
176
     1
 40
1.0
176
     1
 40
1.0
176
     1
1001
ACAD
1000
AcDbSavedByObjectVersion
1070
     0
  0
VISUALSTYLE
  5
FE
102
{ACAD_REACTORS
330
EF
102
}
330
EF
100
AcDbVisualStyle
  2
Facepattern
 70
    15
177
     3
291
     1
 70
    58
 90
        2
176
     1
 90
        2
176
     1
 90
        1
176
     1
 90
        0
176
     1
 40
0.6
176
     1
 40
30.0
176
     1
 62
     7
420
 16777215
176
     1
 90
        1
176
     1
 90
        4
176
     1
 62
     7
176
     1
 62
   257
176
     1
 90
        1
176
     1
 90
        1
176
     1
 40
1.0
176
     1
 90
        8
176
     1
 62
     7
176
     1
 40
1.0
176
     1
 90
        1
176
     1
 90
        6
176
     1
 90
        2
176
     1
 62
     7
176
     1
 90
        5
176
     1
 90
        0
176
     1
 90
        0
176
     1
290
     0
176
     1
 90
        1
176
     1
 40
0.0
176
     1
 90
        0
176
     1
290
     0
176
     1
290
     1
176
     1
290
     1
176
     1
290
     0
176
     1
290
     0
176
     1
290
     0
176
     1
290
     0
176
     1
290
     0
176
     1
290
     0
176
     1
 90
       50
176
     1
 40
0.0
176
     1
 40
1.0
176
     1
 90
        0
176
     1
 62
    18
176
     1
 90
       50
176
     1
 90
        3
176
     1
 62
     5
420
      255
176
     1
290
     0
176
     1
 90
       50
176
     1
 90
       50
176
     1
 90
       50
176
     1
290
     0
176
     1
 90
       50
176
     1
 62
   256
176
     0
 40
1.0
176
     0
 90
        2
176
     1
  1
strokes_ogs.tif
176
     1
290
     0
176
     1
 40
1.0
176
     1
 40
1.0
176
     1
1001
ACAD
1000
AcDbSavedByObjectVersion
1070
     0
  0
VISUALSTYLE
  5
F0
102
{ACAD_REACTORS
330
EF
102
}
330
EF
100
AcDbVisualStyle
  2
Flat
 70
     0
177
     3
291
     1
 70
    58
 90
        2
176
     1
 90
        1
176
     1
 90
        1
176
     1
 90
        2
176
     1
 40
0.6
176
     1
 40
30.0
176
     1
 62
     7
420
 16777215
176
     1
 90
        0
176
     1
 90
        0
176
     1
 62
     7
176
     1
 62
   257
176
     1
 90
        1
176
     1
 90
        1
176
     1
 40
1.0
176
     1
 90
        8
176
     1
 62
     7
176
     1
 40
1.0
176
     1
 90
        1
176
     1
 90
        6
176
     1
 90
        2
176
     1
 62
     7
176
     1
 90
        5
176
     1
 90
        0
176
     1
 90
        0
176
     1
290
     0
176
     1
 90
       13
176
     1
 40
0.0
176
     1
 90
        0
176
     1
290
     0
176
     1
290
     1
176
     1
290
     1
176
     1
290
     0
176
     1
290
     0
176
     1
290
     0
176
     1
290
     0
176
     1
290
     0
176
     1
290
     0
176
     1
 90
       50
176
     1
 40
0.0
176
     1
 40
1.0
176
     1
 90
        0
176
     1
 62
    18
176
     1
 90
       50
176
     1
 90
        3
176
     1
 62
     5
420
      255
176
     1
290
     0
176
     1
 90
       50
176
     1
 90
       50
176
     1
 90
       50
176
     1
290
     0
176
     1
 90
       50
176
     1
 62
   256
176
     0
 40
1.0
176
     0
 90
        2
176
     1
  1
strokes_ogs.tif
176
     1
290
     0
176
     1
 40
1.0
176
     1
 40
1.0
176
     1
1001
ACAD
1000
AcDbSavedByObjectVersion
1070
     0
  0
VISUALSTYLE
  5
F1
102
{ACAD_REACTORS
330
EF
102
}
330
EF
100
AcDbVisualStyle
  2
FlatWithEdges
 70
     1
177
     3
291
     1
 70
    58
 90
        2
176
     1
 90
        1
176
     1
 90
        1
176
     1
 90
        2
176
     1
 40
0.6
176
     1
 40
30.0
176
     1
 62
     7
420
 16777215
176
     1
 90
        1
176
     1
 90
        0
176
     1
 62
     7
176
     1
 62
   257
176
     1
 90
        1
176
     1
 90
        1
176
     1
 40
1.0
176
     1
 90
        0
176
     1
 62
   257
176
     1
 40
1.0
176
     1
 90
        1
176
     1
 90
        6
176
     1
 90
        2
176
     1
 62
     7
176
     1
 90
        5
176
     1
 90
        0
176
     1
 90
        0
176
     1
290
     0
176
     1
 90
       13
176
     1
 40
0.0
176
     1
 90
        0
176
     1
290
     0
176
     1
290
     1
176
     1
290
     1
176
     1
290
     0
176
     1
290
     0
176
     1
290
     0
176
     1
290
     0
176
     1
290
     0
176
     1
290
     0
176
     1
 90
       50
176
     1
 40
0.0
176
     1
 40
1.0
176
     1
 90
        0
176
     1
 62
    18
176
     1
 90
       50
176
     1
 90
        3
176
     1
 62
     5
420
      255
176
     1
290
     0
176
     1
 90
       50
176
     1
 90
       50
176
     1
 90
       50
176
     1
290
     0
176
     1
 90
       50
176
     1
 62
   256
176
     0
 40
1.0
176
     0
 90
        2
176
     1
  1
strokes_ogs.tif
176
     1
290
     0
176
     1
 40
1.0
176
     1
 40
1.0
176
     1
1001
ACAD
1000
AcDbSavedByObjectVersion
1070
     0
  0
VISUALSTYLE
  5
F2
102
{ACAD_REACTORS
330
EF
102
}
330
EF
100
AcDbVisualStyle
  2
Gouraud
 70
     2
177
     3
291
     1
 70
    58
 90
        2
176
     1
 90
        2
176
     1
 90
        1
176
     1
 90
        2
176
     1
 40
0.6
176
     1
 40
30.0
176
     1
 62
     7
420
 16777215
176
     1
 90
        0
176
     1
 90
        0
176
     1
 62
     7
176
     1
 62
   257
176
     1
 90
        1
176
     1
 90
        1
176
     1
 40
1.0
176
     1
 90
        0
176
     1
 62
     7
176
     1
 40
1.0
176
     1
 90
        1
176
     1
 90
        6
176
     1
 90
        2
176
     1
 62
     7
176
     1
 90
        5
176
     1
 90
        0
176
     1
 90
        0
176
     1
290
     0
176
     1
 90
       13
176
     1
 40
0.0
176
     1
 90
        0
176
     1
290
     0
176
     1
290
     1
176
     1
290
     1
176
     1
290
     0
176
     1
290
     0
176
     1
290
     0
176
     1
290
     0
176
     1
290
     0
176
     1
290
     0
176
     1
 90
       50
176
     1
 40
0.0
176
     1
 40
1.0
176
     1
 90
        0
176
     1
 62
    18
176
     1
 90
       50
176
     1
 90
        3
176
     1
 62
     5
420
      255
176
     1
290
     0
176
     1
 90
       50
176
     1
 90
       50
176
     1
 90
       50
176
     1
290
     0
176
     1
 90
       50
176
     1
 62
   256
176
     0
 40
1.0
176
     0
 90
        2
176
     1
  1
strokes_ogs.tif
176
     1
290
     0
176
     1
 40
1.0
176
     1
 40
1.0
176
     1
1001
ACAD
1000
AcDbSavedByObjectVersion
1070
     0
  0
VISUALSTYLE
  5
F3
102
{ACAD_REACTORS
330
EF
102
}
330
EF
100
AcDbVisualStyle
  2
GouraudWithEdges
 70
     3
177
     3
291
     1
 70
    58
 90
        2
176
     1
 90
        2
176
     1
 90
        1
176
     1
 90
        2
176
     1
 40
0.6
176
     1
 40
30.0
176
     1
 62
     7
420
 16777215
176
     1
 90
        1
176
     1
 90
        0
176
     1
 62
     7
176
     1
 62
   257
176
     1
 90
        1
176
     1
 90
        1
176
     1
 40
1.0
176
     1
 90
        0
176
     1
 62
   257
176
     1
 40
1.0
176
     1
 90
        1
176
     1
 90
        6
176
     1
 90
        2
176
     1
 62
     7
176
     1
 90
        5
176
     1
 90
        0
176
     1
 90
        0
176
     1
290
     0
176
     1
 90
       13
176
     1
 40
0.0
176
     1
 90
        0
176
     1
290
     0
176
     1
290
     1
176
     1
290
     1
176
     1
290
     0
176
     1
290
     0
176
     1
290
     0
176
     1
290
     0
176
     1
290
     0
176
     1
290
     0
176
     1
 90
       50
176
     1
 40
0.0
176
     1
 40
1.0
176
     1
 90
        0
176
     1
 62
    18
176
     1
 90
       50
176
     1
 90
        3
176
     1
 62
     5
420
      255
176
     1
290
     0
176
     1
 90
       50
176
     1
 90
       50
176
     1
 90
       50
176
     1
290
     0
176
     1
 90
       50
176
     1
 62
   256
176
     0
 40
1.0
176
     0
 90
        2
176
     1
  1
strokes_ogs.tif
176
     1
290
     0
176
     1
 40
1.0
176
     1
 40
1.0
176
     1
1001
ACAD
1000
AcDbSavedByObjectVersion
1070
     0
  0
VISUALSTYLE
  5
F7
102
{ACAD_REACTORS
330
EF
102
}
330
EF
100
AcDbVisualStyle
  2
Hidden
 70
     6
177
     3
291
     0
 70
    58
 90
        1
176
     1
 90
        2
176
     1
 90
        2
176
     1
 90
        0
176
     1
 40
0.6
176
     1
 40
30.0
176
     1
 62
     7
420
 16777215
176
     1
 90
        2
176
     1
 90
        2
176
     1
 62
     7
176
     1
 62
   257
176
     1
 90
        2
176
     1
 90
        1
176
     1
 40
40.0
176
     1
 90
        0
176
     1
 62
   257
176
     1
 40
1.0
176
     1
 90
        1
176
     1
 90
        6
176
     1
 90
        2
176
     1
 62
     7
176
     1
 90
        3
176
     1
 90
        0
176
     1
 90
        0
176
     1
290
     0
176
     1
 90
        1
176
     1
 40
0.0
176
     1
 90
        0
176
     1
290
     0
176
     1
290
     1
176
     1
290
     1
176
     1
290
     0
176
     1
290
     0
176
     1
290
     0
176
     1
290
     0
176
     1
290
     0
176
     1
290
     0
176
     1
 90
       50
176
     1
 40
0.0
176
     1
 40
1.0
176
     1
 90
        0
176
     1
 62
    18
176
     1
 90
       50
176
     1
 90
        3
176
     1
 62
     5
420
      255
176
     1
290
     0
176
     1
 90
       50
176
     1
 90
       50
176
     1
 90
       50
176
     1
290
     0
176
     1
 90
       50
176
     1
 62
   256
176
     0
 40
1.0
176
     0
 90
        2
176
     1
  1
strokes_ogs.tif
176
     1
290
     0
176
     1
 40
1.0
176
     1
 40
1.0
176
     1
1001
ACAD
1000
AcDbSavedByObjectVersion
1070
     0
  0
VISUALSTYLE
  5
1E4
102
{ACAD_REACTORS
330
EF
102
}
330
EF
100
AcDbVisualStyle
  2
JitterOff
 70
    20
177
     3
291
     1
 70
    58
 90
        2
176
     0
 90
        2
176
     0
 90
        0
176
     0
 90
        0
176
     0
 40
0.6
176
     0
 40
30.0
176
     0
 62
     7
420
 16777215
176
     0
 90
        1
176
     0
 90
        4
176
     0
 62
     7
176
     0
 62
   257
176
     0
 90
        1
176
     0
 90
        1
176
     0
 40
1.0
176
     0
 90
       10
176
     2
 62
     7
176
     0
 40
1.0
176
     0
 90
        1
176
     0
 90
        6
176
     0
 90
        2
176
     0
 62
     7
176
     0
 90
        5
176
     0
 90
        0
176
     0
 90
        0
176
     0
290
     0
176
     0
 90
        1
176
     0
 40
0.0
176
     0
 90
        0
176
     0
290
     0
176
     1
290
     1
176
     1
290
     1
176
     1
290
     0
176
     1
290
     0
176
     1
290
     0
176
     1
290
     0
176
     1
290
     0
176
     1
290
     0
176
     1
 90
       50
176
     1
 40
0.0
176
     1
 40
1.0
176
     1
 90
        0
176
     1
 62
    18
176
     1
 90
       50
176
     1
 90
        3
176
     1
 62
     5
420
      255
176
     1
290
     0
176
     1
 90
       50
176
     1
 90
       50
176
     1
 90
       50
176
     1
290
     0
176
     1
 90
       50
176
     1
 62
   256
176
     0
 40
1.0
176
     0
 90
        2
176
     1
  1
strokes_ogs.tif
176
     1
290
     0
176
     1
 40
1.0
176
     1
 40
1.0
176
     1
1001
ACAD
1000
AcDbSavedByObjectVersion
1070
     0
  0
VISUALSTYLE
  5
FD
102
{ACAD_REACTORS
330
EF
102
}
330
EF
100
AcDbVisualStyle
  2
Linepattern
 70
    14
177
     3
291
     1
 70
    58
 90
        2
176
     1
 90
        2
176
     1
 90
        1
176
     1
 90
        0
176
     1
 40
0.6
176
     1
 40
30.0
176
     1
 62
     7
420
 16777215
176
     1
 90
        1
176
     1
 90
        4
176
     1
 62
     7
176
     1
 62
   257
176
     1
 90
        7
176
     1
 90
        7
176
     1
 40
1.0
176
     1
 90
        8
176
     1
 62
     7
176
     1
 40
1.0
176
     1
 90
        1
176
     1
 90
        6
176
     1
 90
        2
176
     1
 62
     7
176
     1
 90
        5
176
     1
 90
        0
176
     1
 90
        0
176
     1
290
     0
176
     1
 90
        1
176
     1
 40
0.0
176
     1
 90
        0
176
     1
290
     0
176
     1
290
     1
176
     1
290
     1
176
     1
290
     0
176
     1
290
     0
176
     1
290
     0
176
     1
290
     0
176
     1
290
     0
176
     1
290
     0
176
     1
 90
       50
176
     1
 40
0.0
176
     1
 40
1.0
176
     1
 90
        0
176
     1
 62
    18
176
     1
 90
       50
176
     1
 90
        3
176
     1
 62
     5
420
      255
176
     1
290
     0
176
     1
 90
       50
176
     1
 90
       50
176
     1
 90
       50
176
     1
290
     0
176
     1
 90
       50
176
     1
 62
   256
176
     0
 40
1.0
176
     0
 90
        2
176
     1
  1
strokes_ogs.tif
176
     1
290
     0
176
     1
 40
1.0
176
     1
 40
1.0
176
     1
1001
ACAD
1000
AcDbSavedByObjectVersion
1070
     0
  0
VISUALSTYLE
  5
1E5
102
{ACAD_REACTORS
330
EF
102
}
330
EF
100
AcDbVisualStyle
  2
OverhangOff
 70
    21
177
     3
291
     1
 70
    58
 90
        2
176
     0
 90
        2
176
     0
 90
        0
176
     0
 90
        0
176
     0
 40
0.6
176
     0
 40
30.0
176
     0
 62
     7
420
 16777215
176
     0
 90
        1
176
     0
 90
        4
176
     0
 62
     7
176
     0
 62
   257
176
     0
 90
        1
176
     0
 90
        1
176
     0
 40
1.0
176
     0
 90
        9
176
     2
 62
     7
176
     0
 40
1.0
176
     0
 90
        1
176
     0
 90
        6
176
     0
 90
        2
176
     0
 62
     7
176
     0
 90
        5
176
     0
 90
        0
176
     0
 90
        0
176
     0
290
     0
176
     0
 90
        1
176
     0
 40
0.0
176
     0
 90
        0
176
     0
290
     0
176
     1
290
     1
176
     1
290
     1
176
     1
290
     0
176
     1
290
     0
176
     1
290
     0
176
     1
290
     0
176
     1
290
     0
176
     1
290
     0
176
     1
 90
       50
176
     1
 40
0.0
176
     1
 40
1.0
176
     1
 90
        0
176
     1
 62
    18
176
     1
 90
       50
176
     1
 90
        3
176
     1
 62
     5
420
      255
176
     1
290
     0
176
     1
 90
       50
176
     1
 90
       50
176
     1
 90
       50
176
     1
290
     0
176
     1
 90
       50
176
     1
 62
   256
176
     0
 40
1.0
176
     0
 90
        2
176
     1
  1
strokes_ogs.tif
176
     1
290
     0
176
     1
 40
1.0
176
     1
 40
1.0
176
     1
1001
ACAD
1000
AcDbSavedByObjectVersion
1070
     0
  0
VISUALSTYLE
  5
F9
102
{ACAD_REACTORS
330
EF
102
}
330
EF
100
AcDbVisualStyle
  2
Realistic
 70
     8
177
     3
291
     0
 70
    58
 90
        2
176
     1
 90
        3
176
     1
 90
        0
176
     1
 90
        2
176
     1
 40
0.6
176
     1
 40
30.0
176
     1
 62
     7
420
 16777215
176
     1
 90
        0
176
     1
 90
        0
176
     1
 62
     7
176
     1
 62
   257
176
     1
 90
        1
176
     1
 90
        1
176
     1
 40
1.0
176
     1
 90
        8
176
     1
 62
   257
176
     1
 40
1.0
176
     1
 90
        1
176
     1
 90
        6
176
     1
 90
        2
176
     1
 62
     7
176
     1
 90
        3
176
     1
 90
        0
176
     1
 90
        0
176
     1
290
     0
176
     1
 90
       13
176
     1
 40
0.0
176
     1
 90
        0
176
     1
290
     0
176
     1
290
     1
176
     1
290
     1
176
     1
290
     0
176
     1
290
     0
176
     1
290
     0
176
     1
290
     0
176
     1
290
     0
176
     1
290
     0
176
     1
 90
       50
176
     1
 40
0.0
176
     1
 40
1.0
176
     1
 90
        0
176
     1
 62
    18
176
     1
 90
       50
176
     1
 90
        3
176
     1
 62
     5
420
      255
176
     1
290
     0
176
     1
 90
       50
176
     1
 90
       50
176
     1
 90
       50
176
     1
290
     0
176
     1
 90
       50
176
     1
 62
   256
176
     0
 40
1.0
176
     0
 90
        2
176
     1
  1
strokes_ogs.tif
176
     1
290
     0
176
     1
 40
1.0
176
     1
 40
1.0
176
     1
1001
ACAD
1000
AcDbSavedByObjectVersion
1070
     0
  0
VISUALSTYLE
  5
1F3
102
{ACAD_REACTORS
330
EF
102
}
330
EF
100
AcDbVisualStyle
  2
Shaded
 70
    27
177
     3
291
     0
 70
    58
 90
        2
176
     1
 90
        2
176
     1
 90
        1
176
     1
 90
        2
176
     1
 40
0.6
176
     1
 40
30.0
176
     1
 62
     7
420
 16777215
176
     1
 90
        0
176
     1
 90
        4
176
     1
 62
     7
176
     1
 62
   257
176
     1
 90
        1
176
     1
 90
        1
176
     1
 40
1.0
176
     1
 90
        8
176
     1
 62
   257
176
     1
 40
1.0
176
     1
 90
        1
176
     1
 90
        6
176
     1
 90
        2
176
     1
 62
     8
420
  7895160
176
     1
 90
        3
176
     1
 90
        0
176
     1
 90
        0
176
     1
290
     0
176
     1
 90
        5
176
     1
 40
0.0
176
     1
 90
        0
176
     1
290
     0
176
     1
290
     1
176
     1
290
     1
176
     1
290
     0
176
     1
290
     0
176
     1
290
     0
176
     1
290
     0
176
     1
290
     0
176
     1
290
     0
176
     1
 90
       50
176
     1
 40
0.0
176
     1
 40
1.0
176
     1
 90
        0
176
     1
 62
    18
176
     1
 90
       50
176
     1
 90
        3
176
     1
 62
     5
420
      255
176
     1
290
     0
176
     1
 90
       50
176
     1
 90
       50
176
     1
 90
       50
176
     1
290
     0
176
     1
 90
       50
176
     1
 62
   256
176
     0
 40
1.0
176
     0
 90
        2
176
     1
  1
strokes_ogs.tif
176
     1
290
     0
176
     1
 40
1.0
176
     1
 40
1.0
176
     1
1001
ACAD
1000
AcDbSavedByObjectVersion
1070
     0
  0
VISUALSTYLE
  5
1F2
102
{ACAD_REACTORS
330
EF
102
}
330
EF
100
AcDbVisualStyle
  2
Shaded with edges
 70
    26
177
     3
291
     0
 70
    58
 90
        2
176
     1
 90
        2
176
     1
 90
        1
176
     1
 90
        2
176
     1
 40
0.6
176
     1
 40
30.0
176
     1
 62
     7
420
 16777215
176
     1
 90
        1
176
     1
 90
        2
176
     1
 62
     7
176
     1
 62
   257
176
     1
 90
        2
176
     1
 90
        1
176
     1
 40
1.0
176
     1
 90
        8
176
     1
 62
   257
176
     1
 40
1.0
176
     1
 90
        1
176
     1
 90
        6
176
     1
 90
        2
176
     1
 62
     7
176
     1
 90
        3
176
     1
 90
        0
176
     1
 90
        0
176
     1
290
     0
176
     1
 90
        5
176
     1
 40
0.0
176
     1
 90
        0
176
     1
290
     0
176
     1
290
     1
176
     1
290
     1
176
     1
290
     0
176
     1
290
     0
176
     1
290
     0
176
     1
290
     0
176
     1
290
     0
176
     1
290
     0
176
     1
 90
       50
176
     1
 40
0.0
176
     1
 40
1.0
176
     1
 90
        0
176
     1
 62
    18
176
     1
 90
       50
176
     1
 90
        3
176
     1
 62
     5
420
      255
176
     1
290
     0
176
     1
 90
       50
176
     1
 90
       50
176
     1
 90
       50
176
     1
290
     0
176
     1
 90
       50
176
     1
 62
   256
176
     0
 40
1.0
176
     0
 90
        2
176
     1
  1
strokes_ogs.tif
176
     1
290
     0
176
     1
 40
1.0
176
     1
 40
1.0
176
     1
1001
ACAD
1000
AcDbSavedByObjectVersion
1070
     0
  0
VISUALSTYLE
  5
1EF
102
{ACAD_REACTORS
330
EF
102
}
330
EF
100
AcDbVisualStyle
  2
Shades of Gray
 70
    23
177
     3
291
     0
 70
    58
 90
        2
176
     1
 90
        2
176
     1
 90
        3
176
     1
 90
        0
176
     1
 40
0.6
176
     1
 40
30.0
176
     1
 62
     7
420
 16777215
176
     1
 90
        2
176
     1
 90
        2
176
     1
 62
     7
176
     1
 62
     7
176
     1
 90
        1
176
     1
 90
        1
176
     1
 40
40.0
176
     1
 90
        8
176
     1
 62
     7
176
     1
 40
1.0
176
     1
 90
        1
176
     1
 90
        6
176
     1
 90
        2
176
     1
 62
     7
176
     1
 90
        3
176
     1
 90
        0
176
     1
 90
        0
176
     1
290
     0
176
     1
 90
        1
176
     1
 40
0.0
176
     1
 90
        0
176
     1
290
     0
176
     1
290
     1
176
     1
290
     1
176
     1
290
     0
176
     1
290
     0
176
     1
290
     0
176
     1
290
     0
176
     1
290
     0
176
     1
290
     0
176
     1
 90
       50
176
     1
 40
0.0
176
     1
 40
1.0
176
     1
 90
        0
176
     1
 62
    18
176
     1
 90
       50
176
     1
 90
        3
176
     1
 62
     5
420
      255
176
     1
290
     0
176
     1
 90
       50
176
     1
 90
       50
176
     1
 90
       50
176
     1
290
     0
176
     1
 90
       50
176
     1
 62
   256
176
     0
 40
1.0
176
     0
 90
        2
176
     1
  1
strokes_ogs.tif
176
     1
290
     0
176
     1
 40
1.0
176
     1
 40
1.0
176
     1
1001
ACAD
1000
AcDbSavedByObjectVersion
1070
     0
  0
VISUALSTYLE
  5
1F0
102
{ACAD_REACTORS
330
EF
102
}
330
EF
100
AcDbVisualStyle
  2
Sketchy
 70
    24
177
     3
291
     0
 70
    58
 90
        1
176
     1
 90
        2
176
     1
 90
        2
176
     1
 90
        0
176
     1
 40
0.6
176
     1
 40
30.0
176
     1
 62
     7
420
 16777215
176
     1
 90
        2
176
     1
 90
        2
176
     1
 62
     7
176
     1
 62
     7
176
     1
 90
        1
176
     1
 90
        1
176
     1
 40
40.0
176
     1
 90
       11
176
     1
 62
     7
176
     1
 40
1.0
176
     1
 90
        1
176
     1
 90
        6
176
     1
 90
        2
176
     1
 62
     7
176
     1
 90
        6
176
     1
 90
        0
176
     1
 90
        0
176
     1
290
     0
176
     1
 90
        1
176
     1
 40
0.0
176
     1
 90
        0
176
     1
290
     0
176
     1
290
     1
176
     1
290
     1
176
     1
290
     0
176
     1
290
     0
176
     1
290
     0
176
     1
290
     0
176
     1
290
     0
176
     1
290
     0
176
     1
 90
       50
176
     1
 40
0.0
176
     1
 40
1.0
176
     1
 90
        0
176
     1
 62
    18
176
     1
 90
       50
176
     1
 90
        3
176
     1
 62
     5
420
      255
176
     1
290
     0
176
     1
 90
       50
176
     1
 90
       50
176
     1
 90
       50
176
     1
290
     0
176
     1
 90
       50
176
     1
 62
   256
176
     0
 40
1.0
176
     0
 90
        2
176
     1
  1
strokes_ogs.tif
176
     1
290
     0
176
     1
 40
1.0
176
     1
 40
1.0
176
     1
1001
ACAD
1000
AcDbSavedByObjectVersion
1070
     0
  0
VISUALSTYLE
  5
FC
102
{ACAD_REACTORS
330
EF
102
}
330
EF
100
AcDbVisualStyle
  2
Thicken
 70
    13
177
     3
291
     1
 70
    58
 90
        2
176
     1
 90
        2
176
     1
 90
        1
176
     1
 90
        0
176
     1
 40
0.6
176
     1
 40
30.0
176
     1
 62
     7
420
 16777215
176
     1
 90
        1
176
     1
 90
        4
176
     1
 62
     7
176
     1
 62
   257
176
     1
 90
        1
176
     1
 90
        1
176
     1
 40
1.0
176
     1
 90
       12
176
     1
 62
     7
176
     1
 40
1.0
176
     1
 90
        1
176
     1
 90
        6
176
     1
 90
        2
176
     1
 62
     7
176
     1
 90
        5
176
     1
 90
        0
176
     1
 90
        0
176
     1
290
     0
176
     1
 90
        1
176
     1
 40
0.0
176
     1
 90
        0
176
     1
290
     0
176
     1
290
     1
176
     1
290
     1
176
     1
290
     0
176
     1
290
     0
176
     1
290
     0
176
     1
290
     0
176
     1
290
     0
176
     1
290
     0
176
     1
 90
       50
176
     1
 40
0.0
176
     1
 40
1.0
176
     1
 90
        0
176
     1
 62
    18
176
     1
 90
       50
176
     1
 90
        3
176
     1
 62
     5
420
      255
176
     1
290
     0
176
     1
 90
       50
176
     1
 90
       50
176
     1
 90
       50
176
     1
290
     0
176
     1
 90
       50
176
     1
 62
   256
176
     0
 40
1.0
176
     0
 90
        2
176
     1
  1
strokes_ogs.tif
176
     1
290
     0
176
     1
 40
1.0
176
     1
 40
1.0
176
     1
1001
ACAD
1000
AcDbSavedByObjectVersion
1070
     0
  0
VISUALSTYLE
  5
F6
102
{ACAD_REACTORS
330
EF
102
}
330
EF
100
AcDbVisualStyle
  2
Wireframe
 70
     5
177
     3
291
     0
 70
    58
 90
        0
176
     1
 90
        2
176
     1
 90
        0
176
     1
 90
        0
176
     1
 40
0.6
176
     1
 40
30.0
176
     1
 62
     7
420
 16777215
176
     1
 90
        1
176
     1
 90
        4
176
     1
 62
     7
176
     1
 62
   257
176
     1
 90
        1
176
     1
 90
        1
176
     1
 40
1.0
176
     1
 90
        0
176
     1
 62
   257
176
     1
 40
1.0
176
     1
 90
        1
176
     1
 90
        6
176
     1
 90
        2
176
     1
 62
     7
176
     1
 90
        3
176
     1
 90
        0
176
     1
 90
        0
176
     1
290
     0
176
     1
 90
        1
176
     1
 40
0.0
176
     1
 90
        0
176
     1
290
     0
176
     1
290
     1
176
     1
290
     1
176
     1
290
     0
176
     1
290
     0
176
     1
290
     0
176
     1
290
     0
176
     1
290
     0
176
     1
290
     0
176
     1
 90
       50
176
     1
 40
0.0
176
     1
 40
1.0
176
     1
 90
        0
176
     1
 62
    18
176
     1
 90
       50
176
     1
 90
        3
176
     1
 62
     5
420
      255
176
     1
290
     0
176
     1
 90
       50
176
     1
 90
       50
176
     1
 90
       50
176
     1
290
     0
176
     1
 90
       50
176
     1
 62
   256
176
     0
 40
1.0
176
     0
 90
        2
176
     1
  1
strokes_ogs.tif
176
     1
290
     0
176
     1
 40
1.0
176
     1
 40
1.0
176
     1
1001
ACAD
1000
AcDbSavedByObjectVersion
1070
     0
  0
VISUALSTYLE
  5
1F1
102
{ACAD_REACTORS
330
EF
102
}
330
EF
100
AcDbVisualStyle
  2
X-Ray
 70
    25
177
     3
291
     0
 70
    58
 90
        2
176
     1
 90
        2
176
     1
 90
        1
176
     1
 90
        1
176
     1
 40
0.5
176
     1
 40
30.0
176
     1
 62
     7
420
 16777215
176
     1
 90
        1
176
     1
 90
        0
176
     1
 62
     7
176
     1
 62
   257
176
     1
 90
        1
176
     1
 90
        1
176
     1
 40
1.0
176
     1
 90
        8
176
     1
 62
     7
176
     1
 40
1.0
176
     1
 90
        1
176
     1
 90
        6
176
     1
 90
        2
176
     1
 62
     7
176
     1
 90
        3
176
     1
 90
        0
176
     1
 90
        0
176
     1
290
     0
176
     1
 90
       13
176
     1
 40
0.0
176
     1
 90
        0
176
     1
290
     0
176
     1
290
     1
176
     1
290
     1
176
     1
290
     0
176
     1
290
     0
176
     1
290
     0
176
     1
290
     0
176
     1
290
     0
176
     1
290
     0
176
     1
 90
       50
176
     1
 40
0.0
176
     1
 40
1.0
176
     1
 90
        0
176
     1
 62
    18
176
     1
 90
       50
176
     1
 90
        3
176
     1
 62
     5
420
      255
176
     1
290
     0
176
     1
 90
       50
176
     1
 90
       50
176
     1
 90
       50
176
     1
290
     0
176
     1
 90
       50
176
     1
 62
   256
176
     0
 40
1.0
176
     0
 90
        2
176
     1
  1
strokes_ogs.tif
176
     1
290
     0
176
     1
 40
1.0
176
     1
 40
1.0
176
     1
1001
ACAD
1000
AcDbSavedByObjectVersion
1070
     0
  0
DICTIONARYVAR
  5
146
102
{ACAD_REACTORS
330
5E
102
}
330
5E
100
DictionaryVariables
280
     0
  1
1:1
  0
DICTIONARYVAR
  5
259
102
{ACAD_REACTORS
330
5E
102
}
330
5E
100
DictionaryVariables
280
     0
  1
3.500000
  0
DICTIONARYVAR
  5
25A
102
{ACAD_REACTORS
330
5E
102
}
330
5E
100
DictionaryVariables
280
     0
  1
acadiso.lin
  0
DICTIONARYVAR
  5
145
102
{ACAD_REACTORS
330
5E
102
}
330
5E
100
DictionaryVariables
280
     0
  1
STANDARD
  0
DICTIONARYVAR
  5
84
102
{ACAD_REACTORS
330
5E
102
}
330
5E
100
DictionaryVariables
280
     0
  1
STANDARD
  0
DICTIONARYVAR
  5
227
102
{ACAD_REACTORS
330
5E
102
}
330
5E
100
DictionaryVariables
280
     0
  1
Metric50
  0
DICTIONARYVAR
  5
228
102
{ACAD_REACTORS
330
5E
102
}
330
5E
100
DictionaryVariables
280
     0
  1
Metric50
  0
DICTIONARYVAR
  5
5F
102
{ACAD_REACTORS
330
5E
102
}
330
5E
100
DictionaryVariables
280
     0
  1
2
  0
DICTIONARYVAR
  5
63
102
{ACAD_REACTORS
330
5E
102
}
330
5E
100
DictionaryVariables
280
     0
  1
1
  0
DICTIONARYVAR
  5
1AE
102
{ACAD_REACTORS
330
5E
102
}
330
5E
100
DictionaryVariables
280
     0
  1
0
  0
DICTIONARYVAR
  5
1AF
102
{ACAD_REACTORS
330
5E
102
}
330
5E
100
DictionaryVariables
280
     0
  1
0
  0
DICTIONARY
  5
EC3
102
{ACAD_REACTORS
330
EC1
102
}
330
EC1
100
AcDbDictionary
281
     1
  0
DICTIONARY
  5
EC2
102
{ACAD_REACTORS
330
EC1
102
}
330
EC1
100
AcDbDictionary
281
     1
  3
2375808850880
350
EBC
  3
2375808850896
350
EBD
  3
2375808850912
350
EBE
  3
2375808850928
350
EBF
  3
2375808850944
350
EC0
  0
DICTIONARY
  5
EC6
330
21C
100
AcDbDictionary
280
     1
281
     1
  3
ACAD_XREC_ROUNDTRIP
360
EC7
  0
DICTIONARY
  5
205
330
22
100
AcDbDictionary
280
     1
281
     1
  0
DICTIONARY
  5
1F9
330
ED
100
AcDbDictionary
280
     1
281
     1
  3
FBXASSET
360
1FA
  0
DICTIONARY
  5
1F7
330
EC
100
AcDbDictionary
280
     1
281
     1
  3
FBXASSET
360
1F8
  0
DICTIONARY
  5
173
330
EE
100
AcDbDictionary
280
     1
281
     1
  3
BUMPTILE
360
175
  3
DIFFUSETILE
360
174
  3
FBXASSET
360
1FB
  3
OPACITYTILE
360
176
  3
REFLECTIONTILE
360
177
  0
DICTIONARY
  5
EC4
330
21A
100
AcDbDictionary
280
     1
281
     1
  3
ACAD_XREC_ROUNDTRIP
360
EC5
  0
DICTIONARY
  5
162
330
7F
100
AcDbDictionary
280
     1
281
     1
  3
ACAD_ROUNDTRIP_2008_TABLESTYLE_CELLSTYLEMAP
360
EBA
  0
XRECORD
  5
EBC
102
{ACAD_REACTORS
330
EC2
102
}
330
EC2
100
AcDbXrecord
280
     1
  1
AcDb_Thumbnail_Schema
102
{ATTRRECORD
341
EBD
  2
AcDbDs::TreatedAsObjectData
280
     1
291
     1
102
ATTRRECORD}
102
{ATTRRECORD
341
EBE
  2
AcDbDs::Legacy
280
     1
291
     1
102
ATTRRECORD}
  2
AcDbDs::ID
280
    10
 91
        8
102
{ATTRRECORD
341
EBF
  2
AcDs:Indexable
280
     1
291
     1
102
ATTRRECORD}
102
{ATTRRECORD
341
EC0
  2
AcDbDs::HandleAttribute
280
     7
282
     1
102
ATTRRECORD}
  2
Thumbnail_Data
280
    15
 91
        0
  0
XRECORD
  5
EBD
102
{ACAD_REACTORS
330
EC2
102
}
330
EC2
100
AcDbXrecord
280
     1
  1
AcDbDs::TreatedAsObjectDataSchema
  2
AcDbDs::TreatedAsObjectData
280
     1
 91
        0
  0
XRECORD
  5
EBE
102
{ACAD_REACTORS
330
EC2
102
}
330
EC2
100
AcDbXrecord
280
     1
  1
AcDbDs::LegacySchema
  2
AcDbDs::Legacy
280
     1
 91
        0
  0
XRECORD
  5
EBF
102
{ACAD_REACTORS
330
EC2
102
}
330
EC2
100
AcDbXrecord
280
     1
  1
AcDbDs::IndexedPropertySchema
  2
AcDs:Indexable
280
     1
 91
        0
  0
XRECORD
  5
EC0
102
{ACAD_REACTORS
330
EC2
102
}
330
EC2
100
AcDbXrecord
280
     1
  1
AcDbDs::HandleAttributeSchema
  2
AcDbDs::HandleAttribute
280
     7
 91
        1
284
     1
  0
XRECORD
  5
EC7
102
{ACAD_REACTORS
330
EC6
102
}
330
EC6
100
AcDbXrecord
280
     1
102
DISPLAYNAME
  1
Metric50
102
FLAGS
 90
        0
  0
XRECORD
  5
1FA
102
{ACAD_REACTORS
330
1F9
102
}
330
1F9
100
AcDbXrecord
280
     1
 70
     1
 90
429727718
  1
D62C5603-E3A1-4AEA-B7FB-FE5D8D0755AF
310
504B03040A0000080000CC70623B3DEE336E79000000790000001B0000006175746F6465736B2D64657369676E2D7061636B6167652E786D6C3C3F786D6C2076657273696F6E3D22312E302220656E636F64696E673D227574662D3822203F3E3C666F726D6174733E3C666F726D61743E687474703A2F2F736368656D612E
310
6175746F6465736B2E636F6D2F64657369676E2D7061636B6167652F323030393C2F666F726D61743E3C2F666F726D6174733E504B0304140006080800CC70623BD486FD9CA0000000F4000000130000005B436F6E74656E745F54797065735D2E786D6C7D8EC10E82300C865F65E91D8A1E8C310C0EEA1BF002731658846E
310
D98AC1B77784ABF1D8FE5FBFBF75BBCE937A534CCEB38643598122B6FEE978D0B0485F9C41B54DDD7D022595594E1A469170414C76A4D9A4D207E29CF43ECE46F218070CC6BECC4078ACAA135ACF422C856C0E68EA1BF5669944DDD7BCDE7B1F8E415D77AECB980613C2E4AC91FC167A2B244592486606FC29C8FD7F045B9A
310
EF7053A7E60B504B0304140006080800CC70623B853B8169EB0000007C01000008000000636F72652E786D6C8D90416EC3201045AF62CDB6C206821CC7C244919D9CA01740401C94182C03558F5F9C3852BBEB6A467FFE9B197D7EFC9E1EC5975982F5AE035262288C535E5B377690E21535501C055FBC8FBF6C503839990E
310
5619041F179FE64D52DE45E362569DD7661365082642A11EB9E920A89B99642953CC8E702F67A9EE7234257977194EC9EAE275C4EABCCF5EAD5940D4AC6F0E35A568B8F43562CD7046CD199FD07E60174276A7BE677B5EADB0E0D14EEFFB6A31321A0D82627C4084204C3F096B71DD52F6819B16635EADF63F509AF53FA164
310
5DDCD1EDDD17164090FCC8732078B56691CB33A85CD7DCC40F504B0304140006080800CC70623B55019EA25F0000007C00000007000000636E782E786D6C4DCB3B0E80201045D1AD90E915ED2CF8AC45050C11660C8261F98AB1B07AC9C97D42D718D865D3E909258CFD00CCE24AC6E326A164D74DC0B4128928FF32603847
310
2BA13128B1252AC747C6BAB984FC68F0B87FE8960A5C09FE86CFB69FBA01504B0304140006080800CC70623BDBABAAF470010000D40300000C0000006662782F636F72652E786D6CC553D16E823014FD95A6AF4B694182CC941A83FA05FB810A9511A125A5257EFE2E82712ECEB8A7F100CD39F7F69E734AF9FADC366850B6
310
AF8DCE7018308C942E4C59EB2AC3DE1D498AD15A706B8CFB56869196ADCAF00863C12B6B7C374385D14E6907A836A59A41D9F7CA615434B0C8705F7CAA5606D23BA8E84F41278B93AC54100640439DE0BDB320004D43C63716C7C399D30917DCFBBA9CD9BA8469F5B156168B24CED3F7248AC8769F27244EB73B92EED8862C
310
B7F13E0C179B3C8F979C8ECD82BBBABDAA2BAC924E9558448CBD9330242CFA08E3154B5651FCC6D215639C8EE5774DBE2B5F6CF2B5768B68963BB5F5588420E442FC700B1139D4CB01F450C1E918227C2E09DF070D8140C84E1E9AAB8F1340832A9CB13130A5F1376A908D57309505ECF2A0DF179C4E9D30F5B239B87E3823
310
7A79C6F31DE1A8A5AEC08474B03C7837EAE4938639B44E5932B833D2C6B6B279CDC613877FA26EE21F4A2A4C63EC7F29A2F301D1F9F7A0E37D145F504B0304140006080800CC70623B9C113CC27E0000009D0000000B0000006662782F636E782E786D6C4DCCDF0A83201C86E15B91DFB94BFB330DD428C8FB886521330DA7
310
6397BF1A1DECE883878F57749FCDA1B7892F1BBC047A23808C7F84D9FA55424E0BE6803A256208E9EF06C84F9B91703228B1C690F78B66B34CD9A5439DF5CF0BFBF65E35BCA1B8D6A5C6F540381E886698B5741C695F9503EBA150A2F8958E3DC3EA0B504B0304140006080800CC70623B7DF2F77C2A010000120200003100
310
00006662782F41393633353835312D344632462D344230382D423046372D3739314545314133324237412F636F72652E786D6C8D51DB8EC22014FC15C2939B0D2DB4B45643319AE817EC0F6041255A68B86CFCFC856D4D76DF7CE190393373060EDB3DC707F856CE6B6B7A480A0C81328395DA5C7B18C3057510EC3873D686
310
3F34088C18550F330C39BB3A1BA7051AAC09CA84841A2BD5020AEF55806078A44B0FFD7053A328440C89E1EFC52486BBB8AA8214A99D789CF9E05200300FC927E4FB4D5B375D43103D5527440FB843077C5AA3F5861C8F645F5787F59E95B390B318B55CE45AA638FAA2957BD7248B390B7A7CC51F9C124149C82B8C378810
310
84AB2F42B7B8DD56F413775B8C5999E9FF4471926F8AA236A1AE96B8B3CC434E5839373893369E1FAF30EA395917409EB7F26AF8801C171837A4A6AC9C89E9F9C9B1A58BA30FD6A5EF5DDDCF894B9AD9B6A59C957943A9FCAE2FD5BC4DFE03504B0304140006080800CC70623BAD7543B64E01000033030000300000006662
310
782F41393633353835312D344632462D344230382D423046372D3739314545314133324237412F636E782E786D6CD593CD6EC32010845F0571AD6CE3D48AD20813A9873E410FBD12D82434182C7EAAE6EDBB2424CD25871E7B41D6EC30B3FA84F9E67BB2E40B4234DE8DB46F1925E094D7C6ED479AD3AE5951B2113C789FEE
310
6C943839C1488B4C05DF079FE72A69D8C96C13AAD6B8631503449F83828872B949AC57D26200B826A308D316B4064D6E46FCDA41C05550DC9E483A00797BFD207EFB092A45DE9514C1BBD22178396BD39D891265658C238DEA00936C654E5E433CB65A26D9F6EDB5EBC14EBF49A45CB856E66048291F6939A9A81BB5C89177
310
38143CA680F4AA299D66A042CEB3354A2684DC9D8D178FE0D9B8B41CAAD720F880EE7EF93C0C18769E099ECC04D5A102C8049A8A05632F4DDF376CF1DE0F6BB65C2F8627B65A33C6BB62177CEBBDAD973006829F89F22E814B54F4BC2BE347F8AA8F681390B50FA73F804400B5F542E796F19FF974E7F78DB802FE05E20750
310
4B0304140006080800CC70623BE75B7789680500003C100000340000006662782F41393633353835312D344632462D344230382D423046372D3739314545314133324237412F6F626A656374732E786D6CAD575B8F9B3818FD2B887D06C22499CB8AA1CA655245D5B455A356FB305264C061D8018C6C3393D95FBFC7600890
310
A4CD5EF210B0B1BFEBF98E3F7B1FF6596ABC522E1296DF9BAE3D320D9A872C4AF2F8DE2CE5CEBA358D0FBEC719939D65A691938CDE9B6ADAF4BD98B3B2D05311DD91329583D9D5FC0F438434A7A611A644887B5384CF34233629258BA878B12322891DEFF6B66BD70BFB62634E8AE781D082709A4B588AF91C528CDA28B73F
310
1C998EEF39EABBEFA97FBD6A7C7E9553F9D3D79FE442923C3C523610337627CB87ABE99D359D4CC6D6E4FACAB5E6ABF9D2726FC6A3C5F56271377BB88362213924694B38DD99FE47C48627A1E7D49F5A8BB5E1A74C0A599ED3B0F21F1E56366B89112D681E218F0915D0D6F17AD41FBA2A369DCF6335D62ABBD39779D5DDD1
310
11D4D8DE3CBB96B2E04FB8202E41051754A1AA8E8F76B4C6DFE810B580B1547F4B84911149794252234D024EF8BBE963A95AE27B3D310A9D5C215C7960FAEE415ED75694C6AFB17BCACA5D99A60A9AA65F217B0BFC53292ACB92BF283FAD0D3621576592CB5BED907C2FA8E9DF794E35E97BEA31BED21FEB401ABB94C44839
310
DCACBF0E1C5DA8DA5B2F4DFFD32AD86F543D9E565E7056502E157C00AD2671CD534549AB752FCA9CDA00677A313F04E51B22FF19E57B300579E3C97EB29F682D92935CEC18CF901B7B54FD8C51F362B56FC72FE0B3C1EAE335EDCCBF5AEC39ADB17DC238973F804BA5E6F6BFE7AF1FB32E523BE9F3BD571418E3631DCA4D48
310
5250CF639223210A9446CA30052EDF057BD35F8329C1ECD84552BF0DC8D18BE7BCE23BFE6BD960AB4A7DE79923A103BEBD80F911CBAA2C60DB19B01CF164A5583B772EE6D3FFA56666CBCDA74DC97724A48F9A58967497E489C4D979006FD7A05E227A1EBDD0F737C623387A9C844D3709995625106D157315F8B8392CD4E0
310
A0B9A720C4BE9829CEF37EA1E13111214D53925356365ADA634861B52519DD27A00AEB808EAF0628E6F435519D446F45CF2C9CF5214F0A15B2F6D06B79DA3EE3CBF7F56780D2F4E7EF73A0F5E5B02A38D07DC852C6B7C1FBB6664213E0C39E3EBA7FF4E1AD23EA2829407C85E586727488B751B2DB9502BC7B228A3FD68B6E
310
A65A22397E690AA8D158D7E404EC8CDA235CC3B7D1898680131CEC2CDF2638C65196279577750F15884AEE19F94199155B92B13297978469D4F8D358DF0AEF7631E28DC8F0D9F437D5D39A83B2231A1D52D543813A824EF8D44BCFF2FA6A31BD1E8DAD87F1CCB526B3879935BF59CDADD5C37479BB1CDD4CA7B3556B516589
310
EF352754B706114D9C885EC9131DE6EFEB43D99AFE2391C2F958179413D7CFEF6B1B6DB1E7600F00DE6E5C67454A339A4BA2E0FBA85ED26F045D454F463DBFCE484C2F90F2E5E3666003662ED8F755951A7D1BECD5B30B550B2785C8E7320B7292A4838DDA71BBC863ED7613CAF659337A3354231D4FF4A182A54904C2898C
310
98B28C4AD0CE056CCF332A80986E571EE9DBC305BB5FEB7E509220A58D25CF042D712A806AC0AD0C657FDEF80D2D9CEAA2EE4D1C76F60BFE74219A06527D6F82DF6412526107381E55E353090704D085B52408A8913C4ED159D79BDA71BB4BC506F4831350EB6F975CD22D69BF7AC49B91A2C0A9DDA3D5CA36AD20FC478E37
310
E61844E2352865EBCB61A275A65283CAAA9DD27703B4102F5AF51EF5F573B75CBB5AD38BC845F7A49F82A0966A49C2E3EA5EA0ECD326CD965F1DB402C6FA8B51A4658C5C5E2EC9E214602E55810345408596591009A82E7E7FFACA19EEA299B14A0081A705CB3296EBC14CDF658DCD336EA6D1136881AAEB87B81AB9EE53D5
310
F5EB8BC8362082DA24122F98680A4E7930C01A0079749CEA14382A0783E5EBA5A10F8C098456A03D6A4AEB6BB881E2513747552A5DB22C7EDAF83BD5528081A365F7FF06504B0304140006080000CC70623B000000000000000000000000350000006662782F41393633353835312D344632462D344230382D423046372D37
310
39314545314133324237412F76657274696365732E62696E504B0304140006080800CC70623BF270F1330600000004000000360000006662782F41393633353835312D344632462D344230382D423046372D3739314545314133324237412F747269616E676C65732E62696E636660600000504B0304140006080000CC7062
310
3B000000000000000000000000370000006662782F41393633353835312D344632462D344230382D423046372D3739314545314133324237412F617474726962757465732E62696E504B0304140006080800CC70623B08DA0BD19000000041010000360000006662782F41393633353835312D344632462D344230382D4230
310
46372D3739314545314133324237412F6469726563746F72792E786D6C858F410AC3201045AF22B36F53E9A60B35CBEEBAE80D244E44489C6234F4F835464A48035D0DF398FF9F8AF63D0E6CC63039F212F8F9020C7D47C6792B21C5FE7403D62A1188E2E60C98D7234A5830286103A55745067B9D86B8A3CF9C7F90C11DE6
310
07FB144396D7B6A82D282E9A152AD114D5EF2CB866EEE831B8EEA07A7BB5A8D7D61A2BAAEB7FD5F70921FF497D00504B0304140006080800CC70623BEDD1DC58FD000000A00100003B0000006662782F41393633353835312D344632462D344230382D423046372D3739314545314133324237412F7265736F75726365732F
310
636F72652E786D6C8D504B6E833010BD0A9A6D65B00922041947112427E8052C33A156828DFCA97AFC9A40A576D7CDCCE87D344F8F9FBFE667F689CE6B6B3A6039850C8DB2A336530731DC4903D95970676DF82583CCC8193B5861107C72362E3BA4AC096842428D1D7107A5F7182053CF7474E0D507CE32973124857FE48B
310
540F3961CEF244279DE03EB81420DB9EAC1384436FA353E879B1B182C7A8C75DA3C7F453DF353A1075D537A7BA6464B8F535A99AE14A9A2BBD90E350DD183B5CFABE3AF262350B1EF4FC9351399401471025A527C218A1E53BAB5A5AB765F5469B96525EACF23FA6B88CFF34456DC2A1DCE36E360F82A5202F42F062ED2BAD
310
579969AFDD8A6F504B010214000A0000080000CC70623B3DEE336E79000000790000001B00000000000000000000000000000000006175746F6465736B2D64657369676E2D7061636B6167652E786D6C504B01021400140006080800CC70623BD486FD9CA0000000F40000001300000000000000000000000000B20000005B
310
436F6E74656E745F54797065735D2E786D6C504B01021400140006080800CC70623B853B8169EB0000007C010000080000000000000000000000000083010000636F72652E786D6C504B01021400140006080800CC70623B55019EA25F0000007C000000070000000000000000000000000094020000636E782E786D6C504B
310
01021400140006080800CC70623BDBABAAF470010000D40300000C00000000000000000000000000180300006662782F636F72652E786D6C504B01021400140006080800CC70623B9C113CC27E0000009D0000000B00000000000000000000000000B20400006662782F636E782E786D6C504B01021400140006080800CC70
310
623B7DF2F77C2A010000120200003100000000000000000000000000590500006662782F41393633353835312D344632462D344230382D423046372D3739314545314133324237412F636F72652E786D6C504B01021400140006080800CC70623BAD7543B64E010000330300003000000000000000000000000000D2060000
310
6662782F41393633353835312D344632462D344230382D423046372D3739314545314133324237412F636E782E786D6C504B01021400140006080800CC70623BE75B7789680500003C10000034000000000000000000000000006E0800006662782F41393633353835312D344632462D344230382D423046372D3739314545
310
314133324237412F6F626A656374732E786D6C504B01021400140006080000CC70623B0000000000000000000000003500000000000000000000000000280E00006662782F41393633353835312D344632462D344230382D423046372D3739314545314133324237412F76657274696365732E62696E504B01021400140006
310
080800CC70623BF270F133060000000400000036000000000000000000000000007B0E00006662782F41393633353835312D344632462D344230382D423046372D3739314545314133324237412F747269616E676C65732E62696E504B01021400140006080000CC70623B0000000000000000000000003700000000000000
310
000000000000D50E00006662782F41393633353835312D344632462D344230382D423046372D3739314545314133324237412F617474726962757465732E62696E504B01021400140006080800CC70623B08DA0BD1900000004101000036000000000000000000000000002A0F00006662782F41393633353835312D344632
310
462D344230382D423046372D3739314545314133324237412F6469726563746F72792E786D6C504B01021400140006080800CC70623BEDD1DC58FD000000A00100003B000000000000000000000000000E1000006662782F41393633353835312D344632462D344230382D423046372D3739314545314133324237412F7265
310
736F75726365732F636F72652E786D6C504B0506000000000E000E0080040000641100000000
  0
XRECORD
  5
1F8
102
{ACAD_REACTORS
330
1F7
102
}
330
1F7
100
AcDbXrecord
280
     1
 70
     1
 90
429727718
  1
30362254-06B7-45E0-A893-8CFA70E3D6BC
310
504B03040A0000080000CC70623B3DEE336E79000000790000001B0000006175746F6465736B2D64657369676E2D7061636B6167652E786D6C3C3F786D6C2076657273696F6E3D22312E302220656E636F64696E673D227574662D3822203F3E3C666F726D6174733E3C666F726D61743E687474703A2F2F736368656D612E
310
6175746F6465736B2E636F6D2F64657369676E2D7061636B6167652F323030393C2F666F726D61743E3C2F666F726D6174733E504B0304140006080800CC70623BD486FD9CA0000000F4000000130000005B436F6E74656E745F54797065735D2E786D6C7D8EC10E82300C865F65E91D8A1E8C310C0EEA1BF002731658846E
310
D98AC1B77784ABF1D8FE5FBFBF75BBCE937A534CCEB38643598122B6FEE978D0B0485F9C41B54DDD7D022595594E1A469170414C76A4D9A4D207E29CF43ECE46F218070CC6BECC4078ACAA135ACF422C856C0E68EA1BF5669944DDD7BCDE7B1F8E415D77AECB980613C2E4AC91FC167A2B244592486606FC29C8FD7F045B9A
310
EF7053A7E60B504B0304140006080800CC70623B1EC5D7A3EB0000007C01000008000000636F72652E786D6C8D90416EC3201045AF82665B6103C6756C6122AB4D4ED00B204C5C94182C03558F5F9C3852BBEB6A467FFE9B197D71FC9E6FE8CBACC17AD7032D0820E3B41FAD9B7A48F1820F808E52ACDEC75F36404ECDA687
310
4D0629A6D5A76597B477D1B89855E747B38B2A041301E95B6E7A08FAD3CCAA50296647B8168BD2573599823EBB0CA76447F43862C7BCCF5EAC59410E4DDD9C7973C2755553CCCFA4C603E3040F1565ED3B1FDE4E432BCA0D9622DAF9795FAF464533826484B498524CD807E51D79ED187F21878E10516EF63F505AC67F42C9
310
BA58B1FDDD071640D2FCC87D2045B96591CB3DA85CB7DCE40F504B0304140006080800CC70623B55019EA25F0000007C00000007000000636E782E786D6C4DCB3B0E80201045D1AD90E915ED2CF8AC45050C11660C8261F98AB1B07AC9C97D42D718D865D3E909258CFD00CCE24AC6E326A164D74DC0B4128928FF32603847
310
2BA13128B1252AC747C6BAB984FC68F0B87FE8960A5C09FE86CFB69FBA01504B0304140006080800CC70623B8C9102E971010000D40300000C0000006662782F636F72652E786D6CC5535B6E833010BC8AE5DF0A6C08340F1947A84D4ED00B38C6A128602363A31CBFCB234A53A551FA553EC09AD9F5CE8C31DB9E9B1AF5CA
310
7695D1198E428A91D2D214952E33ECDD315861B4E5CC1AE3BE9561A445A3323CC098B3D21ADFCE9034DA29ED00D5A6503328BA4E398C640D8B0C77F253352214DE4145770A5B214FA2546114020D759C75CE8200340D19DE981F0F6746269C33EFAB6266AB02A655C74A59CCF365BADC27CB5D902ED22848F6340DF238A141
310
BE88E2F57B92BFEDF23523433367AE6A2EEAA455C2A902F398D2751045018D3FA264435F3771F242571B4A1919CA6F9A7C5B3CD9E42BED16F12C776AEB308F40C848FC700B1139D4891EF410CEC810227CC6846F8386402064270EF5C5C709A05E49676C024C61FC95EA45ED154CA5211D1FF4FB8291A913A68E9B83EBBB33
310
E2A7673CDE118E5AE8124C0807CB8377834E366998436B950D7A7746DAD846D4CFD978E0F04FD455FC5D49D2D4C6FE9722321F10997F0F32DC47FE05504B0304140006080800CC70623BFFEA85907E0000009D0000000B0000006662782F636E782E786D6C4DCCD10A83201886E15B91FFDC95D95A811AB6F23E625948A6C3
310
E9D8E5AF46073BFAE0E1E365ED67B3E8ADC3CB78C7815C7240DA3DFC64DCC221C519D7805AC182F7F1EF06C88D9BE6703008B6049F9E274D7A1E938DBB5AE3D6131B2589BA0D3D965551E0B2EA732C9B9A624AAEB41E3A557677029960D9AFB4EF11165F504B0304140006080800CC70623B4FEEA4082C0100001202000031
310
0000006662782F39464131463745442D413632322D343644302D413938332D3331353338454246344243312F636F72652E786D6C8D515B6EC32010BC0AE2AB55850DD871ED0813254D72825EC00192A2C460F1A872FC42ED48ED5F7E00CDCECCCEB26C731F6FE05B39AFADE921293004CA082BB5B9F43086336A21D870E6AC
310
0D7F68109861543DCC30E4ECE26C9C164858139409093556AA051CBC570102714B8F1E7AF1A5C6A11862480C7F2DA6415C878B2A4891CA89C7990F2E050073937C42DE1DB7E4F87ED8A36D4329AA9B3D46DBAEAD504556557BD81DEBDD0761E52CE42C462D17B996298E3E6BE59E35C962CE821E1FF18553435012728A7187
310
0841987E927A8D9B35ADDF70BBC6989599FE4F1427F9A4286A132ABAC49D651EF234CD5CE04CDA78BA3DC2A8FB645D00B9DF8B57E215725C60BCA2A463E54C4CE327C7A65E1C7DB02E7DEFCBF594B864C5CA6CDBD49C957943E9FA5D5FBAF336F90F504B0304140006080800CC70623BAD7543B64E01000033030000300000
310
006662782F39464131463745442D413632322D343644302D413938332D3331353338454246344243312F636E782E786D6CD593CD6EC32010845F0571AD6CE3D48AD20813A9873E410FBD12D82434182C7EAAE6EDBB2424CD25871E7B41D6EC30B3FA84F9E67BB2E40B4234DE8DB46F1925E094D7C6ED479AD3AE5951B2113C
310
789FEE6C943839C1488B4C05DF079FE72A69D8C96C13AAD6B8631503449F83828872B949AC57D26200B826A308D316B4064D6E46FCDA41C05550DC9E483A00797BFD207EFB092A45DE9514C1BBD22178396BD39D891265658C238DEA00936C654E5E433CB65A26D9F6EDB5EBC14EBF49A45CB856E66048291F6939A9A81BB5
310
C8917738143CA680F4AA299D66A042CEB3354A2684DC9D8D178FE0D9B8B41CAAD720F880EE7EF93C0C18769E099ECC04D5A102C8049A8A05632F4DDF376CF1DE0F6BB65C2F8627B65A33C6BB62177CEBBDAD973006829F89F22E814B54F4BC2BE347F8AA8F681390B50FA73F804400B5F542E796F19FF974E7F78DB802FE05
310
E207504B0304140006080800CC70623B16AB87BA640500003C100000340000006662782F39464131463745442D413632322D343644302D413938332D3331353338454246344243312F6F626A656374732E786D6CAD575B6FA33818FD2B887DE6924B3BED8A326A92B68A663B534DD4D13E548A0C38942D60649B369D5FBFC7
310
600890A493BDE42160637FD7F31D7FF63E6FB3D478A55C242CBF3247B66B1A340F5994E4F19559CA8D75611A9F7D8F33263BCB4C232719BD32D5B4E97B316765A1A722BA21652A07B3B7B33F0D11D29C9A46981221AE4C113ED38CD8A4942CA2E2C58E882476BCD9DA23BB5ED8171B73523C0F841684D35CC252CCE79062D4
310
468DFA43D7747CCF51DF7D4FFDEB5593E3AB9CCA9FBEFE241792E4E19EB28198C968BAB8199F5D5A67D3E9C49A9E8F47D6EC76B6B0469F26EEFC7C3EBFBCBEB98462213924694B38DD98FE1D62C393D073EA4FADC5DAF04326852CCF6958F90F0F2B9BB5C48816348F90C7840A68EB78EDF68723159BCEE7891A6B95DDE9D3
310
BCEAEEE8086A6C6F9E5D4B59F0175C10A7A0820BAA5055C7473B5AE3CFDD452D602CD5DF12616444529E90D448938013FE6EFA58AA96F85E4F8C42275708571E98FE6827AF6B2B4AE3D7D83D64E5A64C53054DD3AF90BD06FEA9149565C94FCA0F6B834DC85599E4F2423B24DF0B6AFA979E534DFA9E7A4CC6FA631D486393
310
921829879BF5D781A373557BCB85E97FB90DB62B558F8795179C15944B051F40AB495CF35451D26A4727654E6D8033BD98EF82F21D91FF8AF2DD9982BCF1643BDD4EB516C9492E368C67C88DED563FC36D5EACF66DFF057C3658BDBFA69DF9578B3DA735B64F18C7F20770A9D45CFCF7FCF563D6456A277DBEF78A02637CA2
310
43B90A490AEAB94F72244481D24819A6C0E59B606BFA4B3025981DBB48EAB701D97BF19C577CC77F2D1B6C55A9EF3C732474C0B727303F625995056C3B02963D9EAC146BE78EC5FCEC7FA999EBC5EACBAAE41B12D27B4D2C0BBA49F244E2ECDC81B76B502F113D8F5EE8FB1BE3111CDD4FC2AA9B844CAB1288B68AB90A7CDC
310
1C166AB0D3DC5310625FCC14E779BFD0709F8890A629C9292B1B2DED31A4B0DA928CEE135085754027E3018A397D4D5427D15BD1330B677DC8934285AC3DF45A9EB68FF8F2B8FC0A509AFEECFD0FF2DE25CC6047F7214B195F07EFEB9A094D800F7BFAE8FED187B78EA8A3A400F115961BCAD1215E47C966530AF0EE8128FE
310
58CEBB996A8964FFA529A046635D9353B0336A8F700DDF46271A024E70B0B37C9DE01847591E54DED53D54202AB947E4076556AC49C6CA5C9E1226B7F1A7B1BE15DEED62C41B91E1B3E9AFAAA735036547343A925075041DF0A9979E893B391F8FCFA6967B3EFB644DCF6E5CEBFAE272625DCC6FAF3FB93793C5F90CE1EF57
310
407342756B10D1C489E8953CD1617E5CEECAD6F4EF8914CE5D5D504E5C3F1F9736DA62CFC11E00BCDDB8CC8A9466349744C1F75EBDA4DF09BA8A9E8C7A7E9991989E20E5DBDD6A6003664ED8F7A04A8DBE0DF6EAD9B9AA858342E47399053949D2C146EDB85DE4B176BB0965FBAC19BD19AA918E27FA50C1D22402E144464C
310
59462568E704B6E71915404CB72B8FF4EDE184DDAF753F284990D2C6926782963815403548A70C657FDEF80D2D9CEAA2AE4C1C76F60BFE74219A06527D6582DF6412526107381E55E353090704D085B52408D0933C4ED159D79BDA71BB4BC506F4831350EB6F979CD22D69BF7AC49B91A2C0A9DDA3D5CA36AD20FC478E37E6
310
1844E2352865EBCB6EA275A652E3836BE04EFB400BF1A2556F515F1FBB35B2AB35BD889C744FFA1004B5544B121E57F70215746DD2F5E2C1412B602CBF19455AC6C8E5E9922C4E01E65215385004546899059180EAFCF7A707CE7017CD8CDB0410789AB32C63B91E5CEBBBACB17AC6CD347A022D5075FD106377347AAABA7E
310
7D11590744509B44E205134DC1290F06580320F78E537D3D73540E06CB970B431F185308AD40BBD794D6D77003C5A36E8EAA54BA64597CD8F83BD552A080A365F7FF06504B0304140006080000CC70623B000000000000000000000000350000006662782F39464131463745442D413632322D343644302D413938332D3331
310
353338454246344243312F76657274696365732E62696E504B0304140006080800CC70623BF270F1330600000004000000360000006662782F39464131463745442D413632322D343644302D413938332D3331353338454246344243312F747269616E676C65732E62696E636660600000504B0304140006080000CC70623B
310
000000000000000000000000370000006662782F39464131463745442D413632322D343644302D413938332D3331353338454246344243312F617474726962757465732E62696E504B0304140006080800CC70623B08DA0BD19000000041010000360000006662782F39464131463745442D413632322D343644302D413938
310
332D3331353338454246344243312F6469726563746F72792E786D6C858F410AC3201045AF22B36F53E9A60B35CBEEBAE80D244E44489C6234F4F835464A48035D0DF398FF9F8AF63D0E6CC63039F212F8F9020C7D47C6792B21C5FE7403D62A1188E2E60C98D7234A5830286103A55745067B9D86B8A3CF9C7F90C11DE607
310
FB144396D7B6A82D282E9A152AD114D5EF2CB866EEE831B8EEA07A7BB5A8D7D61A2BAAEB7FD5F70921FF497D00504B0304140006080800CC70623B0D6EF93BFE000000A00100003B0000006662782F39464131463745442D413632322D343644302D413938332D3331353338454246344243312F7265736F75726365732F63
310
6F72652E786D6C8D50596E833010BD0A9ADFCA60B334011947A8694ED00B586642AC041B79A97AFC9A40A5F6AF3F33A3B7689E1E3F7DCD8FEC139DD7D6F4C0720A191A65476DA61E62B892236427C19DB5E1970C322367EC618541F0C9D9B8EC90B226A009093576C41D94DE63804C3DD2D18357379C652E63480A7FCF17A9
310
EE72C29CE5894E3AC17D702940B63D59270887DE46A7D0F36263058F518FBB468FE9A7BE6A7420864373B8D4873369AA8691FA421B3294352543C5CAF65C0F6FEF43CB8BD52C78D0F34F46E550061C419494B6843142CB0F5677F4B52BEB177AEC28E5C52AFF638ACBF84F53D42654E51E77B379102C05791282176B5F693D
310
CB4C7BED567C03504B010214000A0000080000CC70623B3DEE336E79000000790000001B00000000000000000000000000000000006175746F6465736B2D64657369676E2D7061636B6167652E786D6C504B01021400140006080800CC70623BD486FD9CA0000000F40000001300000000000000000000000000B20000005B
310
436F6E74656E745F54797065735D2E786D6C504B01021400140006080800CC70623B1EC5D7A3EB0000007C010000080000000000000000000000000083010000636F72652E786D6C504B01021400140006080800CC70623B55019EA25F0000007C000000070000000000000000000000000094020000636E782E786D6C504B
310
01021400140006080800CC70623B8C9102E971010000D40300000C00000000000000000000000000180300006662782F636F72652E786D6C504B01021400140006080800CC70623BFFEA85907E0000009D0000000B00000000000000000000000000B30400006662782F636E782E786D6C504B01021400140006080800CC70
310
623B4FEEA4082C0100001202000031000000000000000000000000005A0500006662782F39464131463745442D413632322D343644302D413938332D3331353338454246344243312F636F72652E786D6C504B01021400140006080800CC70623BAD7543B64E010000330300003000000000000000000000000000D5060000
310
6662782F39464131463745442D413632322D343644302D413938332D3331353338454246344243312F636E782E786D6C504B01021400140006080800CC70623B16AB87BA640500003C1000003400000000000000000000000000710800006662782F39464131463745442D413632322D343644302D413938332D3331353338
310
454246344243312F6F626A656374732E786D6C504B01021400140006080000CC70623B0000000000000000000000003500000000000000000000000000270E00006662782F39464131463745442D413632322D343644302D413938332D3331353338454246344243312F76657274696365732E62696E504B01021400140006
310
080800CC70623BF270F133060000000400000036000000000000000000000000007A0E00006662782F39464131463745442D413632322D343644302D413938332D3331353338454246344243312F747269616E676C65732E62696E504B01021400140006080000CC70623B0000000000000000000000003700000000000000
310
000000000000D40E00006662782F39464131463745442D413632322D343644302D413938332D3331353338454246344243312F617474726962757465732E62696E504B01021400140006080800CC70623B08DA0BD190000000410100003600000000000000000000000000290F00006662782F39464131463745442D413632
310
322D343644302D413938332D3331353338454246344243312F6469726563746F72792E786D6C504B01021400140006080800CC70623B0D6EF93BFE000000A00100003B000000000000000000000000000D1000006662782F39464131463745442D413632322D343644302D413938332D3331353338454246344243312F7265
310
736F75726365732F636F72652E786D6C504B0506000000000E000E0080040000641100000000
  0
XRECORD
  5
175
102
{ACAD_REACTORS
330
173
102
}
330
173
100
AcDbXrecord
280
     1
270
     1
271
     1
  0
XRECORD
  5
174
102
{ACAD_REACTORS
330
173
102
}
330
173
100
AcDbXrecord
280
     1
270
     1
271
     1
  0
XRECORD
  5
1FB
102
{ACAD_REACTORS
330
173
102
}
330
173
100
AcDbXrecord
280
     1
 70
     0
 90
1673772943
  1
ECE7A1D2-D628-4531-984C-D00F80459256
310
504B03040A0000080000CC70623B3DEE336E79000000790000001B0000006175746F6465736B2D64657369676E2D7061636B6167652E786D6C3C3F786D6C2076657273696F6E3D22312E302220656E636F64696E673D227574662D3822203F3E3C666F726D6174733E3C666F726D61743E687474703A2F2F736368656D612E
310
6175746F6465736B2E636F6D2F64657369676E2D7061636B6167652F323030393C2F666F726D61743E3C2F666F726D6174733E504B0304140006080800CC70623BD486FD9CA0000000F4000000130000005B436F6E74656E745F54797065735D2E786D6C7D8EC10E82300C865F65E91D8A1E8C310C0EEA1BF002731658846E
310
D98AC1B77784ABF1D8FE5FBFBF75BBCE937A534CCEB38643598122B6FEE978D0B0485F9C41B54DDD7D022595594E1A469170414C76A4D9A4D207E29CF43ECE46F218070CC6BECC4078ACAA135ACF422C856C0E68EA1BF5669944DDD7BCDE7B1F8E415D77AECB980613C2E4AC91FC167A2B244592486606FC29C8FD7F045B9A
310
EF7053A7E60B504B0304140006080800CC70623BD9DDAED0EC0000007C01000008000000636F72652E786D6C8D90416EC3201045AF82665B61836D9CD8C2444DD39CA01740405C94182C03558F5F9C3852BBEB6A467FFE9B197D7EF89E6EE8CB2CC17A37002D0820E394D7D68D03A478C17B4007C117EFE32F1B20272733C0
310
2A83E0E3E2D3BC49CABB685CCCAAF3DA6CA20CC14440EA969B0182FA34932C648AD911AEC52CD5558EA6A0CF2EC329598D1E47ACCEFBECC59A050463A7EA5833865FEBDD0E37353BE3EE8DBDE3F6786A48D375FBF6CC78B9C282473B3DEFABC5C86834888A900E538A49F5419B9EB47DD5BC907D4F082F57FB1F28CDFA9F50
310
B22ED6D5F6EE030B20687EE43E10BC5CB3C8E51E54AE6B6EE207504B0304140006080800CC70623B55019EA25F0000007C00000007000000636E782E786D6C4DCB3B0E80201045D1AD90E915ED2CF8AC45050C11660C8261F98AB1B07AC9C97D42D718D865D3E909258CFD00CCE24AC6E326A164D74DC0B4128928FF326038
310
472BA13128B1252AC747C6BAB984FC68F0B87FE8960A5C09FE86CFB69FBA01504B0304140006080800CC70623BA24EB22D72010000D40300000C0000006662782F636F72652E786D6CC5535B6E833010BC8AE5DF0A6C5E49888CA3A6694ED00B38E05014B091B1518EDFE511A5A9D228FD2A1F60CDEC7A67C6986DCE4D8D7A
310
69BA4AAB0C073EC548AA5C17952A33ECECD15B61B4E1CC686DBF9561A44423333CC098B3D268D7CE50AE9595CA02AA74216750749DB418E5352C32DCE59FB211BE70162ABA93DF8AFC244AE9073ED050C759670D0840D390E18DF9F1706664C23973AE2A66B62A605A75ACA4C13C4976E1364A12EF355A2EBD384AF65EFA96
310
BC7B8BED2EA6719AAE16FB8491A199335B351775B991C2CA02F390D2D40B028F861F41BCA68B7518BFD0D59A524686F29B26D7164F36B94AD9289CE54E6D1DE6010819891F6E21228B3AD1831EC219194284CF98F06DD01008846CC5A1BEF83801D4CBDC6A1303536877A57A513B0953A94FC707FDBE6064EA84A9E3E6E0FA
310
EE8CF0E9198F7784A316AA0413C2C2F2E0ECA0934D1AE6D05A69BCDE9E91D2A611F573361E38FC1375157F5752AE6B6DFE4B11990F88CCBF0719EE23FF02504B0304140006080800CC70623B408A7D3B7C0000009D0000000B0000006662782F636E782E786D6C4DCCD10A83201886E15B91FFDC552A92A0064DBC8F581632
310
D3703A76F9ABD1C18E3E78F878E5F0D9027ABBFCF2292AE86E2D20171F69F6715550CB827B40839639A5F2770314A7CD293819B45C73AAFB45B35BA61ACAA1C1C7E7855C58C15BC331339661262CC762340413D68D77DA5B42298546CBE6573AF60CEB2F504B0304140006080800CC70623B449FB9BD290100001202000031
310
0000006662782F36394639363044362D344446342D343946362D394244322D3234314243333846323333332F636F72652E786D6C8D515B6EC32010BC0AE22B55850D98B871848994463E412FE002495162B07854397EA176A4F62F3F2C9A9D991D587EB84F37F0AD7D30CEF6905418026DA553C65E7A98E219ED203808EE9D
310
8B7F6810D871D23D2C3014FCE25D9A57483A1BB58D19B54EE9151C43D0110279CB971E06F9A5A7B11A53CC8C70ADE6515EC78BAE4895DB992778883E0700CB907242D17643D7E2538BD869608875438BBAE38922CAC8F1BDD90DB4691A5E2F42C153326A951B95E398B3D1FE599322163C9AE9115F7A3D46ADA0A018778810
310
84E907617BDCEE297BC5BB3DC6BC2EF47FA234AB2745C9D8D8D035EE220B50105E2F0DC1954B9FB747187D9F9D8FA0CCDB042D5FA0C015C65B42DF78BD10F3F3B363CB56C7109DCFDFBBB97E662ED92EB62D13BC2E1BCAE5777DB9966D8A1F504B0304140006080800CC70623BAD7543B64E01000033030000300000006662
310
782F36394639363044362D344446342D343946362D394244322D3234314243333846323333332F636E782E786D6CD593CD6EC32010845F0571AD6CE3D48AD20813A9873E410FBD12D82434182C7EAAE6EDBB2424CD25871E7B41D6EC30B3FA84F9E67BB2E40B4234DE8DB46F1925E094D7C6ED479AD3AE5951B2113C789FEE
310
6C943839C1488B4C05DF079FE72A69D8C96C13AAD6B8631503449F83828872B949AC57D26200B826A308D316B4064D6E46FCDA41C05550DC9E483A00797BFD207EFB092A45DE9514C1BBD22178396BD39D891265658C238DEA00936C654E5E433CB65A26D9F6EDB5EBC14EBF49A45CB856E66048291F6939A9A81BB5C89177
310
38143CA680F4AA299D66A042CEB3354A2684DC9D8D178FE0D9B8B41CAAD720F880EE7EF93C0C18769E099ECC04D5A102C8049A8A05632F4DDF376CF1DE0F6BB65C2F8627B65A33C6BB62177CEBBDAD973006829F89F22E814B54F4BC2BE347F8AA8F681390B50FA73F804400B5F542E796F19FF974E7F78DB802FE05E20750
310
4B0304140006080800CC70623B8D05915C650500003B100000340000006662782F36394639363044362D344446342D343946362D394244322D3234314243333846323333332F6F626A656374732E786D6CAD575B6FA33814FE2B887D06429276DA1565D4266D158D3A339A6846FB502932E050B66023DB74D2FDF5FB190C01
310
9276B2973C046C8ECFF53B17071F77456EBD502133CEAE6CDF9DD81665314F32965ED995DA3A17B6F5310C04E7AA47665B8C14F4CAD6DB7618A48257A5D94AE89654B91AEDDEDDFC61C998326A5B714EA4BCB265FC440BE2924AF184CA6737218AB8E976E7FA6E4338649B0A523E8D98964450A6A029F619B8588D52FE7039
310
B1BD30F0F4F730D0FF866AF6369557DB33949F31A9088B0F848DD8CCFCF9F2767A76E99CCDE733677E3EF59D9BBB9BA5E37F984D16E78BC5E5F5ED25044B25C0C96822E8D60EEFE11B91C581D77CEA34368A1F5329E68CD1B8B61F16D63A1B8E092D294B10C78C4A48EB593D192E7DED9BDEE7995E1B91FDEDD3ACEA9FE831
310
6A756F9F7D4D79F4274C90A7A04248AA51D5F8C718DAE06FB2F75AC4796EBE65D22A88A22223B995679120E2D50E41AA49C260C046A35368846B0BECD0DFF3EBEB8AD4F835768F69B9ADF25C43D30E6B646F807FAA64AD59F61715C7A54127C4AACA98BA3006A9D792DAE165E0D59B61A01FB3A9F9D838D2DAE62445C86166
310
F37564E842E7DE6A69879FEEA2DD5AE7E371E1A5E025154AC307D06A03D73EB5978C58FFA4C8E9033066E0F3BD53BEC1F39F91BE7B55103791EDE6BBB991A2046172CB4581D8B893FA674DDA17A77B3B7C413D1B511FD2743BFF8A38F03A658705E3ADF8015C3A3417FF3D7E439FF591DA0B5F18BC20C1B8981957AE6392A3
310
F43C640C01D1A0B4728E2DD4F26DB4B3C3152A252A3B4E913CEC1C72F012782FF88EFF8637AA552DBEF76408E8A8DE9E50F9E1CB3A2DA0DB1B6039A893B56063DC5B3E3FFB5F72E67AB9FEB4AEC496C4F4C1149625DD662C53E89D7BF0F6151A046260D1337DFDC94502430F83B0EE07A130A224BCAD7DAE1D9FB6CD422FF6
310
920702629C4BB9AE79C12F243C6432A6794E18E5552BA56B431AAB5D91317302B2B071E86C3A42B1A02F999E24061403B5D0EB639195DA655DD3EBEAB4FB862DDF579F014AD0E73C22F99E28DA57FB98E75C6CA2D74D53086D600F4786E0FE3144B771A8A7B900F03594DB8A633CBC49B2EDB69228BB479CF863B5E807AAAB
310
23872F6DFEB4129B949CA33823F58830E86D65621E10047D9DB34D862E8EAC3C2ABC2F7B2C40D67CDFE01F5545B92105AF983AC54D93D69E56FB8E797F88913F898A9FEC705D3F9D1B54EC8426FB500D40A03BD0119B06E1B95DDC7EB8F6975367793EBD70E66733DFB9BC982F9CE564727731999F5D4ECFCE3B8D6A4DC2A0
310
6D50FD148437D110834A64C6CDDF57FBACB5C307A2A477DFE4939736CFEF2B175371E0E10CF0DD1D5C15654E0BCA14D1E87DD02FF93782A162C0A3D95F1524A52770F972BF1EE9809D13CE7DD599467F8ECE9ADD85CE85A34CD45355448C64F9E8A031DC2D596ACC6E5DD93D9B82DE2EF5CAF81363A8E47996A0DE24564A79
310
4115AACE09C55E14540231FDA13C319787134EBF34E3A022514E5B4D9E0826E25C02D5805B15ABE1BEF51B26383D445DD9E875EE33FE4C22DA16427D65A3BCA92CA6D28DD01DF5DC53330704308475351050232CCD31583787BA75774AFB06E5070DD0C8EF484E19968C5D83BA5B90B244D31E54D55A372320FE4786B7EA58
310
44E135AA5467CB7EA333A61683CC6A8C3257034C10CF46F40EF9F5BE59BE5BD30C3C72D235E95D10345C1D45445A5F0BB47E46A5EBE5570F9380B5FA629579952296A773720405982B9DE04011506178964401AA8BDF1FBF0A8EAB6861DD6580C0E38217056766716DAEB2D6FA0917D3E4116581EADB879C4E7CFFB11EFACD
310
3D641311495D92C8676CB409A72D18610D803CE8A626049E8EC1887CB5B44CC39883690DDA8399B4B9855B481E7D71D4A9D22F96E5BB73BF5793020C02137BF837504B0304140006080000CC70623B000000000000000000000000350000006662782F36394639363044362D344446342D343946362D394244322D32343142
310
43333846323333332F76657274696365732E62696E504B0304140006080800CC70623BF270F1330600000004000000360000006662782F36394639363044362D344446342D343946362D394244322D3234314243333846323333332F747269616E676C65732E62696E636660600000504B0304140006080000CC70623B0000
310
00000000000000000000370000006662782F36394639363044362D344446342D343946362D394244322D3234314243333846323333332F617474726962757465732E62696E504B0304140006080800CC70623B08DA0BD19000000041010000360000006662782F36394639363044362D344446342D343946362D394244322D
310
3234314243333846323333332F6469726563746F72792E786D6C858F410AC3201045AF22B36F53E9A60B35CBEEBAE80D244E44489C6234F4F835464A48035D0DF398FF9F8AF63D0E6CC63039F212F8F9020C7D47C6792B21C5FE7403D62A1188E2E60C98D7234A5830286103A55745067B9D86B8A3CF9C7F90C11DE607FB14
310
4396D7B6A82D282E9A152AD114D5EF2CB866EEE831B8EEA07A7BB5A8D7D61A2BAAEB7FD5F70921FF497D00504B0304140006080800CC70623BCA768048FE000000A00100003B0000006662782F36394639363044362D344446342D343946362D394244322D3234314243333846323333332F7265736F75726365732F636F72
310
652E786D6C8D50596E833010BD0A9ADFCA60D600328E9AA639412F609909B1126CE4A5EAF16B0295DABFFECC8CDEA2797AECF8353F924FB44E193D409E5248504B332A3D0D10FC95B4901C39B3C6F85F3248B49871801506CE266BC2B243D2688FDA47549B11775038871E12F988C7004EDE7016A9083E2ADC3D5D84BC8B09
310
D33C8D74D471E6BC8D0192EDC93A815B742658898E651BCB59086ADC356A8C3FD555A1055ED7E7E254D615792D0F075295F585746FF53B694EE78A565DD736979A65AB9933AFE69F8CD2A2F038022F28ED489E135A7CE4554F9BBEA85E68DB53CAB255FEC71496F19FA6A0B42F8B3DEE6673C0F318E4497096AD7DC5F52C33
310
EEB55BFE0D504B010214000A0000080000CC70623B3DEE336E79000000790000001B00000000000000000000000000000000006175746F6465736B2D64657369676E2D7061636B6167652E786D6C504B01021400140006080800CC70623BD486FD9CA0000000F40000001300000000000000000000000000B20000005B436F
310
6E74656E745F54797065735D2E786D6C504B01021400140006080800CC70623BD9DDAED0EC0000007C010000080000000000000000000000000083010000636F72652E786D6C504B01021400140006080800CC70623B55019EA25F0000007C000000070000000000000000000000000095020000636E782E786D6C504B0102
310
1400140006080800CC70623BA24EB22D72010000D40300000C00000000000000000000000000190300006662782F636F72652E786D6C504B01021400140006080800CC70623B408A7D3B7C0000009D0000000B00000000000000000000000000B50400006662782F636E782E786D6C504B01021400140006080800CC70623B
310
449FB9BD290100001202000031000000000000000000000000005A0500006662782F36394639363044362D344446342D343946362D394244322D3234314243333846323333332F636F72652E786D6C504B01021400140006080800CC70623BAD7543B64E010000330300003000000000000000000000000000D20600006662
310
782F36394639363044362D344446342D343946362D394244322D3234314243333846323333332F636E782E786D6C504B01021400140006080800CC70623B8D05915C650500003B10000034000000000000000000000000006E0800006662782F36394639363044362D344446342D343946362D394244322D32343142433338
310
46323333332F6F626A656374732E786D6C504B01021400140006080000CC70623B0000000000000000000000003500000000000000000000000000250E00006662782F36394639363044362D344446342D343946362D394244322D3234314243333846323333332F76657274696365732E62696E504B010214001400060808
310
00CC70623BF270F13306000000040000003600000000000000000000000000780E00006662782F36394639363044362D344446342D343946362D394244322D3234314243333846323333332F747269616E676C65732E62696E504B01021400140006080000CC70623B00000000000000000000000037000000000000000000
310
00000000D20E00006662782F36394639363044362D344446342D343946362D394244322D3234314243333846323333332F617474726962757465732E62696E504B01021400140006080800CC70623B08DA0BD190000000410100003600000000000000000000000000270F00006662782F36394639363044362D344446342D
310
343946362D394244322D3234314243333846323333332F6469726563746F72792E786D6C504B01021400140006080800CC70623BCA768048FE000000A00100003B000000000000000000000000000B1000006662782F36394639363044362D344446342D343946362D394244322D3234314243333846323333332F7265736F
310
75726365732F636F72652E786D6C504B0506000000000E000E0080040000621100000000
  0
XRECORD
  5
176
102
{ACAD_REACTORS
330
173
102
}
330
173
100
AcDbXrecord
280
     1
270
     1
271
     1
  0
XRECORD
  5
177
102
{ACAD_REACTORS
330
173
102
}
330
173
100
AcDbXrecord
280
     1
270
     1
271
     1
  0
XRECORD
  5
EC5
102
{ACAD_REACTORS
330
EC4
102
}
330
EC4
100
AcDbXrecord
280
     1
102
DISPLAYNAME
  1
Metric50
102
FLAGS
 90
        0
  0
CELLSTYLEMAP
  5
EBA
102
{ACAD_REACTORS
330
162
102
}
330
162
100
AcDbCellStyleMap
 90
        3
300
CELLSTYLE
  1
TABLEFORMAT_BEGIN
 90
        5
170
     1
 91
        0
 92
    32768
 62
   257
 93
        1
300
CONTENTFORMAT
  1
CONTENTFORMAT_BEGIN
 90
        0
 91
        0
 92
      512
 93
        0
300

 40
0.0
140
1.0
 94
        5
 62
     0
340
11
144
6.0
309
CONTENTFORMAT_END
171
     1
301
MARGIN
  1
CELLMARGIN_BEGIN
 40
1.5
 40
1.5
 40
1.5
 40
1.5
 40
0.18
 40
0.18
309
CELLMARGIN_END
 94
        6
 95
        1
302
GRIDFORMAT
  1
GRIDFORMAT_BEGIN
 90
        0
 91
        1
 62
     0
 92
       -2
340
14
 93
        0
 40
1.125
309
GRIDFORMAT_END
 95
        2
302
GRIDFORMAT
  1
GRIDFORMAT_BEGIN
 90
        0
 91
        1
 62
     0
 92
       -2
340
14
 93
        0
 40
1.125
309
GRIDFORMAT_END
 95
        4
302
GRIDFORMAT
  1
GRIDFORMAT_BEGIN
 90
        0
 91
        1
 62
     0
 92
       -2
340
14
 93
        0
 40
1.125
309
GRIDFORMAT_END
 95
        8
302
GRIDFORMAT
  1
GRIDFORMAT_BEGIN
 90
        0
 91
        1
 62
     0
 92
       -2
340
14
 93
        0
 40
1.125
309
GRIDFORMAT_END
 95
       16
302
GRIDFORMAT
  1
GRIDFORMAT_BEGIN
 90
        0
 91
        1
 62
     0
 92
       -2
340
14
 93
        0
 40
1.125
309
GRIDFORMAT_END
 95
       32
302
GRIDFORMAT
  1
GRIDFORMAT_BEGIN
 90
        0
 91
        1
 62
     0
 92
       -2
340
14
 93
        0
 40
1.125
309
GRIDFORMAT_END
309
TABLEFORMAT_END
  1
CELLSTYLE_BEGIN
 90
        1
 91
        1
300
_TITLE
309
CELLSTYLE_END
300
CELLSTYLE
  1
TABLEFORMAT_BEGIN
 90
        5
170
     1
 91
        0
 92
        0
 62
   257
 93
        1
300
CONTENTFORMAT
  1
CONTENTFORMAT_BEGIN
 90
        0
 91
        0
 92
      512
 93
        0
300

 40
0.0
140
1.0
 94
        5
 62
     0
340
11
144
4.5
309
CONTENTFORMAT_END
171
     1
301
MARGIN
  1
CELLMARGIN_BEGIN
 40
1.5
 40
1.5
 40
1.5
 40
1.5
 40
0.18
 40
0.18
309
CELLMARGIN_END
 94
        6
 95
        1
302
GRIDFORMAT
  1
GRIDFORMAT_BEGIN
 90
        0
 91
        1
 62
     0
 92
       -2
340
14
 93
        0
 40
1.125
309
GRIDFORMAT_END
 95
        2
302
GRIDFORMAT
  1
GRIDFORMAT_BEGIN
 90
        0
 91
        1
 62
     0
 92
       -2
340
14
 93
        0
 40
1.125
309
GRIDFORMAT_END
 95
        4
302
GRIDFORMAT
  1
GRIDFORMAT_BEGIN
 90
        0
 91
        1
 62
     0
 92
       -2
340
14
 93
        0
 40
1.125
309
GRIDFORMAT_END
 95
        8
302
GRIDFORMAT
  1
GRIDFORMAT_BEGIN
 90
        0
 91
        1
 62
     0
 92
       -2
340
14
 93
        0
 40
1.125
309
GRIDFORMAT_END
 95
       16
302
GRIDFORMAT
  1
GRIDFORMAT_BEGIN
 90
        0
 91
        1
 62
     0
 92
       -2
340
14
 93
        0
 40
1.125
309
GRIDFORMAT_END
 95
       32
302
GRIDFORMAT
  1
GRIDFORMAT_BEGIN
 90
        0
 91
        1
 62
     0
 92
       -2
340
14
 93
        0
 40
1.125
309
GRIDFORMAT_END
309
TABLEFORMAT_END
  1
CELLSTYLE_BEGIN
 90
        2
 91
        1
300
_HEADER
309
CELLSTYLE_END
300
CELLSTYLE
  1
TABLEFORMAT_BEGIN
 90
        5
170
     1
 91
        0
 92
        0
 62
   257
 93
        1
300
CONTENTFORMAT
  1
CONTENTFORMAT_BEGIN
 90
        0
 91
        0
 92
      512
 93
        0
300

 40
0.0
140
1.0
 94
        2
 62
     0
340
11
144
4.5
309
CONTENTFORMAT_END
171
     1
301
MARGIN
  1
CELLMARGIN_BEGIN
 40
1.5
 40
1.5
 40
1.5
 40
1.5
 40
0.18
 40
0.18
309
CELLMARGIN_END
 94
        6
 95
        1
302
GRIDFORMAT
  1
GRIDFORMAT_BEGIN
 90
        0
 91
        1
 62
     0
 92
       -2
340
14
 93
        0
 40
1.125
309
GRIDFORMAT_END
 95
        2
302
GRIDFORMAT
  1
GRIDFORMAT_BEGIN
 90
        0
 91
        1
 62
     0
 92
       -2
340
14
 93
        0
 40
1.125
309
GRIDFORMAT_END
 95
        4
302
GRIDFORMAT
  1
GRIDFORMAT_BEGIN
 90
        0
 91
        1
 62
     0
 92
       -2
340
14
 93
        0
 40
1.125
309
GRIDFORMAT_END
 95
        8
302
GRIDFORMAT
  1
GRIDFORMAT_BEGIN
 90
        0
 91
        1
 62
     0
 92
       -2
340
14
 93
        0
 40
1.125
309
GRIDFORMAT_END
 95
       16
302
GRIDFORMAT
  1
GRIDFORMAT_BEGIN
 90
        0
 91
        1
 62
     0
 92
       -2
340
14
 93
        0
 40
1.125
309
GRIDFORMAT_END
 95
       32
302
GRIDFORMAT
  1
GRIDFORMAT_BEGIN
 90
        0
 91
        1
 62
     0
 92
       -2
340
14
 93
        0
 40
1.125
309
GRIDFORMAT_END
309
TABLEFORMAT_END
  1
CELLSTYLE_BEGIN
 90
        3
 91
        2
300
_DATA
309
CELLSTYLE_END
  0
ENDSEC
  0
SECTION
  2
ACDSDATA
 70
     2
 71
     8
  0
ACDSSCHEMA
 90
        0
  1
AcDb_Thumbnail_Schema
  2
AcDbDs::ID
280
    10
 91
        8
  2
Thumbnail_Data
280
    15
 91
        0
101
ACDSRECORD
 95
        0
 90
        1
  2
AcDbDs::TreatedAsObjectData
280
     1
291
     1
101
ACDSRECORD
 95
        0
 90
        2
  2
AcDbDs::Legacy
280
     1
291
     1
101
ACDSRECORD
  1
AcDbDs::ID
 90
        3
  2
AcDs:Indexable
280
     1
291
     1
101
ACDSRECORD
  1
AcDbDs::ID
 90
        4
  2
AcDbDs::HandleAttribute
280
     7
282
     1
  0
ACDSSCHEMA
 90
        1
  1
AcDbDs::TreatedAsObjectDataSchema
  2
AcDbDs::TreatedAsObjectData
280
     1
 91
        0
  0
ACDSSCHEMA
 90
        2
  1
AcDbDs::LegacySchema
  2
AcDbDs::Legacy
280
     1
 91
        0
  0
ACDSSCHEMA
 90
        3
  1
AcDbDs::IndexedPropertySchema
  2
AcDs:Indexable
280
     1
 91
        0
  0
ACDSSCHEMA
 90
        4
  1
AcDbDs::HandleAttributeSchema
  2
AcDbDs::HandleAttribute
280
     7
 91
        1
284
     1
  0
ACDSRECORD
 90
        0
  2
AcDbDs::ID
280
    10
320
22
  2
Thumbnail_Data
280
    15
 94
      896
310
89504E470D0A1A0A0000000D49484452000001000000009108030000001BE1960600000300504C5445212830FFFFFF2128300000000000000000000000000000000000000000000000000000330000660000990000CC0000FF0033000033330033660033990033CC0033FF0066000066330066660066990066CC0066FF0099
310
000099330099660099990099CC0099FF00CC0000CC3300CC6600CC9900CCCC00CCFF00FF0000FF3300FF6600FF9900FFCC00FFFF3300003300333300663300993300CC3300FF3333003333333333663333993333CC3333FF3366003366333366663366993366CC3366FF3399003399333399663399993399CC3399FF33CC00
310
33CC3333CC6633CC9933CCCC33CCFF33FF0033FF3333FF6633FF9933FFCC33FFFF6600006600336600666600996600CC6600FF6633006633336633666633996633CC6633FF6666006666336666666666996666CC6666FF6699006699336699666699996699CC6699FF66CC0066CC3366CC6666CC9966CCCC66CCFF66FF0066
310
FF3366FF6666FF9966FFCC66FFFF9900009900339900669900999900CC9900FF9933009933339933669933999933CC9933FF9966009966339966669966999966CC9966FF9999009999339999669999999999CC9999FF99CC0099CC3399CC6699CC9999CCCC99CCFF99FF0099FF3399FF6699FF9999FFCC99FFFFCC0000CC00
310
33CC0066CC0099CC00CCCC00FFCC3300CC3333CC3366CC3399CC33CCCC33FFCC6600CC6633CC6666CC6699CC66CCCC66FFCC9900CC9933CC9966CC9999CC99CCCC99FFCCCC00CCCC33CCCC66CCCC99CCCCCCCCCCFFCCFF00CCFF33CCFF66CCFF99CCFFCCCCFFFFFF0000FF0033FF0066FF0099FF00CCFF00FFFF3300FF3333
310
FF3366FF3399FF33CCFF33FFFF6600FF6633FF6666FF6699FF66CCFF66FFFF9900FF9933FF9966FF9999FF99CCFF99FFFFCC00FFCC33FFCC66FFCC99FFCCCCFFCCFFFFFF00FFFF33FFFF66FFFF99FFFFCCFFFFFF0000000D0D0D1A1A1A2828283535354343435050505D5D5D6B6B6B787878868686939393A1A1A1AEAEAEBB
310
BBBBC9C9C9D6D6D6E4E4E4F1F1F1FFFFFF0000000000000000000000000000000000000000000000000000000000002E4550F10000003B4944415478DAEDC13101000000C2A0F54F6D0B2FA0000000000000000000000000000000000000000000000000000000000000000000000000CE06919100016C9A5B1B0000000049
310
454E44AE426082
  0
ENDSEC
  0
EOF
