999
dxfrw 0.6.3
  0
SECTION
  2
HEADER
  9
$ACADVER
  1
AC1021
  9
$DWGCODEPAGE
  3
ANSI_1252
  9
$INSBASE
 10
0
 20
0
 30
0
  9
$EXTMIN
 10
-62
 20
-143.0282525578213
 30
0
  9
$EXTMAX
 10
62
 20
62
 30
0
  9
$LIMMIN
 10
0
 20
0
  9
$LIMMAX
 10
420
 20
297
  9
$ORTHOMODE
 70
    0
  9
$REGENMODE
 70
    1
  9
$FILLMODE
 70
    1
  9
$QTEXTMODE
 70
    0
  9
$MIRRTEXT
 70
    0
  9
$LTSCALE
 40
1
  9
$ATTMODE
 70
    0
  9
$TEXTSIZE
 40
2.5
  9
$TRACEWID
 40
15.68
  9
$TEXTSTYLE
  7
STANDARD
  9
$CLAYER
  8
Dimensions [Cutout Sections]
  9
$CELTYPE
  6
BYLAYER
  9
$CECOLOR
 62
  256
  9
$CELTSCALE
 40
1
  9
$DISPSILH
 70
    0
  9
$DIMSCALE
 40
1
  9
$DIMASZ
 40
5
  9
$DIMEXO
 40
2
  9
$DIMDLI
 40
3.75
  9
$DIMRND
 40
0
  9
$DIMDLE
 40
0
  9
$DIMEXE
 40
2
  9
$DIMTP
 40
0
  9
$DIMTM
 40
0
  9
$DIMTXT
 40
2.5
  9
$DIMCEN
 40
2.5
  9
$DIMTSZ
 40
0
  9
$DIMTOL
 70
    0
  9
$DIMLIM
 70
    0
  9
$DIMTIH
 70
    0
  9
$DIMTOH
 70
    0
  9
$DIMSE1
 70
    0
  9
$DIMSE2
 70
    0
  9
$DIMTAD
 70
    1
  9
$DIMZIN
 70
    1
  9
$DIMBLK
  1

  9
$DIMASO
 70
    1
  9
$DIMSHO
 70
    1
  9
$DIMPOST
  1

  9
$DIMAPOST
  1

  9
$DIMALT
 70
    0
  9
$DIMALTD
 70
    3
  9
$DIMALTF
 40
0.03937
  9
$DIMLFAC
 40
1
  9
$DIMTOFL
 70
    1
  9
$DIMTVP
 40
0
  9
$DIMTIX
 70
    0
  9
$DIMSOXD
 70
    0
  9
$DIMSAH
 70
    0
  9
$DIMBLK1
  1

  9
$DIMBLK2
  1

  9
$DIMSTYLE
  2
STANDARD
  9
$DIMCLRD
 70
  256
  9
$DIMCLRE
 70
  256
  9
$DIMCLRT
 70
  256
  9
$DIMTFAC
 40
1
  9
$DIMGAP
 40
2
  9
$DIMJUST
 70
    0
  9
$DIMSD1
 70
    0
  9
$DIMSD2
 70
    0
  9
$DIMTOLJ
 70
    0
  9
$DIMTZIN
 70
    8
  9
$DIMALTZ
 70
    0
  9
$DIMALTTZ
 70
    0
  9
$DIMUPT
 70
    0
  9
$DIMDEC
 70
    0
  9
$DIMTDEC
 70
    2
  9
$DIMALTU
 70
    2
  9
$DIMALTTD
 70
    3
  9
$DIMTXSTY
  7
standard
  9
$DIMAUNIT
 70
    0
  9
$DIMADEC
 70
    2
  9
$DIMALTRND
 40
0
  9
$DIMAZIN
 70
    0
  9
$DIMDSEP
 70
   44
  9
$DIMATFIT
 70
    3
  9
$DIMFRAC
 70
    0
  9
$DIMLDRBLK
  1
STANDARD
  9
$DIMLUNIT
 70
    2
  9
$DIMLWD
 70
   -2
  9
$DIMLWE
 70
   -2
  9
$DIMTMOVE
 70
    0
  9
$DIMFXL
 40
1
  9
$DIMFXLON
 70
    0
  9
$DIMJOGANG
 40
0.7854
  9
$DIMTFILL
 70
    0
  9
$DIMTFILLCLR
 70
    0
  9
$DIMARCSYM
 70
    0
  9
$DIMLTYPE
  6

  9
$DIMLTEX1
  6

  9
$DIMLTEX2
  6

  9
$LUNITS
 70
    2
  9
$LUPREC
 70
    4
  9
$SKETCHINC
 40
1
  9
$FILLETRAD
 40
0
  9
$AUNITS
 70
    0
  9
$AUPREC
 70
    2
  9
$MENU
  1
.
  9
$ELEVATION
 40
0
  9
$PELEVATION
 40
0
  9
$THICKNESS
 40
0
  9
$LIMCHECK
 70
    0
  9
$CHAMFERA
 40
0
  9
$CHAMFERB
 40
0
  9
$CHAMFERC
 40
0
  9
$CHAMFERD
 40
0
  9
$SKPOLY
 70
    0
  9
$USRTIMER
 70
    1
  9
$ANGBASE
 50
0
  9
$ANGDIR
 70
    0
  9
$PDMODE
 70
   34
  9
$PDSIZE
 40
0
  9
$PLINEWID
 40
0
  9
$SPLFRAME
 70
    0
  9
$SPLINETYPE
 70
    2
  9
$SPLINESEGS
 70
    8
  9
$HANDSEED
  5
20000
  9
$SURFTAB1
 70
    6
  9
$SURFTAB2
 70
    6
  9
$SURFTYPE
 70
    6
  9
$SURFU
 70
    6
  9
$SURFV
 70
    6
  9
$UCSBASE
  2

  9
$UCSNAME
  2

  9
$UCSORG
 10
0
 20
0
 30
0
  9
$UCSXDIR
 10
1
 20
0
 30
0
  9
$UCSYDIR
 10
0
 20
1
 30
0
  9
$UCSORTHOREF
  2

  9
$UCSORTHOVIEW
 70
    0
  9
$UCSORGTOP
 10
0
 20
0
 30
0
  9
$UCSORGBOTTOM
 10
0
 20
0
 30
0
  9
$UCSORGLEFT
 10
0
 20
0
 30
0
  9
$UCSORGRIGHT
 10
0
 20
0
 30
0
  9
$UCSORGFRONT
 10
0
 20
0
 30
0
  9
$UCSORGBACK
 10
0
 20
0
 30
0
  9
$PUCSBASE
  2

  9
$PUCSNAME
  2

  9
$PUCSORG
 10
0
 20
0
 30
0
  9
$PUCSXDIR
 10
1
 20
0
 30
0
  9
$PUCSYDIR
 10
0
 20
1
 30
0
  9
$PUCSORTHOREF
  2

  9
$PUCSORTHOVIEW
 70
    0
  9
$PUCSORGTOP
 10
0
 20
0
 30
0
  9
$PUCSORGBOTTOM
 10
0
 20
0
 30
0
  9
$PUCSORGLEFT
 10
0
 20
0
 30
0
  9
$PUCSORGRIGHT
 10
0
 20
0
 30
0
  9
$PUCSORGFRONT
 10
0
 20
0
 30
0
  9
$PUCSORGBACK
 10
0
 20
0
 30
0
  9
$USERI1
 70
    0
  9
$USERI2
 70
    0
  9
$USERI3
 70
    0
  9
$USERI4
 70
    0
  9
$USERI5
 70
    0
  9
$USERR1
 40
0
  9
$USERR2
 40
0
  9
$USERR3
 40
0
  9
$USERR4
 40
0
  9
$USERR5
 40
0
  9
$WORLDVIEW
 70
    1
  9
$SHADEDGE
 70
    3
  9
$SHADEDIF
 70
   70
  9
$TILEMODE
 70
    1
  9
$MAXACTVP
 70
   64
  9
$PINSBASE
 10
105
 20
202.2479211298254
 30
0
  9
$PLIMCHECK
 70
    0
  9
$PEXTMIN
 10
0
 20
0
 30
0
  9
$PEXTMAX
 10
0
 20
0
 30
0
  9
$GRIDMODE
 70
    1
  9
$SNAPSTYLE
 70
    0
  9
$GRIDUNIT
 10
0
 20
0
  9
$PLIMMIN
 10
0
 20
0
  9
$PLIMMAX
 10
210
 20
297
  9
$UNITMODE
 70
    0
  9
$VISRETAIN
 70
    1
  9
$PLINEGEN
 70
    0
  9
$PSLTSCALE
 70
    1
  9
$TREEDEPTH
 70
 3020
  9
$CMLSTYLE
  2
Standard
  9
$CMLJUST
 70
    0
  9
$CMLSCALE
 40
20
  9
$PROXYGRAPHICS
 70
    1
  9
$MEASUREMENT
 70
    1
  9
$CELWEIGHT
370
   -1
  9
$ENDCAPS
280
    0
  9
$JOINSTYLE
280
    0
  9
$LWDISPLAY
290
    0
  9
$INSUNITS
 70
    4
  9
$HYPERLINKBASE
  1

  9
$STYLESHEET
  1

  9
$XEDIT
290
    1
  9
$CEPSNTYPE
380
    0
  9
$PSTYLEMODE
290
    1
  9
$EXTNAMES
290
    1
  9
$PSVPSCALE
 40
1.32665
  9
$OLESTARTUP
290
    0
  9
$SORTENTS
280
  127
  9
$INDEXCTL
280
    0
  9
$HIDETEXT
280
    1
  9
$XCLIPFRAME
290
    0
  9
$HALOGAP
280
    0
  9
$OBSCOLOR
 70
  257
  9
$OBSLTYPE
280
    0
  9
$INTERSECTIONDISPLAY
280
    0
  9
$INTERSECTIONCOLOR
 70
  257
  9
$DIMASSOC
280
    1
  9
$PROJECTNAME
  1

  9
$CAMERADISPLAY
290
    0
  9
$LENSLENGTH
 40
50
  9
$CAMERAHEIGHT
 40
0
  9
$STEPSPERSEC
 40
2
  9
$STEPSIZE
 40
50
  9
$3DDWFPREC
 40
2
  9
$PSOLWIDTH
 40
5
  9
$PSOLHEIGHT
 40
80
  9
$LOFTANG1
 40
1.570796326794897
  9
$LOFTANG2
 40
1.570796326794897
  9
$LOFTMAG1
 40
0
  9
$LOFTMAG2
 40
0
  9
$LOFTPARAM
 70
    7
  9
$LOFTNORMALS
280
    1
  9
$LATITUDE
 40
1
  9
$LONGITUDE
 40
1
  9
$NORTHDIRECTION
 40
0
  9
$TIMEZONE
 70
-8000
  9
$LIGHTGLYPHDISPLAY
280
    1
  9
$TILEMODELIGHTSYNCH
280
    1
  9
$SOLIDHIST
280
    1
  9
$SHOWHIST
280
    1
  9
$DWFFRAME
280
    2
  9
$DGNFRAME
280
    0
  9
$REALWORLDSCALE
290
    1
  9
$INTERFERECOLOR
 62
    1
  9
$CSHADOW
280
    0
  9
$SHADOWPLANELOCATION
 40
0
  0
ENDSEC
  0
SECTION
  2
CLASSES
  0
ENDSEC
  0
SECTION
  2
TABLES
  0
TABLE
  2
VPORT
  5
8
330
0
100
AcDbSymbolTable
 70
    1
  0
VPORT
  5
31
330
2
100
AcDbSymbolTableRecord
100
AcDbViewportTableRecord
  2
*ACTIVE
 70
    0
 10
0
 20
0
 11
1
 21
1
 12
82.71137145148968
 22
33.50460633161916
 13
0
 23
0
 14
10
 24
10
 15
10
 25
10
 16
0
 26
0
 36
1
 17
0
 27
0
 37
0
 40
171.623595418085
 41
1.867132867132867
 42
50
 43
0
 44
0
 50
0
 51
0
 71
    0
 72
  100
 73
    1
 74
    3
 75
    0
 76
    1
 77
    0
 78
    0
281
    0
 65
    1
110
0
120
0
130
0
111
1
121
0
131
0
112
0
122
1
132
0
 79
    0
146
0
348
10020
 60
    7
 61
    5
292
1
282
    1
141
0
142
0
 63
  250
421
3358443
  0
ENDTAB
  0
TABLE
  2
LTYPE
  5
5
330
0
100
AcDbSymbolTable
 70
    4
  0
LTYPE
  5
14
330
5
100
AcDbSymbolTableRecord
100
AcDbLinetypeTableRecord
  2
ByBlock
 70
    0
  3

 72
   65
 73
    0
 40
0
  0
LTYPE
  5
15
330
5
100
AcDbSymbolTableRecord
100
AcDbLinetypeTableRecord
  2
ByLayer
 70
    0
  3

 72
   65
 73
    0
 40
0
  0
LTYPE
  5
16
330
5
100
AcDbSymbolTableRecord
100
AcDbLinetypeTableRecord
  2
Continuous
 70
    0
  3
Solid line
 72
   65
 73
    0
 40
0
  0
LTYPE
  5
32
330
5
100
AcDbSymbolTableRecord
100
AcDbLinetypeTableRecord
  2
DOT
 70
    0
  3
Dot . . . . . . . . . . . . . . . . . . . . . .
 72
   65
 73
    2
 40
6.35
 49
0
 74
    0
 49
-6.35
 74
    0
  0
LTYPE
  5
33
330
5
100
AcDbSymbolTableRecord
100
AcDbLinetypeTableRecord
  2
DOTTINY
 70
    0
  3
Dot (.15x) .....................................
 72
   65
 73
    2
 40
0.9525
 49
0
 74
    0
 49
-0.9525
 74
    0
  0
LTYPE
  5
34
330
5
100
AcDbSymbolTableRecord
100
AcDbLinetypeTableRecord
  2
DOT2
 70
    0
  3
Dot (.5x) .....................................
 72
   65
 73
    2
 40
3.175
 49
0
 74
    0
 49
-3.175
 74
    0
  0
LTYPE
  5
35
330
5
100
AcDbSymbolTableRecord
100
AcDbLinetypeTableRecord
  2
DOTX2
 70
    0
  3
Dot (2x) .  .  .  .  .  .  .  .  .  .  .  .  .
 72
   65
 73
    2
 40
12.7
 49
0
 74
    0
 49
-12.7
 74
    0
  0
LTYPE
  5
36
330
5
100
AcDbSymbolTableRecord
100
AcDbLinetypeTableRecord
  2
DASHED
 70
    0
  3
Dashed _ _ _ _ _ _ _ _ _ _ _ _ _ _ _ _ _
 72
   65
 73
    2
 40
19.05
 49
12.7
 74
    0
 49
-6.35
 74
    0
  0
LTYPE
  5
37
330
5
100
AcDbSymbolTableRecord
100
AcDbLinetypeTableRecord
  2
DASHEDTINY
 70
    0
  3
Dashed (.15x) _ _ _ _ _ _ _ _ _ _ _ _ _ _ _ _ _
 72
   65
 73
    2
 40
2.8575
 49
1.905
 74
    0
 49
-0.9525
 74
    0
  0
LTYPE
  5
38
330
5
100
AcDbSymbolTableRecord
100
AcDbLinetypeTableRecord
  2
DASHED2
 70
    0
  3
Dashed (.5x) _ _ _ _ _ _ _ _ _ _ _ _ _ _ _ _ _
 72
   65
 73
    2
 40
9.524999999999999
 49
6.35
 74
    0
 49
-3.175
 74
    0
  0
LTYPE
  5
39
330
5
100
AcDbSymbolTableRecord
100
AcDbLinetypeTableRecord
  2
DASHEDX2
 70
    0
  3
Dashed (2x) ____  ____  ____  ____  ____  ___
 72
   65
 73
    2
 40
38.09999999999999
 49
25.4
 74
    0
 49
-12.7
 74
    0
  0
LTYPE
  5
3A
330
5
100
AcDbSymbolTableRecord
100
AcDbLinetypeTableRecord
  2
DASHDOT
 70
    0
  3
Dash dot __ . __ . __ . __ . __ . __ . __ . __
 72
   65
 73
    4
 40
25.4
 49
12.7
 74
    0
 49
-6.35
 74
    0
 49
0
 74
    0
 49
-6.35
 74
    0
  0
LTYPE
  5
3B
330
5
100
AcDbSymbolTableRecord
100
AcDbLinetypeTableRecord
  2
DASHDOTTINY
 70
    0
  3
Dash dot (.15x) _._._._._._._._._._._._._._._.
 72
   65
 73
    4
 40
3.81
 49
1.905
 74
    0
 49
-0.9525
 74
    0
 49
0
 74
    0
 49
-0.9525
 74
    0
  0
LTYPE
  5
3C
330
5
100
AcDbSymbolTableRecord
100
AcDbLinetypeTableRecord
  2
DASHDOT2
 70
    0
  3
Dash dot (.5x) _._._._._._._._._._._._._._._.
 72
   65
 73
    4
 40
12.7
 49
6.35
 74
    0
 49
-3.175
 74
    0
 49
0
 74
    0
 49
-3.175
 74
    0
  0
LTYPE
  5
3D
330
5
100
AcDbSymbolTableRecord
100
AcDbLinetypeTableRecord
  2
DASHDOTX2
 70
    0
  3
Dash dot (2x) ____  .  ____  .  ____  .  ___
 72
   65
 73
    4
 40
50.8
 49
25.4
 74
    0
 49
-12.7
 74
    0
 49
0
 74
    0
 49
-12.7
 74
    0
  0
LTYPE
  5
3E
330
5
100
AcDbSymbolTableRecord
100
AcDbLinetypeTableRecord
  2
DIVIDE
 70
    0
  3
Divide ____ . . ____ . . ____ . . ____ . . ____
 72
   65
 73
    6
 40
31.75
 49
12.7
 74
    0
 49
-6.35
 74
    0
 49
0
 74
    0
 49
-6.35
 74
    0
 49
0
 74
    0
 49
-6.35
 74
    0
  0
LTYPE
  5
3F
330
5
100
AcDbSymbolTableRecord
100
AcDbLinetypeTableRecord
  2
DIVIDETINY
 70
    0
  3
Divide (.15x) __..__..__..__..__..__..__..__.._
 72
   65
 73
    6
 40
4.7625
 49
1.905
 74
    0
 49
-0.9525
 74
    0
 49
0
 74
    0
 49
-0.9525
 74
    0
 49
0
 74
    0
 49
-0.9525
 74
    0
  0
LTYPE
  5
40
330
5
100
AcDbSymbolTableRecord
100
AcDbLinetypeTableRecord
  2
DIVIDE2
 70
    0
  3
Divide (.5x) __..__..__..__..__..__..__..__.._
 72
   65
 73
    6
 40
15.875
 49
6.35
 74
    0
 49
-3.175
 74
    0
 49
0
 74
    0
 49
-3.175
 74
    0
 49
0
 74
    0
 49
-3.175
 74
    0
  0
LTYPE
  5
41
330
5
100
AcDbSymbolTableRecord
100
AcDbLinetypeTableRecord
  2
DIVIDEX2
 70
    0
  3
Divide (2x) ________  .  .  ________  .  .  _
 72
   65
 73
    6
 40
63.5
 49
25.4
 74
    0
 49
-12.7
 74
    0
 49
0
 74
    0
 49
-12.7
 74
    0
 49
0
 74
    0
 49
-12.7
 74
    0
  0
LTYPE
  5
42
330
5
100
AcDbSymbolTableRecord
100
AcDbLinetypeTableRecord
  2
BORDER
 70
    0
  3
Border __ __ . __ __ . __ __ . __ __ . __ __ .
 72
   65
 73
    6
 40
44.45
 49
12.7
 74
    0
 49
-6.35
 74
    0
 49
12.7
 74
    0
 49
-6.35
 74
    0
 49
0
 74
    0
 49
-6.35
 74
    0
  0
LTYPE
  5
43
330
5
100
AcDbSymbolTableRecord
100
AcDbLinetypeTableRecord
  2
BORDERTINY
 70
    0
  3
Border (.15x) __.__.__.__.__.__.__.__.__.__.__.
 72
   65
 73
    6
 40
6.6675
 49
1.905
 74
    0
 49
-0.9525
 74
    0
 49
1.905
 74
    0
 49
-0.9525
 74
    0
 49
0
 74
    0
 49
-0.9525
 74
    0
  0
LTYPE
  5
44
330
5
100
AcDbSymbolTableRecord
100
AcDbLinetypeTableRecord
  2
BORDER2
 70
    0
  3
Border (.5x) __.__.__.__.__.__.__.__.__.__.__.
 72
   65
 73
    6
 40
22.225
 49
6.35
 74
    0
 49
-3.175
 74
    0
 49
6.35
 74
    0
 49
-3.175
 74
    0
 49
0
 74
    0
 49
-3.175
 74
    0
  0
LTYPE
  5
45
330
5
100
AcDbSymbolTableRecord
100
AcDbLinetypeTableRecord
  2
BORDERX2
 70
    0
  3
Border (2x) ____  ____  .  ____  ____  .  ___
 72
   65
 73
    6
 40
88.89999999999999
 49
25.4
 74
    0
 49
-12.7
 74
    0
 49
25.4
 74
    0
 49
-12.7
 74
    0
 49
0
 74
    0
 49
-12.7
 74
    0
  0
LTYPE
  5
46
330
5
100
AcDbSymbolTableRecord
100
AcDbLinetypeTableRecord
  2
CENTER
 70
    0
  3
Center ____ _ ____ _ ____ _ ____ _ ____ _ ____
 72
   65
 73
    4
 40
50.8
 49
31.75
 74
    0
 49
-6.35
 74
    0
 49
6.35
 74
    0
 49
-6.35
 74
    0
  0
LTYPE
  5
47
330
5
100
AcDbSymbolTableRecord
100
AcDbLinetypeTableRecord
  2
CENTERTINY
 70
    0
  3
Center (.15x) ___ _ ___ _ ___ _ ___ _ ___ _ ___
 72
   65
 73
    4
 40
7.62
 49
4.7625
 74
    0
 49
-0.9525
 74
    0
 49
0.9525
 74
    0
 49
-0.9525
 74
    0
  0
LTYPE
  5
48
330
5
100
AcDbSymbolTableRecord
100
AcDbLinetypeTableRecord
  2
CENTER2
 70
    0
  3
Center (.5x) ___ _ ___ _ ___ _ ___ _ ___ _ ___
 72
   65
 73
    4
 40
28.575
 49
19.05
 74
    0
 49
-3.175
 74
    0
 49
3.175
 74
    0
 49
-3.175
 74
    0
  0
LTYPE
  5
49
330
5
100
AcDbSymbolTableRecord
100
AcDbLinetypeTableRecord
  2
CENTERX2
 70
    0
  3
Center (2x) ________  __  ________  __  _____
 72
   65
 73
    4
 40
101.6
 49
63.5
 74
    0
 49
-12.7
 74
    0
 49
12.7
 74
    0
 49
-12.7
 74
    0
  0
ENDTAB
  0
TABLE
  2
LAYER
  5
2
330
0
100
AcDbSymbolTable
 70
    1
  0
LAYER
  5
10
330
2
100
AcDbSymbolTableRecord
100
AcDbLayerTableRecord
  2
0
 70
    0
 62
    7
  6
CONTINUOUS
370
    0
390
F
  0
LAYER
  5
4A
330
2
100
AcDbSymbolTableRecord
100
AcDbLayerTableRecord
  2
Dimensions [Cutout Sections]
 70
    1
 62
    3
  6
DIVIDE2
370
    0
390
F
  0
LAYER
  5
4B
330
2
100
AcDbSymbolTableRecord
100
AcDbLayerTableRecord
  2
Dimensions [Structure & Drill Points]
 70
    1
 62
    1
  6
DIVIDE2
370
   -3
390
F
  0
ENDTAB
  0
TABLE
  2
STYLE
  5
3
330
0
100
AcDbSymbolTable
 70
    3
  0
STYLE
  5
4C
330
2
100
AcDbSymbolTableRecord
100
AcDbTextStyleTableRecord
  2
Standard
 70
    0
 40
0
 41
1
 50
0
 71
    0
 42
1
  3
txt
  4

  0
ENDTAB
  0
TABLE
  2
VIEW
  5
6
330
0
100
AcDbSymbolTable
 70
    0
  0
ENDTAB
  0
TABLE
  2
UCS
  5
7
330
0
100
AcDbSymbolTable
 70
    0
  0
ENDTAB
  0
TABLE
  2
APPID
  5
9
330
0
100
AcDbSymbolTable
 70
    1
  0
APPID
  5
12
330
9
100
AcDbSymbolTableRecord
100
AcDbRegAppTableRecord
  2
ACAD
 70
    0
  0
APPID
  5
4D
330
9
100
AcDbSymbolTableRecord
100
AcDbRegAppTableRecord
  2
LibreCad
 70
    0
  0
ENDTAB
  0
TABLE
  2
DIMSTYLE
  5
A
330
0
100
AcDbSymbolTable
 70
    1
100
AcDbDimStyleTable
 71
    1
  0
DIMSTYLE
105
4E
330
A
100
AcDbSymbolTableRecord
100
AcDbDimStyleTableRecord
  2
Standard
 70
    0
 40
1
 41
5
 42
2
 43
0.38
 44
2
 45
0
 46
0
 47
0
 48
0
 49
1
140
2.5
141
0.09
142
0
143
25.4
144
1
145
0
146
1
147
2
148
0
 71
    0
 72
    0
 73
    0
 74
    1
 75
    0
 76
    0
 77
    0
 78
    1
 79
    0
170
    0
171
    2
172
    0
173
    0
174
    0
175
    0
176
  256
177
  256
178
  256
179
    2
271
    0
272
    4
273
    2
274
    2
275
    0
276
    0
277
    2
278
   44
279
    0
280
    0
281
    0
282
    0
283
    1
284
    0
285
    0
286
    0
288
    0
289
    3
340
standard
341

371
   -2
372
   -2
  0
ENDTAB
  0
TABLE
  2
BLOCK_RECORD
  5
1
330
0
100
AcDbSymbolTable
 70
    2
  0
BLOCK_RECORD
  5
1F
330
1
100
AcDbSymbolTableRecord
100
AcDbBlockTableRecord
  2
*Model_Space
 70
    0
280
    1
281
    0
  0
BLOCK_RECORD
  5
1E
330
1
100
AcDbSymbolTableRecord
100
AcDbBlockTableRecord
  2
*Paper_Space
 70
    0
280
    1
281
    0
  0
BLOCK_RECORD
  5
4F
330
1
100
AcDbSymbolTableRecord
100
AcDbBlockTableRecord
  2
*D30
 70
    0
280
    1
281
    0
  0
BLOCK_RECORD
  5
52
330
1
100
AcDbSymbolTableRecord
100
AcDbBlockTableRecord
  2
*D23
 70
    0
280
    1
281
    0
  0
BLOCK_RECORD
  5
55
330
1
100
AcDbSymbolTableRecord
100
AcDbBlockTableRecord
  2
*D13
 70
    0
280
    1
281
    0
  0
BLOCK_RECORD
  5
58
330
1
100
AcDbSymbolTableRecord
100
AcDbBlockTableRecord
  2
*D2
 70
    0
280
    1
281
    0
  0
BLOCK_RECORD
  5
5B
330
1
100
AcDbSymbolTableRecord
100
AcDbBlockTableRecord
  2
*D3
 70
    0
280
    1
281
    0
  0
BLOCK_RECORD
  5
5E
330
1
100
AcDbSymbolTableRecord
100
AcDbBlockTableRecord
  2
*D28
 70
    0
280
    1
281
    0
  0
BLOCK_RECORD
  5
61
330
1
100
AcDbSymbolTableRecord
100
AcDbBlockTableRecord
  2
*D45
 70
    0
280
    1
281
    0
  0
BLOCK_RECORD
  5
64
330
1
100
AcDbSymbolTableRecord
100
AcDbBlockTableRecord
  2
*D51
 70
    0
280
    1
281
    0
  0
BLOCK_RECORD
  5
67
330
1
100
AcDbSymbolTableRecord
100
AcDbBlockTableRecord
  2
*D1
 70
    0
280
    1
281
    0
  0
BLOCK_RECORD
  5
6A
330
1
100
AcDbSymbolTableRecord
100
AcDbBlockTableRecord
  2
*D29
 70
    0
280
    1
281
    0
  0
BLOCK_RECORD
  5
6D
330
1
100
AcDbSymbolTableRecord
100
AcDbBlockTableRecord
  2
*D44
 70
    0
280
    1
281
    0
  0
BLOCK_RECORD
  5
70
330
1
100
AcDbSymbolTableRecord
100
AcDbBlockTableRecord
  2
*D24
 70
    0
280
    1
281
    0
  0
BLOCK_RECORD
  5
73
330
1
100
AcDbSymbolTableRecord
100
AcDbBlockTableRecord
  2
*D4
 70
    0
280
    1
281
    0
  0
BLOCK_RECORD
  5
76
330
1
100
AcDbSymbolTableRecord
100
AcDbBlockTableRecord
  2
*D6
 70
    0
280
    1
281
    0
  0
BLOCK_RECORD
  5
79
330
1
100
AcDbSymbolTableRecord
100
AcDbBlockTableRecord
  2
*D7
 70
    0
280
    1
281
    0
  0
BLOCK_RECORD
  5
7C
330
1
100
AcDbSymbolTableRecord
100
AcDbBlockTableRecord
  2
*D22
 70
    0
280
    1
281
    0
  0
BLOCK_RECORD
  5
7F
330
1
100
AcDbSymbolTableRecord
100
AcDbBlockTableRecord
  2
*D53
 70
    0
280
    1
281
    0
  0
BLOCK_RECORD
  5
82
330
1
100
AcDbSymbolTableRecord
100
AcDbBlockTableRecord
  2
*D15
 70
    0
280
    1
281
    0
  0
BLOCK_RECORD
  5
85
330
1
100
AcDbSymbolTableRecord
100
AcDbBlockTableRecord
  2
*D40
 70
    0
280
    1
281
    0
  0
BLOCK_RECORD
  5
88
330
1
100
AcDbSymbolTableRecord
100
AcDbBlockTableRecord
  2
*D21
 70
    0
280
    1
281
    0
  0
BLOCK_RECORD
  5
8B
330
1
100
AcDbSymbolTableRecord
100
AcDbBlockTableRecord
  2
*D50
 70
    0
280
    1
281
    0
  0
BLOCK_RECORD
  5
8E
330
1
100
AcDbSymbolTableRecord
100
AcDbBlockTableRecord
  2
*D36
 70
    0
280
    1
281
    0
  0
BLOCK_RECORD
  5
91
330
1
100
AcDbSymbolTableRecord
100
AcDbBlockTableRecord
  2
*D5
 70
    0
280
    1
281
    0
  0
BLOCK_RECORD
  5
94
330
1
100
AcDbSymbolTableRecord
100
AcDbBlockTableRecord
  2
*D8
 70
    0
280
    1
281
    0
  0
BLOCK_RECORD
  5
97
330
1
100
AcDbSymbolTableRecord
100
AcDbBlockTableRecord
  2
*D19
 70
    0
280
    1
281
    0
  0
BLOCK_RECORD
  5
9A
330
1
100
AcDbSymbolTableRecord
100
AcDbBlockTableRecord
  2
*D31
 70
    0
280
    1
281
    0
  0
BLOCK_RECORD
  5
9D
330
1
100
AcDbSymbolTableRecord
100
AcDbBlockTableRecord
  2
*D43
 70
    0
280
    1
281
    0
  0
BLOCK_RECORD
  5
A0
330
1
100
AcDbSymbolTableRecord
100
AcDbBlockTableRecord
  2
*D52
 70
    0
280
    1
281
    0
  0
BLOCK_RECORD
  5
A3
330
1
100
AcDbSymbolTableRecord
100
AcDbBlockTableRecord
  2
*D9
 70
    0
280
    1
281
    0
  0
BLOCK_RECORD
  5
A6
330
1
100
AcDbSymbolTableRecord
100
AcDbBlockTableRecord
  2
*D11
 70
    0
280
    1
281
    0
  0
BLOCK_RECORD
  5
A9
330
1
100
AcDbSymbolTableRecord
100
AcDbBlockTableRecord
  2
*D42
 70
    0
280
    1
281
    0
  0
BLOCK_RECORD
  5
AC
330
1
100
AcDbSymbolTableRecord
100
AcDbBlockTableRecord
  2
*D18
 70
    0
280
    1
281
    0
  0
BLOCK_RECORD
  5
AF
330
1
100
AcDbSymbolTableRecord
100
AcDbBlockTableRecord
  2
*D25
 70
    0
280
    1
281
    0
  0
BLOCK_RECORD
  5
B2
330
1
100
AcDbSymbolTableRecord
100
AcDbBlockTableRecord
  2
*D33
 70
    0
280
    1
281
    0
  0
BLOCK_RECORD
  5
B5
330
1
100
AcDbSymbolTableRecord
100
AcDbBlockTableRecord
  2
*D10
 70
    0
280
    1
281
    0
  0
BLOCK_RECORD
  5
B8
330
1
100
AcDbSymbolTableRecord
100
AcDbBlockTableRecord
  2
*D46
 70
    0
280
    1
281
    0
  0
BLOCK_RECORD
  5
BB
330
1
100
AcDbSymbolTableRecord
100
AcDbBlockTableRecord
  2
*D27
 70
    0
280
    1
281
    0
  0
BLOCK_RECORD
  5
BE
330
1
100
AcDbSymbolTableRecord
100
AcDbBlockTableRecord
  2
*D17
 70
    0
280
    1
281
    0
  0
BLOCK_RECORD
  5
C1
330
1
100
AcDbSymbolTableRecord
100
AcDbBlockTableRecord
  2
*D38
 70
    0
280
    1
281
    0
  0
BLOCK_RECORD
  5
C4
330
1
100
AcDbSymbolTableRecord
100
AcDbBlockTableRecord
  2
*D12
 70
    0
280
    1
281
    0
  0
BLOCK_RECORD
  5
C7
330
1
100
AcDbSymbolTableRecord
100
AcDbBlockTableRecord
  2
*D54
 70
    0
280
    1
281
    0
  0
BLOCK_RECORD
  5
CA
330
1
100
AcDbSymbolTableRecord
100
AcDbBlockTableRecord
  2
*D14
 70
    0
280
    1
281
    0
  0
BLOCK_RECORD
  5
CD
330
1
100
AcDbSymbolTableRecord
100
AcDbBlockTableRecord
  2
*D26
 70
    0
280
    1
281
    0
  0
BLOCK_RECORD
  5
D0
330
1
100
AcDbSymbolTableRecord
100
AcDbBlockTableRecord
  2
*D48
 70
    0
280
    1
281
    0
  0
BLOCK_RECORD
  5
D3
330
1
100
AcDbSymbolTableRecord
100
AcDbBlockTableRecord
  2
*D20
 70
    0
280
    1
281
    0
  0
BLOCK_RECORD
  5
D6
330
1
100
AcDbSymbolTableRecord
100
AcDbBlockTableRecord
  2
*D39
 70
    0
280
    1
281
    0
  0
BLOCK_RECORD
  5
D9
330
1
100
AcDbSymbolTableRecord
100
AcDbBlockTableRecord
  2
*D57
 70
    0
280
    1
281
    0
  0
BLOCK_RECORD
  5
DC
330
1
100
AcDbSymbolTableRecord
100
AcDbBlockTableRecord
  2
*D34
 70
    0
280
    1
281
    0
  0
BLOCK_RECORD
  5
DF
330
1
100
AcDbSymbolTableRecord
100
AcDbBlockTableRecord
  2
*D41
 70
    0
280
    1
281
    0
  0
BLOCK_RECORD
  5
E2
330
1
100
AcDbSymbolTableRecord
100
AcDbBlockTableRecord
  2
*D32
 70
    0
280
    1
281
    0
  0
BLOCK_RECORD
  5
E5
330
1
100
AcDbSymbolTableRecord
100
AcDbBlockTableRecord
  2
*D49
 70
    0
280
    1
281
    0
  0
BLOCK_RECORD
  5
E8
330
1
100
AcDbSymbolTableRecord
100
AcDbBlockTableRecord
  2
*D16
 70
    0
280
    1
281
    0
  0
BLOCK_RECORD
  5
EB
330
1
100
AcDbSymbolTableRecord
100
AcDbBlockTableRecord
  2
*D55
 70
    0
280
    1
281
    0
  0
BLOCK_RECORD
  5
EE
330
1
100
AcDbSymbolTableRecord
100
AcDbBlockTableRecord
  2
*D35
 70
    0
280
    1
281
    0
  0
BLOCK_RECORD
  5
F1
330
1
100
AcDbSymbolTableRecord
100
AcDbBlockTableRecord
  2
*D56
 70
    0
280
    1
281
    0
  0
BLOCK_RECORD
  5
F4
330
1
100
AcDbSymbolTableRecord
100
AcDbBlockTableRecord
  2
*D58
 70
    0
280
    1
281
    0
  0
BLOCK_RECORD
  5
F7
330
1
100
AcDbSymbolTableRecord
100
AcDbBlockTableRecord
  2
*D37
 70
    0
280
    1
281
    0
  0
BLOCK_RECORD
  5
FA
330
1
100
AcDbSymbolTableRecord
100
AcDbBlockTableRecord
  2
*D47
 70
    0
280
    1
281
    0
  0
ENDTAB
  0
ENDSEC
  0
SECTION
  2
BLOCKS
  0
BLOCK
  5
20
330
1F
100
AcDbEntity
  8
0
100
AcDbBlockBegin
  2
*Model_Space
 70
    0
 10
0
 20
0
 30
0
  3
*Model_Space
  1

  0
ENDBLK
  5
21
330
1F
100
AcDbEntity
  8
0
100
AcDbBlockEnd
  0
BLOCK
  5
1C
330
1B
100
AcDbEntity
  8
0
100
AcDbBlockBegin
  2
*Paper_Space
 70
    0
 10
0
 20
0
 30
0
  3
*Paper_Space
  1

  0
ENDBLK
  5
1D
330
1F
100
AcDbEntity
  8
0
100
AcDbBlockEnd
  0
BLOCK
  5
50
330
4F
100
AcDbEntity
  8
0
100
AcDbBlockBegin
  2
*D30
 70
    1
 10
0
 20
0
  3
*D30
  1

  0
LINE
  5
FD
100
AcDbEntity
  8
Dimensions [Cutout Sections]
  6
ByBlock
 62
  256
370
   -2
100
AcDbLine
 10
-6.999999999999999
 20
49.19930000000001
 11
-6.999999999999984
 21
78.30687862576281
  0
LINE
  5
FE
100
AcDbEntity
  8
Dimensions [Cutout Sections]
  6
ByBlock
 62
  256
370
   -2
100
AcDbLine
 10
7.000000000000001
 20
49.1993
 11
7.000000000000016
 21
78.30687862576279
  0
LINE
  5
FF
100
AcDbEntity
  8
Dimensions [Cutout Sections]
  6
ByBlock
 62
  256
370
   -2
100
AcDbLine
 10
-6.999999999999985
 20
76.30687862576281
 11
7.000000000000015
 21
76.30687862576279
  0
SOLID
  5
100
100
AcDbEntity
  8
Dimensions [Cutout Sections]
  6
ByBlock
 62
  256
370
   -2
100
AcDbTrace
 10
-6.999999999999985
 20
76.30687862576281
 30
0
 11
-1.999999999999984
 21
77.13944794130848
 31
0
 12
-1.999999999999986
 22
75.47430931021712
 32
0
 13
-1.999999999999986
 23
75.47430931021712
 33
0
  0
SOLID
  5
101
100
AcDbEntity
  8
Dimensions [Cutout Sections]
  6
ByBlock
 62
  256
370
   -2
100
AcDbTrace
 10
7.000000000000015
 20
76.30687862576279
 30
0
 11
2.000000000000014
 21
75.47430931021712
 31
0
 12
2.000000000000016
 22
77.13944794130848
 32
0
 13
2.000000000000016
 23
77.13944794130848
 33
0
  0
MTEXT
  5
102
100
AcDbEntity
  8
Dimensions [Cutout Sections]
  6
CONTINUOUS
 62
  256
370
   -2
100
AcDbMText
 10
3.763235247511085e-014
 20
79.55687862576281
 30
0
 40
2.5
 41
2.777777777777778
 71
    5
 72
    1
  1
14
  7
standard
210
0
220
0
230
1
 50
359.9999999999999
 73
    2
 44
1
  0
ENDBLK
  5
51
330
4F
100
AcDbEntity
  8
0
100
AcDbBlockEnd
  0
BLOCK
  5
53
330
52
100
AcDbEntity
  8
0
100
AcDbBlockBegin
  2
*D23
 70
    1
 10
0
 20
0
  3
*D23
  1

  0
LINE
  5
103
100
AcDbEntity
  8
Dimensions [Cutout Sections]
  6
ByBlock
 62
  256
370
   -2
100
AcDbLine
 10
-31.61354918469915
 20
8.414222058843675
 11
-90.19117072019769
 21
66.9918596978808
  0
LINE
  5
104
100
AcDbEntity
  8
Dimensions [Cutout Sections]
  6
ByBlock
 62
  256
370
   -2
100
AcDbLine
 10
-8.414213367982809
 20
31.61355149784635
 11
-66.99183490348135
 21
90.19118913688348
  0
LINE
  5
105
100
AcDbEntity
  8
Dimensions [Cutout Sections]
  6
ByBlock
 62
  256
370
   -2
100
AcDbLine
 10
-88.77695735221488
 20
65.57764594111744
 11
-65.57762153549854
 21
88.77697538012012
  0
SOLID
  5
106
100
AcDbEntity
  8
Dimensions [Cutout Sections]
  6
ByBlock
 62
  256
370
   -2
100
AcDbTrace
 10
-88.77695735221488
 20
65.57764594111744
 30
0
 11
-85.830138288215
 21
69.70189485082633
 31
0
 12
-84.65270763239799
 22
68.52446387132258
 32
0
 13
-84.65270763239799
 23
68.52446387132258
 33
0
  0
SOLID
  5
107
100
AcDbEntity
  8
Dimensions [Cutout Sections]
  6
ByBlock
 62
  256
370
   -2
100
AcDbTrace
 10
-65.57762153549854
 20
88.77697538012012
 30
0
 11
-68.52444059949842
 21
84.65272647041122
 31
0
 12
-69.70187125531542
 22
85.83015744991498
 32
0
 13
-69.70187125531542
 23
85.83015744991498
 33
0
  0
MTEXT
  5
108
100
AcDbEntity
  8
Dimensions [Cutout Sections]
  6
CONTINUOUS
 62
  256
370
   -2
100
AcDbMText
 10
-79.47538616682876
 20
79.47540801535926
 30
0
 40
2.5
 41
3.055555555555866
 71
    5
 72
    1
  1
33
  7
standard
210
0
220
0
230
1
 50
44.999992124427
 73
    2
 44
1
  0
ENDBLK
  5
54
330
52
100
AcDbEntity
  8
0
100
AcDbBlockEnd
  0
BLOCK
  5
56
330
55
100
AcDbEntity
  8
0
100
AcDbBlockBegin
  2
*D13
 70
    1
 10
0
 20
0
  3
*D13
  1

  0
LINE
  5
109
100
AcDbEntity
  8
Dimensions [Structure & Drill Points]
  6
ByBlock
 62
  256
370
   -2
100
AcDbLine
 10
-21.5
 20
19.5
 11
-87.70637010878929
 21
19.50000000000001
  0
LINE
  5
10A
100
AcDbEntity
  8
Dimensions [Structure & Drill Points]
  6
ByBlock
 62
  256
370
   -2
100
AcDbLine
 10
-21.5
 20
-19.5
 11
-87.70637010878929
 21
-19.49999999999999
  0
LINE
  5
10B
100
AcDbEntity
  8
Dimensions [Structure & Drill Points]
  6
ByBlock
 62
  256
370
   -2
100
AcDbLine
 10
-85.70637010878929
 20
19.50000000000001
 11
-85.70637010878929
 21
-19.49999999999999
  0
SOLID
  5
10C
100
AcDbEntity
  8
Dimensions [Structure & Drill Points]
  6
ByBlock
 62
  256
370
   -2
100
AcDbTrace
 10
-85.70637010878929
 20
19.50000000000001
 30
0
 11
-84.8738007932436
 21
14.50000000000001
 31
0
 12
-86.53893942433497
 22
14.50000000000001
 32
0
 13
-86.53893942433497
 23
14.50000000000001
 33
0
  0
SOLID
  5
10D
100
AcDbEntity
  8
Dimensions [Structure & Drill Points]
  6
ByBlock
 62
  256
370
   -2
100
AcDbTrace
 10
-85.70637010878929
 20
-19.49999999999999
 30
0
 11
-86.53893942433497
 21
-14.49999999999999
 31
0
 12
-84.8738007932436
 22
-14.49999999999999
 32
0
 13
-84.8738007932436
 23
-14.49999999999999
 33
0
  0
MTEXT
  5
10E
100
AcDbEntity
  8
Dimensions [Structure & Drill Points]
  6
CONTINUOUS
 62
  256
370
   -2
100
AcDbMText
 10
-88.95637010878929
 20
7.503424422593274e-015
 30
0
 40
2.5
 41
3.055555555555711
 71
    5
 72
    1
  1
39
  7
standard
210
0
220
0
230
1
 50
90
 73
    2
 44
1
  0
ENDBLK
  5
57
330
55
100
AcDbEntity
  8
0
100
AcDbBlockEnd
  0
BLOCK
  5
59
330
58
100
AcDbEntity
  8
0
100
AcDbBlockBegin
  2
*D2
 70
    1
 10
0
 20
0
  3
*D2
  1

  0
LINE
  5
10F
100
AcDbEntity
  8
Dimensions [Structure & Drill Points]
  6
ByBlock
 62
  256
370
   -2
100
AcDbLine
 10
2
 20
-51
 11
131.7011761603929
 21
-51.00000000000003
  0
LINE
  5
110
100
AcDbEntity
  8
Dimensions [Structure & Drill Points]
  6
ByBlock
 62
  256
370
   -2
100
AcDbLine
 10
2
 20
-4.898425415289509e-016
 11
131.7011761603929
 21
-3.225641942637947e-014
  0
LINE
  5
111
100
AcDbEntity
  8
Dimensions [Structure & Drill Points]
  6
ByBlock
 62
  256
370
   -2
100
AcDbLine
 10
129.7011761603929
 20
-51.00000000000003
 11
129.7011761603929
 21
-3.176657688485051e-014
  0
SOLID
  5
112
100
AcDbEntity
  8
Dimensions [Structure & Drill Points]
  6
ByBlock
 62
  256
370
   -2
100
AcDbTrace
 10
129.7011761603929
 20
-51.00000000000003
 30
0
 11
128.8686068448472
 21
-46.00000000000003
 31
0
 12
130.5337454759386
 22
-46.00000000000003
 32
0
 13
130.5337454759386
 23
-46.00000000000003
 33
0
  0
SOLID
  5
113
100
AcDbEntity
  8
Dimensions [Structure & Drill Points]
  6
ByBlock
 62
  256
370
   -2
100
AcDbTrace
 10
129.7011761603929
 20
-3.176657688485051e-014
 30
0
 11
130.5337454759386
 21
-5.000000000000032
 31
0
 12
128.8686068448472
 22
-5.000000000000032
 32
0
 13
128.8686068448472
 23
-5.000000000000032
 33
0
  0
MTEXT
  5
114
100
AcDbEntity
  8
Dimensions [Structure & Drill Points]
  6
CONTINUOUS
 62
  256
370
   -2
100
AcDbMText
 10
126.4511761603929
 20
-25.50000000000003
 30
0
 40
2.5
 41
2.500000000000155
 71
    5
 72
    1
  1
51
  7
standard
210
0
220
0
230
1
 50
90
 73
    2
 44
1
  0
ENDBLK
  5
5A
330
58
100
AcDbEntity
  8
0
100
AcDbBlockEnd
  0
BLOCK
  5
5C
330
5B
100
AcDbEntity
  8
0
100
AcDbBlockBegin
  2
*D3
 70
    1
 10
0
 20
0
  3
*D3
  1

  0
LINE
  5
115
100
AcDbEntity
  8
Dimensions [Structure & Drill Points]
  6
ByBlock
 62
  256
370
   -2
100
AcDbLine
 10
2
 20
0
 11
123.558501423866
 21
0
  0
LINE
  5
116
100
AcDbEntity
  8
Dimensions [Structure & Drill Points]
  6
ByBlock
 62
  256
370
   -2
100
AcDbLine
 10
2
 20
-33.25
 11
123.558501423866
 21
-33.25
  0
LINE
  5
117
100
AcDbEntity
  8
Dimensions [Structure & Drill Points]
  6
ByBlock
 62
  256
370
   -2
100
AcDbLine
 10
121.558501423866
 20
0
 11
121.558501423866
 21
-33.25
  0
SOLID
  5
118
100
AcDbEntity
  8
Dimensions [Structure & Drill Points]
  6
ByBlock
 62
  256
370
   -2
100
AcDbTrace
 10
121.558501423866
 20
0
 30
0
 11
122.3910707394117
 21
-5
 31
0
 12
120.7259321083203
 22
-5
 32
0
 13
120.7259321083203
 23
-5
 33
0
  0
SOLID
  5
119
100
AcDbEntity
  8
Dimensions [Structure & Drill Points]
  6
ByBlock
 62
  256
370
   -2
100
AcDbTrace
 10
121.558501423866
 20
-33.25
 30
0
 11
120.7259321083203
 21
-28.25
 31
0
 12
122.3910707394117
 22
-28.25
 32
0
 13
122.3910707394117
 23
-28.25
 33
0
  0
MTEXT
  5
11A
100
AcDbEntity
  8
Dimensions [Structure & Drill Points]
  6
CONTINUOUS
 62
  256
370
   -2
100
AcDbMText
 10
118.308501423866
 20
-16.625
 30
0
 40
2.5
 41
3.055555555555866
 71
    5
 72
    1
  1
33
  7
standard
210
0
220
0
230
1
 50
90
 73
    2
 44
1
  0
ENDBLK
  5
5D
330
5B
100
AcDbEntity
  8
0
100
AcDbBlockEnd
  0
BLOCK
  5
5F
330
5E
100
AcDbEntity
  8
0
100
AcDbBlockBegin
  2
*D28
 70
    1
 10
0
 20
0
  3
*D28
  1

  0
LINE
  5
11B
100
AcDbEntity
  8
Dimensions [Cutout Sections]
  6
ByBlock
 62
  256
370
   -2
100
AcDbLine
 10
-48.61351356237309
 20
-8.414213562373096
 11
-107.9756499900435
 21
-67.7763499900435
  0
LINE
  5
11C
100
AcDbEntity
  8
Dimensions [Cutout Sections]
  6
ByBlock
 62
  256
370
   -2
100
AcDbLine
 10
-8.414213562373117
 20
-48.61351356237309
 11
-67.77634999004354
 21
-107.9756499900435
  0
LINE
  5
11D
100
AcDbEntity
  8
Dimensions [Cutout Sections]
  6
ByBlock
 62
  256
370
   -2
100
AcDbLine
 10
-106.5614364276704
 20
-66.36213642767041
 11
-66.36213642767045
 21
-106.5614364276704
  0
SOLID
  5
11E
100
AcDbEntity
  8
Dimensions [Cutout Sections]
  6
ByBlock
 62
  256
370
   -2
100
AcDbTrace
 10
-106.5614364276704
 20
-66.36213642767041
 30
0
 11
-102.4371871129075
 21
-69.30895492477295
 31
0
 12
-103.6146179305679
 22
-70.48638574243334
 32
0
 13
-103.6146179305679
 23
-70.48638574243334
 33
0
  0
SOLID
  5
11F
100
AcDbEntity
  8
Dimensions [Cutout Sections]
  6
ByBlock
 62
  256
370
   -2
100
AcDbTrace
 10
-66.36213642767045
 20
-106.5614364276704
 30
0
 11
-70.48638574243338
 21
-103.6146179305679
 31
0
 12
-69.30895492477299
 22
-102.4371871129075
 32
0
 13
-69.30895492477299
 23
-102.4371871129075
 33
0
  0
MTEXT
  5
120
100
AcDbEntity
  8
Dimensions [Cutout Sections]
  6
CONTINUOUS
 62
  256
370
   -2
100
AcDbMText
 10
-84.16368938881415
 20
-84.16368938881406
 30
0
 40
2.5
 41
3.055555555555711
 71
    5
 72
    1
  1
57
  7
standard
210
0
220
0
230
1
 50
315
 73
    2
 44
1
  0
ENDBLK
  5
60
330
5E
100
AcDbEntity
  8
0
100
AcDbBlockEnd
  0
BLOCK
  5
62
330
61
100
AcDbEntity
  8
0
100
AcDbBlockBegin
  2
*D45
 70
    1
 10
0
 20
0
  3
*D45
  1

  0
LINE
  5
121
100
AcDbEntity
  8
Dimensions [Structure & Drill Points]
  6
ByBlock
 62
  256
370
   -2
100
AcDbLine
 10
2
 20
-55.015
 11
158.3867692004938
 21
-55.01500000000004
  0
LINE
  5
122
100
AcDbEntity
  8
Dimensions [Structure & Drill Points]
  6
ByBlock
 62
  256
370
   -2
100
AcDbLine
 10
2
 20
-53
 11
158.3867692004938
 21
-53.00000000000004
  0
LINE
  5
123
100
AcDbEntity
  8
Dimensions [Structure & Drill Points]
  6
ByBlock
 62
  256
370
   -2
100
AcDbLine
 10
156.3867692004938
 20
-65.01500000000004
 11
156.3867692004938
 21
-43.00000000000004
  0
SOLID
  5
124
100
AcDbEntity
  8
Dimensions [Structure & Drill Points]
  6
ByBlock
 62
  256
370
   -2
100
AcDbTrace
 10
156.3867692004938
 20
-55.01500000000004
 30
0
 11
157.2193385160395
 21
-60.01500000000004
 31
0
 12
155.5541998849481
 22
-60.01500000000004
 32
0
 13
155.5541998849481
 23
-60.01500000000004
 33
0
  0
SOLID
  5
125
100
AcDbEntity
  8
Dimensions [Structure & Drill Points]
  6
ByBlock
 62
  256
370
   -2
100
AcDbTrace
 10
156.3867692004938
 20
-53.00000000000004
 30
0
 11
155.5541998849481
 21
-48.00000000000004
 31
0
 12
157.2193385160395
 22
-48.00000000000004
 32
0
 13
157.2193385160395
 23
-48.00000000000004
 33
0
  0
MTEXT
  5
126
100
AcDbEntity
  8
Dimensions [Structure & Drill Points]
  6
CONTINUOUS
 62
  256
370
   -2
100
AcDbMText
 10
153.1367692004938
 20
-54.00750000000004
 30
0
 40
2.5
 41
1.111111111111111
 71
    5
 72
    1
  1
2
  7
standard
210
0
220
0
230
1
 50
90
 73
    2
 44
1
  0
ENDBLK
  5
63
330
61
100
AcDbEntity
  8
0
100
AcDbBlockEnd
  0
BLOCK
  5
65
330
64
100
AcDbEntity
  8
0
100
AcDbBlockBegin
  2
*D51
 70
    1
 10
0
 20
0
  3
*D51
  1

  0
LINE
  5
127
100
AcDbEntity
  8
Dimensions [Structure & Drill Points]
  6
ByBlock
 62
  256
370
   -2
100
AcDbLine
 10
-48.985
 20
-2
 11
-48.98500000000002
 21
-125.6379772067834
  0
LINE
  5
128
100
AcDbEntity
  8
Dimensions [Structure & Drill Points]
  6
ByBlock
 62
  256
370
   -2
100
AcDbLine
 10
-51
 20
-2
 11
-51.00000000000002
 21
-125.6379772067834
  0
LINE
  5
129
100
AcDbEntity
  8
Dimensions [Structure & Drill Points]
  6
ByBlock
 62
  256
370
   -2
100
AcDbLine
 10
-38.98500000000002
 20
-123.6379772067834
 11
-61.00000000000002
 21
-123.6379772067834
  0
SOLID
  5
12A
100
AcDbEntity
  8
Dimensions [Structure & Drill Points]
  6
ByBlock
 62
  256
370
   -2
100
AcDbTrace
 10
-48.98500000000002
 20
-123.6379772067834
 30
0
 11
-43.98500000000002
 21
-122.8054078912377
 31
0
 12
-43.98500000000002
 22
-124.4705465223291
 32
0
 13
-43.98500000000002
 23
-124.4705465223291
 33
0
  0
SOLID
  5
12B
100
AcDbEntity
  8
Dimensions [Structure & Drill Points]
  6
ByBlock
 62
  256
370
   -2
100
AcDbTrace
 10
-51.00000000000002
 20
-123.6379772067834
 30
0
 11
-56.00000000000002
 21
-124.4705465223291
 31
0
 12
-56.00000000000002
 22
-122.8054078912377
 32
0
 13
-56.00000000000002
 23
-122.8054078912377
 33
0
  0
MTEXT
  5
12C
100
AcDbEntity
  8
Dimensions [Structure & Drill Points]
  6
CONTINUOUS
 62
  256
370
   -2
100
AcDbMText
 10
-49.99250000000002
 20
-120.3879772067834
 30
0
 40
2.5
 41
1.111111111111111
 71
    5
 72
    1
  1
2
  7
standard
210
0
220
0
230
1
 50
360
 73
    2
 44
1
  0
ENDBLK
  5
66
330
64
100
AcDbEntity
  8
0
100
AcDbBlockEnd
  0
BLOCK
  5
68
330
67
100
AcDbEntity
  8
0
100
AcDbBlockBegin
  2
*D1
 70
    1
 10
0
 20
0
  3
*D1
  1

  0
LINE
  5
12D
100
AcDbEntity
  8
Dimensions [Structure & Drill Points]
  6
ByBlock
 62
  256
370
   -2
100
AcDbLine
 10
2
 20
-53
 11
139.553041084901
 21
-53.00000000000004
  0
LINE
  5
12E
100
AcDbEntity
  8
Dimensions [Structure & Drill Points]
  6
ByBlock
 62
  256
370
   -2
100
AcDbLine
 10
2
 20
-4.898425415289509e-016
 11
139.553041084901
 21
-3.4179508161561e-014
  0
LINE
  5
12F
100
AcDbEntity
  8
Dimensions [Structure & Drill Points]
  6
ByBlock
 62
  256
370
   -2
100
AcDbLine
 10
137.553041084901
 20
-53.00000000000004
 11
137.553041084901
 21
-3.368966562003205e-014
  0
SOLID
  5
130
100
AcDbEntity
  8
Dimensions [Structure & Drill Points]
  6
ByBlock
 62
  256
370
   -2
100
AcDbTrace
 10
137.553041084901
 20
-53.00000000000004
 30
0
 11
136.7204717693553
 21
-48.00000000000004
 31
0
 12
138.3856104004467
 22
-48.00000000000004
 32
0
 13
138.3856104004467
 23
-48.00000000000004
 33
0
  0
SOLID
  5
131
100
AcDbEntity
  8
Dimensions [Structure & Drill Points]
  6
ByBlock
 62
  256
370
   -2
100
AcDbTrace
 10
137.553041084901
 20
-3.368966562003205e-014
 30
0
 11
138.3856104004467
 21
-5.000000000000034
 31
0
 12
136.7204717693553
 22
-5.000000000000034
 32
0
 13
136.7204717693553
 23
-5.000000000000034
 33
0
  0
MTEXT
  5
132
100
AcDbEntity
  8
Dimensions [Structure & Drill Points]
  6
CONTINUOUS
 62
  256
370
   -2
100
AcDbMText
 10
134.303041084901
 20
-26.50000000000004
 30
0
 40
2.5
 41
3.055555555555866
 71
    5
 72
    1
  1
53
  7
standard
210
0
220
0
230
1
 50
90
 73
    2
 44
1
  0
ENDBLK
  5
69
330
67
100
AcDbEntity
  8
0
100
AcDbBlockEnd
  0
BLOCK
  5
6B
330
6A
100
AcDbEntity
  8
0
100
AcDbBlockBegin
  2
*D29
 70
    1
 10
0
 20
0
  3
*D29
  1

  0
LINE
  5
133
100
AcDbEntity
  8
Dimensions [Cutout Sections]
  6
ByBlock
 62
  256
370
   -2
100
AcDbLine
 10
-31.61354937908945
 20
-8.41422186445341
 11
-83.37288137576517
 21
-60.17355386112912
  0
LINE
  5
134
100
AcDbEntity
  8
Dimensions [Cutout Sections]
  6
ByBlock
 62
  256
370
   -2
100
AcDbLine
 10
-8.414221864453419
 20
-31.61354937908943
 11
-60.17355386112915
 21
-83.37288137576515
  0
LINE
  5
135
100
AcDbEntity
  8
Dimensions [Cutout Sections]
  6
ByBlock
 62
  256
370
   -2
100
AcDbLine
 10
-81.95866781339208
 20
-58.75934029875603
 11
-58.75934029875606
 21
-81.95866781339205
  0
SOLID
  5
136
100
AcDbEntity
  8
Dimensions [Cutout Sections]
  6
ByBlock
 62
  256
370
   -2
100
AcDbTrace
 10
-81.95866781339208
 20
-58.75934029875603
 30
0
 11
-77.83441849862915
 21
-61.70615879585858
 31
0
 12
-79.01184931628954
 22
-62.88358961351896
 32
0
 13
-79.01184931628954
 23
-62.88358961351896
 33
0
  0
SOLID
  5
137
100
AcDbEntity
  8
Dimensions [Cutout Sections]
  6
ByBlock
 62
  256
370
   -2
100
AcDbTrace
 10
-58.75934029875606
 20
-81.95866781339205
 30
0
 11
-62.88358961351899
 21
-79.01184931628951
 31
0
 12
-61.7061587958586
 22
-77.83441849862912
 32
0
 13
-61.7061587958586
 23
-77.83441849862912
 33
0
  0
MTEXT
  5
138
100
AcDbEntity
  8
Dimensions [Cutout Sections]
  6
CONTINUOUS
 62
  256
370
   -2
100
AcDbMText
 10
-68.0609070172178
 20
-68.06090701721774
 30
0
 40
2.5
 41
3.055555555555866
 71
    5
 72
    1
  1
33
  7
standard
210
0
220
0
230
1
 50
315
 73
    2
 44
1
  0
ENDBLK
  5
6C
330
6A
100
AcDbEntity
  8
0
100
AcDbBlockEnd
  0
BLOCK
  5
6E
330
6D
100
AcDbEntity
  8
0
100
AcDbBlockBegin
  2
*D44
 70
    1
 10
0
 20
0
  3
*D44
  1

  0
LINE
  5
139
100
AcDbEntity
  8
Dimensions [Structure & Drill Points]
  6
ByBlock
 62
  256
370
   -2
100
AcDbLine
 10
2
 20
-48.985
 11
150.4010618370643
 21
-48.98500000000003
  0
LINE
  5
13A
100
AcDbEntity
  8
Dimensions [Structure & Drill Points]
  6
ByBlock
 62
  256
370
   -2
100
AcDbLine
 10
2
 20
-51
 11
150.4010618370643
 21
-51.00000000000004
  0
LINE
  5
13B
100
AcDbEntity
  8
Dimensions [Structure & Drill Points]
  6
ByBlock
 62
  256
370
   -2
100
AcDbLine
 10
148.4010618370643
 20
-38.98500000000003
 11
148.4010618370643
 21
-61.00000000000004
  0
SOLID
  5
13C
100
AcDbEntity
  8
Dimensions [Structure & Drill Points]
  6
ByBlock
 62
  256
370
   -2
100
AcDbTrace
 10
148.4010618370643
 20
-48.98500000000003
 30
0
 11
147.5684925215186
 21
-43.98500000000003
 31
0
 12
149.23363115261
 22
-43.98500000000003
 32
0
 13
149.23363115261
 23
-43.98500000000003
 33
0
  0
SOLID
  5
13D
100
AcDbEntity
  8
Dimensions [Structure & Drill Points]
  6
ByBlock
 62
  256
370
   -2
100
AcDbTrace
 10
148.4010618370643
 20
-51.00000000000004
 30
0
 11
149.23363115261
 21
-56.00000000000004
 31
0
 12
147.5684925215186
 22
-56.00000000000004
 32
0
 13
147.5684925215186
 23
-56.00000000000004
 33
0
  0
MTEXT
  5
13E
100
AcDbEntity
  8
Dimensions [Structure & Drill Points]
  6
CONTINUOUS
 62
  256
370
   -2
100
AcDbMText
 10
145.1510618370643
 20
-49.99250000000004
 30
0
 40
2.5
 41
1.111111111111111
 71
    5
 72
    1
  1
2
  7
standard
210
0
220
0
230
1
 50
90
 73
    2
 44
1
  0
ENDBLK
  5
6F
330
6D
100
AcDbEntity
  8
0
100
AcDbBlockEnd
  0
BLOCK
  5
71
330
70
100
AcDbEntity
  8
0
100
AcDbBlockBegin
  2
*D24
 70
    1
 10
0
 20
0
  3
*D24
  1

  0
LINE
  5
13F
100
AcDbEntity
  8
Dimensions [Cutout Sections]
  6
ByBlock
 62
  256
370
   -2
100
AcDbLine
 10
8.414213562373096
 20
48.61351356237309
 11
70.67775221915998
 21
110.87705221916
  0
LINE
  5
140
100
AcDbEntity
  8
Dimensions [Cutout Sections]
  6
ByBlock
 62
  256
370
   -2
100
AcDbLine
 10
48.61351356237309
 20
8.414213562373096
 11
110.87705221916
 21
70.67775221915998
  0
LINE
  5
141
100
AcDbEntity
  8
Dimensions [Cutout Sections]
  6
ByBlock
 62
  256
370
   -2
100
AcDbLine
 10
69.26353865678689
 20
109.4628386567869
 11
109.4628386567869
 21
69.26353865678689
  0
SOLID
  5
142
100
AcDbEntity
  8
Dimensions [Cutout Sections]
  6
ByBlock
 62
  256
370
   -2
100
AcDbTrace
 10
69.26353865678689
 20
109.4628386567869
 30
0
 11
73.38778797154983
 21
106.5160201596843
 31
0
 12
72.21035715388943
 22
105.338589342024
 32
0
 13
72.21035715388943
 23
105.338589342024
 33
0
  0
SOLID
  5
143
100
AcDbEntity
  8
Dimensions [Cutout Sections]
  6
ByBlock
 62
  256
370
   -2
100
AcDbTrace
 10
109.4628386567869
 20
69.26353865678689
 30
0
 11
105.338589342024
 21
72.21035715388943
 31
0
 12
106.5160201596843
 22
73.38778797154983
 32
0
 13
106.5160201596843
 23
73.38778797154983
 33
0
  0
MTEXT
  5
144
100
AcDbEntity
  8
Dimensions [Cutout Sections]
  6
CONTINUOUS
 62
  256
370
   -2
100
AcDbMText
 10
91.66128569564314
 20
91.66128569564312
 30
0
 40
2.5
 41
3.055555555555711
 71
    5
 72
    1
  1
57
  7
standard
210
0
220
0
230
1
 50
315
 73
    2
 44
1
  0
ENDBLK
  5
72
330
70
100
AcDbEntity
  8
0
100
AcDbBlockEnd
  0
BLOCK
  5
74
330
73
100
AcDbEntity
  8
0
100
AcDbBlockBegin
  2
*D4
 70
    1
 10
0
 20
0
  3
*D4
  1

  0
LINE
  5
145
100
AcDbEntity
  8
Dimensions [Structure & Drill Points]
  6
ByBlock
 62
  256
370
   -2
100
AcDbLine
 10
1.414213562373095
 20
-54.41421356237309
 11
65.84317153535676
 21
-118.8431715353568
  0
LINE
  5
146
100
AcDbEntity
  8
Dimensions [Structure & Drill Points]
  6
ByBlock
 62
  256
370
   -2
100
AcDbLine
 10
54.41421356237309
 20
-1.414213562373095
 11
118.8431715353568
 21
-65.8431715353568
  0
LINE
  5
147
100
AcDbEntity
  8
Dimensions [Structure & Drill Points]
  6
ByBlock
 62
  256
370
   -2
100
AcDbLine
 10
64.42895797298367
 20
-117.4289579729837
 11
117.4289579729837
 21
-64.42895797298371
  0
SOLID
  5
148
100
AcDbEntity
  8
Dimensions [Structure & Drill Points]
  6
ByBlock
 62
  256
370
   -2
100
AcDbTrace
 10
64.42895797298367
 20
-117.4289579729837
 30
0
 11
67.37577647008621
 21
-113.3047086582208
 31
0
 12
68.5532072877466
 22
-114.4821394758812
 32
0
 13
68.5532072877466
 23
-114.4821394758812
 33
0
  0
SOLID
  5
149
100
AcDbEntity
  8
Dimensions [Structure & Drill Points]
  6
ByBlock
 62
  256
370
   -2
100
AcDbTrace
 10
117.4289579729837
 20
-64.42895797298371
 30
0
 11
114.4821394758811
 21
-68.55320728774664
 31
0
 12
113.3047086582207
 22
-67.37577647008625
 32
0
 13
113.3047086582207
 23
-67.37577647008625
 33
0
  0
MTEXT
  5
14A
100
AcDbEntity
  8
Dimensions [Structure & Drill Points]
  6
CONTINUOUS
 62
  256
370
   -2
100
AcDbMText
 10
88.63086093412738
 20
-88.63086093412743
 30
0
 40
2.5
 41
3.055555555555711
 71
    5
 72
    1
  1
75
  7
standard
210
0
220
0
230
1
 50
45
 73
    2
 44
1
  0
ENDBLK
  5
75
330
73
100
AcDbEntity
  8
0
100
AcDbBlockEnd
  0
BLOCK
  5
77
330
76
100
AcDbEntity
  8
0
100
AcDbBlockBegin
  2
*D6
 70
    1
 10
0
 20
0
  3
*D6
  1

  0
LINE
  5
14B
100
AcDbEntity
  8
Dimensions [Structure & Drill Points]
  6
ByBlock
 62
  256
370
   -2
100
AcDbLine
 10
-18.0857864376269
 20
-20.9142135623731
 11
55.48400683142353
 21
-94.48400683142356
  0
LINE
  5
14C
100
AcDbEntity
  8
Dimensions [Structure & Drill Points]
  6
ByBlock
 62
  256
370
   -2
100
AcDbLine
 10
20.9142135623731
 20
18.0857864376269
 11
94.48400683142353
 21
-55.48400683142356
  0
LINE
  5
14D
100
AcDbEntity
  8
Dimensions [Structure & Drill Points]
  6
ByBlock
 62
  256
370
   -2
100
AcDbLine
 10
54.06979326905044
 20
-93.06979326905046
 11
93.06979326905044
 21
-54.06979326905046
  0
SOLID
  5
14E
100
AcDbEntity
  8
Dimensions [Structure & Drill Points]
  6
ByBlock
 62
  256
370
   -2
100
AcDbTrace
 10
54.06979326905044
 20
-93.06979326905046
 30
0
 11
57.01661176615298
 21
-88.94554395428753
 31
0
 12
58.19404258381337
 22
-90.12297477194792
 32
0
 13
58.19404258381337
 23
-90.12297477194792
 33
0
  0
SOLID
  5
14F
100
AcDbEntity
  8
Dimensions [Structure & Drill Points]
  6
ByBlock
 62
  256
370
   -2
100
AcDbTrace
 10
93.06979326905044
 20
-54.06979326905046
 30
0
 11
90.1229747719479
 21
-58.19404258381339
 31
0
 12
88.9455439542875
 22
-57.01661176615301
 32
0
 13
88.9455439542875
 23
-57.01661176615301
 33
0
  0
MTEXT
  5
150
100
AcDbEntity
  8
Dimensions [Structure & Drill Points]
  6
CONTINUOUS
 62
  256
370
   -2
100
AcDbMText
 10
71.27169623019415
 20
-71.27169623019418
 30
0
 40
2.5
 41
3.055555555555866
 71
    5
 72
    1
  1
55
  7
standard
210
0
220
0
230
1
 50
45
 73
    2
 44
1
  0
ENDBLK
  5
78
330
76
100
AcDbEntity
  8
0
100
AcDbBlockEnd
  0
BLOCK
  5
7A
330
79
100
AcDbEntity
  8
0
100
AcDbBlockBegin
  2
*D7
 70
    1
 10
0
 20
0
  3
*D7
  1

  0
LINE
  5
151
100
AcDbEntity
  8
Dimensions [Structure & Drill Points]
  6
ByBlock
 62
  256
370
   -2
100
AcDbLine
 10
1.414213562373095
 20
-1.414213562373095
 11
72.37180769496472
 21
-72.37180769496476
  0
LINE
  5
152
100
AcDbEntity
  8
Dimensions [Structure & Drill Points]
  6
ByBlock
 62
  256
370
   -2
100
AcDbLine
 10
20.9142135623731
 20
18.0857864376269
 11
91.87180769496472
 21
-52.87180769496476
  0
LINE
  5
153
100
AcDbEntity
  8
Dimensions [Structure & Drill Points]
  6
ByBlock
 62
  256
370
   -2
100
AcDbLine
 10
70.95759413259162
 20
-70.95759413259167
 11
90.45759413259162
 21
-51.45759413259167
  0
SOLID
  5
154
100
AcDbEntity
  8
Dimensions [Structure & Drill Points]
  6
ByBlock
 62
  256
370
   -2
100
AcDbTrace
 10
70.95759413259162
 20
-70.95759413259167
 30
0
 11
73.90441262969416
 21
-66.83334481782873
 31
0
 12
75.08184344735456
 22
-68.01077563548913
 32
0
 13
75.08184344735456
 23
-68.01077563548913
 33
0
  0
SOLID
  5
155
100
AcDbEntity
  8
Dimensions [Structure & Drill Points]
  6
ByBlock
 62
  256
370
   -2
100
AcDbTrace
 10
90.45759413259162
 20
-51.45759413259167
 30
0
 11
87.51077563548908
 21
-55.58184344735459
 31
0
 12
86.33334481782869
 22
-54.40441262969421
 32
0
 13
86.33334481782869
 23
-54.40441262969421
 33
0
  0
MTEXT
  5
156
100
AcDbEntity
  8
Dimensions [Structure & Drill Points]
  6
CONTINUOUS
 62
  256
370
   -2
100
AcDbMText
 10
78.40949709373534
 20
-58.90949709373539
 30
0
 40
2.5
 41
3.055555555555556
 71
    5
 72
    1
  1
28
  7
standard
210
0
220
0
230
1
 50
45
 73
    2
 44
1
  0
ENDBLK
  5
7B
330
79
100
AcDbEntity
  8
0
100
AcDbBlockEnd
  0
BLOCK
  5
7D
330
7C
100
AcDbEntity
  8
0
100
AcDbBlockBegin
  2
*D22
 70
    1
 10
0
 20
0
  3
*D22
  1

  0
LINE
  5
157
100
AcDbEntity
  8
Dimensions [Cutout Sections]
  6
ByBlock
 62
  256
370
   -2
100
AcDbLine
 10
-8.414213562373096
 20
48.6135135623731
 11
-73.14394411390892
 21
113.3432441139089
  0
LINE
  5
158
100
AcDbEntity
  8
Dimensions [Cutout Sections]
  6
ByBlock
 62
  256
370
   -2
100
AcDbLine
 10
-48.61351356237309
 20
8.414213562373096
 11
-113.3432441139089
 21
73.14394411390893
  0
LINE
  5
159
100
AcDbEntity
  8
Dimensions [Cutout Sections]
  6
ByBlock
 62
  256
370
   -2
100
AcDbLine
 10
-71.72973055153582
 20
111.9290305515358
 11
-111.9290305515358
 21
71.72973055153584
  0
SOLID
  5
15A
100
AcDbEntity
  8
Dimensions [Cutout Sections]
  6
ByBlock
 62
  256
370
   -2
100
AcDbTrace
 10
-71.72973055153582
 20
111.9290305515358
 30
0
 11
-74.67654904863836
 21
107.8047812367729
 31
0
 12
-75.85397986629876
 22
108.9822120544333
 32
0
 13
-75.85397986629876
 23
108.9822120544333
 33
0
  0
SOLID
  5
15B
100
AcDbEntity
  8
Dimensions [Cutout Sections]
  6
ByBlock
 62
  256
370
   -2
100
AcDbTrace
 10
-111.9290305515358
 20
71.72973055153584
 30
0
 11
-108.9822120544333
 21
75.85397986629877
 31
0
 12
-107.8047812367729
 22
74.67654904863838
 32
0
 13
-107.8047812367729
 23
74.67654904863838
 33
0
  0
MTEXT
  5
15C
100
AcDbEntity
  8
Dimensions [Cutout Sections]
  6
CONTINUOUS
 62
  256
370
   -2
100
AcDbMText
 10
-94.12747759039213
 20
94.12747759039213
 30
0
 40
2.5
 41
3.055555555555711
 71
    5
 72
    1
  1
57
  7
standard
210
0
220
0
230
1
 50
45
 73
    2
 44
1
  0
ENDBLK
  5
7E
330
7C
100
AcDbEntity
  8
0
100
AcDbBlockEnd
  0
BLOCK
  5
80
330
7F
100
AcDbEntity
  8
0
100
AcDbBlockBegin
  2
*D53
 70
    1
 10
0
 20
0
  3
*D53
  1

  0
LINE
  5
15D
100
AcDbEntity
  8
Dimensions [Cutout Sections]
  6
ByBlock
 62
  256
370
   -2
100
AcDbLine
 10
-2
 20
30.40559159102154
 11
-121.8551727511814
 21
30.40559159102155
  0
LINE
  5
15E
100
AcDbEntity
  8
Dimensions [Cutout Sections]
  6
ByBlock
 62
  256
370
   -2
100
AcDbLine
 10
-2
 20
-30.40559159102154
 11
-121.8551727511814
 21
-30.40559159102153
  0
LINE
  5
15F
100
AcDbEntity
  8
Dimensions [Cutout Sections]
  6
ByBlock
 62
  256
370
   -2
100
AcDbLine
 10
-119.8551727511814
 20
30.40559159102155
 11
-119.8551727511814
 21
-30.40559159102153
  0
SOLID
  5
160
100
AcDbEntity
  8
Dimensions [Cutout Sections]
  6
ByBlock
 62
  256
370
   -2
100
AcDbTrace
 10
-119.8551727511814
 20
30.40559159102155
 30
0
 11
-119.0226034356357
 21
25.40559159102155
 31
0
 12
-120.6877420667271
 22
25.40559159102155
 32
0
 13
-120.6877420667271
 23
25.40559159102155
 33
0
  0
SOLID
  5
161
100
AcDbEntity
  8
Dimensions [Cutout Sections]
  6
ByBlock
 62
  256
370
   -2
100
AcDbTrace
 10
-119.8551727511814
 20
-30.40559159102153
 30
0
 11
-120.6877420667271
 21
-25.40559159102153
 31
0
 12
-119.0226034356357
 22
-25.40559159102153
 32
0
 13
-119.0226034356357
 23
-25.40559159102153
 33
0
  0
MTEXT
  5
162
100
AcDbEntity
  8
Dimensions [Cutout Sections]
  6
CONTINUOUS
 62
  256
370
   -2
100
AcDbMText
 10
-123.1051727511814
 20
1.460885178019428e-014
 30
0
 40
2.5
 41
2.500000000000155
 71
    5
 72
    1
  1
61
  7
standard
210
0
220
0
230
1
 50
90
 73
    2
 44
1
  0
ENDBLK
  5
81
330
7F
100
AcDbEntity
  8
0
100
AcDbBlockEnd
  0
BLOCK
  5
83
330
82
100
AcDbEntity
  8
0
100
AcDbBlockBegin
  2
*D15
 70
    1
 10
0
 20
0
  3
*D15
  1

  0
LINE
  5
163
100
AcDbEntity
  8
Dimensions [Structure & Drill Points]
  6
ByBlock
 62
  256
370
   -2
100
AcDbLine
 10
-53
 20
2
 11
-52.99999999999999
 21
108.4695435174573
  0
LINE
  5
164
100
AcDbEntity
  8
Dimensions [Structure & Drill Points]
  6
ByBlock
 62
  256
370
   -2
100
AcDbLine
 10
53
 20
2
 11
53.00000000000001
 21
108.4695435174573
  0
LINE
  5
165
100
AcDbEntity
  8
Dimensions [Structure & Drill Points]
  6
ByBlock
 62
  256
370
   -2
100
AcDbLine
 10
-52.99999999999999
 20
106.4695435174573
 11
53.00000000000001
 21
106.4695435174573
  0
SOLID
  5
166
100
AcDbEntity
  8
Dimensions [Structure & Drill Points]
  6
ByBlock
 62
  256
370
   -2
100
AcDbTrace
 10
-52.99999999999999
 20
106.4695435174573
 30
0
 11
-47.99999999999999
 21
107.302112833003
 31
0
 12
-47.99999999999999
 22
105.6369742019116
 32
0
 13
-47.99999999999999
 23
105.6369742019116
 33
0
  0
SOLID
  5
167
100
AcDbEntity
  8
Dimensions [Structure & Drill Points]
  6
ByBlock
 62
  256
370
   -2
100
AcDbTrace
 10
53.00000000000001
 20
106.4695435174573
 30
0
 11
48.00000000000001
 21
105.6369742019116
 31
0
 12
48.00000000000001
 22
107.302112833003
 32
0
 13
48.00000000000001
 23
107.302112833003
 33
0
  0
MTEXT
  5
168
100
AcDbEntity
  8
Dimensions [Structure & Drill Points]
  6
CONTINUOUS
 62
  256
370
   -2
100
AcDbMText
 10
7.304425890097138e-015
 20
109.7195435174573
 30
0
 40
2.5
 41
4.444444444444599
 71
    5
 72
    1
  1
106
  7
standard
210
0
220
0
230
1
 50
0
 73
    2
 44
1
  0
ENDBLK
  5
84
330
82
100
AcDbEntity
  8
0
100
AcDbBlockEnd
  0
BLOCK
  5
86
330
85
100
AcDbEntity
  8
0
100
AcDbBlockBegin
  2
*D40
 70
    1
 10
0
 20
0
  3
*D40
  1

  0
LINE
  5
169
100
AcDbEntity
  8
Dimensions [Structure & Drill Points]
  6
ByBlock
 62
  256
370
   -2
100
AcDbLine
 10
-21.5
 20
21.5
 11
-114.8868452118675
 21
21.50000000000001
  0
LINE
  5
16A
100
AcDbEntity
  8
Dimensions [Structure & Drill Points]
  6
ByBlock
 62
  256
370
   -2
100
AcDbLine
 10
-21.5
 20
19.5
 11
-114.8868452118675
 21
19.50000000000001
  0
LINE
  5
16B
100
AcDbEntity
  8
Dimensions [Structure & Drill Points]
  6
ByBlock
 62
  256
370
   -2
100
AcDbLine
 10
-112.8868452118675
 20
31.50000000000001
 11
-112.8868452118675
 21
9.500000000000011
  0
SOLID
  5
16C
100
AcDbEntity
  8
Dimensions [Structure & Drill Points]
  6
ByBlock
 62
  256
370
   -2
100
AcDbTrace
 10
-112.8868452118675
 20
21.50000000000001
 30
0
 11
-113.7194145274132
 21
26.50000000000001
 31
0
 12
-112.0542758963218
 22
26.50000000000001
 32
0
 13
-112.0542758963218
 23
26.50000000000001
 33
0
  0
SOLID
  5
16D
100
AcDbEntity
  8
Dimensions [Structure & Drill Points]
  6
ByBlock
 62
  256
370
   -2
100
AcDbTrace
 10
-112.8868452118675
 20
19.50000000000001
 30
0
 11
-112.0542758963218
 21
14.50000000000001
 31
0
 12
-113.7194145274132
 22
14.50000000000001
 32
0
 13
-113.7194145274132
 23
14.50000000000001
 33
0
  0
MTEXT
  5
16E
100
AcDbEntity
  8
Dimensions [Structure & Drill Points]
  6
CONTINUOUS
 62
  256
370
   -2
100
AcDbMText
 10
-116.1368452118675
 20
20.50000000000001
 30
0
 40
2.5
 41
1.111111111111111
 71
    5
 72
    1
  1
2
  7
standard
210
0
220
0
230
1
 50
90
 73
    2
 44
1
  0
ENDBLK
  5
87
330
85
100
AcDbEntity
  8
0
100
AcDbBlockEnd
  0
BLOCK
  5
89
330
88
100
AcDbEntity
  8
0
100
AcDbBlockBegin
  2
*D21
 70
    1
 10
0
 20
0
  3
*D21
  1

  0
LINE
  5
16F
100
AcDbEntity
  8
Dimensions [Structure & Drill Points]
  6
ByBlock
 62
  256
370
   -2
100
AcDbLine
 10
-2
 20
31
 11
-126.698205807865
 21
31.00000000000001
  0
LINE
  5
170
100
AcDbEntity
  8
Dimensions [Structure & Drill Points]
  6
ByBlock
 62
  256
370
   -2
100
AcDbLine
 10
-2
 20
-31
 11
-126.698205807865
 21
-30.99999999999999
  0
LINE
  5
171
100
AcDbEntity
  8
Dimensions [Structure & Drill Points]
  6
ByBlock
 62
  256
370
   -2
100
AcDbLine
 10
-124.698205807865
 20
31.00000000000001
 11
-124.698205807865
 21
-30.99999999999999
  0
SOLID
  5
172
100
AcDbEntity
  8
Dimensions [Structure & Drill Points]
  6
ByBlock
 62
  256
370
   -2
100
AcDbTrace
 10
-124.698205807865
 20
31.00000000000001
 30
0
 11
-123.8656364923193
 21
26.00000000000001
 31
0
 12
-125.5307751234107
 22
26.00000000000001
 32
0
 13
-125.5307751234107
 23
26.00000000000001
 33
0
  0
SOLID
  5
173
100
AcDbEntity
  8
Dimensions [Structure & Drill Points]
  6
ByBlock
 62
  256
370
   -2
100
AcDbTrace
 10
-124.698205807865
 20
-30.99999999999999
 30
0
 11
-125.5307751234107
 21
-25.99999999999999
 31
0
 12
-123.8656364923193
 22
-25.99999999999999
 32
0
 13
-123.8656364923193
 23
-25.99999999999999
 33
0
  0
MTEXT
  5
174
100
AcDbEntity
  8
Dimensions [Structure & Drill Points]
  6
CONTINUOUS
 62
  256
370
   -2
100
AcDbMText
 10
-127.948205807865
 20
1.460885178019428e-014
 30
0
 40
2.5
 41
3.055555555555711
 71
    5
 72
    1
  1
62
  7
standard
210
0
220
0
230
1
 50
90
 73
    2
 44
1
  0
ENDBLK
  5
8A
330
88
100
AcDbEntity
  8
0
100
AcDbBlockEnd
  0
BLOCK
  5
8C
330
8B
100
AcDbEntity
  8
0
100
AcDbBlockBegin
  2
*D50
 70
    1
 10
0
 20
0
  3
*D50
  1

  0
LINE
  5
175
100
AcDbEntity
  8
Dimensions [Structure & Drill Points]
  6
ByBlock
 62
  256
370
   -2
100
AcDbLine
 10
55.015
 20
-2
 11
55.01499999999998
 21
-134.7963458887673
  0
LINE
  5
176
100
AcDbEntity
  8
Dimensions [Structure & Drill Points]
  6
ByBlock
 62
  256
370
   -2
100
AcDbLine
 10
53
 20
-2
 11
52.99999999999998
 21
-134.7963458887673
  0
LINE
  5
177
100
AcDbEntity
  8
Dimensions [Structure & Drill Points]
  6
ByBlock
 62
  256
370
   -2
100
AcDbLine
 10
65.01499999999999
 20
-132.7963458887673
 11
42.99999999999998
 21
-132.7963458887673
  0
SOLID
  5
178
100
AcDbEntity
  8
Dimensions [Structure & Drill Points]
  6
ByBlock
 62
  256
370
   -2
100
AcDbTrace
 10
55.01499999999998
 20
-132.7963458887673
 30
0
 11
60.01499999999998
 21
-131.9637765732216
 31
0
 12
60.01499999999998
 22
-133.628915204313
 32
0
 13
60.01499999999998
 23
-133.628915204313
 33
0
  0
SOLID
  5
179
100
AcDbEntity
  8
Dimensions [Structure & Drill Points]
  6
ByBlock
 62
  256
370
   -2
100
AcDbTrace
 10
52.99999999999998
 20
-132.7963458887673
 30
0
 11
47.99999999999998
 21
-133.628915204313
 31
0
 12
47.99999999999998
 22
-131.9637765732216
 32
0
 13
47.99999999999998
 23
-131.9637765732216
 33
0
  0
MTEXT
  5
17A
100
AcDbEntity
  8
Dimensions [Structure & Drill Points]
  6
CONTINUOUS
 62
  256
370
   -2
100
AcDbMText
 10
54.00749999999998
 20
-129.5463458887673
 30
0
 40
2.5
 41
1.111111111111111
 71
    5
 72
    1
  1
2
  7
standard
210
0
220
0
230
1
 50
360
 73
    2
 44
1
  0
ENDBLK
  5
8D
330
8B
100
AcDbEntity
  8
0
100
AcDbBlockEnd
  0
BLOCK
  5
8F
330
8E
100
AcDbEntity
  8
0
100
AcDbBlockBegin
  2
*D36
 70
    1
 10
0
 20
0
  3
*D36
  1

  0
LINE
  5
17B
100
AcDbEntity
  8
Dimensions [Cutout Sections]
  6
ByBlock
 62
  256
370
   -2
100
AcDbLine
 10
1.414213562373095
 20
1.414213562373095
 11
60.31267881343717
 21
60.31267881343715
  0
LINE
  5
17C
100
AcDbEntity
  8
Dimensions [Cutout Sections]
  6
ByBlock
 62
  256
370
   -2
100
AcDbLine
 10
23.33452377915606
 20
-20.50609665440988
 11
82.23298903022014
 21
38.39236859665417
  0
LINE
  5
17D
100
AcDbEntity
  8
Dimensions [Cutout Sections]
  6
ByBlock
 62
  256
370
   -2
100
AcDbLine
 10
58.89846525106408
 20
58.89846525106405
 11
80.81877546784705
 21
36.97815503428107
  0
SOLID
  5
17E
100
AcDbEntity
  8
Dimensions [Cutout Sections]
  6
ByBlock
 62
  256
370
   -2
100
AcDbTrace
 10
58.89846525106408
 20
58.89846525106405
 30
0
 11
63.02271456582701
 21
55.9516467539615
 31
0
 12
61.84528374816662
 22
54.77421593630112
 32
0
 13
61.84528374816662
 23
54.77421593630112
 33
0
  0
SOLID
  5
17F
100
AcDbEntity
  8
Dimensions [Cutout Sections]
  6
ByBlock
 62
  256
370
   -2
100
AcDbTrace
 10
80.81877546784705
 20
36.97815503428107
 30
0
 11
76.69452615308411
 21
39.92497353138362
 31
0
 12
77.87195697074451
 22
41.10240434904401
 32
0
 13
77.87195697074451
 23
41.10240434904401
 33
0
  0
MTEXT
  5
180
100
AcDbEntity
  8
Dimensions [Cutout Sections]
  6
CONTINUOUS
 62
  256
370
   -2
100
AcDbMText
 10
72.15671739831184
 20
50.23640718152884
 30
0
 40
2.5
 41
2.500000000000155
 71
    5
 72
    1
  1
31
  7
standard
210
0
220
0
230
1
 50
315
 73
    2
 44
1
  0
ENDBLK
  5
90
330
8E
100
AcDbEntity
  8
0
100
AcDbBlockEnd
  0
BLOCK
  5
92
330
91
100
AcDbEntity
  8
0
100
AcDbBlockBegin
  2
*D5
 70
    1
 10
0
 20
0
  3
*D5
  1

  0
LINE
  5
181
100
AcDbEntity
  8
Dimensions [Structure & Drill Points]
  6
ByBlock
 62
  256
370
   -2
100
AcDbLine
 10
52.41421356237309
 20
-1.414213562373095
 11
109.0809264943239
 21
-58.0809264943239
  0
LINE
  5
182
100
AcDbEntity
  8
Dimensions [Structure & Drill Points]
  6
ByBlock
 62
  256
370
   -2
100
AcDbLine
 10
1.414213562373095
 20
-52.41421356237309
 11
58.08092649432387
 21
-109.0809264943239
  0
LINE
  5
183
100
AcDbEntity
  8
Dimensions [Structure & Drill Points]
  6
ByBlock
 62
  256
370
   -2
100
AcDbLine
 10
107.6667129319508
 20
-56.6667129319508
 11
56.66671293195078
 21
-107.6667129319508
  0
SOLID
  5
184
100
AcDbEntity
  8
Dimensions [Structure & Drill Points]
  6
ByBlock
 62
  256
370
   -2
100
AcDbTrace
 10
107.6667129319508
 20
-56.6667129319508
 30
0
 11
104.7198944348482
 21
-60.79096224671373
 31
0
 12
103.5424636171878
 22
-59.61353142905335
 32
0
 13
103.5424636171878
 23
-59.61353142905335
 33
0
  0
SOLID
  5
185
100
AcDbEntity
  8
Dimensions [Structure & Drill Points]
  6
ByBlock
 62
  256
370
   -2
100
AcDbTrace
 10
56.66671293195078
 20
-107.6667129319508
 30
0
 11
59.61353142905332
 21
-103.5424636171879
 31
0
 12
60.7909622467137
 22
-104.7198944348483
 32
0
 13
60.7909622467137
 23
-104.7198944348483
 33
0
  0
MTEXT
  5
186
100
AcDbEntity
  8
Dimensions [Structure & Drill Points]
  6
CONTINUOUS
 62
  256
370
   -2
100
AcDbMText
 10
79.86861589309449
 20
-79.86861589309451
 30
0
 40
2.5
 41
3.055555555555556
 71
    5
 72
    1
  1
72
  7
standard
210
0
220
0
230
1
 50
45
 73
    2
 44
1
  0
ENDBLK
  5
93
330
91
100
AcDbEntity
  8
0
100
AcDbBlockEnd
  0
BLOCK
  5
95
330
94
100
AcDbEntity
  8
0
100
AcDbBlockBegin
  2
*D8
 70
    1
 10
0
 20
0
  3
*D8
  1

  0
LINE
  5
187
100
AcDbEntity
  8
Dimensions [Structure & Drill Points]
  6
ByBlock
 62
  256
370
   -2
100
AcDbLine
 10
-30.00001
 20
-75.879249999975
 11
-30.00023081391383
 21
-120.0420327655532
  0
LINE
  5
188
100
AcDbEntity
  8
Dimensions [Structure & Drill Points]
  6
ByBlock
 62
  256
370
   -2
100
AcDbLine
 10
29.99999
 20
-75.879549999975
 11
29.99976918608617
 21
-120.0423327655532
  0
LINE
  5
189
100
AcDbEntity
  8
Dimensions [Structure & Drill Points]
  6
ByBlock
 62
  256
370
   -2
100
AcDbLine
 10
-30.00022081391383
 20
-118.0420327655782
 11
29.99977918608617
 21
-118.0423327655782
  0
SOLID
  5
18A
100
AcDbEntity
  8
Dimensions [Structure & Drill Points]
  6
ByBlock
 62
  256
370
   -2
100
AcDbTrace
 10
-30.00022081391383
 20
-118.0420327655782
 30
0
 11
-25.00021665112975
 21
-117.2094884500429
 31
0
 12
-25.00022497682291
 22
-118.8746270811135
 32
0
 13
-25.00022497682291
 23
-118.8746270811135
 33
0
  0
SOLID
  5
18B
100
AcDbEntity
  8
Dimensions [Structure & Drill Points]
  6
ByBlock
 62
  256
370
   -2
100
AcDbTrace
 10
29.99977918608617
 20
-118.0423327655782
 30
0
 11
24.99977502330209
 21
-118.8748770811135
 31
0
 12
24.99978334899524
 22
-117.2097384500429
 32
0
 13
24.99978334899524
 23
-117.2097384500429
 33
0
  0
MTEXT
  5
18C
100
AcDbEntity
  8
Dimensions [Structure & Drill Points]
  6
CONTINUOUS
 62
  256
370
   -2
100
AcDbMText
 10
-0.0002045639138307962
 20
-114.7921827656188
 30
0
 40
2.5
 41
3.055555555555711
 71
    5
 72
    1
  1
60
  7
standard
210
0
220
0
230
1
 50
359.9997135211024
 73
    2
 44
1
  0
ENDBLK
  5
96
330
94
100
AcDbEntity
  8
0
100
AcDbBlockEnd
  0
BLOCK
  5
98
330
97
100
AcDbEntity
  8
0
100
AcDbBlockBegin
  2
*D19
 70
    1
 10
0
 20
0
  3
*D19
  1

  0
LINE
  5
18D
100
AcDbEntity
  8
Dimensions [Structure & Drill Points]
  6
ByBlock
 62
  256
370
   -2
100
AcDbLine
 10
1.414213562373095
 20
52.41421356237309
 11
74.0017798853427
 21
125.0017798853427
  0
LINE
  5
18E
100
AcDbEntity
  8
Dimensions [Structure & Drill Points]
  6
ByBlock
 62
  256
370
   -2
100
AcDbLine
 10
52.41421356237309
 20
1.414213562373095
 11
125.0017798853427
 21
74.00177988534269
  0
LINE
  5
18F
100
AcDbEntity
  8
Dimensions [Structure & Drill Points]
  6
ByBlock
 62
  256
370
   -2
100
AcDbLine
 10
72.58756632296961
 20
123.5875663229696
 11
123.5875663229696
 21
72.58756632296959
  0
SOLID
  5
190
100
AcDbEntity
  8
Dimensions [Structure & Drill Points]
  6
ByBlock
 62
  256
370
   -2
100
AcDbTrace
 10
72.58756632296961
 20
123.5875663229696
 30
0
 11
76.71181563773254
 21
120.6407478258671
 31
0
 12
75.53438482007215
 22
119.4633170082067
 32
0
 13
75.53438482007215
 23
119.4633170082067
 33
0
  0
SOLID
  5
191
100
AcDbEntity
  8
Dimensions [Structure & Drill Points]
  6
ByBlock
 62
  256
370
   -2
100
AcDbTrace
 10
123.5875663229696
 20
72.58756632296959
 30
0
 11
119.4633170082067
 21
75.53438482007213
 31
0
 12
120.6407478258671
 22
76.71181563773253
 32
0
 13
120.6407478258671
 23
76.71181563773253
 33
0
  0
MTEXT
  5
192
100
AcDbEntity
  8
Dimensions [Structure & Drill Points]
  6
CONTINUOUS
 62
  256
370
   -2
100
AcDbMText
 10
100.3856633618259
 20
100.3856633618259
 30
0
 40
2.5
 41
3.055555555555556
 71
    5
 72
    1
  1
72
  7
standard
210
0
220
0
230
1
 50
315
 73
    2
 44
1
  0
ENDBLK
  5
99
330
97
100
AcDbEntity
  8
0
100
AcDbBlockEnd
  0
BLOCK
  5
9B
330
9A
100
AcDbEntity
  8
0
100
AcDbBlockBegin
  2
*D31
 70
    1
 10
0
 20
0
  3
*D31
  1

  0
LINE
  5
193
100
AcDbEntity
  8
Dimensions [Cutout Sections]
  6
ByBlock
 62
  256
370
   -2
100
AcDbLine
 10
49.19930000000001
 20
6.999999999999997
 11
96.58571266919648
 21
6.999999999999944
  0
LINE
  5
194
100
AcDbEntity
  8
Dimensions [Cutout Sections]
  6
ByBlock
 62
  256
370
   -2
100
AcDbLine
 10
49.1993
 20
-7.000000000000003
 11
96.58571266919647
 21
-7.000000000000056
  0
LINE
  5
195
100
AcDbEntity
  8
Dimensions [Cutout Sections]
  6
ByBlock
 62
  256
370
   -2
100
AcDbLine
 10
94.58571266919648
 20
6.999999999999947
 11
94.58571266919647
 21
-7.000000000000053
  0
SOLID
  5
196
100
AcDbEntity
  8
Dimensions [Cutout Sections]
  6
ByBlock
 62
  256
370
   -2
100
AcDbTrace
 10
94.58571266919648
 20
6.999999999999947
 30
0
 11
95.41828198474217
 21
1.999999999999946
 31
0
 12
93.7531433536508
 22
1.999999999999947
 32
0
 13
93.7531433536508
 23
1.999999999999947
 33
0
  0
SOLID
  5
197
100
AcDbEntity
  8
Dimensions [Cutout Sections]
  6
ByBlock
 62
  256
370
   -2
100
AcDbTrace
 10
94.58571266919647
 20
-7.000000000000053
 30
0
 11
93.7531433536508
 21
-2.000000000000052
 31
0
 12
95.41828198474215
 22
-2.000000000000054
 32
0
 13
95.41828198474215
 23
-2.000000000000054
 33
0
  0
MTEXT
  5
198
100
AcDbEntity
  8
Dimensions [Cutout Sections]
  6
CONTINUOUS
 62
  256
370
   -2
100
AcDbMText
 10
91.33571266919648
 20
-5.000612825298983e-014
 30
0
 40
2.5
 41
2.777777777777778
 71
    5
 72
    1
  1
14
  7
standard
210
0
220
0
230
1
 50
89.99999999999994
 73
    2
 44
1
  0
ENDBLK
  5
9C
330
9A
100
AcDbEntity
  8
0
100
AcDbBlockEnd
  0
BLOCK
  5
9E
330
9D
100
AcDbEntity
  8
0
100
AcDbBlockBegin
  2
*D43
 70
    1
 10
0
 20
0
  3
*D43
  1

  0
LINE
  5
199
100
AcDbEntity
  8
Dimensions [Structure & Drill Points]
  6
ByBlock
 62
  256
370
   -2
100
AcDbLine
 10
-21.5
 20
-17.5
 11
-114.8868452118675
 21
-17.49999999999999
  0
LINE
  5
19A
100
AcDbEntity
  8
Dimensions [Structure & Drill Points]
  6
ByBlock
 62
  256
370
   -2
100
AcDbLine
 10
-21.5
 20
-19.5
 11
-114.8868452118675
 21
-19.49999999999999
  0
LINE
  5
19B
100
AcDbEntity
  8
Dimensions [Structure & Drill Points]
  6
ByBlock
 62
  256
370
   -2
100
AcDbLine
 10
-112.8868452118675
 20
-7.499999999999989
 11
-112.8868452118675
 21
-29.49999999999999
  0
SOLID
  5
19C
100
AcDbEntity
  8
Dimensions [Structure & Drill Points]
  6
ByBlock
 62
  256
370
   -2
100
AcDbTrace
 10
-112.8868452118675
 20
-17.49999999999999
 30
0
 11
-113.7194145274132
 21
-12.49999999999999
 31
0
 12
-112.0542758963218
 22
-12.49999999999999
 32
0
 13
-112.0542758963218
 23
-12.49999999999999
 33
0
  0
SOLID
  5
19D
100
AcDbEntity
  8
Dimensions [Structure & Drill Points]
  6
ByBlock
 62
  256
370
   -2
100
AcDbTrace
 10
-112.8868452118675
 20
-19.49999999999999
 30
0
 11
-112.0542758963218
 21
-24.49999999999999
 31
0
 12
-113.7194145274132
 22
-24.49999999999999
 32
0
 13
-113.7194145274132
 23
-24.49999999999999
 33
0
  0
MTEXT
  5
19E
100
AcDbEntity
  8
Dimensions [Structure & Drill Points]
  6
CONTINUOUS
 62
  256
370
   -2
100
AcDbMText
 10
-116.1368452118675
 20
-18.49999999999999
 30
0
 40
2.5
 41
1.111111111111111
 71
    5
 72
    1
  1
2
  7
standard
210
0
220
0
230
1
 50
90
 73
    2
 44
1
  0
ENDBLK
  5
9F
330
9D
100
AcDbEntity
  8
0
100
AcDbBlockEnd
  0
BLOCK
  5
A1
330
A0
100
AcDbEntity
  8
0
100
AcDbBlockBegin
  2
*D52
 70
    1
 10
0
 20
0
  3
*D52
  1

  0
LINE
  5
19F
100
AcDbEntity
  8
Dimensions [Structure & Drill Points]
  6
ByBlock
 62
  256
370
   -2
100
AcDbLine
 10
-55.015
 20
-2
 11
-55.01500000000002
 21
-134.7963458887673
  0
LINE
  5
1A0
100
AcDbEntity
  8
Dimensions [Structure & Drill Points]
  6
ByBlock
 62
  256
370
   -2
100
AcDbLine
 10
-53
 20
-2
 11
-53.00000000000002
 21
-134.7963458887673
  0
LINE
  5
1A1
100
AcDbEntity
  8
Dimensions [Structure & Drill Points]
  6
ByBlock
 62
  256
370
   -2
100
AcDbLine
 10
-65.01500000000001
 20
-132.7963458887673
 11
-43.00000000000002
 21
-132.7963458887673
  0
SOLID
  5
1A2
100
AcDbEntity
  8
Dimensions [Structure & Drill Points]
  6
ByBlock
 62
  256
370
   -2
100
AcDbTrace
 10
-55.01500000000002
 20
-132.7963458887673
 30
0
 11
-60.01500000000002
 21
-133.628915204313
 31
0
 12
-60.01500000000002
 22
-131.9637765732216
 32
0
 13
-60.01500000000002
 23
-131.9637765732216
 33
0
  0
SOLID
  5
1A3
100
AcDbEntity
  8
Dimensions [Structure & Drill Points]
  6
ByBlock
 62
  256
370
   -2
100
AcDbTrace
 10
-53.00000000000002
 20
-132.7963458887673
 30
0
 11
-48.00000000000002
 21
-131.9637765732216
 31
0
 12
-48.00000000000002
 22
-133.628915204313
 32
0
 13
-48.00000000000002
 23
-133.628915204313
 33
0
  0
MTEXT
  5
1A4
100
AcDbEntity
  8
Dimensions [Structure & Drill Points]
  6
CONTINUOUS
 62
  256
370
   -2
100
AcDbMText
 10
-54.00750000000002
 20
-129.5463458887673
 30
0
 40
2.5
 41
1.111111111111111
 71
    5
 72
    1
  1
2
  7
standard
210
0
220
0
230
1
 50
0
 73
    2
 44
1
  0
ENDBLK
  5
A2
330
A0
100
AcDbEntity
  8
0
100
AcDbBlockEnd
  0
BLOCK
  5
A4
330
A3
100
AcDbEntity
  8
0
100
AcDbBlockBegin
  2
*D9
 70
    1
 10
0
 20
0
  3
*D9
  1

  0
LINE
  5
1A5
100
AcDbEntity
  8
Dimensions [Structure & Drill Points]
  6
ByBlock
 62
  256
370
   -2
100
AcDbLine
 10
-15
 20
-80
 11
-15.00000000000001
 21
-111.4454003238459
  0
LINE
  5
1A6
100
AcDbEntity
  8
Dimensions [Structure & Drill Points]
  6
ByBlock
 62
  256
370
   -2
100
AcDbLine
 10
15
 20
-80
 11
14.99999999999999
 21
-111.4454003238459
  0
LINE
  5
1A7
100
AcDbEntity
  8
Dimensions [Structure & Drill Points]
  6
ByBlock
 62
  256
370
   -2
100
AcDbLine
 10
-15.00000000000001
 20
-109.4454003238459
 11
14.99999999999999
 21
-109.4454003238459
  0
SOLID
  5
1A8
100
AcDbEntity
  8
Dimensions [Structure & Drill Points]
  6
ByBlock
 62
  256
370
   -2
100
AcDbTrace
 10
-15.00000000000001
 20
-109.4454003238459
 30
0
 11
-10.00000000000001
 21
-108.6128310083002
 31
0
 12
-10.00000000000001
 22
-110.2779696393916
 32
0
 13
-10.00000000000001
 23
-110.2779696393916
 33
0
  0
SOLID
  5
1A9
100
AcDbEntity
  8
Dimensions [Structure & Drill Points]
  6
ByBlock
 62
  256
370
   -2
100
AcDbTrace
 10
14.99999999999999
 20
-109.4454003238459
 30
0
 11
9.999999999999995
 21
-110.2779696393916
 31
0
 12
9.999999999999995
 22
-108.6128310083002
 32
0
 13
9.999999999999995
 23
-108.6128310083002
 33
0
  0
MTEXT
  5
1AA
100
AcDbEntity
  8
Dimensions [Structure & Drill Points]
  6
CONTINUOUS
 62
  256
370
   -2
100
AcDbMText
 10
-5.130071985704615e-015
 20
-106.1954003238459
 30
0
 40
2.5
 41
3.055555555555711
 71
    5
 72
    1
  1
30
  7
standard
210
0
220
0
230
1
 50
0
 73
    2
 44
1
  0
ENDBLK
  5
A5
330
A3
100
AcDbEntity
  8
0
100
AcDbBlockEnd
  0
BLOCK
  5
A7
330
A6
100
AcDbEntity
  8
0
100
AcDbBlockBegin
  2
*D11
 70
    1
 10
0
 20
0
  3
*D11
  1

  0
LINE
  5
1AB
100
AcDbEntity
  8
Dimensions [Structure & Drill Points]
  6
ByBlock
 62
  256
370
   -2
100
AcDbLine
 10
-2
 20
53
 11
-108.4018715523815
 21
53.00000000000001
  0
LINE
  5
1AC
100
AcDbEntity
  8
Dimensions [Structure & Drill Points]
  6
ByBlock
 62
  256
370
   -2
100
AcDbLine
 10
-2
 20
-53
 11
-108.4018715523815
 21
-52.99999999999999
  0
LINE
  5
1AD
100
AcDbEntity
  8
Dimensions [Structure & Drill Points]
  6
ByBlock
 62
  256
370
   -2
100
AcDbLine
 10
-106.4018715523815
 20
53.00000000000001
 11
-106.4018715523815
 21
-52.99999999999999
  0
SOLID
  5
1AE
100
AcDbEntity
  8
Dimensions [Structure & Drill Points]
  6
ByBlock
 62
  256
370
   -2
100
AcDbTrace
 10
-106.4018715523815
 20
53.00000000000001
 30
0
 11
-105.5693022368358
 21
48.00000000000001
 31
0
 12
-107.2344408679272
 22
48.00000000000001
 32
0
 13
-107.2344408679272
 23
48.00000000000001
 33
0
  0
SOLID
  5
1AF
100
AcDbEntity
  8
Dimensions [Structure & Drill Points]
  6
ByBlock
 62
  256
370
   -2
100
AcDbTrace
 10
-106.4018715523815
 20
-52.99999999999999
 30
0
 11
-107.2344408679272
 21
-47.99999999999999
 31
0
 12
-105.5693022368358
 22
-47.99999999999999
 32
0
 13
-105.5693022368358
 23
-47.99999999999999
 33
0
  0
MTEXT
  5
1B0
100
AcDbEntity
  8
Dimensions [Structure & Drill Points]
  6
CONTINUOUS
 62
  256
370
   -2
100
AcDbMText
 10
-109.6518715523815
 20
1.460885178019428e-014
 30
0
 40
2.5
 41
4.444444444444599
 71
    5
 72
    1
  1
106
  7
standard
210
0
220
0
230
1
 50
90
 73
    2
 44
1
  0
ENDBLK
  5
A8
330
A6
100
AcDbEntity
  8
0
100
AcDbBlockEnd
  0
BLOCK
  5
AA
330
A9
100
AcDbEntity
  8
0
100
AcDbBlockBegin
  2
*D42
 70
    1
 10
0
 20
0
  3
*D42
  1

  0
LINE
  5
1B1
100
AcDbEntity
  8
Dimensions [Structure & Drill Points]
  6
ByBlock
 62
  256
370
   -2
100
AcDbLine
 10
21.5
 20
-17.5
 11
101.9502899624857
 21
-17.5
  0
LINE
  5
1B2
100
AcDbEntity
  8
Dimensions [Structure & Drill Points]
  6
ByBlock
 62
  256
370
   -2
100
AcDbLine
 10
21.5
 20
-19.5
 11
101.9502899624857
 21
-19.5
  0
LINE
  5
1B3
100
AcDbEntity
  8
Dimensions [Structure & Drill Points]
  6
ByBlock
 62
  256
370
   -2
100
AcDbLine
 10
99.95028996248568
 20
-7.5
 11
99.95028996248568
 21
-29.5
  0
SOLID
  5
1B4
100
AcDbEntity
  8
Dimensions [Structure & Drill Points]
  6
ByBlock
 62
  256
370
   -2
100
AcDbTrace
 10
99.95028996248568
 20
-17.5
 30
0
 11
99.11772064694
 21
-12.5
 31
0
 12
100.7828592780314
 22
-12.5
 32
0
 13
100.7828592780314
 23
-12.5
 33
0
  0
SOLID
  5
1B5
100
AcDbEntity
  8
Dimensions [Structure & Drill Points]
  6
ByBlock
 62
  256
370
   -2
100
AcDbTrace
 10
99.95028996248568
 20
-19.5
 30
0
 11
100.7828592780314
 21
-24.5
 31
0
 12
99.11772064694
 22
-24.5
 32
0
 13
99.11772064694
 23
-24.5
 33
0
  0
MTEXT
  5
1B6
100
AcDbEntity
  8
Dimensions [Structure & Drill Points]
  6
CONTINUOUS
 62
  256
370
   -2
100
AcDbMText
 10
96.70028996248568
 20
-18.50000000000002
 30
0
 40
2.5
 41
1.111111111111111
 71
    5
 72
    1
  1
2
  7
standard
210
0
220
0
230
1
 50
90
 73
    2
 44
1
  0
ENDBLK
  5
AB
330
A9
100
AcDbEntity
  8
0
100
AcDbBlockEnd
  0
BLOCK
  5
AD
330
AC
100
AcDbEntity
  8
0
100
AcDbBlockBegin
  2
*D18
 70
    1
 10
0
 20
0
  3
*D18
  1

  0
LINE
  5
1B7
100
AcDbEntity
  8
Dimensions [Structure & Drill Points]
  6
ByBlock
 62
  256
370
   -2
100
AcDbLine
 10
1.414213562373095
 20
54.41421356237309
 11
80.41909259294668
 21
133.4190925929467
  0
LINE
  5
1B8
100
AcDbEntity
  8
Dimensions [Structure & Drill Points]
  6
ByBlock
 62
  256
370
   -2
100
AcDbLine
 10
54.41421356237309
 20
1.414213562373095
 11
133.4190925929467
 21
80.41909259294667
  0
LINE
  5
1B9
100
AcDbEntity
  8
Dimensions [Structure & Drill Points]
  6
ByBlock
 62
  256
370
   -2
100
AcDbLine
 10
79.00487903057359
 20
132.0048790305736
 11
132.0048790305736
 21
79.00487903057358
  0
SOLID
  5
1BA
100
AcDbEntity
  8
Dimensions [Structure & Drill Points]
  6
ByBlock
 62
  256
370
   -2
100
AcDbTrace
 10
79.00487903057359
 20
132.0048790305736
 30
0
 11
83.12912834533653
 21
129.058060533471
 31
0
 12
81.95169752767613
 22
127.8806297158107
 32
0
 13
81.95169752767613
 23
127.8806297158107
 33
0
  0
SOLID
  5
1BB
100
AcDbEntity
  8
Dimensions [Structure & Drill Points]
  6
ByBlock
 62
  256
370
   -2
100
AcDbTrace
 10
132.0048790305736
 20
79.00487903057358
 30
0
 11
127.8806297158107
 21
81.95169752767612
 31
0
 12
129.058060533471
 22
83.12912834533651
 32
0
 13
129.058060533471
 23
83.12912834533651
 33
0
  0
MTEXT
  5
1BC
100
AcDbEntity
  8
Dimensions [Structure & Drill Points]
  6
CONTINUOUS
 62
  256
370
   -2
100
AcDbMText
 10
107.8029760694299
 20
107.8029760694299
 30
0
 40
2.5
 41
3.055555555555711
 71
    5
 72
    1
  1
75
  7
standard
210
0
220
0
230
1
 50
315
 73
    2
 44
1
  0
ENDBLK
  5
AE
330
AC
100
AcDbEntity
  8
0
100
AcDbBlockEnd
  0
BLOCK
  5
B0
330
AF
100
AcDbEntity
  8
0
100
AcDbBlockBegin
  2
*D25
 70
    1
 10
0
 20
0
  3
*D25
  1

  0
LINE
  5
1BD
100
AcDbEntity
  8
Dimensions [Cutout Sections]
  6
ByBlock
 62
  256
370
   -2
100
AcDbLine
 10
8.414213367982811
 20
31.61355149784635
 11
54.22566493584495
 21
77.42501565970701
  0
LINE
  5
1BE
100
AcDbEntity
  8
Dimensions [Cutout Sections]
  6
ByBlock
 62
  256
370
   -2
100
AcDbLine
 10
31.61354918469915
 20
8.414222058843679
 11
77.42500075256129
 21
54.22568622070433
  0
LINE
  5
1BF
100
AcDbEntity
  8
Dimensions [Cutout Sections]
  6
ByBlock
 62
  256
370
   -2
100
AcDbLine
 10
52.81145156786214
 20
76.01080190294365
 11
76.01078738457848
 21
52.81147246394098
  0
SOLID
  5
1C0
100
AcDbEntity
  8
Dimensions [Cutout Sections]
  6
ByBlock
 62
  256
370
   -2
100
AcDbTrace
 10
52.81145156786214
 20
76.01080190294365
 30
0
 11
56.93570128767902
 21
73.06398397273851
 31
0
 12
55.75827063186202
 22
71.88655299323476
 32
0
 13
55.75827063186202
 23
71.88655299323476
 33
0
  0
SOLID
  5
1C1
100
AcDbEntity
  8
Dimensions [Cutout Sections]
  6
ByBlock
 62
  256
370
   -2
100
AcDbTrace
 10
76.01078738457848
 20
52.81147246394098
 30
0
 11
71.88653766476159
 21
55.75829039414613
 31
0
 12
73.0639683205786
 22
56.93572137364988
 32
0
 13
73.0639683205786
 23
56.93572137364988
 33
0
  0
MTEXT
  5
1C2
100
AcDbEntity
  8
Dimensions [Cutout Sections]
  6
CONTINUOUS
 62
  256
370
   -2
100
AcDbMText
 10
66.70921619919237
 20
66.70923453818274
 30
0
 40
2.5
 41
3.055555555555866
 71
    5
 72
    1
  1
33
  7
standard
210
0
220
0
230
1
 50
315.000007875573
 73
    2
 44
1
  0
ENDBLK
  5
B1
330
AF
100
AcDbEntity
  8
0
100
AcDbBlockEnd
  0
BLOCK
  5
B3
330
B2
100
AcDbEntity
  8
0
100
AcDbBlockBegin
  2
*D33
 70
    1
 10
0
 20
0
  3
*D33
  1

  0
LINE
  5
1C3
100
AcDbEntity
  8
Dimensions [Cutout Sections]
  6
ByBlock
 62
  256
370
   -2
100
AcDbLine
 10
-49.19930000000001
 20
6.999999999999998
 11
-75.98575684246964
 21
6.999999999999989
  0
LINE
  5
1C4
100
AcDbEntity
  8
Dimensions [Cutout Sections]
  6
ByBlock
 62
  256
370
   -2
100
AcDbLine
 10
-49.1993
 20
-7.000000000000001
 11
-75.98575684246963
 21
-7.00000000000001
  0
LINE
  5
1C5
100
AcDbEntity
  8
Dimensions [Cutout Sections]
  6
ByBlock
 62
  256
370
   -2
100
AcDbLine
 10
-73.98575684246964
 20
6.99999999999999
 11
-73.98575684246963
 21
-7.000000000000009
  0
SOLID
  5
1C6
100
AcDbEntity
  8
Dimensions [Cutout Sections]
  6
ByBlock
 62
  256
370
   -2
100
AcDbTrace
 10
-73.98575684246964
 20
6.99999999999999
 30
0
 11
-73.15318752692396
 21
1.999999999999991
 31
0
 12
-74.81832615801531
 22
1.999999999999989
 32
0
 13
-74.81832615801531
 23
1.999999999999989
 33
0
  0
SOLID
  5
1C7
100
AcDbEntity
  8
Dimensions [Cutout Sections]
  6
ByBlock
 62
  256
370
   -2
100
AcDbTrace
 10
-73.98575684246963
 20
-7.000000000000009
 30
0
 11
-74.81832615801531
 21
-2.000000000000009
 31
0
 12
-73.15318752692394
 22
-2.000000000000008
 32
0
 13
-73.15318752692394
 23
-2.000000000000008
 33
0
  0
MTEXT
  5
1C8
100
AcDbEntity
  8
Dimensions [Cutout Sections]
  6
CONTINUOUS
 62
  256
370
   -2
100
AcDbMText
 10
-77.23575684246964
 20
6.200416699173039e-016
 30
0
 40
2.5
 41
2.777777777777778
 71
    5
 72
    1
  1
14
  7
standard
210
0
220
0
230
1
 50
90.00000000000006
 73
    2
 44
1
  0
ENDBLK
  5
B4
330
B2
100
AcDbEntity
  8
0
100
AcDbBlockEnd
  0
BLOCK
  5
B6
330
B5
100
AcDbEntity
  8
0
100
AcDbBlockBegin
  2
*D10
 70
    1
 10
0
 20
0
  3
*D10
  1

  0
LINE
  5
1C9
100
AcDbEntity
  8
Dimensions [Structure & Drill Points]
  6
ByBlock
 62
  256
370
   -2
100
AcDbLine
 10
-3.673819061467132e-016
 20
-2
 11
-1.350848826322053e-014
 21
-73.53921375662929
  0
LINE
  5
1CA
100
AcDbEntity
  8
Dimensions [Structure & Drill Points]
  6
ByBlock
 62
  256
370
   -2
100
AcDbLine
 10
-62
 20
-1.999999999999992
 11
-62.00000000000001
 21
-73.53921375662928
  0
LINE
  5
1CB
100
AcDbEntity
  8
Dimensions [Structure & Drill Points]
  6
ByBlock
 62
  256
370
   -2
100
AcDbLine
 10
-1.314110635707382e-014
 20
-71.53921375662929
 11
-62.00000000000001
 21
-71.53921375662928
  0
SOLID
  5
1CC
100
AcDbEntity
  8
Dimensions [Structure & Drill Points]
  6
ByBlock
 62
  256
370
   -2
100
AcDbTrace
 10
-1.314110635707382e-014
 20
-71.53921375662929
 30
0
 11
-5.000000000000013
 21
-72.37178307217498
 31
0
 12
-5.000000000000013
 22
-70.70664444108361
 32
0
 13
-5.000000000000013
 23
-70.70664444108361
 33
0
  0
SOLID
  5
1CD
100
AcDbEntity
  8
Dimensions [Structure & Drill Points]
  6
ByBlock
 62
  256
370
   -2
100
AcDbTrace
 10
-62.00000000000001
 20
-71.53921375662928
 30
0
 11
-57.00000000000001
 21
-70.7066444410836
 31
0
 12
-57.00000000000001
 22
-72.37178307217496
 32
0
 13
-57.00000000000001
 23
-72.37178307217496
 33
0
  0
MTEXT
  5
1CE
100
AcDbEntity
  8
Dimensions [Structure & Drill Points]
  6
CONTINUOUS
 62
  256
370
   -2
100
AcDbMText
 10
-31.00000000000001
 20
-68.28921375662929
 30
0
 40
2.5
 41
3.055555555555711
 71
    5
 72
    1
  1
62
  7
standard
210
0
220
0
230
1
 50
360
 73
    2
 44
1
  0
ENDBLK
  5
B7
330
B5
100
AcDbEntity
  8
0
100
AcDbBlockEnd
  0
BLOCK
  5
B9
330
B8
100
AcDbEntity
  8
0
100
AcDbBlockBegin
  2
*D46
 70
    1
 10
0
 20
0
  3
*D46
  1

  0
LINE
  5
1CF
100
AcDbEntity
  8
Dimensions [Structure & Drill Points]
  6
ByBlock
 62
  256
370
   -2
100
AcDbLine
 10
-17
 20
-80
 11
-17.00000000000001
 21
-134.7299808983182
  0
LINE
  5
1D0
100
AcDbEntity
  8
Dimensions [Structure & Drill Points]
  6
ByBlock
 62
  256
370
   -2
100
AcDbLine
 10
-15
 20
-80
 11
-15.00000000000001
 21
-134.7299808983182
  0
LINE
  5
1D1
100
AcDbEntity
  8
Dimensions [Structure & Drill Points]
  6
ByBlock
 62
  256
370
   -2
100
AcDbLine
 10
-27.00000000000001
 20
-132.7299808983182
 11
-5.000000000000011
 21
-132.7299808983182
  0
SOLID
  5
1D2
100
AcDbEntity
  8
Dimensions [Structure & Drill Points]
  6
ByBlock
 62
  256
370
   -2
100
AcDbTrace
 10
-17.00000000000001
 20
-132.7299808983182
 30
0
 11
-22.00000000000001
 21
-133.5625502138639
 31
0
 12
-22.00000000000001
 22
-131.8974115827725
 32
0
 13
-22.00000000000001
 23
-131.8974115827725
 33
0
  0
SOLID
  5
1D3
100
AcDbEntity
  8
Dimensions [Structure & Drill Points]
  6
ByBlock
 62
  256
370
   -2
100
AcDbTrace
 10
-15.00000000000001
 20
-132.7299808983182
 30
0
 11
-10.00000000000001
 21
-131.8974115827725
 31
0
 12
-10.00000000000001
 22
-133.5625502138639
 32
0
 13
-10.00000000000001
 23
-133.5625502138639
 33
0
  0
MTEXT
  5
1D4
100
AcDbEntity
  8
Dimensions [Structure & Drill Points]
  6
CONTINUOUS
 62
  256
370
   -2
100
AcDbMText
 10
-16.00000000000001
 20
-129.4799808983182
 30
0
 40
2.5
 41
1.111111111111111
 71
    5
 72
    1
  1
2
  7
standard
210
0
220
0
230
1
 50
0
 73
    2
 44
1
  0
ENDBLK
  5
BA
330
B8
100
AcDbEntity
  8
0
100
AcDbBlockEnd
  0
BLOCK
  5
BC
330
BB
100
AcDbEntity
  8
0
100
AcDbBlockBegin
  2
*D27
 70
    1
 10
0
 20
0
  3
*D27
  1

  0
LINE
  5
1D5
100
AcDbEntity
  8
Dimensions [Cutout Sections]
  6
ByBlock
 62
  256
370
   -2
100
AcDbLine
 10
8.414221864453408
 20
-31.61354937908945
 11
44.21584160098861
 21
-67.41516911562466
  0
LINE
  5
1D6
100
AcDbEntity
  8
Dimensions [Cutout Sections]
  6
ByBlock
 62
  256
370
   -2
100
AcDbLine
 10
31.61354937908943
 20
-8.41422186445342
 11
67.41516911562464
 21
-44.21584160098864
  0
LINE
  5
1D7
100
AcDbEntity
  8
Dimensions [Cutout Sections]
  6
ByBlock
 62
  256
370
   -2
100
AcDbLine
 10
42.80162803861552
 20
-66.00095555325157
 11
66.00095555325154
 21
-42.80162803861555
  0
SOLID
  5
1D8
100
AcDbEntity
  8
Dimensions [Cutout Sections]
  6
ByBlock
 62
  256
370
   -2
100
AcDbTrace
 10
42.80162803861552
 20
-66.00095555325157
 30
0
 11
45.74844653571807
 21
-61.87670623848864
 31
0
 12
46.92587735337845
 22
-63.05413705614903
 32
0
 13
46.92587735337845
 23
-63.05413705614903
 33
0
  0
SOLID
  5
1D9
100
AcDbEntity
  8
Dimensions [Cutout Sections]
  6
ByBlock
 62
  256
370
   -2
100
AcDbTrace
 10
66.00095555325154
 20
-42.80162803861555
 30
0
 11
63.054137056149
 21
-46.92587735337847
 31
0
 12
61.87670623848861
 22
-45.74844653571809
 32
0
 13
61.87670623848861
 23
-45.74844653571809
 33
0
  0
MTEXT
  5
1DA
100
AcDbEntity
  8
Dimensions [Cutout Sections]
  6
CONTINUOUS
 62
  256
370
   -2
100
AcDbMText
 10
52.10319475707725
 20
-52.10319475707728
 30
0
 40
2.5
 41
3.055555555555866
 71
    5
 72
    1
  1
33
  7
standard
210
0
220
0
230
1
 50
45
 73
    2
 44
1
  0
ENDBLK
  5
BD
330
BB
100
AcDbEntity
  8
0
100
AcDbBlockEnd
  0
BLOCK
  5
BF
330
BE
100
AcDbEntity
  8
0
100
AcDbBlockBegin
  2
*D17
 70
    1
 10
0
 20
0
  3
*D17
  1

  0
LINE
  5
1DB
100
AcDbEntity
  8
Dimensions [Structure & Drill Points]
  6
ByBlock
 62
  256
370
   -2
100
AcDbLine
 10
-19.5
 20
21.5
 11
-19.5
 21
87.30789511647201
  0
LINE
  5
1DC
100
AcDbEntity
  8
Dimensions [Structure & Drill Points]
  6
ByBlock
 62
  256
370
   -2
100
AcDbLine
 10
19.5
 20
21.5
 11
19.5
 21
87.30789511647201
  0
LINE
  5
1DD
100
AcDbEntity
  8
Dimensions [Structure & Drill Points]
  6
ByBlock
 62
  256
370
   -2
100
AcDbLine
 10
-19.5
 20
85.30789511647201
 11
19.5
 21
85.30789511647201
  0
SOLID
  5
1DE
100
AcDbEntity
  8
Dimensions [Structure & Drill Points]
  6
ByBlock
 62
  256
370
   -2
100
AcDbTrace
 10
-19.5
 20
85.30789511647201
 30
0
 11
-14.5
 21
86.14046443201769
 31
0
 12
-14.5
 22
84.47532580092633
 32
0
 13
-14.5
 23
84.47532580092633
 33
0
  0
SOLID
  5
1DF
100
AcDbEntity
  8
Dimensions [Structure & Drill Points]
  6
ByBlock
 62
  256
370
   -2
100
AcDbTrace
 10
19.5
 20
85.30789511647201
 30
0
 11
14.5
 21
84.47532580092633
 31
0
 12
14.5
 22
86.14046443201769
 32
0
 13
14.5
 23
86.14046443201769
 33
0
  0
MTEXT
  5
1E0
100
AcDbEntity
  8
Dimensions [Structure & Drill Points]
  6
CONTINUOUS
 62
  256
370
   -2
100
AcDbMText
 10
3.751712211296637e-015
 20
88.55789511647201
 30
0
 40
2.5
 41
3.055555555555711
 71
    5
 72
    1
  1
39
  7
standard
210
0
220
0
230
1
 50
0
 73
    2
 44
1
  0
ENDBLK
  5
C0
330
BE
100
AcDbEntity
  8
0
100
AcDbBlockEnd
  0
BLOCK
  5
C2
330
C1
100
AcDbEntity
  8
0
100
AcDbBlockBegin
  2
*D38
 70
    1
 10
0
 20
0
  3
*D38
  1

  0
LINE
  5
1E1
100
AcDbEntity
  8
Dimensions [Structure & Drill Points]
  6
ByBlock
 62
  256
370
   -2
100
AcDbLine
 10
-1.999999999999999
 20
55.015
 11
-114.8868452118675
 21
55.01500000000001
  0
LINE
  5
1E2
100
AcDbEntity
  8
Dimensions [Structure & Drill Points]
  6
ByBlock
 62
  256
370
   -2
100
AcDbLine
 10
-2
 20
53
 11
-114.8868452118675
 21
53.00000000000001
  0
LINE
  5
1E3
100
AcDbEntity
  8
Dimensions [Structure & Drill Points]
  6
ByBlock
 62
  256
370
   -2
100
AcDbLine
 10
-112.8868452118675
 20
65.01500000000001
 11
-112.8868452118675
 21
43.00000000000001
  0
SOLID
  5
1E4
100
AcDbEntity
  8
Dimensions [Structure & Drill Points]
  6
ByBlock
 62
  256
370
   -2
100
AcDbTrace
 10
-112.8868452118675
 20
55.01500000000001
 30
0
 11
-113.7194145274132
 21
60.01500000000001
 31
0
 12
-112.0542758963218
 22
60.01500000000001
 32
0
 13
-112.0542758963218
 23
60.01500000000001
 33
0
  0
SOLID
  5
1E5
100
AcDbEntity
  8
Dimensions [Structure & Drill Points]
  6
ByBlock
 62
  256
370
   -2
100
AcDbTrace
 10
-112.8868452118675
 20
53.00000000000001
 30
0
 11
-112.0542758963218
 21
48.00000000000001
 31
0
 12
-113.7194145274132
 22
48.00000000000001
 32
0
 13
-113.7194145274132
 23
48.00000000000001
 33
0
  0
MTEXT
  5
1E6
100
AcDbEntity
  8
Dimensions [Structure & Drill Points]
  6
CONTINUOUS
 62
  256
370
   -2
100
AcDbMText
 10
-116.1368452118675
 20
54.00750000000001
 30
0
 40
2.5
 41
1.111111111111111
 71
    5
 72
    1
  1
2
  7
standard
210
0
220
0
230
1
 50
90
 73
    2
 44
1
  0
ENDBLK
  5
C3
330
C1
100
AcDbEntity
  8
0
100
AcDbBlockEnd
  0
BLOCK
  5
C5
330
C4
100
AcDbEntity
  8
0
100
AcDbBlockBegin
  2
*D12
 70
    1
 10
0
 20
0
  3
*D12
  1

  0
LINE
  5
1E7
100
AcDbEntity
  8
Dimensions [Structure & Drill Points]
  6
ByBlock
 62
  256
370
   -2
100
AcDbLine
 10
-2
 20
51
 11
-100.7535340623583
 21
51.00000000000001
  0
LINE
  5
1E8
100
AcDbEntity
  8
Dimensions [Structure & Drill Points]
  6
ByBlock
 62
  256
370
   -2
100
AcDbLine
 10
-2
 20
-51
 11
-100.7535340623583
 21
-50.99999999999999
  0
LINE
  5
1E9
100
AcDbEntity
  8
Dimensions [Structure & Drill Points]
  6
ByBlock
 62
  256
370
   -2
100
AcDbLine
 10
-98.75353406235827
 20
51.00000000000001
 11
-98.75353406235827
 21
-50.99999999999999
  0
SOLID
  5
1EA
100
AcDbEntity
  8
Dimensions [Structure & Drill Points]
  6
ByBlock
 62
  256
370
   -2
100
AcDbTrace
 10
-98.75353406235827
 20
51.00000000000001
 30
0
 11
-97.92096474681259
 21
46.00000000000001
 31
0
 12
-99.58610337790395
 22
46.00000000000001
 32
0
 13
-99.58610337790395
 23
46.00000000000001
 33
0
  0
SOLID
  5
1EB
100
AcDbEntity
  8
Dimensions [Structure & Drill Points]
  6
ByBlock
 62
  256
370
   -2
100
AcDbTrace
 10
-98.75353406235827
 20
-50.99999999999999
 30
0
 11
-99.58610337790395
 21
-45.99999999999999
 31
0
 12
-97.92096474681259
 22
-45.99999999999999
 32
0
 13
-97.92096474681259
 23
-45.99999999999999
 33
0
  0
MTEXT
  5
1EC
100
AcDbEntity
  8
Dimensions [Structure & Drill Points]
  6
CONTINUOUS
 62
  256
370
   -2
100
AcDbMText
 10
-102.0035340623583
 20
1.460885178019428e-014
 30
0
 40
2.5
 41
4.444444444444445
 71
    5
 72
    1
  1
102
  7
standard
210
0
220
0
230
1
 50
90
 73
    2
 44
1
  0
ENDBLK
  5
C6
330
C4
100
AcDbEntity
  8
0
100
AcDbBlockEnd
  0
BLOCK
  5
C8
330
C7
100
AcDbEntity
  8
0
100
AcDbBlockBegin
  2
*D54
 70
    1
 10
0
 20
0
  3
*D54
  1

  0
LINE
  5
1ED
100
AcDbEntity
  8
Dimensions [Cutout Sections]
  6
ByBlock
 62
  256
370
   -2
100
AcDbLine
 10
-30.40559159102154
 20
2
 11
-30.40559159102153
 21
101.8213420428685
  0
LINE
  5
1EE
100
AcDbEntity
  8
Dimensions [Cutout Sections]
  6
ByBlock
 62
  256
370
   -2
100
AcDbLine
 10
30.40559159102154
 20
2
 11
30.40559159102155
 21
101.8213420428685
  0
LINE
  5
1EF
100
AcDbEntity
  8
Dimensions [Cutout Sections]
  6
ByBlock
 62
  256
370
   -2
100
AcDbLine
 10
-30.40559159102153
 20
99.82134204286847
 11
30.40559159102155
 21
99.82134204286847
  0
SOLID
  5
1F0
100
AcDbEntity
  8
Dimensions [Cutout Sections]
  6
ByBlock
 62
  256
370
   -2
100
AcDbTrace
 10
-30.40559159102153
 20
99.82134204286847
 30
0
 11
-25.40559159102153
 21
100.6539113584141
 31
0
 12
-25.40559159102153
 22
98.98877272732278
 32
0
 13
-25.40559159102153
 23
98.98877272732278
 33
0
  0
SOLID
  5
1F1
100
AcDbEntity
  8
Dimensions [Cutout Sections]
  6
ByBlock
 62
  256
370
   -2
100
AcDbTrace
 10
30.40559159102155
 20
99.82134204286847
 30
0
 11
25.40559159102155
 21
98.98877272732278
 31
0
 12
25.40559159102155
 22
100.6539113584141
 32
0
 13
25.40559159102155
 23
100.6539113584141
 33
0
  0
MTEXT
  5
1F2
100
AcDbEntity
  8
Dimensions [Cutout Sections]
  6
CONTINUOUS
 62
  256
370
   -2
100
AcDbMText
 10
7.304425890097138e-015
 20
103.0713420428685
 30
0
 40
2.5
 41
2.500000000000155
 71
    5
 72
    1
  1
61
  7
standard
210
0
220
0
230
1
 50
0
 73
    2
 44
1
  0
ENDBLK
  5
C9
330
C7
100
AcDbEntity
  8
0
100
AcDbBlockEnd
  0
BLOCK
  5
CB
330
CA
100
AcDbEntity
  8
0
100
AcDbBlockBegin
  2
*D14
 70
    1
 10
0
 20
0
  3
*D14
  1

  0
LINE
  5
1F3
100
AcDbEntity
  8
Dimensions [Structure & Drill Points]
  6
ByBlock
 62
  256
370
   -2
100
AcDbLine
 10
-62
 20
2.000000000000008
 11
-61.99999999999996
 21
125.0482531483144
  0
LINE
  5
1F4
100
AcDbEntity
  8
Dimensions [Structure & Drill Points]
  6
ByBlock
 62
  256
370
   -2
100
AcDbLine
 10
62
 20
2
 11
62.00000000000004
 21
125.0482531483144
  0
LINE
  5
1F5
100
AcDbEntity
  8
Dimensions [Structure & Drill Points]
  6
ByBlock
 62
  256
370
   -2
100
AcDbLine
 10
-61.99999999999996
 20
123.0482531483144
 11
62.00000000000004
 21
123.0482531483144
  0
SOLID
  5
1F6
100
AcDbEntity
  8
Dimensions [Structure & Drill Points]
  6
ByBlock
 62
  256
370
   -2
100
AcDbTrace
 10
-61.99999999999996
 20
123.0482531483144
 30
0
 11
-56.99999999999996
 21
123.8808224638601
 31
0
 12
-56.99999999999996
 22
122.2156838327687
 32
0
 13
-56.99999999999996
 23
122.2156838327687
 33
0
  0
SOLID
  5
1F7
100
AcDbEntity
  8
Dimensions [Structure & Drill Points]
  6
ByBlock
 62
  256
370
   -2
100
AcDbTrace
 10
62.00000000000004
 20
123.0482531483144
 30
0
 11
57.00000000000004
 21
122.2156838327687
 31
0
 12
57.00000000000004
 22
123.8808224638601
 32
0
 13
57.00000000000004
 23
123.8808224638601
 33
0
  0
MTEXT
  5
1F8
100
AcDbEntity
  8
Dimensions [Structure & Drill Points]
  6
CONTINUOUS
 62
  256
370
   -2
100
AcDbMText
 10
3.652212945048569e-014
 20
126.2982531483144
 30
0
 40
2.5
 41
4.722222222222222
 71
    5
 72
    1
  1
124
  7
standard
210
0
220
0
230
1
 50
360
 73
    2
 44
1
  0
ENDBLK
  5
CC
330
CA
100
AcDbEntity
  8
0
100
AcDbBlockEnd
  0
BLOCK
  5
CE
330
CD
100
AcDbEntity
  8
0
100
AcDbBlockBegin
  2
*D26
 70
    1
 10
0
 20
0
  3
*D26
  1

  0
LINE
  5
1F9
100
AcDbEntity
  8
Dimensions [Cutout Sections]
  6
ByBlock
 62
  256
370
   -2
100
AcDbLine
 10
48.61351356237309
 20
-8.414213562373121
 11
98.98130307978239
 21
-58.78200307978253
  0
LINE
  5
1FA
100
AcDbEntity
  8
Dimensions [Cutout Sections]
  6
ByBlock
 62
  256
370
   -2
100
AcDbLine
 10
8.414213562373094
 20
-48.6135135623731
 11
58.78200307978239
 21
-98.98130307978251
  0
LINE
  5
1FB
100
AcDbEntity
  8
Dimensions [Cutout Sections]
  6
ByBlock
 62
  256
370
   -2
100
AcDbLine
 10
97.5670895174093
 20
-57.36778951740943
 11
57.3677895174093
 21
-97.56708951740941
  0
SOLID
  5
1FC
100
AcDbEntity
  8
Dimensions [Cutout Sections]
  6
ByBlock
 62
  256
370
   -2
100
AcDbTrace
 10
97.5670895174093
 20
-57.36778951740943
 30
0
 11
94.62027102030676
 21
-61.49203883217236
 31
0
 12
93.44284020264637
 22
-60.31460801451198
 32
0
 13
93.44284020264637
 23
-60.31460801451198
 33
0
  0
SOLID
  5
1FD
100
AcDbEntity
  8
Dimensions [Cutout Sections]
  6
ByBlock
 62
  256
370
   -2
100
AcDbTrace
 10
57.3677895174093
 20
-97.56708951740941
 30
0
 11
60.31460801451185
 21
-93.44284020264648
 31
0
 12
61.49203883217223
 22
-94.62027102030687
 32
0
 13
61.49203883217223
 23
-94.62027102030687
 33
0
  0
MTEXT
  5
1FE
100
AcDbEntity
  8
Dimensions [Cutout Sections]
  6
CONTINUOUS
 62
  256
370
   -2
100
AcDbMText
 10
75.16934247855305
 20
-75.16934247855316
 30
0
 40
2.5
 41
3.055555555555711
 71
    5
 72
    1
  1
57
  7
standard
210
0
220
0
230
1
 50
44.99999999999997
 73
    2
 44
1
  0
ENDBLK
  5
CF
330
CD
100
AcDbEntity
  8
0
100
AcDbBlockEnd
  0
BLOCK
  5
D1
330
D0
100
AcDbEntity
  8
0
100
AcDbBlockBegin
  2
*D48
 70
    1
 10
0
 20
0
  3
*D48
  1

  0
LINE
  5
1FF
100
AcDbEntity
  8
Dimensions [Structure & Drill Points]
  6
ByBlock
 62
  256
370
   -2
100
AcDbLine
 10
-2.000000000000005
 20
-32.24999999999995
 11
-114.9430576245583
 21
-32.25000000000039
  0
LINE
  5
200
100
AcDbEntity
  8
Dimensions [Structure & Drill Points]
  6
ByBlock
 62
  256
370
   -2
100
AcDbLine
 10
-2
 20
-33.50000000000001
 11
-114.9430576245583
 21
-33.50000000000045
  0
LINE
  5
201
100
AcDbEntity
  8
Dimensions [Structure & Drill Points]
  6
ByBlock
 62
  256
370
   -2
100
AcDbLine
 10
-112.9430576245583
 20
-22.25000000000038
 11
-112.9430576245583
 21
-43.50000000000044
  0
SOLID
  5
202
100
AcDbEntity
  8
Dimensions [Structure & Drill Points]
  6
ByBlock
 62
  256
370
   -2
100
AcDbTrace
 10
-112.9430576245583
 20
-32.25000000000038
 30
0
 11
-113.775626940104
 21
-27.25000000000038
 31
0
 12
-112.1104883090126
 22
-27.25000000000038
 32
0
 13
-112.1104883090126
 23
-27.25000000000038
 33
0
  0
SOLID
  5
203
100
AcDbEntity
  8
Dimensions [Structure & Drill Points]
  6
ByBlock
 62
  256
370
   -2
100
AcDbTrace
 10
-112.9430576245583
 20
-33.50000000000044
 30
0
 11
-112.1104883090126
 21
-38.50000000000044
 31
0
 12
-113.775626940104
 22
-38.50000000000044
 32
0
 13
-113.775626940104
 23
-38.50000000000044
 33
0
  0
MTEXT
  5
204
100
AcDbEntity
  8
Dimensions [Structure & Drill Points]
  6
CONTINUOUS
 62
  256
370
   -2
100
AcDbMText
 10
-116.1930576245583
 20
-27.6111111111113
 30
0
 40
2.5
 41
5.277777777777933
 71
    5
 72
    1
  1
1.25
  7
standard
210
0
220
0
230
1
 50
90
 73
    2
 44
1
  0
ENDBLK
  5
D2
330
D0
100
AcDbEntity
  8
0
100
AcDbBlockEnd
  0
BLOCK
  5
D4
330
D3
100
AcDbEntity
  8
0
100
AcDbBlockBegin
  2
*D20
 70
    1
 10
0
 20
0
  3
*D20
  1

  0
LINE
  5
205
100
AcDbEntity
  8
Dimensions [Structure & Drill Points]
  6
ByBlock
 62
  256
370
   -2
100
AcDbLine
 10
20.9142135623731
 20
-18.0857864376269
 11
103.811168689536
 21
64.81116868953599
  0
LINE
  5
206
100
AcDbEntity
  8
Dimensions [Structure & Drill Points]
  6
ByBlock
 62
  256
370
   -2
100
AcDbLine
 10
-18.0857864376269
 20
20.9142135623731
 11
64.811168689536
 21
103.811168689536
  0
LINE
  5
207
100
AcDbEntity
  8
Dimensions [Structure & Drill Points]
  6
ByBlock
 62
  256
370
   -2
100
AcDbLine
 10
102.3969551271629
 20
63.3969551271629
 11
63.39695512716291
 21
102.3969551271629
  0
SOLID
  5
208
100
AcDbEntity
  8
Dimensions [Structure & Drill Points]
  6
ByBlock
 62
  256
370
   -2
100
AcDbTrace
 10
102.3969551271629
 20
63.3969551271629
 30
0
 11
98.27270581239998
 21
66.34377362426544
 31
0
 12
99.45013663006037
 22
67.52120444192583
 32
0
 13
99.45013663006037
 23
67.52120444192583
 33
0
  0
SOLID
  5
209
100
AcDbEntity
  8
Dimensions [Structure & Drill Points]
  6
ByBlock
 62
  256
370
   -2
100
AcDbTrace
 10
63.39695512716291
 20
102.3969551271629
 30
0
 11
67.52120444192585
 21
99.45013663006036
 31
0
 12
66.34377362426545
 22
98.27270581239996
 32
0
 13
66.34377362426545
 23
98.27270581239996
 33
0
  0
MTEXT
  5
20A
100
AcDbEntity
  8
Dimensions [Structure & Drill Points]
  6
CONTINUOUS
 62
  256
370
   -2
100
AcDbMText
 10
85.1950521660192
 20
85.19505216601918
 30
0
 40
2.5
 41
3.055555555555866
 71
    5
 72
    1
  1
55
  7
standard
210
0
220
0
230
1
 50
315
 73
    2
 44
1
  0
ENDBLK
  5
D5
330
D3
100
AcDbEntity
  8
0
100
AcDbBlockEnd
  0
BLOCK
  5
D7
330
D6
100
AcDbEntity
  8
0
100
AcDbBlockBegin
  2
*D39
 70
    1
 10
0
 20
0
  3
*D39
  1

  0
LINE
  5
20B
100
AcDbEntity
  8
Dimensions [Structure & Drill Points]
  6
ByBlock
 62
  256
370
   -2
100
AcDbLine
 10
-2
 20
48.985
 11
-120.585089786
 21
48.98500000000001
  0
LINE
  5
20C
100
AcDbEntity
  8
Dimensions [Structure & Drill Points]
  6
ByBlock
 62
  256
370
   -2
100
AcDbLine
 10
-2
 20
51
 11
-120.585089786
 21
51.00000000000001
  0
LINE
  5
20D
100
AcDbEntity
  8
Dimensions [Structure & Drill Points]
  6
ByBlock
 62
  256
370
   -2
100
AcDbLine
 10
-118.585089786
 20
38.98500000000001
 11
-118.585089786
 21
61.00000000000001
  0
SOLID
  5
20E
100
AcDbEntity
  8
Dimensions [Structure & Drill Points]
  6
ByBlock
 62
  256
370
   -2
100
AcDbTrace
 10
-118.585089786
 20
48.98500000000001
 30
0
 11
-117.7525204704543
 21
43.98500000000001
 31
0
 12
-119.4176591015457
 22
43.98500000000001
 32
0
 13
-119.4176591015457
 23
43.98500000000001
 33
0
  0
SOLID
  5
20F
100
AcDbEntity
  8
Dimensions [Structure & Drill Points]
  6
ByBlock
 62
  256
370
   -2
100
AcDbTrace
 10
-118.585089786
 20
51.00000000000001
 30
0
 11
-119.4176591015457
 21
56.00000000000001
 31
0
 12
-117.7525204704543
 22
56.00000000000001
 32
0
 13
-117.7525204704543
 23
56.00000000000001
 33
0
  0
MTEXT
  5
210
100
AcDbEntity
  8
Dimensions [Structure & Drill Points]
  6
CONTINUOUS
 62
  256
370
   -2
100
AcDbMText
 10
-121.835089786
 20
49.99250000000001
 30
0
 40
2.5
 41
1.111111111111111
 71
    5
 72
    1
  1
2
  7
standard
210
0
220
0
230
1
 50
90
 73
    2
 44
1
  0
ENDBLK
  5
D8
330
D6
100
AcDbEntity
  8
0
100
AcDbBlockEnd
  0
BLOCK
  5
DA
330
D9
100
AcDbEntity
  8
0
100
AcDbBlockBegin
  2
*D57
 70
    1
 10
0
 20
0
  3
*D57
  1

  0
LINE
  5
211
100
AcDbEntity
  8
Dimensions [Cutout Sections]
  6
ByBlock
 62
  256
370
   -2
100
AcDbLine
 10
1.414213562373095
 20
31.81980515339464
 11
61.47976942220453
 21
91.88536101322606
  0
LINE
  5
212
100
AcDbEntity
  8
Dimensions [Cutout Sections]
  6
ByBlock
 62
  256
370
   -2
100
AcDbLine
 10
31.81980515339464
 20
1.414213562373095
 11
91.88536101322607
 21
61.47976942220452
  0
LINE
  5
213
100
AcDbEntity
  8
Dimensions [Cutout Sections]
  6
ByBlock
 62
  256
370
   -2
100
AcDbLine
 10
60.06555585983143
 20
90.47114745085297
 11
90.47114745085298
 21
60.06555585983143
  0
SOLID
  5
214
100
AcDbEntity
  8
Dimensions [Cutout Sections]
  6
ByBlock
 62
  256
370
   -2
100
AcDbTrace
 10
60.06555585983143
 20
90.47114745085297
 30
0
 11
64.18980517459437
 21
87.52432895375043
 31
0
 12
63.01237435693398
 22
86.34689813609003
 32
0
 13
63.01237435693398
 23
86.34689813609003
 33
0
  0
SOLID
  5
215
100
AcDbEntity
  8
Dimensions [Cutout Sections]
  6
ByBlock
 62
  256
370
   -2
100
AcDbTrace
 10
90.47114745085298
 20
60.06555585983143
 30
0
 11
86.34689813609005
 21
63.01237435693398
 31
0
 12
87.52432895375044
 22
64.18980517459435
 32
0
 13
87.52432895375044
 23
64.18980517459435
 33
0
  0
MTEXT
  5
216
100
AcDbEntity
  8
Dimensions [Cutout Sections]
  6
CONTINUOUS
 62
  256
370
   -2
100
AcDbMText
 10
77.56644869419851
 20
77.56644869419848
 30
0
 40
2.5
 41
3.333333333333488
 71
    5
 72
    1
  1
43
  7
standard
210
0
220
0
230
1
 50
315
 73
    2
 44
1
  0
ENDBLK
  5
DB
330
D9
100
AcDbEntity
  8
0
100
AcDbBlockEnd
  0
BLOCK
  5
DD
330
DC
100
AcDbEntity
  8
0
100
AcDbBlockBegin
  2
*D34
 70
    1
 10
0
 20
0
  3
*D34
  1

  0
LINE
  5
217
100
AcDbEntity
  8
Dimensions [Cutout Sections]
  6
ByBlock
 62
  256
370
   -2
100
AcDbLine
 10
-1.414213756763355
 20
-1.414213367982809
 11
-97.74078531112633
 21
-97.74075844127324
  0
LINE
  5
218
100
AcDbEntity
  8
Dimensions [Cutout Sections]
  6
ByBlock
 62
  256
370
   -2
100
AcDbLine
 10
-23.33452096049691
 20
20.50609986184918
 11
-119.6610925148599
 21
-75.82044521144125
  0
LINE
  5
219
100
AcDbEntity
  8
Dimensions [Cutout Sections]
  6
ByBlock
 62
  256
370
   -2
100
AcDbLine
 10
-96.32657155436297
 20
-96.32654507329043
 11
-118.2468787580965
 21
-74.40623184345844
  0
SOLID
  5
21A
100
AcDbEntity
  8
Dimensions [Cutout Sections]
  6
ByBlock
 62
  256
370
   -2
100
AcDbTrace
 10
-96.32657155436297
 20
-96.32654507329043
 30
0
 11
-100.4508204640719
 21
-93.37972600929055
 31
0
 12
-99.27338948456811
 22
-92.20229535347354
 32
0
 13
-99.27338948456811
 23
-92.20229535347354
 33
0
  0
SOLID
  5
21B
100
AcDbEntity
  8
Dimensions [Cutout Sections]
  6
ByBlock
 62
  256
370
   -2
100
AcDbTrace
 10
-118.2468787580965
 20
-74.40623184345844
 30
0
 11
-114.1226298483876
 21
-77.35305090745833
 31
0
 12
-115.3000608278914
 22
-78.53048156327533
 32
0
 13
-115.3000608278914
 23
-78.53048156327533
 33
0
  0
MTEXT
  5
21C
100
AcDbEntity
  8
Dimensions [Cutout Sections]
  6
CONTINUOUS
 62
  256
370
   -2
100
AcDbMText
 10
-104.9886278014893
 20
-83.06829173540238
 30
0
 40
2.5
 41
2.500000000000155
 71
    5
 72
    1
  1
31
  7
standard
210
0
220
0
230
1
 50
314.999992124427
 73
    2
 44
1
  0
ENDBLK
  5
DE
330
DC
100
AcDbEntity
  8
0
100
AcDbBlockEnd
  0
BLOCK
  5
E0
330
DF
100
AcDbEntity
  8
0
100
AcDbBlockBegin
  2
*D41
 70
    1
 10
0
 20
0
  3
*D41
  1

  0
LINE
  5
21D
100
AcDbEntity
  8
Dimensions [Structure & Drill Points]
  6
ByBlock
 62
  256
370
   -2
100
AcDbLine
 10
21.5
 20
21.5
 11
101.9502899624857
 21
21.5
  0
LINE
  5
21E
100
AcDbEntity
  8
Dimensions [Structure & Drill Points]
  6
ByBlock
 62
  256
370
   -2
100
AcDbLine
 10
21.5
 20
19.5
 11
101.9502899624857
 21
19.5
  0
LINE
  5
21F
100
AcDbEntity
  8
Dimensions [Structure & Drill Points]
  6
ByBlock
 62
  256
370
   -2
100
AcDbLine
 10
99.95028996248568
 20
31.5
 11
99.95028996248568
 21
9.5
  0
SOLID
  5
220
100
AcDbEntity
  8
Dimensions [Structure & Drill Points]
  6
ByBlock
 62
  256
370
   -2
100
AcDbTrace
 10
99.95028996248568
 20
21.5
 30
0
 11
99.11772064694
 21
26.5
 31
0
 12
100.7828592780314
 22
26.5
 32
0
 13
100.7828592780314
 23
26.5
 33
0
  0
SOLID
  5
221
100
AcDbEntity
  8
Dimensions [Structure & Drill Points]
  6
ByBlock
 62
  256
370
   -2
100
AcDbTrace
 10
99.95028996248568
 20
19.5
 30
0
 11
100.7828592780314
 21
14.5
 31
0
 12
99.11772064694
 22
14.5
 32
0
 13
99.11772064694
 23
14.5
 33
0
  0
MTEXT
  5
222
100
AcDbEntity
  8
Dimensions [Structure & Drill Points]
  6
CONTINUOUS
 62
  256
370
   -2
100
AcDbMText
 10
96.70028996248568
 20
20.49999999999998
 30
0
 40
2.5
 41
1.111111111111111
 71
    5
 72
    1
  1
2
  7
standard
210
0
220
0
230
1
 50
90
 73
    2
 44
1
  0
ENDBLK
  5
E1
330
DF
100
AcDbEntity
  8
0
100
AcDbBlockEnd
  0
BLOCK
  5
E3
330
E2
100
AcDbEntity
  8
0
100
AcDbBlockBegin
  2
*D32
 70
    1
 10
0
 20
0
  3
*D32
  1

  0
LINE
  5
223
100
AcDbEntity
  8
Dimensions [Cutout Sections]
  6
ByBlock
 62
  256
370
   -2
100
AcDbLine
 10
-7
 20
-49.1993
 11
-7.000000000000007
 21
-89.62234731931697
  0
LINE
  5
224
100
AcDbEntity
  8
Dimensions [Cutout Sections]
  6
ByBlock
 62
  256
370
   -2
100
AcDbLine
 10
7
 20
-49.1993
 11
6.999999999999993
 21
-89.62234731931697
  0
LINE
  5
225
100
AcDbEntity
  8
Dimensions [Cutout Sections]
  6
ByBlock
 62
  256
370
   -2
100
AcDbLine
 10
-7.000000000000007
 20
-87.62234731931697
 11
6.999999999999993
 21
-87.62234731931697
  0
SOLID
  5
226
100
AcDbEntity
  8
Dimensions [Cutout Sections]
  6
ByBlock
 62
  256
370
   -2
100
AcDbTrace
 10
-7.000000000000007
 20
-87.62234731931697
 30
0
 11
-2.000000000000007
 21
-86.78977800377129
 31
0
 12
-2.000000000000007
 22
-88.45491663486266
 32
0
 13
-2.000000000000007
 23
-88.45491663486266
 33
0
  0
SOLID
  5
227
100
AcDbEntity
  8
Dimensions [Cutout Sections]
  6
ByBlock
 62
  256
370
   -2
100
AcDbTrace
 10
6.999999999999993
 20
-87.62234731931697
 30
0
 11
1.999999999999993
 21
-88.45491663486266
 31
0
 12
1.999999999999993
 22
-86.78977800377129
 32
0
 13
1.999999999999993
 23
-86.78977800377129
 33
0
  0
MTEXT
  5
228
100
AcDbEntity
  8
Dimensions [Cutout Sections]
  6
CONTINUOUS
 62
  256
370
   -2
100
AcDbMText
 10
-6.906428825104866e-015
 20
-84.37234731931697
 30
0
 40
2.5
 41
2.777777777777778
 71
    5
 72
    1
  1
14
  7
standard
210
0
220
0
230
1
 50
0
 73
    2
 44
1
  0
ENDBLK
  5
E4
330
E2
100
AcDbEntity
  8
0
100
AcDbBlockEnd
  0
BLOCK
  5
E6
330
E5
100
AcDbEntity
  8
0
100
AcDbBlockBegin
  2
*D49
 70
    1
 10
0
 20
0
  3
*D49
  1

  0
LINE
  5
229
100
AcDbEntity
  8
Dimensions [Structure & Drill Points]
  6
ByBlock
 62
  256
370
   -2
100
AcDbLine
 10
48.985
 20
-2
 11
48.98499999999998
 21
-125.6244940820747
  0
LINE
  5
22A
100
AcDbEntity
  8
Dimensions [Structure & Drill Points]
  6
ByBlock
 62
  256
370
   -2
100
AcDbLine
 10
51
 20
-2
 11
50.99999999999998
 21
-125.6244940820747
  0
LINE
  5
22B
100
AcDbEntity
  8
Dimensions [Structure & Drill Points]
  6
ByBlock
 62
  256
370
   -2
100
AcDbLine
 10
38.98499999999998
 20
-123.6244940820747
 11
60.99999999999998
 21
-123.6244940820747
  0
SOLID
  5
22C
100
AcDbEntity
  8
Dimensions [Structure & Drill Points]
  6
ByBlock
 62
  256
370
   -2
100
AcDbTrace
 10
48.98499999999998
 20
-123.6244940820747
 30
0
 11
43.98499999999998
 21
-124.4570633976204
 31
0
 12
43.98499999999998
 22
-122.791924766529
 32
0
 13
43.98499999999998
 23
-122.791924766529
 33
0
  0
SOLID
  5
22D
100
AcDbEntity
  8
Dimensions [Structure & Drill Points]
  6
ByBlock
 62
  256
370
   -2
100
AcDbTrace
 10
50.99999999999998
 20
-123.6244940820747
 30
0
 11
55.99999999999998
 21
-122.791924766529
 31
0
 12
55.99999999999998
 22
-124.4570633976204
 32
0
 13
55.99999999999998
 23
-124.4570633976204
 33
0
  0
MTEXT
  5
22E
100
AcDbEntity
  8
Dimensions [Structure & Drill Points]
  6
CONTINUOUS
 62
  256
370
   -2
100
AcDbMText
 10
49.99249999999998
 20
-120.3744940820747
 30
0
 40
2.5
 41
1.111111111111111
 71
    5
 72
    1
  1
2
  7
standard
210
0
220
0
230
1
 50
0
 73
    2
 44
1
  0
ENDBLK
  5
E7
330
E5
100
AcDbEntity
  8
0
100
AcDbBlockEnd
  0
BLOCK
  5
E9
330
E8
100
AcDbEntity
  8
0
100
AcDbBlockBegin
  2
*D16
 70
    1
 10
0
 20
0
  3
*D16
  1

  0
LINE
  5
22F
100
AcDbEntity
  8
Dimensions [Structure & Drill Points]
  6
ByBlock
 62
  256
370
   -2
100
AcDbLine
 10
-51
 20
2
 11
-50.99999999999999
 21
101.1952268796186
  0
LINE
  5
230
100
AcDbEntity
  8
Dimensions [Structure & Drill Points]
  6
ByBlock
 62
  256
370
   -2
100
AcDbLine
 10
51
 20
2
 11
51.00000000000001
 21
101.1952268796186
  0
LINE
  5
231
100
AcDbEntity
  8
Dimensions [Structure & Drill Points]
  6
ByBlock
 62
  256
370
   -2
100
AcDbLine
 10
-50.99999999999999
 20
99.19522687961862
 11
51.00000000000001
 21
99.19522687961862
  0
SOLID
  5
232
100
AcDbEntity
  8
Dimensions [Structure & Drill Points]
  6
ByBlock
 62
  256
370
   -2
100
AcDbTrace
 10
-50.99999999999999
 20
99.19522687961862
 30
0
 11
-45.99999999999999
 21
100.0277961951643
 31
0
 12
-45.99999999999999
 22
98.36265756407293
 32
0
 13
-45.99999999999999
 23
98.36265756407293
 33
0
  0
SOLID
  5
233
100
AcDbEntity
  8
Dimensions [Structure & Drill Points]
  6
ByBlock
 62
  256
370
   -2
100
AcDbTrace
 10
51.00000000000001
 20
99.19522687961862
 30
0
 11
46.00000000000001
 21
98.36265756407293
 31
0
 12
46.00000000000001
 22
100.0277961951643
 32
0
 13
46.00000000000001
 23
100.0277961951643
 33
0
  0
MTEXT
  5
234
100
AcDbEntity
  8
Dimensions [Structure & Drill Points]
  6
CONTINUOUS
 62
  256
370
   -2
100
AcDbMText
 10
7.304425890097138e-015
 20
102.4452268796186
 30
0
 40
2.5
 41
4.444444444444445
 71
    5
 72
    1
  1
102
  7
standard
210
0
220
0
230
1
 50
0
 73
    2
 44
1
  0
ENDBLK
  5
EA
330
E8
100
AcDbEntity
  8
0
100
AcDbBlockEnd
  0
BLOCK
  5
EC
330
EB
100
AcDbEntity
  8
0
100
AcDbBlockBegin
  2
*D55
 70
    1
 10
0
 20
0
  3
*D55
  1

  0
LINE
  5
235
100
AcDbEntity
  8
Dimensions [Cutout Sections]
  6
ByBlock
 62
  256
370
   -2
100
AcDbLine
 10
-31.81980515339464
 20
1.414213562373095
 11
-101.531014637583
 21
71.12542304656145
  0
LINE
  5
236
100
AcDbEntity
  8
Dimensions [Cutout Sections]
  6
ByBlock
 62
  256
370
   -2
100
AcDbLine
 10
-1.414213562373095
 20
31.81980515339464
 11
-71.12542304656144
 21
101.531014637583
  0
LINE
  5
237
100
AcDbEntity
  8
Dimensions [Cutout Sections]
  6
ByBlock
 62
  256
370
   -2
100
AcDbLine
 10
-100.1168010752099
 20
69.71120948418836
 11
-69.71120948418834
 21
100.1168010752099
  0
SOLID
  5
238
100
AcDbEntity
  8
Dimensions [Cutout Sections]
  6
ByBlock
 62
  256
370
   -2
100
AcDbTrace
 10
-100.1168010752099
 20
69.71120948418836
 30
0
 11
-97.16998257810734
 21
73.83545879895129
 31
0
 12
-95.99255176044694
 22
72.6580279812909
 32
0
 13
-95.99255176044694
 23
72.6580279812909
 33
0
  0
SOLID
  5
239
100
AcDbEntity
  8
Dimensions [Cutout Sections]
  6
ByBlock
 62
  256
370
   -2
100
AcDbTrace
 10
-69.71120948418834
 20
100.1168010752099
 30
0
 11
-72.65802798129089
 21
95.99255176044697
 31
0
 12
-73.83545879895128
 22
97.16998257810737
 32
0
 13
-73.83545879895128
 23
97.16998257810737
 33
0
  0
MTEXT
  5
23A
100
AcDbEntity
  8
Dimensions [Cutout Sections]
  6
CONTINUOUS
 62
  256
370
   -2
100
AcDbMText
 10
-87.21210231855538
 20
87.2121023185554
 30
0
 40
2.5
 41
3.333333333333488
 71
    5
 72
    1
  1
43
  7
standard
210
0
220
0
230
1
 50
45.00000000000001
 73
    2
 44
1
  0
ENDBLK
  5
ED
330
EB
100
AcDbEntity
  8
0
100
AcDbBlockEnd
  0
BLOCK
  5
EF
330
EE
100
AcDbEntity
  8
0
100
AcDbBlockBegin
  2
*D35
 70
    1
 10
0
 20
0
  3
*D35
  1

  0
LINE
  5
23B
100
AcDbEntity
  8
Dimensions [Cutout Sections]
  6
ByBlock
 62
  256
370
   -2
100
AcDbLine
 10
-1.414213562373096
 20
-1.414213562373094
 11
-105.2844133647423
 21
-105.2844133647422
  0
LINE
  5
23C
100
AcDbEntity
  8
Dimensions [Cutout Sections]
  6
ByBlock
 62
  256
370
   -2
100
AcDbLine
 10
-35.15420408171083
 20
32.32577695696465
 11
-139.0244038840801
 21
-71.54442284540447
  0
LINE
  5
23D
100
AcDbEntity
  8
Dimensions [Cutout Sections]
  6
ByBlock
 62
  256
370
   -2
100
AcDbLine
 10
-103.8701998023692
 20
-103.8701998023691
 11
-137.610190321707
 21
-70.13020928303138
  0
SOLID
  5
23E
100
AcDbEntity
  8
Dimensions [Cutout Sections]
  6
ByBlock
 62
  256
370
   -2
100
AcDbTrace
 10
-103.8701998023692
 20
-103.8701998023691
 30
0
 11
-107.9944491171322
 21
-100.9233813052666
 31
0
 12
-106.8170182994718
 22
-99.74595048760618
 32
0
 13
-106.8170182994718
 23
-99.74595048760618
 33
0
  0
SOLID
  5
23F
100
AcDbEntity
  8
Dimensions [Cutout Sections]
  6
ByBlock
 62
  256
370
   -2
100
AcDbTrace
 10
-137.610190321707
 20
-70.13020928303138
 30
0
 11
-133.485941006944
 21
-73.07702778013392
 31
0
 12
-134.6633718246044
 22
-74.25445859779431
 32
0
 13
-134.6633718246044
 23
-74.25445859779431
 33
0
  0
MTEXT
  5
240
100
AcDbEntity
  8
Dimensions [Cutout Sections]
  6
CONTINUOUS
 62
  256
370
   -2
100
AcDbMText
 10
-118.4420980231817
 20
-84.70210750384395
 30
0
 40
2.5
 41
3.333333333333333
 71
    5
 72
    1
  1
48
  7
standard
210
0
220
0
230
1
 50
315
 73
    2
 44
1
  0
ENDBLK
  5
F0
330
EE
100
AcDbEntity
  8
0
100
AcDbBlockEnd
  0
BLOCK
  5
F2
330
F1
100
AcDbEntity
  8
0
100
AcDbBlockBegin
  2
*D56
 70
    1
 10
0
 20
0
  3
*D56
  1

  0
LINE
  5
241
100
AcDbEntity
  8
Dimensions [Cutout Sections]
  6
ByBlock
 62
  256
370
   -2
100
AcDbLine
 10
31.81980515339464
 20
-1.414213562373095
 11
82.37777975149861
 21
-51.9721881604771
  0
LINE
  5
242
100
AcDbEntity
  8
Dimensions [Cutout Sections]
  6
ByBlock
 62
  256
370
   -2
100
AcDbLine
 10
1.414213562373095
 20
-31.81980515339464
 11
51.97218816047707
 21
-82.37777975149864
  0
LINE
  5
243
100
AcDbEntity
  8
Dimensions [Cutout Sections]
  6
ByBlock
 62
  256
370
   -2
100
AcDbLine
 10
80.96356618912552
 20
-50.55797459810401
 11
50.55797459810398
 21
-80.96356618912554
  0
SOLID
  5
244
100
AcDbEntity
  8
Dimensions [Cutout Sections]
  6
ByBlock
 62
  256
370
   -2
100
AcDbTrace
 10
80.96356618912552
 20
-50.55797459810401
 30
0
 11
78.01674769202297
 21
-54.68222391286694
 31
0
 12
76.83931687436258
 22
-53.50479309520655
 32
0
 13
76.83931687436258
 23
-53.50479309520655
 33
0
  0
SOLID
  5
245
100
AcDbEntity
  8
Dimensions [Cutout Sections]
  6
ByBlock
 62
  256
370
   -2
100
AcDbTrace
 10
50.55797459810398
 20
-80.96356618912554
 30
0
 11
53.50479309520653
 21
-76.83931687436261
 31
0
 12
54.68222391286692
 22
-78.016747692023
 32
0
 13
54.68222391286692
 23
-78.016747692023
 33
0
  0
MTEXT
  5
246
100
AcDbEntity
  8
Dimensions [Cutout Sections]
  6
CONTINUOUS
 62
  256
370
   -2
100
AcDbMText
 10
63.46267335475847
 20
-63.4626733547585
 30
0
 40
2.5
 41
3.333333333333488
 71
    5
 72
    1
  1
43
  7
standard
210
0
220
0
230
1
 50
45
 73
    2
 44
1
  0
ENDBLK
  5
F3
330
F1
100
AcDbEntity
  8
0
100
AcDbBlockEnd
  0
BLOCK
  5
F5
330
F4
100
AcDbEntity
  8
0
100
AcDbBlockBegin
  2
*D58
 70
    1
 10
0
 20
0
  3
*D58
  1

  0
LINE
  5
247
100
AcDbEntity
  8
Dimensions [Cutout Sections]
  6
ByBlock
 62
  256
370
   -2
100
AcDbLine
 10
-31.81980515339464
 20
-1.414213562373095
 11
-94.48862731108004
 21
-64.08303572005848
  0
LINE
  5
248
100
AcDbEntity
  8
Dimensions [Cutout Sections]
  6
ByBlock
 62
  256
370
   -2
100
AcDbLine
 10
-1.414213562373095
 20
-31.81980515339464
 11
-64.08303572005849
 21
-94.48862731108001
  0
LINE
  5
249
100
AcDbEntity
  8
Dimensions [Cutout Sections]
  6
ByBlock
 62
  256
370
   -2
100
AcDbLine
 10
-93.07441374870695
 20
-62.66882215768538
 11
-62.6688221576854
 21
-93.07441374870692
  0
SOLID
  5
24A
100
AcDbEntity
  8
Dimensions [Cutout Sections]
  6
ByBlock
 62
  256
370
   -2
100
AcDbTrace
 10
-93.07441374870695
 20
-62.66882215768538
 30
0
 11
-88.95016443394401
 21
-65.61564065478792
 31
0
 12
-90.1275952516044
 22
-66.79307147244832
 32
0
 13
-90.1275952516044
 23
-66.79307147244832
 33
0
  0
SOLID
  5
24B
100
AcDbEntity
  8
Dimensions [Cutout Sections]
  6
ByBlock
 62
  256
370
   -2
100
AcDbTrace
 10
-62.6688221576854
 20
-93.07441374870692
 30
0
 11
-66.79307147244833
 21
-90.12759525160438
 31
0
 12
-65.61564065478794
 22
-88.95016443394398
 32
0
 13
-65.61564065478794
 23
-88.95016443394398
 33
0
  0
MTEXT
  5
24C
100
AcDbEntity
  8
Dimensions [Cutout Sections]
  6
CONTINUOUS
 62
  256
370
   -2
100
AcDbMText
 10
-75.57352091433992
 20
-75.57352091433985
 30
0
 40
2.5
 41
3.333333333333488
 71
    5
 72
    1
  1
43
  7
standard
210
0
220
0
230
1
 50
315
 73
    2
 44
1
  0
ENDBLK
  5
F6
330
F4
100
AcDbEntity
  8
0
100
AcDbBlockEnd
  0
BLOCK
  5
F8
330
F7
100
AcDbEntity
  8
0
100
AcDbBlockBegin
  2
*D37
 70
    1
 10
0
 20
0
  3
*D37
  1

  0
LINE
  5
24D
100
AcDbEntity
  8
Dimensions [Cutout Sections]
  6
ByBlock
 62
  256
370
   -2
100
AcDbLine
 10
1.414213562373097
 20
1.414213562373093
 11
80.6224944172525
 21
80.6224944172523
  0
LINE
  5
24E
100
AcDbEntity
  8
Dimensions [Cutout Sections]
  6
ByBlock
 62
  256
370
   -2
100
AcDbLine
 10
35.1542040817108
 20
-32.32577695696468
 11
114.3624849365902
 21
46.88250389791452
  0
LINE
  5
24F
100
AcDbEntity
  8
Dimensions [Cutout Sections]
  6
ByBlock
 62
  256
370
   -2
100
AcDbLine
 10
79.2082808548794
 20
79.20828085487921
 11
112.9482713742171
 21
45.46829033554143
  0
SOLID
  5
250
100
AcDbEntity
  8
Dimensions [Cutout Sections]
  6
ByBlock
 62
  256
370
   -2
100
AcDbTrace
 10
79.2082808548794
 20
79.20828085487921
 30
0
 11
83.33253016964234
 21
76.26146235777665
 31
0
 12
82.15509935198195
 22
75.08403154011627
 32
0
 13
82.15509935198195
 23
75.08403154011627
 33
0
  0
SOLID
  5
251
100
AcDbEntity
  8
Dimensions [Cutout Sections]
  6
ByBlock
 62
  256
370
   -2
100
AcDbTrace
 10
112.9482713742171
 20
45.46829033554143
 30
0
 11
108.8240220594542
 21
48.41510883264398
 31
0
 12
110.0014528771146
 22
49.59253965030437
 32
0
 13
110.0014528771146
 23
49.59253965030437
 33
0
  0
MTEXT
  5
252
100
AcDbEntity
  8
Dimensions [Cutout Sections]
  6
CONTINUOUS
 62
  256
370
   -2
100
AcDbMText
 10
98.37637315340451
 20
64.63638263406659
 30
0
 40
2.5
 41
3.333333333333333
 71
    5
 72
    1
  1
48
  7
standard
210
0
220
0
230
1
 50
314.9999999999999
 73
    2
 44
1
  0
ENDBLK
  5
F9
330
F7
100
AcDbEntity
  8
0
100
AcDbBlockEnd
  0
BLOCK
  5
FB
330
FA
100
AcDbEntity
  8
0
100
AcDbBlockBegin
  2
*D47
 70
    1
 10
0
 20
0
  3
*D47
  1

  0
LINE
  5
253
100
AcDbEntity
  8
Dimensions [Structure & Drill Points]
  6
ByBlock
 62
  256
370
   -2
100
AcDbLine
 10
17
 20
-80
 11
16.99999999999999
 21
-134.7299808983182
  0
LINE
  5
254
100
AcDbEntity
  8
Dimensions [Structure & Drill Points]
  6
ByBlock
 62
  256
370
   -2
100
AcDbLine
 10
15
 20
-80
 11
14.99999999999999
 21
-134.7299808983182
  0
LINE
  5
255
100
AcDbEntity
  8
Dimensions [Structure & Drill Points]
  6
ByBlock
 62
  256
370
   -2
100
AcDbLine
 10
26.99999999999999
 20
-132.7299808983182
 11
4.999999999999989
 21
-132.7299808983182
  0
SOLID
  5
256
100
AcDbEntity
  8
Dimensions [Structure & Drill Points]
  6
ByBlock
 62
  256
370
   -2
100
AcDbTrace
 10
16.99999999999999
 20
-132.7299808983182
 30
0
 11
21.99999999999999
 21
-131.8974115827725
 31
0
 12
21.99999999999999
 22
-133.5625502138639
 32
0
 13
21.99999999999999
 23
-133.5625502138639
 33
0
  0
SOLID
  5
257
100
AcDbEntity
  8
Dimensions [Structure & Drill Points]
  6
ByBlock
 62
  256
370
   -2
100
AcDbTrace
 10
14.99999999999999
 20
-132.7299808983182
 30
0
 11
9.999999999999989
 21
-133.5625502138639
 31
0
 12
9.999999999999989
 22
-131.8974115827725
 32
0
 13
9.999999999999989
 23
-131.8974115827725
 33
0
  0
MTEXT
  5
258
100
AcDbEntity
  8
Dimensions [Structure & Drill Points]
  6
CONTINUOUS
 62
  256
370
   -2
100
AcDbMText
 10
15.99999999999999
 20
-129.4799808983182
 30
0
 40
2.5
 41
1.111111111111111
 71
    5
 72
    1
  1
2
  7
standard
210
0
220
0
230
1
 50
360
 73
    2
 44
1
  0
ENDBLK
  5
FC
330
FA
100
AcDbEntity
  8
0
100
AcDbBlockEnd
  0
ENDSEC
  0
SECTION
  2
ENTITIES
  0
LINE
  5
259
100
AcDbEntity
  8
0
  6
ByLayer
 62
  256
370
   -1
100
AcDbLine
 10
-60.00000018407838
 20
-142.9413304538947
 11
-60.00000018318323
 21
-142.9160478454815
  0
LINE
  5
25A
100
AcDbEntity
  8
0
  6
ByLayer
 62
  256
370
   -1
100
AcDbLine
 10
-60.00000018715593
 20
-143.0282525578213
 11
-60.00000018407838
 21
-142.9413304538947
  0
ARC
  5
25B
100
AcDbEntity
  8
0
  6
ByLayer
 62
  256
370
   -1
100
AcDbCircle
 10
0
 20
0
 40
154.9999895282382
100
AcDbArc
 50
247.2260259007979
 51
247.2515838945732
  0
ARC
  5
25C
100
AcDbEntity
  8
0
  6
ByLayer
 62
  256
370
   -1
100
AcDbCircle
 10
0
 20
0
 40
62
100
AcDbArc
 50
298.94
 51
241.06
  0
LINE
  5
25D
100
AcDbEntity
  8
0
  6
ByLayer
 62
  256
370
   -1
100
AcDbLine
 10
29.99860579176108
 20
-54.25913102634929
 11
30.00139420823892
 21
-54.25786897365071
  0
LINE
  5
25E
100
AcDbEntity
  8
0
  6
ByLayer
 62
  256
370
   -1
100
AcDbLine
 10
-30.00139420823894
 20
-54.25786897365069
 11
-30
 21
-54.2585
  0
CIRCLE
  5
25F
100
AcDbEntity
  8
0
  6
ByLayer
 62
  256
370
   -1
100
AcDbCircle
 10
21.92031021678297
 20
-21.92031021678297
 40
0
  0
CIRCLE
  5
260
100
AcDbEntity
  8
0
  6
ByLayer
 62
  256
370
   -1
100
AcDbCircle
 10
19.5
 20
19.5
 40
2
  0
CIRCLE
  5
261
100
AcDbEntity
  8
0
  6
ByLayer
 62
  256
370
   -1
100
AcDbCircle
 10
-19.5
 20
19.5
 40
2
  0
CIRCLE
  5
262
100
AcDbEntity
  8
0
  6
ByLayer
 62
  256
370
   -1
100
AcDbCircle
 10
-19.5
 20
-19.5
 40
2
  0
CIRCLE
  5
263
100
AcDbEntity
  8
0
  6
ByLayer
 62
  256
370
   -1
100
AcDbCircle
 10
19.5
 20
-19.5
 40
2
  0
LINE
  5
264
100
AcDbEntity
  8
0
  6
ByLayer
 62
  256
370
   -1
100
AcDbLine
 10
-27.5
 20
-96
 11
27.5
 21
-96
  0
ARC
  5
265
100
AcDbEntity
  8
0
  6
ByLayer
 62
  256
370
   -1
100
AcDbCircle
 10
27.5
 20
-93.5
 40
2.5
100
AcDbArc
 50
270
 51
360
  0
ARC
  5
266
100
AcDbEntity
  8
0
  6
ByLayer
 62
  256
370
   -1
100
AcDbCircle
 10
-27.5
 20
-93.5
 40
2.5
100
AcDbArc
 50
180
 51
270
  0
LINE
  5
267
100
AcDbEntity
  8
0
  6
ByLayer
 62
  256
370
   -1
100
AcDbLine
 10
30
 20
-93.5
 11
30
 21
-54.2591
  0
LINE
  5
268
100
AcDbEntity
  8
0
  6
ByLayer
 62
  256
370
   -1
100
AcDbLine
 10
-30
 20
-93.5
 11
-30
 21
-54.2585
  0
CIRCLE
  5
269
100
AcDbEntity
  8
0
  6
ByLayer
 62
  256
370
   -1
100
AcDbCircle
 10
-15
 20
-78
 40
2
  0
CIRCLE
  5
26A
100
AcDbEntity
  8
0
  6
ByLayer
 62
  256
370
   -1
100
AcDbCircle
 10
15
 20
-78
 40
2
  0
ARC
  5
26B
100
AcDbEntity
  8
0
  6
ByLayer
 62
  256
370
   -1
100
AcDbCircle
 10
-51
 20
0
 40
2.015
100
AcDbArc
 50
240.2459471067541
 51
119.7540528932459
  0
ARC
  5
26C
100
AcDbEntity
  8
0
  6
ByLayer
 62
  256
370
   -1
100
AcDbCircle
 10
-53
 20
0
 40
2.015
100
AcDbArc
 50
60.24594710675412
 51
299.7540528932459
  0
ARC
  5
26D
100
AcDbEntity
  8
0
  6
ByLayer
 62
  256
370
   -1
100
AcDbCircle
 10
0
 20
51
 40
2.015
100
AcDbArc
 50
150.2459471067541
 51
29.75405289324588
  0
ARC
  5
26E
100
AcDbEntity
  8
0
  6
ByLayer
 62
  256
370
   -1
100
AcDbCircle
 10
0
 20
53
 40
2.015
100
AcDbArc
 50
330.2459471067541
 51
209.7540528932459
  0
ARC
  5
26F
100
AcDbEntity
  8
0
  6
ByLayer
 62
  256
370
   -1
100
AcDbCircle
 10
51
 20
0
 40
2.015
100
AcDbArc
 50
60.24594710675412
 51
299.7540528932459
  0
ARC
  5
270
100
AcDbEntity
  8
0
  6
ByLayer
 62
  256
370
   -1
100
AcDbCircle
 10
53
 20
0
 40
2.015
100
AcDbArc
 50
240.2459471067541
 51
119.7540528932459
  0
ARC
  5
271
100
AcDbEntity
  8
0
  6
ByLayer
 62
  256
370
   -1
100
AcDbCircle
 10
0
 20
-53
 40
2.015
100
AcDbArc
 50
150.2459471067541
 51
29.75405289324588
  0
ARC
  5
272
100
AcDbEntity
  8
0
  6
ByLayer
 62
  256
370
   -1
100
AcDbCircle
 10
0
 20
-51
 40
2.015
100
AcDbArc
 50
330.2459471067541
 51
209.7540528932459
  0
DIMENSION
  5
273
100
AcDbEntity
  8
Dimensions [Structure & Drill Points]
  6
DIVIDE2
 62
  256
370
   -1
100
AcDbDimension
  2
*D1
 10
137.553041084901
 20
-2.633978094814026e-015
 30
0
 11
134.303041084901
 21
-26.50000000000004
 31
0
 70
   33
 71
    5
  3
Standard
 53
0
210
0
220
0
230
1
100
AcDbAlignedDimension
 13
0
 23
-53
 33
0
 14
0
 24
0
 34
0
  0
DIMENSION
  5
274
100
AcDbEntity
  8
Dimensions [Structure & Drill Points]
  6
DIVIDE2
 62
  256
370
   -1
100
AcDbDimension
  2
*D2
 10
129.7011761603929
 20
-8.777861084824258e-015
 30
0
 11
126.4511761603929
 21
-25.50000000000003
 31
0
 70
   33
 71
    5
  3
Standard
 53
0
210
0
220
0
230
1
100
AcDbAlignedDimension
 13
0
 23
-51
 33
0
 14
0
 24
0
 34
0
  0
DIMENSION
  5
275
100
AcDbEntity
  8
Dimensions [Structure & Drill Points]
  6
DIVIDE2
 62
  256
370
   -1
100
AcDbDimension
  2
*D3
 10
121.558501423866
 20
-33.25
 30
0
 11
118.308501423866
 21
-16.625
 31
0
 70
   33
 71
    5
  3
Standard
 53
0
210
0
220
0
230
1
100
AcDbAlignedDimension
 13
0
 23
0
 33
0
 14
0
 24
-33.25
 34
0
  0
DIMENSION
  5
276
100
AcDbEntity
  8
Dimensions [Structure & Drill Points]
  6
DIVIDE2
 62
  256
370
   -1
100
AcDbDimension
  2
*D4
 10
117.4289579729837
 20
-64.42895797298368
 30
0
 11
88.63086093412738
 21
-88.63086093412743
 31
0
 70
   33
 71
    5
  3
Standard
 53
0
210
0
220
0
230
1
100
AcDbAlignedDimension
 13
0
 23
-53
 33
0
 14
53
 24
0
 34
0
  0
DIMENSION
  5
277
100
AcDbEntity
  8
Dimensions [Structure & Drill Points]
  6
DIVIDE2
 62
  256
370
   -1
100
AcDbDimension
  2
*D5
 10
56.66671293195079
 20
-107.6667129319508
 30
0
 11
79.86861589309449
 21
-79.86861589309451
 31
0
 70
   33
 71
    5
  3
Standard
 53
0
210
0
220
0
230
1
100
AcDbAlignedDimension
 13
51
 23
0
 33
0
 14
0
 24
-51
 34
0
  0
DIMENSION
  5
278
100
AcDbEntity
  8
Dimensions [Structure & Drill Points]
  6
DIVIDE2
 62
  256
370
   -1
100
AcDbDimension
  2
*D6
 10
93.06979326905046
 20
-54.06979326905046
 30
0
 11
71.27169623019415
 21
-71.27169623019418
 31
0
 70
   33
 71
    5
  3
Standard
 53
0
210
0
220
0
230
1
100
AcDbAlignedDimension
 13
-19.5
 23
-19.5
 33
0
 14
19.5
 24
19.5
 34
0
  0
DIMENSION
  5
279
100
AcDbEntity
  8
Dimensions [Structure & Drill Points]
  6
DIVIDE2
 62
  256
370
   -1
100
AcDbDimension
  2
*D7
 10
90.45759413259164
 20
-51.45759413259164
 30
0
 11
78.40949709373534
 21
-58.90949709373539
 31
0
 70
   33
 71
    5
  3
Standard
 53
0
210
0
220
0
230
1
100
AcDbAlignedDimension
 13
0
 23
0
 33
0
 14
19.5
 24
19.5
 34
0
  0
DIMENSION
  5
27A
100
AcDbEntity
  8
Dimensions [Structure & Drill Points]
  6
DIVIDE2
 62
  256
370
   -1
100
AcDbDimension
  2
*D8
 10
29.99977918608617
 20
-118.0423327655782
 30
0
 11
-0.0002045639138307962
 21
-114.7921827656188
 31
0
 70
   33
 71
    5
  3
Standard
 53
0
210
0
220
0
230
1
100
AcDbAlignedDimension
 13
-30
 23
-73.87925
 33
0
 14
30
 24
-73.87954999999999
 34
0
  0
DIMENSION
  5
27B
100
AcDbEntity
  8
Dimensions [Structure & Drill Points]
  6
DIVIDE2
 62
  256
370
   -1
100
AcDbDimension
  2
*D9
 10
15
 20
-109.4454003238459
 30
0
 11
-5.130071985704615e-015
 21
-106.1954003238459
 31
0
 70
   33
 71
    5
  3
Standard
 53
0
210
0
220
0
230
1
100
AcDbAlignedDimension
 13
-15
 23
-78
 33
0
 14
15
 24
-78
 34
0
  0
DIMENSION
  5
27C
100
AcDbEntity
  8
Dimensions [Structure & Drill Points]
  6
DIVIDE2
 62
  256
370
   -1
100
AcDbDimension
  2
*D10
 10
-62.00000000000001
 20
-71.53921375662928
 30
0
 11
-31.00000000000001
 21
-68.28921375662929
 31
0
 70
   33
 71
    5
  3
Standard
 53
0
210
0
220
0
230
1
100
AcDbAlignedDimension
 13
0
 23
0
 33
0
 14
-62
 24
7.592559393698739e-015
 34
0
  0
DIMENSION
  5
27D
100
AcDbEntity
  8
Dimensions [Structure & Drill Points]
  6
CENTER2
 62
  256
370
   -1
100
AcDbDimension
  2
*D11
 10
-106.4018715523815
 20
-52.99999999999998
 30
0
 11
-109.6518715523815
 21
1.460885178019428e-014
 31
0
 70
   33
 71
    5
  3
Standard
 53
0
210
0
220
0
230
1
100
AcDbAlignedDimension
 13
0
 23
53
 33
0
 14
0
 24
-53
 34
0
  0
DIMENSION
  5
27E
100
AcDbEntity
  8
Dimensions [Structure & Drill Points]
  6
DIVIDE2
 62
  256
370
   -1
100
AcDbDimension
  2
*D12
 10
-98.75353406235827
 20
-50.99999999999998
 30
0
 11
-102.0035340623583
 21
1.460885178019428e-014
 31
0
 70
   33
 71
    5
  3
Standard
 53
0
210
0
220
0
230
1
100
AcDbAlignedDimension
 13
0
 23
51
 33
0
 14
0
 24
-51
 34
0
  0
DIMENSION
  5
27F
100
AcDbEntity
  8
Dimensions [Structure & Drill Points]
  6
DIVIDE2
 62
  256
370
   -1
100
AcDbDimension
  2
*D13
 10
-85.70637010878929
 20
-19.5
 30
0
 11
-88.95637010878929
 21
7.503424422593274e-015
 31
0
 70
   33
 71
    5
  3
Standard
 53
0
210
0
220
0
230
1
100
AcDbAlignedDimension
 13
-19.5
 23
19.5
 33
0
 14
-19.5
 24
-19.5
 34
0
  0
DIMENSION
  5
280
100
AcDbEntity
  8
Dimensions [Structure & Drill Points]
  6
DIVIDE2
 62
  256
370
   -1
100
AcDbDimension
  2
*D14
 10
62.00000000000002
 20
123.0482531483144
 30
0
 11
3.652212945048569e-014
 21
126.2982531483144
 31
0
 70
   33
 71
    5
  3
Standard
 53
0
210
0
220
0
230
1
100
AcDbAlignedDimension
 13
-62
 23
7.592559393698739e-015
 33
0
 14
62
 24
0
 34
0
  0
DIMENSION
  5
281
100
AcDbEntity
  8
Dimensions [Structure & Drill Points]
  6
DIVIDE2
 62
  256
370
   -1
100
AcDbDimension
  2
*D15
 10
53.00000000000001
 20
106.4695435174573
 30
0
 11
7.304425890097138e-015
 21
109.7195435174573
 31
0
 70
   33
 71
    5
  3
Standard
 53
0
210
0
220
0
230
1
100
AcDbAlignedDimension
 13
-53
 23
0
 33
0
 14
53
 24
0
 34
0
  0
DIMENSION
  5
282
100
AcDbEntity
  8
Dimensions [Structure & Drill Points]
  6
DIVIDE2
 62
  256
370
   -1
100
AcDbDimension
  2
*D16
 10
51.00000000000001
 20
99.19522687961862
 30
0
 11
7.304425890097138e-015
 21
102.4452268796186
 31
0
 70
   33
 71
    5
  3
Standard
 53
0
210
0
220
0
230
1
100
AcDbAlignedDimension
 13
-51
 23
0
 33
0
 14
51
 24
0
 34
0
  0
DIMENSION
  5
283
100
AcDbEntity
  8
Dimensions [Structure & Drill Points]
  6
DIVIDE2
 62
  256
370
   -1
100
AcDbDimension
  2
*D17
 10
19.5
 20
85.30789511647201
 30
0
 11
3.751712211296637e-015
 21
88.55789511647201
 31
0
 70
   33
 71
    5
  3
Standard
 53
0
210
0
220
0
230
1
100
AcDbAlignedDimension
 13
-19.5
 23
19.5
 33
0
 14
19.5
 24
19.5
 34
0
  0
DIMENSION
  5
284
100
AcDbEntity
  8
Dimensions [Structure & Drill Points]
  6
DIVIDE2
 62
  256
370
   -1
100
AcDbDimension
  2
*D18
 10
132.0048790305736
 20
79.00487903057358
 30
0
 11
107.8029760694299
 21
107.8029760694299
 31
0
 70
   33
 71
    5
  3
Standard
 53
0
210
0
220
0
230
1
100
AcDbAlignedDimension
 13
0
 23
53
 33
0
 14
53
 24
0
 34
0
  0
DIMENSION
  5
285
100
AcDbEntity
  8
Dimensions [Structure & Drill Points]
  6
DIVIDE2
 62
  256
370
   -1
100
AcDbDimension
  2
*D19
 10
123.5875663229696
 20
72.58756632296959
 30
0
 11
100.3856633618259
 21
100.3856633618259
 31
0
 70
   33
 71
    5
  3
Standard
 53
0
210
0
220
0
230
1
100
AcDbAlignedDimension
 13
0
 23
51
 33
0
 14
51
 24
0
 34
0
  0
DIMENSION
  5
286
100
AcDbEntity
  8
Dimensions [Structure & Drill Points]
  6
DIVIDE2
 62
  256
370
   -1
100
AcDbDimension
  2
*D20
 10
63.39695512716289
 20
102.3969551271629
 30
0
 11
85.1950521660192
 21
85.19505216601918
 31
0
 70
   33
 71
    5
  3
Standard
 53
0
210
0
220
0
230
1
100
AcDbAlignedDimension
 13
19.5
 23
-19.5
 33
0
 14
-19.5
 24
19.5
 34
0
  0
DIMENSION
  5
287
100
AcDbEntity
  8
Dimensions [Structure & Drill Points]
  6
ByLayer
 62
  256
370
   -1
100
AcDbDimension
  2
*D21
 10
-124.698205807865
 20
-31
 30
0
 11
-127.948205807865
 21
1.460885178019428e-014
 31
0
 70
   33
 71
    5
 72
    0
  3
Standard
 53
0
210
0
220
0
230
1
100
AcDbAlignedDimension
 13
0
 23
31
 33
0
 14
1.530757942277972e-016
 24
-31
 34
0
  0
LINE
  5
288
100
AcDbEntity
  8
0
  6
ByLayer
 62
  256
370
   -1
100
AcDbLine
 10
30.1993
 20
7
 11
47.1993
 21
7
  0
LINE
  5
289
100
AcDbEntity
  8
0
  6
ByLayer
 62
  256
370
   -1
100
AcDbLine
 10
30.1993
 20
-7
 11
47.1993
 21
-7
  0
LINE
  5
28A
100
AcDbEntity
  8
0
  6
ByLayer
 62
  256
370
   -1
100
AcDbLine
 10
7
 20
-30.1993
 11
7
 21
-47.1993
  0
LINE
  5
28B
100
AcDbEntity
  8
0
  6
ByLayer
 62
  256
370
   -1
100
AcDbLine
 10
-7
 20
-30.1993
 11
-7
 21
-47.1993
  0
LINE
  5
28C
100
AcDbEntity
  8
0
  6
ByLayer
 62
  256
370
   -1
100
AcDbLine
 10
-30.1993
 20
-7
 11
-47.1993
 21
-7
  0
LINE
  5
28D
100
AcDbEntity
  8
0
  6
ByLayer
 62
  256
370
   -1
100
AcDbLine
 10
-47.1993
 20
7
 11
-30.1993
 21
7
  0
ARC
  5
28E
100
AcDbEntity
  8
0
  6
ByLayer
 62
  256
370
   -1
100
AcDbCircle
 10
0
 20
0
 40
47.71555218678707
100
AcDbArc
 50
188.4358908217059
 51
261.5641091782941
  0
ARC
  5
28F
100
AcDbEntity
  8
0
  6
ByLayer
 62
  256
370
   -1
100
AcDbCircle
 10
0
 20
0
 40
47.71555218678707
100
AcDbArc
 50
278.4358908217059
 51
351.5641091782941
  0
ARC
  5
290
100
AcDbEntity
  8
0
  6
ByLayer
 62
  256
370
   -1
100
AcDbCircle
 10
0
 20
0
 40
47.71555218678707
100
AcDbArc
 50
8.435890821705922
 51
81.56410917829409
  0
ARC
  5
291
100
AcDbEntity
  8
0
  6
ByLayer
 62
  256
370
   -1
100
AcDbCircle
 10
0
 20
0
 40
47.71555218678707
100
AcDbArc
 50
98.43589082170593
 51
171.5641091782941
  0
LINE
  5
292
100
AcDbEntity
  8
0
  6
ByLayer
 62
  256
370
   -1
100
AcDbLine
 10
-7.000000000000001
 20
30.199337741083
 11
-7
 21
47.1993
  0
LINE
  5
293
100
AcDbEntity
  8
0
  6
ByLayer
 62
  256
370
   -1
100
AcDbLine
 10
7.000000000000002
 20
30.199337741083
 11
7
 21
47.1993
  0
ARC
  5
294
100
AcDbEntity
  8
0
  6
ByLayer
 62
  256
370
   -1
100
AcDbCircle
 10
0
 20
0
 40
31
100
AcDbArc
 50
103.0503049396799
 51
166.9496793091741
  0
ARC
  5
295
100
AcDbEntity
  8
0
  6
ByLayer
 62
  256
370
   -1
100
AcDbCircle
 10
0
 20
0
 40
31
100
AcDbArc
 50
193.0503206908259
 51
256.9496793091741
  0
ARC
  5
296
100
AcDbEntity
  8
0
  6
ByLayer
 62
  256
370
   -1
100
AcDbCircle
 10
0
 20
0
 40
31
100
AcDbArc
 50
283.0503206908259
 51
346.9496793091741
  0
ARC
  5
297
100
AcDbEntity
  8
0
  6
ByLayer
 62
  256
370
   -1
100
AcDbCircle
 10
0
 20
0
 40
31
100
AcDbArc
 50
13.05032069082595
 51
76.94969506032008
  0
DIMENSION
  5
298
100
AcDbEntity
  8
Dimensions [Cutout Sections]
  6
ByLayer
 62
  256
370
   -1
100
AcDbDimension
  2
*D22
 10
-111.9290305515358
 20
71.72973055153582
 30
0
 11
-94.12747759039213
 21
94.12747759039213
 31
0
 70
   33
 71
    5
  3
Standard
 53
0
210
0
220
0
230
1
100
AcDbAlignedDimension
 13
-7
 23
47.19930000000001
 33
0
 14
-47.1993
 24
7
 34
0
  0
DIMENSION
  5
299
100
AcDbEntity
  8
Dimensions [Cutout Sections]
  6
ByLayer
 62
  256
370
   -1
100
AcDbDimension
  2
*D23
 10
-65.57762153549854
 20
88.77697538012012
 30
0
 11
-79.47538616682876
 21
79.47540801535926
 31
0
 70
   33
 71
    5
  3
Standard
 53
0
210
0
220
0
230
1
100
AcDbAlignedDimension
 13
-30.19933581671634
 23
7.000008302080322
 33
0
 14
-6.999999999999998
 24
30.199337741083
 34
0
  0
DIMENSION
  5
29A
100
AcDbEntity
  8
Dimensions [Cutout Sections]
  6
ByLayer
 62
  256
370
   -1
100
AcDbDimension
  2
*D24
 10
109.4628386567869
 20
69.26353865678689
 30
0
 11
91.66128569564314
 21
91.66128569564312
 31
0
 70
   33
 71
    5
  3
Standard
 53
0
210
0
220
0
230
1
100
AcDbAlignedDimension
 13
7
 23
47.1993
 33
0
 14
47.1993
 24
7
 34
0
  0
DIMENSION
  5
29B
100
AcDbEntity
  8
Dimensions [Cutout Sections]
  6
ByLayer
 62
  256
370
   -1
100
AcDbDimension
  2
*D25
 10
76.01078738457848
 20
52.81147246394097
 30
0
 11
66.70921619919237
 21
66.70923453818274
 31
0
 70
   33
 71
    5
  3
Standard
 53
0
210
0
220
0
230
1
100
AcDbAlignedDimension
 13
7.000000000000002
 23
30.199337741083
 33
0
 14
30.19933581671634
 24
7.000008302080325
 34
0
  0
DIMENSION
  5
29C
100
AcDbEntity
  8
Dimensions [Cutout Sections]
  6
ByLayer
 62
  256
370
   -1
100
AcDbDimension
  2
*D26
 10
57.36778951740934
 20
-97.56708951740939
 30
0
 11
75.16934247855305
 21
-75.16934247855316
 31
0
 70
   33
 71
    5
  3
Standard
 53
0
210
0
220
0
230
1
100
AcDbAlignedDimension
 13
47.1993
 23
-7.000000000000025
 33
0
 14
7
 24
-47.1993
 34
0
  0
DIMENSION
  5
29D
100
AcDbEntity
  8
Dimensions [Cutout Sections]
  6
ByLayer
 62
  256
370
   -1
100
AcDbDimension
  2
*D27
 10
66.00095555325156
 20
-42.80162803861554
 30
0
 11
52.10319475707725
 21
-52.10319475707728
 31
0
 70
   33
 71
    5
  3
Standard
 53
0
210
0
220
0
230
1
100
AcDbAlignedDimension
 13
7.000008302080313
 23
-30.19933581671635
 33
0
 14
30.19933581671634
 24
-7.000008302080325
 34
0
  0
DIMENSION
  5
29E
100
AcDbEntity
  8
Dimensions [Cutout Sections]
  6
ByLayer
 62
  256
370
   -1
100
AcDbDimension
  2
*D28
 10
-66.36213642767044
 20
-106.5614364276704
 30
0
 11
-84.16368938881415
 21
-84.16368938881406
 31
0
 70
   33
 71
    5
  3
Standard
 53
0
210
0
220
0
230
1
100
AcDbAlignedDimension
 13
-47.1993
 23
-7
 33
0
 14
-7.000000000000022
 24
-47.1993
 34
0
  0
DIMENSION
  5
29F
100
AcDbEntity
  8
Dimensions [Cutout Sections]
  6
ByLayer
 62
  256
370
   -1
100
AcDbDimension
  2
*D29
 10
-58.75934029875604
 20
-81.95866781339207
 30
0
 11
-68.0609070172178
 21
-68.06090701721774
 31
0
 70
   33
 71
    5
  3
Standard
 53
0
210
0
220
0
230
1
100
AcDbAlignedDimension
 13
-30.19933581671635
 23
-7.000008302080315
 33
0
 14
-7.000008302080324
 24
-30.19933581671634
 34
0
  0
DIMENSION
  5
2A0
100
AcDbEntity
  8
Dimensions [Cutout Sections]
  6
ByLayer
 62
  256
370
   -1
100
AcDbDimension
  2
*D30
 10
7.000000000000013
 20
76.30687862576279
 30
0
 11
3.763235247511085e-014
 21
79.55687862576281
 31
0
 70
   33
 71
    5
  3
Standard
 53
0
210
0
220
0
230
1
100
AcDbAlignedDimension
 13
-7
 23
47.19930000000001
 33
0
 14
7
 24
47.1993
 34
0
  0
DIMENSION
  5
2A1
100
AcDbEntity
  8
Dimensions [Cutout Sections]
  6
ByLayer
 62
  256
370
   -1
100
AcDbDimension
  2
*D31
 10
94.58571266919647
 20
-7.000000000000026
 30
0
 11
91.33571266919648
 21
-5.000612825298983e-014
 31
0
 70
   33
 71
    5
  3
Standard
 53
0
210
0
220
0
230
1
100
AcDbAlignedDimension
 13
47.19930000000001
 23
7
 33
0
 14
47.1993
 24
-7
 34
0
  0
DIMENSION
  5
2A2
100
AcDbEntity
  8
Dimensions [Cutout Sections]
  6
ByLayer
 62
  256
370
   -1
100
AcDbDimension
  2
*D32
 10
6.999999999999997
 20
-87.62234731931697
 30
0
 11
-6.906428825104866e-015
 21
-84.37234731931697
 31
0
 70
   33
 71
    5
  3
Standard
 53
0
210
0
220
0
230
1
100
AcDbAlignedDimension
 13
-7
 23
-47.1993
 33
0
 14
7
 24
-47.1993
 34
0
  0
DIMENSION
  5
2A3
100
AcDbEntity
  8
Dimensions [Cutout Sections]
  6
ByLayer
 62
  256
370
   -1
100
AcDbDimension
  2
*D33
 10
-73.98575684246963
 20
-7.000000000000014
 30
0
 11
-77.23575684246964
 21
6.200416699173039e-016
 31
0
 70
   33
 71
    5
  3
Standard
 53
0
210
0
220
0
230
1
100
AcDbAlignedDimension
 13
-47.19930000000001
 23
6.999999999999999
 33
0
 14
-47.1993
 24
-7
 34
0
  0
DIMENSION
  5
2A4
100
AcDbEntity
  8
Dimensions [Cutout Sections]
  6
ByLayer
 62
  256
370
   -1
100
AcDbDimension
  2
*D34
 10
-118.2468787580965
 20
-74.4062318434585
 30
0
 11
-104.9886278014893
 21
-83.06829173540238
 31
0
 70
   33
 71
    5
  3
Standard
 53
0
210
0
220
0
230
1
100
AcDbAlignedDimension
 13
0
 23
0
 33
0
 14
-21.92030720373355
 24
21.92031322983199
 34
0
  0
DIMENSION
  5
2A5
100
AcDbEntity
  8
Dimensions [Cutout Sections]
  6
ByLayer
 62
  256
370
   -1
100
AcDbDimension
  2
*D35
 10
-137.6101903217069
 20
-70.13020928303141
 30
0
 11
-118.4420980231817
 21
-84.70210750384395
 31
0
 70
   33
 71
    5
  3
Standard
 53
0
210
0
220
0
230
1
100
AcDbAlignedDimension
 13
0
 23
0
 33
0
 14
-33.73999051933773
 24
33.73999051933774
 34
0
  0
DIMENSION
  5
2A6
100
AcDbEntity
  8
Dimensions [Cutout Sections]
  6
ByLayer
 62
  256
370
   -1
100
AcDbDimension
  2
*D36
 10
80.81877546784705
 20
36.97815503428107
 30
0
 11
72.15671739831184
 21
50.23640718152884
 31
0
 70
   33
 71
    5
  3
Standard
 53
0
210
0
220
0
230
1
100
AcDbAlignedDimension
 13
0
 23
0
 33
0
 14
21.92031021678297
 24
-21.92031021678298
 34
0
  0
DIMENSION
  5
2A7
100
AcDbEntity
  8
Dimensions [Cutout Sections]
  6
ByLayer
 62
  256
370
   -1
100
AcDbDimension
  2
*D37
 10
112.9482713742171
 20
45.46829033554144
 30
0
 11
98.37637315340451
 21
64.63638263406659
 31
0
 70
   33
 71
    5
  3
Standard
 53
0
210
0
220
0
230
1
100
AcDbAlignedDimension
 13
0
 23
0
 33
0
 14
33.7399905193377
 24
-33.73999051933777
 34
0
  0
CIRCLE
  5
2A8
100
AcDbEntity
  8
0
  6
ByLayer
 62
  256
370
   -1
100
AcDbCircle
 10
0
 20
-33.5
 40
1.25
  0
DIMENSION
  5
2A9
100
AcDbEntity
  8
Dimensions [Structure & Drill Points]
  6
ByLayer
 62
  256
370
   -1
100
AcDbDimension
  2
*D38
 10
-112.8868452118675
 20
53.00000000000004
 30
0
 11
-116.1368452118675
 21
54.00750000000001
 31
0
 70
   33
 71
    5
 72
    0
  3
Standard
 53
0
210
0
220
0
230
1
100
AcDbAlignedDimension
 13
6.168954507380226e-016
 23
55.015
 33
0
 14
0
 24
53
 34
0
  0
DIMENSION
  5
2AA
100
AcDbEntity
  8
Dimensions [Structure & Drill Points]
  6
ByLayer
 62
  256
370
   -1
100
AcDbDimension
  2
*D39
 10
-118.585089786
 20
51.00000000000002
 30
0
 11
-121.835089786
 21
49.99250000000001
 31
0
 70
   33
 71
    5
 72
    0
  3
Standard
 53
0
210
0
220
0
230
1
100
AcDbAlignedDimension
 13
-3.701372704428135e-016
 23
48.985
 33
0
 14
0
 24
51
 34
0
  0
DIMENSION
  5
2AB
100
AcDbEntity
  8
Dimensions [Structure & Drill Points]
  6
ByLayer
 62
  256
370
   -1
100
AcDbDimension
  2
*D40
 10
-112.8868452118675
 20
19.5
 30
0
 11
-116.1368452118675
 21
20.50000000000001
 31
0
 70
   33
 71
    5
 72
    0
  3
Standard
 53
0
210
0
220
0
230
1
100
AcDbAlignedDimension
 13
-19.5
 23
21.5
 33
0
 14
-19.5
 24
19.5
 34
0
  0
DIMENSION
  5
2AC
100
AcDbEntity
  8
Dimensions [Structure & Drill Points]
  6
ByLayer
 62
  256
370
   -1
100
AcDbDimension
  2
*D41
 10
99.95028996248568
 20
19.5
 30
0
 11
96.70028996248568
 21
20.49999999999998
 31
0
 70
   33
 71
    5
 72
    0
  3
Standard
 53
0
210
0
220
0
230
1
100
AcDbAlignedDimension
 13
19.5
 23
21.5
 33
0
 14
19.5
 24
19.5
 34
0
  0
DIMENSION
  5
2AD
100
AcDbEntity
  8
Dimensions [Structure & Drill Points]
  6
ByLayer
 62
  256
370
   -1
100
AcDbDimension
  2
*D42
 10
99.95028996248568
 20
-19.5
 30
0
 11
96.70028996248568
 21
-18.50000000000002
 31
0
 70
   33
 71
    5
 72
    0
  3
Standard
 53
0
210
0
220
0
230
1
100
AcDbAlignedDimension
 13
19.5
 23
-17.5
 33
0
 14
19.5
 24
-19.5
 34
0
  0
DIMENSION
  5
2AE
100
AcDbEntity
  8
Dimensions [Structure & Drill Points]
  6
ByLayer
 62
  256
370
   -1
100
AcDbDimension
  2
*D43
 10
-112.8868452118675
 20
-19.5
 30
0
 11
-116.1368452118675
 21
-18.49999999999999
 31
0
 70
   33
 71
    5
 72
    0
  3
Standard
 53
0
210
0
220
0
230
1
100
AcDbAlignedDimension
 13
-19.5
 23
-17.5
 33
0
 14
-19.5
 24
-19.5
 34
0
  0
DIMENSION
  5
2AF
100
AcDbEntity
  8
Dimensions [Structure & Drill Points]
  6
ByLayer
 62
  256
370
   -1
100
AcDbDimension
  2
*D44
 10
148.4010618370643
 20
-51.00000000000004
 30
0
 11
145.1510618370643
 21
-49.99250000000004
 31
0
 70
   33
 71
    5
 72
    0
  3
Standard
 53
0
210
0
220
0
230
1
100
AcDbAlignedDimension
 13
6.168954507380226e-016
 23
-48.985
 33
0
 14
0
 24
-51
 34
0
  0
DIMENSION
  5
2B0
100
AcDbEntity
  8
Dimensions [Structure & Drill Points]
  6
ByLayer
 62
  256
370
   -1
100
AcDbDimension
  2
*D45
 10
156.3867692004938
 20
-53.00000000000003
 30
0
 11
153.1367692004938
 21
-54.00750000000004
 31
0
 70
   33
 71
    5
 72
    0
  3
Standard
 53
0
210
0
220
0
230
1
100
AcDbAlignedDimension
 13
-3.701372704428135e-016
 23
-55.015
 33
0
 14
0
 24
-53
 34
0
  0
DIMENSION
  5
2B1
100
AcDbEntity
  8
Dimensions [Structure & Drill Points]
  6
ByLayer
 62
  256
370
   -1
100
AcDbDimension
  2
*D46
 10
-15
 20
-132.7299808983182
 30
0
 11
-16.00000000000001
 21
-129.4799808983182
 31
0
 70
   33
 71
    5
 72
    0
  3
Standard
 53
0
210
0
220
0
230
1
100
AcDbAlignedDimension
 13
-17
 23
-78
 33
0
 14
-15
 24
-78
 34
0
  0
DIMENSION
  5
2B2
100
AcDbEntity
  8
Dimensions [Structure & Drill Points]
  6
ByLayer
 62
  256
370
   -1
100
AcDbDimension
  2
*D47
 10
15
 20
-132.7299808983182
 30
0
 11
15.99999999999999
 21
-129.4799808983182
 31
0
 70
   33
 71
    5
 72
    0
  3
Standard
 53
0
210
0
220
0
230
1
100
AcDbAlignedDimension
 13
17
 23
-78
 33
0
 14
15
 24
-78
 34
0
  0
DIMENSION
  5
2B3
100
AcDbEntity
  8
Dimensions [Structure & Drill Points]
  6
ByLayer
 62
  256
370
   -1
100
AcDbDimension
  2
*D48
 10
-112.9430576245583
 20
-33.50000000000045
 30
0
 11
-116.1930576245583
 21
-32.8750000000003
 31
0
 70
   33
  1
1.25
 71
    5
 72
    0
  3
Standard
 53
0
210
0
220
0
230
1
100
AcDbAlignedDimension
 13
-5.004677228193088e-015
 23
-32.24999999999994
 33
0
 14
0
 24
-33.5
 34
0
  0
DIMENSION
  5
2B4
100
AcDbEntity
  8
Dimensions [Structure & Drill Points]
  6
ByLayer
 62
  256
370
   -1
100
AcDbDimension
  2
*D49
 10
50.99999999999999
 20
-123.6244940820747
 30
0
 11
49.99249999999998
 21
-120.3744940820747
 31
0
 70
   33
 71
    5
 72
    0
  3
Standard
 53
0
210
0
220
0
230
1
100
AcDbAlignedDimension
 13
48.985
 23
2.46758180295209e-016
 33
0
 14
51
 24
0
 34
0
  0
DIMENSION
  5
2B5
100
AcDbEntity
  8
Dimensions [Structure & Drill Points]
  6
ByLayer
 62
  256
370
   -1
100
AcDbDimension
  2
*D50
 10
52.99999999999996
 20
-132.7963458887673
 30
0
 11
54.00749999999998
 21
-129.5463458887673
 31
0
 70
   33
 71
    5
 72
    0
  3
Standard
 53
0
210
0
220
0
230
1
100
AcDbAlignedDimension
 13
55.015
 23
-4.935163605904181e-016
 33
0
 14
53
 24
0
 34
0
  0
DIMENSION
  5
2B6
100
AcDbEntity
  8
Dimensions [Structure & Drill Points]
  6
ByLayer
 62
  256
370
   -1
100
AcDbDimension
  2
*D51
 10
-51.00000000000003
 20
-123.6379772067834
 30
0
 11
-49.99250000000002
 21
-120.3879772067834
 31
0
 70
   33
 71
    5
 72
    0
  3
Standard
 53
0
210
0
220
0
230
1
100
AcDbAlignedDimension
 13
-48.985
 23
-4.935163605904181e-016
 33
0
 14
-51
 24
0
 34
0
  0
DIMENSION
  5
2B7
100
AcDbEntity
  8
Dimensions [Structure & Drill Points]
  6
ByLayer
 62
  256
370
   -1
100
AcDbDimension
  2
*D52
 10
-53.00000000000001
 20
-132.7963458887673
 30
0
 11
-54.00750000000002
 21
-129.5463458887673
 31
0
 70
   33
 71
    5
 72
    0
  3
Standard
 53
0
210
0
220
0
230
1
100
AcDbAlignedDimension
 13
-55.015
 23
2.46758180295209e-016
 33
0
 14
-53
 24
0
 34
0
  0
LINE
  5
2B8
100
AcDbEntity
  8
0
  6
ByLayer
 62
  256
370
   -1
100
AcDbLine
 10
-30.40559159102154
 20
0
 11
0
 21
30.40559159102154
  0
LINE
  5
2B9
100
AcDbEntity
  8
0
  6
ByLayer
 62
  256
370
   -1
100
AcDbLine
 10
30.40559159102154
 20
0
 11
0
 21
30.40559159102154
  0
LINE
  5
2BA
100
AcDbEntity
  8
0
  6
ByLayer
 62
  256
370
   -1
100
AcDbLine
 10
0
 20
-30.40559159102154
 11
30.40559159102154
 21
0
  0
LINE
  5
2BB
100
AcDbEntity
  8
0
  6
ByLayer
 62
  256
370
   -1
100
AcDbLine
 10
-30.40559159102154
 20
0
 11
0
 21
-30.40559159102154
  0
DIMENSION
  5
2BC
100
AcDbEntity
  8
Dimensions [Cutout Sections]
  6
ByLayer
 62
  256
370
   -1
100
AcDbDimension
  2
*D53
 10
-119.8551727511814
 20
-30.40559159102153
 30
0
 11
-123.1051727511814
 21
1.460885178019428e-014
 31
0
 70
   33
 71
    5
 72
    0
  3
Standard
 53
0
210
0
220
0
230
1
100
AcDbAlignedDimension
 13
0
 23
30.40559159102154
 33
0
 14
0
 24
-30.40559159102154
 34
0
  0
DIMENSION
  5
2BD
100
AcDbEntity
  8
Dimensions [Cutout Sections]
  6
ByLayer
 62
  256
370
   -1
100
AcDbDimension
  2
*D54
 10
30.40559159102154
 20
99.82134204286847
 30
0
 11
7.304425890097138e-015
 21
103.0713420428685
 31
0
 70
   33
 71
    5
 72
    0
  3
Standard
 53
0
210
0
220
0
230
1
100
AcDbAlignedDimension
 13
-30.40559159102154
 23
0
 33
0
 14
30.40559159102154
 24
5.997388054390932e-016
 34
0
  0
DIMENSION
  5
2BE
100
AcDbEntity
  8
Dimensions [Cutout Sections]
  6
ByLayer
 62
  256
370
   -1
100
AcDbDimension
  2
*D55
 10
-69.71120948418834
 20
100.1168010752099
 30
0
 11
-87.21210231855538
 21
87.2121023185554
 31
0
 70
   33
 71
    5
 72
    0
  3
Standard
 53
0
210
0
220
0
230
1
100
AcDbAlignedDimension
 13
-30.40559159102154
 23
0
 33
0
 14
0
 24
30.40559159102154
 34
0
  0
DIMENSION
  5
2BF
100
AcDbEntity
  8
Dimensions [Cutout Sections]
  6
ByLayer
 62
  256
370
   -1
100
AcDbDimension
  2
*D56
 10
50.557974598104
 20
-80.96356618912554
 30
0
 11
63.46267335475847
 21
-63.4626733547585
 31
0
 70
   33
 71
    5
 72
    0
  3
Standard
 53
0
210
0
220
0
230
1
100
AcDbAlignedDimension
 13
30.40559159102154
 23
0
 33
0
 14
0
 24
-30.40559159102154
 34
0
  0
DIMENSION
  5
2C0
100
AcDbEntity
  8
Dimensions [Cutout Sections]
  6
ByLayer
 62
  256
370
   -1
100
AcDbDimension
  2
*D57
 10
90.47114745085298
 20
60.06555585983143
 30
0
 11
77.56644869419851
 21
77.56644869419848
 31
0
 70
   33
 71
    5
 72
    0
  3
Standard
 53
0
210
0
220
0
230
1
100
AcDbAlignedDimension
 13
0
 23
30.40559159102154
 33
0
 14
30.40559159102154
 24
0
 34
0
  0
DIMENSION
  5
2C1
100
AcDbEntity
  8
Dimensions [Cutout Sections]
  6
ByLayer
 62
  256
370
   -1
100
AcDbDimension
  2
*D58
 10
-62.66882215768538
 20
-93.07441374870693
 30
0
 11
-75.57352091433992
 21
-75.57352091433985
 31
0
 70
   33
 71
    5
 72
    0
  3
Standard
 53
0
210
0
220
0
230
1
100
AcDbAlignedDimension
 13
-30.40559159102154
 23
0
 33
0
 14
0
 24
-30.40559159102154
 34
0
  0
ENDSEC
  0
SECTION
  2
OBJECTS
  0
DICTIONARY
  5
C
330
0
100
AcDbDictionary
281
    1
  3
ACAD_GROUP
350
D
  0
DICTIONARY
  5
D
330
C
100
AcDbDictionary
281
    1
  0
ENDSEC
  0
EOF
