  0
SECTION
  2
HEADER
  9
$ACADVER
  1
AC1027
  9
$ACADMAINTVER
 70
   125
  9
$DWGCODEPAGE
  3
ANSI_1252
  9
$LASTSAVEDBY
  1
smeet sangani
  9
$REQUIREDVERSIONS
160
                 0
  9
$INSBASE
 10
0.0
 20
0.0
 30
0.0
  9
$EXTMIN
 10
1936.574556541882
 20
980.724975143603
 30
0.0
  9
$EXTMAX
 10
3078.689278787179
 20
2483.777735109163
 30
0.0
  9
$LIMMIN
 10
0.0
 20
0.0
  9
$LIMMAX
 10
420.0
 20
297.0
  9
$ORTHOMODE
 70
     0
  9
$REGENMODE
 70
     1
  9
$FILLMODE
 70
     1
  9
$QTEXTMODE
 70
     0
  9
$MIRRTEXT
 70
     0
  9
$LTSCALE
 40
1.0
  9
$ATTMODE
 70
     1
  9
$TEXTSIZE
 40
2.5
  9
$TRACEWID
 40
1.0
  9
$TEXTSTYLE
  7
Standard
  9
$CLAYER
  8
0
  9
$CELTYPE
  6
ByLayer
  9
$CECOLOR
 62
   256
  9
$CELTSCALE
 40
1.0
  9
$DISPSILH
 70
     0
  9
$DIMSCALE
 40
1.0
  9
$DIMASZ
 40
2.5
  9
$DIMEXO
 40
0.625
  9
$DIMDLI
 40
3.75
  9
$DIMRND
 40
0.0
  9
$DIMDLE
 40
0.0
  9
$DIMEXE
 40
1.25
  9
$DIMTP
 40
0.0
  9
$DIMTM
 40
0.0
  9
$DIMTXT
 40
2.5
  9
$DIMCEN
 40
2.5
  9
$DIMTSZ
 40
0.0
  9
$DIMTOL
 70
     0
  9
$DIMLIM
 70
     0
  9
$DIMTIH
 70
     0
  9
$DIMTOH
 70
     0
  9
$DIMSE1
 70
     0
  9
$DIMSE2
 70
     0
  9
$DIMTAD
 70
     1
  9
$DIMZIN
 70
     8
  9
$DIMBLK
  1

  9
$DIMASO
 70
     1
  9
$DIMSHO
 70
     1
  9
$DIMPOST
  1

  9
$DIMAPOST
  1

  9
$DIMALT
 70
     0
  9
$DIMALTD
 70
     3
  9
$DIMALTF
 40
0.03937007874016
  9
$DIMLFAC
 40
1.0
  9
$DIMTOFL
 70
     1
  9
$DIMTVP
 40
0.0
  9
$DIMTIX
 70
     0
  9
$DIMSOXD
 70
     0
  9
$DIMSAH
 70
     0
  9
$DIMBLK1
  1

  9
$DIMBLK2
  1

  9
$DIMSTYLE
  2
ISO-25
  9
$DIMCLRD
 70
     0
  9
$DIMCLRE
 70
     0
  9
$DIMCLRT
 70
     0
  9
$DIMTFAC
 40
1.0
  9
$DIMGAP
 40
0.625
  9
$DIMJUST
 70
     0
  9
$DIMSD1
 70
     0
  9
$DIMSD2
 70
     0
  9
$DIMTOLJ
 70
     0
  9
$DIMTZIN
 70
     8
  9
$DIMALTZ
 70
     0
  9
$DIMALTTZ
 70
     0
  9
$DIMUPT
 70
     0
  9
$DIMDEC
 70
     2
  9
$DIMTDEC
 70
     2
  9
$DIMALTU
 70
     2
  9
$DIMALTTD
 70
     3
  9
$DIMTXSTY
  7
Standard
  9
$DIMAUNIT
 70
     0
  9
$DIMADEC
 70
     0
  9
$DIMALTRND
 40
0.0
  9
$DIMAZIN
 70
     0
  9
$DIMDSEP
 70
    44
  9
$DIMATFIT
 70
     3
  9
$DIMFRAC
 70
     0
  9
$DIMLDRBLK
  1

  9
$DIMLUNIT
 70
     2
  9
$DIMLWD
 70
    -2
  9
$DIMLWE
 70
    -2
  9
$DIMTMOVE
 70
     0
  9
$DIMFXL
 40
1.0
  9
$DIMFXLON
 70
     0
  9
$DIMJOGANG
 40
0.7853981633974483
  9
$DIMTFILL
 70
     0
  9
$DIMTFILLCLR
 70
     0
  9
$DIMARCSYM
 70
     0
  9
$DIMLTYPE
  6

  9
$DIMLTEX1
  6

  9
$DIMLTEX2
  6

  9
$DIMTXTDIRECTION
 70
     0
  9
$LUNITS
 70
     2
  9
$LUPREC
 70
     4
  9
$SKETCHINC
 40
1.0
  9
$FILLETRAD
 40
0.0
  9
$AUNITS
 70
     0
  9
$AUPREC
 70
     0
  9
$MENU
  1
.
  9
$ELEVATION
 40
0.0
  9
$PELEVATION
 40
0.0
  9
$THICKNESS
 40
0.0
  9
$LIMCHECK
 70
     0
  9
$CHAMFERA
 40
0.0
  9
$CHAMFERB
 40
0.0
  9
$CHAMFERC
 40
0.0
  9
$CHAMFERD
 40
0.0
  9
$SKPOLY
 70
     0
  9
$TDCREATE
 40
2458965.847314815
  9
$TDUCREATE
 40
2458965.618148148
  9
$TDUPDATE
 40
2458965.848518519
  9
$TDUUPDATE
 40
2458965.619351852
  9
$TDINDWG
 40
0.0012037037
  9
$TDUSRTIMER
 40
0.0012037037
  9
$USRTIMER
 70
     1
  9
$ANGBASE
 50
0.0
  9
$ANGDIR
 70
     0
  9
$PDMODE
 70
     0
  9
$PDSIZE
 40
0.0
  9
$PLINEWID
 40
0.0
  9
$SPLFRAME
 70
     0
  9
$SPLINETYPE
 70
     6
  9
$SPLINESEGS
 70
     8
  9
$HANDSEED
  5
5EF
  9
$SURFTAB1
 70
     6
  9
$SURFTAB2
 70
     6
  9
$SURFTYPE
 70
     6
  9
$SURFU
 70
     6
  9
$SURFV
 70
     6
  9
$UCSBASE
  2

  9
$UCSNAME
  2

  9
$UCSORG
 10
0.0
 20
0.0
 30
0.0
  9
$UCSXDIR
 10
1.0
 20
0.0
 30
0.0
  9
$UCSYDIR
 10
0.0
 20
1.0
 30
0.0
  9
$UCSORTHOREF
  2

  9
$UCSORTHOVIEW
 70
     0
  9
$UCSORGTOP
 10
0.0
 20
0.0
 30
0.0
  9
$UCSORGBOTTOM
 10
0.0
 20
0.0
 30
0.0
  9
$UCSORGLEFT
 10
0.0
 20
0.0
 30
0.0
  9
$UCSORGRIGHT
 10
0.0
 20
0.0
 30
0.0
  9
$UCSORGFRONT
 10
0.0
 20
0.0
 30
0.0
  9
$UCSORGBACK
 10
0.0
 20
0.0
 30
0.0
  9
$PUCSBASE
  2

  9
$PUCSNAME
  2

  9
$PUCSORG
 10
0.0
 20
0.0
 30
0.0
  9
$PUCSXDIR
 10
1.0
 20
0.0
 30
0.0
  9
$PUCSYDIR
 10
0.0
 20
1.0
 30
0.0
  9
$PUCSORTHOREF
  2

  9
$PUCSORTHOVIEW
 70
     0
  9
$PUCSORGTOP
 10
0.0
 20
0.0
 30
0.0
  9
$PUCSORGBOTTOM
 10
0.0
 20
0.0
 30
0.0
  9
$PUCSORGLEFT
 10
0.0
 20
0.0
 30
0.0
  9
$PUCSORGRIGHT
 10
0.0
 20
0.0
 30
0.0
  9
$PUCSORGFRONT
 10
0.0
 20
0.0
 30
0.0
  9
$PUCSORGBACK
 10
0.0
 20
0.0
 30
0.0
  9
$USERI1
 70
     0
  9
$USERI2
 70
     0
  9
$USERI3
 70
     0
  9
$USERI4
 70
     0
  9
$USERI5
 70
     0
  9
$USERR1
 40
0.0
  9
$USERR2
 40
0.0
  9
$USERR3
 40
0.0
  9
$USERR4
 40
0.0
  9
$USERR5
 40
0.0
  9
$WORLDVIEW
 70
     1
  9
$SHADEDGE
 70
     3
  9
$SHADEDIF
 70
    70
  9
$TILEMODE
 70
     1
  9
$MAXACTVP
 70
    64
  9
$PINSBASE
 10
0.0
 20
0.0
 30
0.0
  9
$PLIMCHECK
 70
     0
  9
$PEXTMIN
 10
0.0
 20
0.0
 30
0.0
  9
$PEXTMAX
 10
0.0
 20
0.0
 30
0.0
  9
$PLIMMIN
 10
0.0
 20
0.0
  9
$PLIMMAX
 10
12.0
 20
9.0
  9
$UNITMODE
 70
     0
  9
$VISRETAIN
 70
     1
  9
$PLINEGEN
 70
     0
  9
$PSLTSCALE
 70
     1
  9
$TREEDEPTH
 70
  3020
  9
$CMLSTYLE
  2
Standard
  9
$CMLJUST
 70
     0
  9
$CMLSCALE
 40
20.0
  9
$PROXYGRAPHICS
 70
     1
  9
$MEASUREMENT
 70
     1
  9
$CELWEIGHT
370
    -1
  9
$ENDCAPS
280
     0
  9
$JOINSTYLE
280
     0
  9
$LWDISPLAY
290
     0
  9
$INSUNITS
 70
     4
  9
$HYPERLINKBASE
  1

  9
$STYLESHEET
  1

  9
$XEDIT
290
     1
  9
$CEPSNTYPE
380
     0
  9
$PSTYLEMODE
290
     1
  9
$FINGERPRINTGUID
  2
{899E2B0A-281C-8F46-86D0-CD36AB122AC9}
  9
$VERSIONGUID
  2
{2E3CD685-4886-4844-9BFA-DC8B0A257FD2}
  9
$EXTNAMES
290
     1
  9
$PSVPSCALE
 40
0.0
  9
$OLESTARTUP
290
     0
  9
$SORTENTS
280
   127
  9
$INDEXCTL
280
     0
  9
$HIDETEXT
280
     1
  9
$XCLIPFRAME
280
     2
  9
$HALOGAP
280
     0
  9
$OBSCOLOR
 70
   257
  9
$OBSLTYPE
280
     0
  9
$INTERSECTIONDISPLAY
280
     0
  9
$INTERSECTIONCOLOR
 70
   257
  9
$DIMASSOC
280
     2
  9
$PROJECTNAME
  1

  9
$CAMERADISPLAY
290
     0
  9
$LENSLENGTH
 40
50.0
  9
$CAMERAHEIGHT
 40
0.0
  9
$STEPSPERSEC
 40
2.0
  9
$STEPSIZE
 40
6.0
  9
$3DDWFPREC
 40
2.0
  9
$PSOLWIDTH
 40
5.0
  9
$PSOLHEIGHT
 40
80.0
  9
$LOFTANG1
 40
1.570796326794896
  9
$LOFTANG2
 40
1.570796326794896
  9
$LOFTMAG1
 40
0.0
  9
$LOFTMAG2
 40
0.0
  9
$LOFTPARAM
 70
     7
  9
$LOFTNORMALS
280
     1
  9
$LATITUDE
 40
37.795
  9
$LONGITUDE
 40
-122.394
  9
$NORTHDIRECTION
 40
0.0
  9
$TIMEZONE
 70
 -8000
  9
$LIGHTGLYPHDISPLAY
280
     1
  9
$TILEMODELIGHTSYNCH
280
     1
  9
$CMATERIAL
347
EC
  9
$SOLIDHIST
280
     0
  9
$SHOWHIST
280
     1
  9
$DWFFRAME
280
     2
  9
$DGNFRAME
280
     0
  9
$REALWORLDSCALE
290
     1
  9
$INTERFERECOLOR
 62
     1
  9
$INTERFEREOBJVS
345
F9
  9
$INTERFEREVPVS
346
F6
  9
$CSHADOW
280
     0
  9
$SHADOWPLANELOCATION
 40
0.0
  0
ENDSEC
  0
SECTION
  2
CLASSES
  0
CLASS
  1
ACDBDICTIONARYWDFLT
  2
AcDbDictionaryWithDefault
  3
ObjectDBX Classes
 90
        0
 91
        1
280
     0
281
     0
  0
CLASS
  1
DICTIONARYVAR
  2
AcDbDictionaryVar
  3
ObjectDBX Classes
 90
        0
 91
       11
280
     0
281
     0
  0
CLASS
  1
TABLESTYLE
  2
AcDbTableStyle
  3
ObjectDBX Classes
 90
     4095
 91
        1
280
     0
281
     0
  0
CLASS
  1
MATERIAL
  2
AcDbMaterial
  3
ObjectDBX Classes
 90
     1153
 91
        3
280
     0
281
     0
  0
CLASS
  1
VISUALSTYLE
  2
AcDbVisualStyle
  3
ObjectDBX Classes
 90
     4095
 91
       24
280
     0
281
     0
  0
CLASS
  1
SCALE
  2
AcDbScale
  3
ObjectDBX Classes
 90
     1153
 91
       17
280
     0
281
     0
  0
CLASS
  1
MLEADERSTYLE
  2
AcDbMLeaderStyle
  3
ACDB_MLEADERSTYLE_CLASS
 90
     4095
 91
        2
280
     0
281
     0
  0
CLASS
  1
CELLSTYLEMAP
  2
AcDbCellStyleMap
  3
ObjectDBX Classes
 90
     1152
 91
        1
280
     0
281
     0
  0
CLASS
  1
EXACXREFPANELOBJECT
  2
ExAcXREFPanelObject
  3
EXAC_ESW
 90
     1025
 91
        0
280
     0
281
     0
  0
CLASS
  1
NPOCOLLECTION
  2
AcDbImpNonPersistentObjectsCollection
  3
ObjectDBX Classes
 90
     1153
 91
        0
280
     0
281
     0
  0
CLASS
  1
LAYER_INDEX
  2
AcDbLayerIndex
  3
ObjectDBX Classes
 90
        0
 91
        0
280
     0
281
     0
  0
CLASS
  1
SPATIAL_INDEX
  2
AcDbSpatialIndex
  3
ObjectDBX Classes
 90
        0
 91
        0
280
     0
281
     0
  0
CLASS
  1
IDBUFFER
  2
AcDbIdBuffer
  3
ObjectDBX Classes
 90
        0
 91
        0
280
     0
281
     0
  0
CLASS
  1
ACDBSECTIONVIEWSTYLE
  2
AcDbSectionViewStyle
  3
ObjectDBX Classes
 90
     1025
 91
        1
280
     0
281
     0
  0
CLASS
  1
ACDBDETAILVIEWSTYLE
  2
AcDbDetailViewStyle
  3
ObjectDBX Classes
 90
     1025
 91
        1
280
     0
281
     0
  0
CLASS
  1
DIMASSOC
  2
AcDbDimAssoc
  3
"AcDbDimAssoc|Product Desc:     AcDim ARX App For Dimension|Company:          Autodesk, Inc.|WEB Address:      www.autodesk.com"
 90
        0
 91
        4
280
     0
281
     0
  0
ENDSEC
  0
SECTION
  2
TABLES
  0
TABLE
  2
VPORT
  5
8
330
0
100
AcDbSymbolTable
 70
     1
1001
ACAD
1000
DbSaveVer
1071
       51
  0
VPORT
  5
EA
330
8
100
AcDbSymbolTableRecord
100
AcDbViewportTableRecord
  2
*Active
 70
     0
 10
0.0
 20
0.0
 11
1.0
 21
1.0
 12
2790.908179076375
 22
1384.436460571372
 13
0.0
 23
0.0
 14
10.0
 24
10.0
 15
10.0
 25
10.0
 16
0.0
 26
0.0
 36
1.0
 17
0.0
 27
0.0
 37
0.0
 40
1630.265628588321
 41
2.327649208282582
 42
50.0
 43
0.0
 44
0.0
 50
0.0
 51
0.0
 71
     0
 72
  1000
 73
     1
 74
     3
 75
     0
 76
     1
 77
     0
 78
     0
281
     0
 65
     1
110
0.0
120
0.0
130
0.0
111
1.0
121
0.0
131
0.0
112
0.0
122
1.0
132
0.0
 79
     0
146
0.0
348
F5
 60
     3
 61
     5
292
     1
282
     1
141
0.0
142
0.0
 63
   250
421
  3355443
1001
ACAD_NAV_VCDISPLAY
1070
     3
  0
ENDTAB
  0
TABLE
  2
LTYPE
  5
5
330
0
100
AcDbSymbolTable
 70
     1
  0
LTYPE
  5
14
330
5
100
AcDbSymbolTableRecord
100
AcDbLinetypeTableRecord
  2
ByBlock
 70
     0
  3

 72
    65
 73
     0
 40
0.0
  0
LTYPE
  5
15
330
5
100
AcDbSymbolTableRecord
100
AcDbLinetypeTableRecord
  2
ByLayer
 70
     0
  3

 72
    65
 73
     0
 40
0.0
  0
LTYPE
  5
16
330
5
100
AcDbSymbolTableRecord
100
AcDbLinetypeTableRecord
  2
Continuous
 70
     0
  3
Solid line
 72
    65
 73
     0
 40
0.0
  0
ENDTAB
  0
TABLE
  2
LAYER
  5
2
102
{ACAD_XDICTIONARY
360
1FF
102
}
330
0
100
AcDbSymbolTable
 70
     3
  0
LAYER
  5
10
102
{ACAD_XDICTIONARY
360
13C
102
}
330
2
100
AcDbSymbolTableRecord
100
AcDbLayerTableRecord
  2
0
 70
     0
 62
     7
  6
Continuous
370
    -3
390
F
347
EE
348
0
  0
LAYER
  5
28D
330
2
100
AcDbSymbolTableRecord
100
AcDbLayerTableRecord
  2
Defpoints
 70
     0
 62
     7
  6
Continuous
290
     0
370
    -3
390
F
347
EE
348
0
  0
LAYER
  5
28E
330
2
100
AcDbSymbolTableRecord
100
AcDbLayerTableRecord
  2
groove
 70
     0
 62
    10
  6
Continuous
370
    -3
390
F
347
EE
348
0
1001
AcAecLayerStandard
1000

1000

1001
AcCmTransparency
1071
        0
  0
ENDTAB
  0
TABLE
  2
STYLE
  5
3
330
0
100
AcDbSymbolTable
 70
     2
  0
STYLE
  5
11
330
3
100
AcDbSymbolTableRecord
100
AcDbTextStyleTableRecord
  2
Standard
 70
     0
 40
0.0
 41
1.0
 50
0.0
 71
     0
 42
2.5
  3
arial.ttf
  4

1001
ACAD
1000
Arial
1071
       34
  0
STYLE
  5
132
330
3
100
AcDbSymbolTableRecord
100
AcDbTextStyleTableRecord
  2
Annotative
 70
     0
 40
0.0
 41
1.0
 50
0.0
 71
     0
 42
2.5
  3
arial.ttf
  4

1001
AcadAnnotative
1000
AnnotativeData
1002
{
1070
     1
1070
     1
1002
}
1001
ACAD
1000
Arial
1071
       34
  0
ENDTAB
  0
TABLE
  2
VIEW
  5
6
330
0
100
AcDbSymbolTable
 70
     0
  0
ENDTAB
  0
TABLE
  2
UCS
  5
7
330
0
100
AcDbSymbolTable
 70
     0
  0
ENDTAB
  0
TABLE
  2
APPID
  5
9
330
0
100
AcDbSymbolTable
 70
    10
  0
APPID
  5
12
330
9
100
AcDbSymbolTableRecord
100
AcDbRegAppTableRecord
  2
ACAD
 70
     0
  0
APPID
  5
9E
330
9
100
AcDbSymbolTableRecord
100
AcDbRegAppTableRecord
  2
ACAD_PSEXT
 70
     0
  0
APPID
  5
133
330
9
100
AcDbSymbolTableRecord
100
AcDbRegAppTableRecord
  2
AcadAnnoPO
 70
     0
  0
APPID
  5
134
330
9
100
AcDbSymbolTableRecord
100
AcDbRegAppTableRecord
  2
AcadAnnotative
 70
     0
  0
APPID
  5
135
330
9
100
AcDbSymbolTableRecord
100
AcDbRegAppTableRecord
  2
ACAD_DSTYLE_DIMJAG
 70
     0
  0
APPID
  5
136
330
9
100
AcDbSymbolTableRecord
100
AcDbRegAppTableRecord
  2
ACAD_DSTYLE_DIMTALN
 70
     0
  0
APPID
  5
165
330
9
100
AcDbSymbolTableRecord
100
AcDbRegAppTableRecord
  2
ACAD_MLEADERVER
 70
     0
  0
APPID
  5
217
330
9
100
AcDbSymbolTableRecord
100
AcDbRegAppTableRecord
  2
ACAD_NAV_VCDISPLAY
 70
     0
  0
APPID
  5
28F
330
9
100
AcDbSymbolTableRecord
100
AcDbRegAppTableRecord
  2
AcAecLayerStandard
 70
     0
  0
APPID
  5
290
330
9
100
AcDbSymbolTableRecord
100
AcDbRegAppTableRecord
  2
AcCmTransparency
 70
     0
  0
ENDTAB
  0
TABLE
  2
DIMSTYLE
  5
A
330
0
100
AcDbSymbolTable
 70
     3
100
AcDbDimStyleTable
 71
     2
340
27
340
137
  0
DIMSTYLE
105
1B0
330
A
100
AcDbSymbolTableRecord
100
AcDbDimStyleTableRecord
  2
Standard
 70
     0
340
11
  0
DIMSTYLE
105
137
330
A
100
AcDbSymbolTableRecord
100
AcDbDimStyleTableRecord
  2
Annotative
 70
     0
 40
0.0
 41
2.5
 42
0.625
 43
3.75
 44
1.25
 73
     0
 74
     0
 77
     1
 78
     8
140
2.5
141
2.5
143
0.03937007874016
147
0.625
171
     3
172
     1
271
     2
272
     2
274
     3
278
    44
283
     0
284
     8
340
11
1001
AcadAnnotative
1000
AnnotativeData
1002
{
1070
     1
1070
     1
1002
}
1001
ACAD_DSTYLE_DIMJAG
1070
   388
1040
1.5
1001
ACAD_DSTYLE_DIMTALN
1070
   392
1070
     0
  0
DIMSTYLE
105
27
102
{ACAD_REACTORS
330
53C
330
53F
102
}
330
A
100
AcDbSymbolTableRecord
100
AcDbDimStyleTableRecord
  2
ISO-25
 70
     0
 41
2.5
 42
0.625
 43
3.75
 44
1.25
 73
     0
 74
     0
 77
     1
 78
     8
140
2.5
141
2.5
143
0.03937007874016
147
0.625
171
     3
172
     1
271
     2
272
     2
274
     3
278
    44
283
     0
284
     8
340
11
  0
ENDTAB
  0
TABLE
  2
BLOCK_RECORD
  5
1
330
0
100
AcDbSymbolTable
 70
     6
  0
BLOCK_RECORD
  5
1F
102
{ACAD_XDICTIONARY
360
1CE
102
}
330
1
100
AcDbSymbolTableRecord
100
AcDbBlockTableRecord
  2
*Model_Space
340
22
 70
     0
280
     1
281
     0
  0
BLOCK_RECORD
  5
D2
330
1
100
AcDbSymbolTableRecord
100
AcDbBlockTableRecord
  2
*Paper_Space
340
D3
 70
     0
280
     1
281
     0
  0
BLOCK_RECORD
  5
D6
330
1
100
AcDbSymbolTableRecord
100
AcDbBlockTableRecord
  2
*Paper_Space0
340
D7
 70
     0
280
     1
281
     0
  0
BLOCK_RECORD
  5
275
330
1
100
AcDbSymbolTableRecord
100
AcDbBlockTableRecord
  2
*D1
340
0
 70
     0
280
     1
281
     0
  0
BLOCK_RECORD
  5
281
330
1
100
AcDbSymbolTableRecord
100
AcDbBlockTableRecord
  2
*D2
340
0
 70
     0
280
     1
281
     0
  0
BLOCK_RECORD
  5
5C9
330
1
100
AcDbSymbolTableRecord
100
AcDbBlockTableRecord
  2
*D4
340
0
 70
     0
280
     1
281
     0
  0
BLOCK_RECORD
  5
5D5
330
1
100
AcDbSymbolTableRecord
100
AcDbBlockTableRecord
  2
*D5
340
0
 70
     0
280
     1
281
     0
  0
ENDTAB
  0
ENDSEC
  0
SECTION
  2
BLOCKS
  0
BLOCK
  5
20
330
1F
100
AcDbEntity
  8
0
100
AcDbBlockBegin
  2
*Model_Space
 70
     0
 10
0.0
 20
0.0
 30
0.0
  3
*Model_Space
  1

  0
ENDBLK
  5
21
330
1F
100
AcDbEntity
  8
0
100
AcDbBlockEnd
  0
BLOCK
  5
D4
330
D2
100
AcDbEntity
 67
     1
  8
0
100
AcDbBlockBegin
  2
*Paper_Space
 70
     0
 10
0.0
 20
0.0
 30
0.0
  3
*Paper_Space
  1

  0
ENDBLK
  5
D5
330
D2
100
AcDbEntity
 67
     1
  8
0
100
AcDbBlockEnd
  0
BLOCK
  5
D8
330
D6
100
AcDbEntity
 67
     1
  8
0
100
AcDbBlockBegin
  2
*Paper_Space0
 70
     0
 10
0.0
 20
0.0
 30
0.0
  3
*Paper_Space0
  1

  0
ENDBLK
  5
D9
330
D6
100
AcDbEntity
 67
     1
  8
0
100
AcDbBlockEnd
  0
BLOCK
  5
276
330
275
100
AcDbEntity
  8
0
100
AcDbBlockBegin
  2
*D1
 70
     1
 10
0.0
 20
0.0
 30
0.0
  3
*D1
  1

  0
LINE
  5
277
330
275
100
AcDbEntity
  8
groove
 62
     0
440
 16777216
370
    -2
100
AcDbLine
 10
2440.824126006051
 20
1788.50549377071
 30
0.0
 11
2460.139240204529
 21
1788.603009488699
 31
0.0
  0
LINE
  5
278
330
275
100
AcDbEntity
  8
groove
 62
     0
440
 16777216
370
    -2
100
AcDbLine
 10
2441.177533197389
 20
1718.50549377071
 30
0.0
 11
2460.492647395867
 21
1718.6030094887
 31
0.0
  0
LINE
  5
279
330
275
100
AcDbEntity
  8
groove
 62
     0
440
 16777216
370
    -2
100
AcDbLine
 10
2458.901877659469
 20
1786.096730587204
 30
0.0
 11
2459.230041801706
 21
1721.096666865645
 31
0.0
  0
SOLID
  5
27A
330
275
100
AcDbEntity
  8
groove
 62
     0
440
 16777216
100
AcDbTrace
 10
2459.318539016005
 20
1786.098834174629
 30
0.0
 11
2458.485216302932
 21
1786.094626999779
 31
0.0
 12
2458.889256134918
 22
1788.596698726425
 32
0.0
 13
2458.889256134918
 23
1788.596698726425
 33
0.0
  0
SOLID
  5
27B
330
275
100
AcDbEntity
  8
groove
 62
     0
440
 16777216
100
AcDbTrace
 10
2459.646703158244
 20
1721.09877045307
 30
0.0
 11
2458.81338044517
 21
1721.09456327822
 31
0.0
 12
2459.242663326256
 22
1718.596698726425
 32
0.0
 13
2459.242663326256
 23
1718.596698726425
 33
0.0
  0
MTEXT
  5
27C
330
275
100
AcDbEntity
  8
groove
 62
     0
440
 16777216
100
AcDbMText
 10
2460.967367967445
 20
1753.606298317061
 30
0.0
 40
2.5
 41
0.0
 46
0.0
 71
     5
 72
     1
  1
70
 11
0.0050486098200971
 21
-0.9999872556882333
 31
0.0
 73
     1
 44
1.0
  0
POINT
  5
27D
330
275
100
AcDbEntity
  8
Defpoints
 62
     0
440
 16777216
100
AcDbPoint
 10
2440.199133971245
 20
1788.502338389573
 30
0.0
  0
POINT
  5
27E
330
275
100
AcDbEntity
  8
Defpoints
 62
     0
440
 16777216
100
AcDbPoint
 10
2440.552541162583
 20
1718.502338389573
 30
0.0
  0
POINT
  5
27F
330
275
100
AcDbEntity
  8
Defpoints
 62
     0
440
 16777216
100
AcDbPoint
 10
2459.242663326256
 20
1718.596698726425
 30
0.0
  0
ENDBLK
  5
280
330
275
100
AcDbEntity
  8
0
100
AcDbBlockEnd
  0
BLOCK
  5
282
330
281
100
AcDbEntity
  8
0
100
AcDbBlockBegin
  2
*D2
 70
     1
 10
0.0
 20
0.0
 30
0.0
  3
*D2
  1

  0
LINE
  5
283
330
281
100
AcDbEntity
  8
groove
 62
     0
440
 16777216
370
    -2
100
AcDbLine
 10
2320.199133971246
 20
1789.127338389573
 30
0.0
 11
2320.199133971246
 21
1797.854267890771
 31
0.0
  0
LINE
  5
284
330
281
100
AcDbEntity
  8
groove
 62
     0
440
 16777216
370
    -2
100
AcDbLine
 10
2440.199133971246
 20
1789.127338389573
 30
0.0
 11
2440.199133971246
 21
1797.854267890771
 31
0.0
  0
LINE
  5
285
330
281
100
AcDbEntity
  8
groove
 62
     0
440
 16777216
370
    -2
100
AcDbLine
 10
2322.699133971246
 20
1796.604267890771
 30
0.0
 11
2437.699133971246
 21
1796.604267890771
 31
0.0
  0
SOLID
  5
286
330
281
100
AcDbEntity
  8
groove
 62
     0
440
 16777216
100
AcDbTrace
 10
2322.699133971246
 20
1797.020934557437
 30
0.0
 11
2322.699133971246
 21
1796.187601224104
 31
0.0
 12
2320.199133971246
 22
1796.604267890771
 32
0.0
 13
2320.199133971246
 23
1796.604267890771
 33
0.0
  0
SOLID
  5
287
330
281
100
AcDbEntity
  8
groove
 62
     0
440
 16777216
100
AcDbTrace
 10
2437.699133971246
 20
1797.020934557437
 30
0.0
 11
2437.699133971246
 21
1796.187601224104
 31
0.0
 12
2440.199133971246
 22
1796.604267890771
 32
0.0
 13
2440.199133971246
 23
1796.604267890771
 33
0.0
  0
MTEXT
  5
288
330
281
100
AcDbEntity
  8
groove
 62
     0
440
 16777216
100
AcDbMText
 10
2380.199133971246
 20
1798.505700360075
 30
0.0
 40
2.5
 41
0.0
 46
0.0
 71
     5
 72
     1
  1
120
 73
     1
 44
1.0
  0
POINT
  5
289
330
281
100
AcDbEntity
  8
Defpoints
 62
     0
440
 16777216
100
AcDbPoint
 10
2320.199133971246
 20
1788.502338389573
 30
0.0
  0
POINT
  5
28A
330
281
100
AcDbEntity
  8
Defpoints
 62
     0
440
 16777216
100
AcDbPoint
 10
2440.199133971246
 20
1788.502338389573
 30
0.0
  0
POINT
  5
28B
330
281
100
AcDbEntity
  8
Defpoints
 62
     0
440
 16777216
100
AcDbPoint
 10
2440.199133971246
 20
1796.604267890771
 30
0.0
  0
ENDBLK
  5
28C
330
281
100
AcDbEntity
  8
0
100
AcDbBlockEnd
  0
BLOCK
  5
5CA
330
5C9
100
AcDbEntity
  8
0
100
AcDbBlockBegin
  2
*D4
 70
     1
 10
0.0
 20
0.0
 30
0.0
  3
*D4
  1

  0
LINE
  5
5CC
330
5C9
100
AcDbEntity
  8
groove
 62
     0
440
 16777216
370
    -2
100
AcDbLine
 10
2057.199548576687
 20
1527.274180835642
 30
0.0
 11
2076.514662775164
 21
1527.371696553632
 31
0.0
  0
LINE
  5
5CD
330
5C9
100
AcDbEntity
  8
groove
 62
     0
440
 16777216
370
    -2
100
AcDbLine
 10
2057.552955768025
 20
1457.274180835642
 30
0.0
 11
2076.868069966502
 21
1457.371696553632
 31
0.0
  0
LINE
  5
5CE
330
5C9
100
AcDbEntity
  8
groove
 62
     0
440
 16777216
370
    -2
100
AcDbLine
 10
2075.277300230104
 20
1524.865417652136
 30
0.0
 11
2075.605464372341
 21
1459.865353930577
 31
0.0
  0
SOLID
  5
5CF
330
5C9
100
AcDbEntity
  8
groove
 62
     0
440
 16777216
100
AcDbTrace
 10
2075.69396158664
 20
1524.867521239561
 30
0.0
 11
2074.860638873567
 21
1524.863314064711
 31
0.0
 12
2075.264678705554
 22
1527.365385791357
 32
0.0
 13
2075.264678705554
 23
1527.365385791357
 33
0.0
  0
SOLID
  5
5D0
330
5C9
100
AcDbEntity
  8
groove
 62
     0
440
 16777216
100
AcDbTrace
 10
2076.022125728878
 20
1459.867457518002
 30
0.0
 11
2075.188803015805
 21
1459.863250343152
 31
0.0
 12
2075.618085896892
 22
1457.365385791356
 32
0.0
 13
2075.618085896892
 23
1457.365385791356
 33
0.0
  0
MTEXT
  5
5D1
330
5C9
100
AcDbEntity
  8
groove
 62
     0
440
 16777216
100
AcDbMText
 10
2077.342790538079
 20
1492.374985381993
 30
0.0
 40
2.5
 41
0.0
 46
0.0
 71
     5
 72
     1
  1
70
 11
0.0050486098200971
 21
-0.9999872556882333
 31
0.0
 73
     1
 44
1.0
  0
POINT
  5
5D2
330
5C9
100
AcDbEntity
  8
Defpoints
 62
     0
440
 16777216
100
AcDbPoint
 10
2056.574556541882
 20
1527.271025454505
 30
0.0
  0
POINT
  5
5D3
330
5C9
100
AcDbEntity
  8
Defpoints
 62
     0
440
 16777216
100
AcDbPoint
 10
2056.927963733219
 20
1457.271025454504
 30
0.0
  0
POINT
  5
5D4
330
5C9
100
AcDbEntity
  8
Defpoints
 62
     0
440
 16777216
100
AcDbPoint
 10
2075.618085896892
 20
1457.365385791356
 30
0.0
  0
ENDBLK
  5
5CB
330
5C9
100
AcDbEntity
  8
0
100
AcDbBlockEnd
  0
BLOCK
  5
5D6
330
5D5
100
AcDbEntity
  8
0
100
AcDbBlockBegin
  2
*D5
 70
     1
 10
0.0
 20
0.0
 30
0.0
  3
*D5
  1

  0
LINE
  5
5D8
330
5D5
100
AcDbEntity
  8
groove
 62
     0
440
 16777216
370
    -2
100
AcDbLine
 10
1936.574556541882
 20
1527.896025454505
 30
0.0
 11
1936.574556541882
 21
1536.622954955703
 31
0.0
  0
LINE
  5
5D9
330
5D5
100
AcDbEntity
  8
groove
 62
     0
440
 16777216
370
    -2
100
AcDbLine
 10
2056.574556541882
 20
1527.896025454505
 30
0.0
 11
2056.574556541882
 21
1536.622954955703
 31
0.0
  0
LINE
  5
5DA
330
5D5
100
AcDbEntity
  8
groove
 62
     0
440
 16777216
370
    -2
100
AcDbLine
 10
1939.074556541882
 20
1535.372954955703
 30
0.0
 11
2054.074556541882
 21
1535.372954955703
 31
0.0
  0
SOLID
  5
5DB
330
5D5
100
AcDbEntity
  8
groove
 62
     0
440
 16777216
100
AcDbTrace
 10
1939.074556541882
 20
1535.78962162237
 30
0.0
 11
1939.074556541882
 21
1534.956288289036
 31
0.0
 12
1936.574556541882
 22
1535.372954955703
 32
0.0
 13
1936.574556541882
 23
1535.372954955703
 33
0.0
  0
SOLID
  5
5DC
330
5D5
100
AcDbEntity
  8
groove
 62
     0
440
 16777216
100
AcDbTrace
 10
2054.074556541882
 20
1535.78962162237
 30
0.0
 11
2054.074556541882
 21
1534.956288289036
 31
0.0
 12
2056.574556541882
 22
1535.372954955703
 32
0.0
 13
2056.574556541882
 23
1535.372954955703
 33
0.0
  0
MTEXT
  5
5DD
330
5D5
100
AcDbEntity
  8
groove
 62
     0
440
 16777216
100
AcDbMText
 10
1996.574556541882
 20
1537.274387425007
 30
0.0
 40
2.5
 41
0.0
 46
0.0
 71
     5
 72
     1
  1
120
 73
     1
 44
1.0
  0
POINT
  5
5DE
330
5D5
100
AcDbEntity
  8
Defpoints
 62
     0
440
 16777216
100
AcDbPoint
 10
1936.574556541882
 20
1527.271025454505
 30
0.0
  0
POINT
  5
5DF
330
5D5
100
AcDbEntity
  8
Defpoints
 62
     0
440
 16777216
100
AcDbPoint
 10
2056.574556541882
 20
1527.271025454505
 30
0.0
  0
POINT
  5
5E0
330
5D5
100
AcDbEntity
  8
Defpoints
 62
     0
440
 16777216
100
AcDbPoint
 10
2056.574556541882
 20
1535.372954955703
 30
0.0
  0
ENDBLK
  5
5D7
330
5D5
100
AcDbEntity
  8
0
100
AcDbBlockEnd
  0
ENDSEC
  0
SECTION
  2
ENTITIES
  0
POLYLINE
  5
430
330
1F
100
AcDbEntity
  8
0
 62
   139
370
     0
100
AcDb2dPolyline
 66
     1
 10
0.0
 20
0.0
 30
0.0
  0
VERTEX
  5
431
330
430
100
AcDbEntity
  8
0
 62
   139
370
     0
100
AcDbVertex
100
AcDb2dVertex
 10
1944.794311383639
 20
1471.841800821341
 30
0.0
  0
VERTEX
  5
432
330
430
100
AcDbEntity
  8
0
 62
   139
370
     0
100
AcDbVertex
100
AcDb2dVertex
 10
1945.957550235359
 20
1470.649112884766
 30
0.0
  0
VERTEX
  5
433
330
430
100
AcDbEntity
  8
0
 62
   139
370
     0
100
AcDbVertex
100
AcDb2dVertex
 10
1947.20913634164
 20
1469.618394914886
 30
0.0
  0
VERTEX
  5
434
330
430
100
AcDbEntity
  8
0
 62
   139
370
     0
100
AcDbVertex
100
AcDb2dVertex
 10
1948.563794244909
 20
1468.734922369277
 30
0.0
  0
VERTEX
  5
435
330
430
100
AcDbEntity
  8
0
 62
   139
370
     0
100
AcDbVertex
100
AcDb2dVertex
 10
1950.021523945167
 20
1468.028144332788
 30
0.0
  0
VERTEX
  5
436
330
430
100
AcDbEntity
  8
0
 62
   139
370
     0
100
AcDbVertex
100
AcDb2dVertex
 10
1951.567600899985
 20
1467.468611720568
 30
0.0
  0
VERTEX
  5
437
330
430
100
AcDbEntity
  8
0
 62
   139
370
     0
100
AcDbVertex
100
AcDb2dVertex
 10
1953.202025109364
 20
1467.071049075043
 30
0.0
  0
VERTEX
  5
438
330
430
100
AcDbEntity
  8
0
 62
   139
370
     0
100
AcDbVertex
100
AcDb2dVertex
 10
1954.939521115731
 20
1466.835456396214
 30
0.0
  0
VERTEX
  5
439
330
430
100
AcDbEntity
  8
0
 62
   139
370
     0
100
AcDbVertex
100
AcDb2dVertex
 10
1956.780088919085
 20
1466.747109141653
 30
0.0
  0
VERTEX
  5
43A
330
430
100
AcDbEntity
  8
0
 62
   139
370
     0
100
AcDbVertex
100
AcDb2dVertex
 10
1957.339621531307
 20
1466.761833684081
 30
0.0
  0
VERTEX
  5
43B
330
430
100
AcDbEntity
  8
0
 62
   139
370
     0
100
AcDbVertex
100
AcDb2dVertex
 10
1959.165464792234
 20
1466.894354565922
 30
0.0
  0
VERTEX
  5
43C
330
430
100
AcDbEntity
  8
0
 62
   139
370
     0
100
AcDbVertex
100
AcDb2dVertex
 10
1960.902960798601
 20
1467.188845414458
 30
0.0
  0
VERTEX
  5
43D
330
430
100
AcDbEntity
  8
0
 62
   139
370
     0
100
AcDbVertex
100
AcDb2dVertex
 10
1962.522660465553
 20
1467.64530622969
 30
0.0
  0
VERTEX
  5
43E
330
430
100
AcDbEntity
  8
0
 62
   139
370
     0
100
AcDbVertex
100
AcDb2dVertex
 10
1964.054012877944
 20
1468.263737011617
 30
0.0
  0
VERTEX
  5
43F
330
430
100
AcDbEntity
  8
0
 62
   139
370
     0
100
AcDbVertex
100
AcDb2dVertex
 10
1965.467568950921
 20
1469.058862302667
 30
0.0
  0
VERTEX
  5
440
330
430
100
AcDbEntity
  8
0
 62
   139
370
     0
100
AcDbVertex
100
AcDb2dVertex
 10
1966.778053226908
 20
1470.015957560411
 30
0.0
  0
VERTEX
  5
441
330
430
100
AcDbEntity
  8
0
 62
   139
370
     0
100
AcDbVertex
100
AcDb2dVertex
 10
1967.322861296702
 20
1470.472418375643
 30
0.0
  0
VERTEX
  5
442
330
430
100
AcDbEntity
  8
0
 62
   139
370
     0
100
AcDbVertex
100
AcDb2dVertex
 10
1968.456651063569
 20
1471.591483600083
 30
0.0
  0
VERTEX
  5
443
330
430
100
AcDbEntity
  8
0
 62
   139
370
     0
100
AcDbVertex
100
AcDb2dVertex
 10
1969.487369033448
 20
1472.857794248791
 30
0.0
  0
VERTEX
  5
444
330
430
100
AcDbEntity
  8
0
 62
   139
370
     0
100
AcDbVertex
100
AcDb2dVertex
 10
1970.429739748765
 20
1474.241901236915
 30
0.0
  0
VERTEX
  5
445
330
430
100
AcDbEntity
  8
0
 62
   139
370
     0
100
AcDbVertex
100
AcDb2dVertex
 10
1971.283763209522
 20
1475.773253649305
 30
0.0
  0
VERTEX
  5
446
330
430
100
AcDbEntity
  8
0
 62
   139
370
     0
100
AcDbVertex
100
AcDb2dVertex
 10
1972.049439415719
 20
1477.422402401111
 30
0.0
  0
VERTEX
  5
447
330
430
100
AcDbEntity
  8
0
 62
   139
370
     0
100
AcDbVertex
100
AcDb2dVertex
 10
1972.712043824926
 20
1479.204072034759
 30
0.0
  0
VERTEX
  5
448
330
430
100
AcDbEntity
  8
0
 62
   139
370
     0
100
AcDbVertex
100
AcDb2dVertex
 10
1972.756217452206
 20
1479.3365929166
 30
0.0
  0
VERTEX
  5
449
330
430
100
AcDbEntity
  8
0
 62
   139
370
     0
100
AcDbVertex
100
AcDb2dVertex
 10
1973.153780097731
 20
1480.705975362296
 30
0.0
  0
VERTEX
  5
44A
330
430
100
AcDbEntity
  8
0
 62
   139
370
     0
100
AcDbVertex
100
AcDb2dVertex
 10
1973.521893658402
 20
1482.148980520127
 30
0.0
  0
VERTEX
  5
44B
330
430
100
AcDbEntity
  8
0
 62
   139
370
     0
100
AcDbVertex
100
AcDb2dVertex
 10
1973.831109049365
 20
1483.680332932518
 30
0.0
  0
VERTEX
  5
44C
330
430
100
AcDbEntity
  8
0
 62
   139
370
     0
100
AcDbVertex
100
AcDb2dVertex
 10
1974.096150813048
 20
1485.314757141898
 30
0.0
  0
VERTEX
  5
44D
330
430
100
AcDbEntity
  8
0
 62
   139
370
     0
100
AcDbVertex
100
AcDb2dVertex
 10
1974.317018949451
 20
1487.037528605837
 30
0.0
  0
VERTEX
  5
44E
330
430
100
AcDbEntity
  8
0
 62
   139
370
     0
100
AcDbVertex
100
AcDb2dVertex
 10
1974.478988916146
 20
1488.833922781912
 30
0.0
  0
VERTEX
  5
44F
330
430
100
AcDbEntity
  8
0
 62
   139
370
     0
100
AcDbVertex
100
AcDb2dVertex
 10
1974.596785255561
 20
1490.733388754974
 30
0.0
  0
VERTEX
  5
450
330
430
100
AcDbEntity
  8
0
 62
   139
370
     0
100
AcDbVertex
100
AcDb2dVertex
 10
1974.670407967695
 20
1492.735926525025
 30
0.0
  0
VERTEX
  5
451
330
430
100
AcDbEntity
  8
0
 62
   139
370
     0
100
AcDbVertex
100
AcDb2dVertex
 10
1974.699857052549
 20
1494.812087007208
 30
0.0
  0
VERTEX
  5
452
330
430
100
AcDbEntity
  8
0
 62
   139
370
     0
100
AcDbVertex
100
AcDb2dVertex
 10
1974.685132510122
 20
1495.975325858928
 30
0.0
  0
VERTEX
  5
453
330
430
100
AcDbEntity
  8
0
 62
   139
370
     0
100
AcDbVertex
100
AcDb2dVertex
 10
1974.640958882842
 20
1498.022037256259
 30
0.0
  0
VERTEX
  5
454
330
430
100
AcDbEntity
  8
0
 62
   139
370
     0
100
AcDbVertex
100
AcDb2dVertex
 10
1974.552611628281
 20
1499.950952314175
 30
0.0
  0
VERTEX
  5
455
330
430
100
AcDbEntity
  8
0
 62
   139
370
     0
100
AcDbVertex
100
AcDb2dVertex
 10
1974.420090746439
 20
1501.762071032676
 30
0.0
  0
VERTEX
  5
456
330
430
100
AcDbEntity
  8
0
 62
   139
370
     0
100
AcDbVertex
100
AcDb2dVertex
 10
1974.243396237317
 20
1503.455393411763
 30
0.0
  0
VERTEX
  5
457
330
430
100
AcDbEntity
  8
0
 62
   139
370
     0
100
AcDbVertex
100
AcDb2dVertex
 10
1974.022528100914
 20
1505.030919451435
 30
0.0
  0
VERTEX
  5
458
330
430
100
AcDbEntity
  8
0
 62
   139
370
     0
100
AcDbVertex
100
AcDb2dVertex
 10
1973.757486337231
 20
1506.488649151692
 30
0.0
  0
VERTEX
  5
459
330
430
100
AcDbEntity
  8
0
 62
   139
370
     0
100
AcDbVertex
100
AcDb2dVertex
 10
1973.462995488694
 20
1507.828582512534
 30
0.0
  0
VERTEX
  5
45A
330
430
100
AcDbEntity
  8
0
 62
   139
370
     0
100
AcDbVertex
100
AcDb2dVertex
 10
1973.38937277656
 20
1508.064175191363
 30
0.0
  0
VERTEX
  5
45B
330
430
100
AcDbEntity
  8
0
 62
   139
370
     0
100
AcDbVertex
100
AcDb2dVertex
 10
1972.859289249195
 20
1509.875293909865
 30
0.0
  0
VERTEX
  5
45C
330
430
100
AcDbEntity
  8
0
 62
   139
370
     0
100
AcDbVertex
100
AcDb2dVertex
 10
1972.27030755212
 20
1511.568616288951
 30
0.0
  0
VERTEX
  5
45D
330
430
100
AcDbEntity
  8
0
 62
   139
370
     0
100
AcDbVertex
100
AcDb2dVertex
 10
1971.592978600486
 20
1513.15886687105
 30
0.0
  0
VERTEX
  5
45E
330
430
100
AcDbEntity
  8
0
 62
   139
370
     0
100
AcDbVertex
100
AcDb2dVertex
 10
1970.856751479144
 20
1514.631321113734
 30
0.0
  0
VERTEX
  5
45F
330
430
100
AcDbEntity
  8
0
 62
   139
370
     0
100
AcDbVertex
100
AcDb2dVertex
 10
1970.046901645668
 20
1516.00070355943
 30
0.0
  0
VERTEX
  5
460
330
430
100
AcDbEntity
  8
0
 62
   139
370
     0
100
AcDbVertex
100
AcDb2dVertex
 10
1969.619889915289
 20
1516.619134341357
 30
0.0
  0
VERTEX
  5
461
330
430
100
AcDbEntity
  8
0
 62
   139
370
     0
100
AcDbVertex
100
AcDb2dVertex
 10
1968.530273775703
 20
1517.988516787053
 30
0.0
  0
SEQEND
  5
462
330
430
100
AcDbEntity
  8
0
 62
   139
370
     0
  0
POLYLINE
  5
463
330
1F
100
AcDbEntity
  8
0
 62
   139
370
     0
100
AcDb2dPolyline
 66
     1
 10
0.0
 20
0.0
 30
0.0
  0
VERTEX
  5
464
330
463
100
AcDbEntity
  8
0
 62
   139
370
     0
100
AcDbVertex
100
AcDb2dVertex
 10
1956.691741664526
 20
1517.311187835418
 30
0.0
  0
VERTEX
  5
465
330
463
100
AcDbEntity
  8
0
 62
   139
370
     0
100
AcDbVertex
100
AcDb2dVertex
 10
1957.766633261684
 20
1517.267014208138
 30
0.0
  0
VERTEX
  5
466
330
463
100
AcDbEntity
  8
0
 62
   139
370
     0
100
AcDbVertex
100
AcDb2dVertex
 10
1959.32743475893
 20
1516.943074274747
 30
0.0
  0
VERTEX
  5
467
330
463
100
AcDbEntity
  8
0
 62
   139
370
     0
100
AcDbVertex
100
AcDb2dVertex
 10
1960.785164459187
 20
1516.339368035247
 30
0.0
  0
VERTEX
  5
468
330
463
100
AcDbEntity
  8
0
 62
   139
370
     0
100
AcDbVertex
100
AcDb2dVertex
 10
1962.154546904882
 20
1515.455895489637
 30
0.0
  0
VERTEX
  5
469
330
463
100
AcDbEntity
  8
0
 62
   139
370
     0
100
AcDbVertex
100
AcDb2dVertex
 10
1963.435582096017
 20
1514.292656637916
 30
0.0
  0
VERTEX
  5
46A
330
463
100
AcDbEntity
  8
0
 62
   139
370
     0
100
AcDbVertex
100
AcDb2dVertex
 10
1964.613545490164
 20
1512.849651480086
 30
0.0
  0
VERTEX
  5
46B
330
463
100
AcDbEntity
  8
0
 62
   139
370
     0
100
AcDbVertex
100
AcDb2dVertex
 10
1965.055281762969
 20
1512.142873443598
 30
0.0
  0
VERTEX
  5
46C
330
463
100
AcDbEntity
  8
0
 62
   139
370
     0
100
AcDbVertex
100
AcDb2dVertex
 10
1965.570640747909
 20
1511.126880016146
 30
0.0
  0
VERTEX
  5
46D
330
463
100
AcDbEntity
  8
0
 62
   139
370
     0
100
AcDbVertex
100
AcDb2dVertex
 10
1966.027101563141
 20
1509.934192079572
 30
0.0
  0
VERTEX
  5
46E
330
463
100
AcDbEntity
  8
0
 62
   139
370
     0
100
AcDbVertex
100
AcDb2dVertex
 10
1966.439388751092
 20
1508.59425871873
 30
0.0
  0
VERTEX
  5
46F
330
463
100
AcDbEntity
  8
0
 62
   139
370
     0
100
AcDbVertex
100
AcDb2dVertex
 10
1966.778053226908
 20
1507.092355391192
 30
0.0
  0
VERTEX
  5
470
330
463
100
AcDbEntity
  8
0
 62
   139
370
     0
100
AcDbVertex
100
AcDb2dVertex
 10
1967.087268617873
 20
1505.443206639386
 30
0.0
  0
VERTEX
  5
471
330
463
100
AcDbEntity
  8
0
 62
   139
370
     0
100
AcDbVertex
100
AcDb2dVertex
 10
1967.322861296702
 20
1503.617363378458
 30
0.0
  0
VERTEX
  5
472
330
463
100
AcDbEntity
  8
0
 62
   139
370
     0
100
AcDbVertex
100
AcDb2dVertex
 10
1967.514280348251
 20
1501.658999235688
 30
0.0
  0
VERTEX
  5
473
330
463
100
AcDbEntity
  8
0
 62
   139
370
     0
100
AcDbVertex
100
AcDb2dVertex
 10
1967.646801230093
 20
1499.523940583797
 30
0.0
  0
VERTEX
  5
474
330
463
100
AcDbEntity
  8
0
 62
   139
370
     0
100
AcDbVertex
100
AcDb2dVertex
 10
1967.735148484654
 20
1497.241636507637
 30
0.0
  0
VERTEX
  5
475
330
463
100
AcDbEntity
  8
0
 62
   139
370
     0
100
AcDbVertex
100
AcDb2dVertex
 10
1967.764597569507
 20
1494.812087007208
 30
0.0
  0
VERTEX
  5
476
330
463
100
AcDbEntity
  8
0
 62
   139
370
     0
100
AcDbVertex
100
AcDb2dVertex
 10
1967.735148484654
 20
1492.927345576573
 30
0.0
  0
VERTEX
  5
477
330
463
100
AcDbEntity
  8
0
 62
   139
370
     0
100
AcDbVertex
100
AcDb2dVertex
 10
1967.676250314946
 20
1490.615592415559
 30
0.0
  0
VERTEX
  5
478
330
463
100
AcDbEntity
  8
0
 62
   139
370
     0
100
AcDbVertex
100
AcDb2dVertex
 10
1967.543729433105
 20
1488.465809221241
 30
0.0
  0
VERTEX
  5
479
330
463
100
AcDbEntity
  8
0
 62
   139
370
     0
100
AcDbVertex
100
AcDb2dVertex
 10
1967.367034923983
 20
1486.463271451192
 30
0.0
  0
VERTEX
  5
47A
330
463
100
AcDbEntity
  8
0
 62
   139
370
     0
100
AcDbVertex
100
AcDb2dVertex
 10
1967.146166787581
 20
1484.607979105409
 30
0.0
  0
VERTEX
  5
47B
330
463
100
AcDbEntity
  8
0
 62
   139
370
     0
100
AcDbVertex
100
AcDb2dVertex
 10
1966.851675939044
 20
1482.92938126875
 30
0.0
  0
VERTEX
  5
47C
330
463
100
AcDbEntity
  8
0
 62
   139
370
     0
100
AcDbVertex
100
AcDb2dVertex
 10
1966.513011463226
 20
1481.383304313931
 30
0.0
  0
VERTEX
  5
47D
330
463
100
AcDbEntity
  8
0
 62
   139
370
     0
100
AcDbVertex
100
AcDb2dVertex
 10
1966.115448817701
 20
1480.013921868235
 30
0.0
  0
VERTEX
  5
47E
330
463
100
AcDbEntity
  8
0
 62
   139
370
     0
100
AcDbVertex
100
AcDb2dVertex
 10
1965.673712544896
 20
1478.791784846807
 30
0.0
  0
VERTEX
  5
47F
330
463
100
AcDbEntity
  8
0
 62
   139
370
     0
100
AcDbVertex
100
AcDb2dVertex
 10
1965.173078102385
 20
1477.716893249648
 30
0.0
  0
VERTEX
  5
480
330
463
100
AcDbEntity
  8
0
 62
   139
370
     0
100
AcDbVertex
100
AcDb2dVertex
 10
1964.613545490164
 20
1476.803971619184
 30
0.0
  0
VERTEX
  5
481
330
463
100
AcDbEntity
  8
0
 62
   139
370
     0
100
AcDbVertex
100
AcDb2dVertex
 10
1963.892042911249
 20
1475.861600903866
 30
0.0
  0
VERTEX
  5
482
330
463
100
AcDbEntity
  8
0
 62
   139
370
     0
100
AcDbVertex
100
AcDb2dVertex
 10
1962.655181347394
 20
1474.580565712731
 30
0.0
  0
VERTEX
  5
483
330
463
100
AcDbEntity
  8
0
 62
   139
370
     0
100
AcDbVertex
100
AcDb2dVertex
 10
1961.315247986552
 20
1473.579296827706
 30
0.0
  0
VERTEX
  5
484
330
463
100
AcDbEntity
  8
0
 62
   139
370
     0
100
AcDbVertex
100
AcDb2dVertex
 10
1959.901691913575
 20
1472.872518791218
 30
0.0
  0
VERTEX
  5
485
330
463
100
AcDbEntity
  8
0
 62
   139
370
     0
100
AcDbVertex
100
AcDb2dVertex
 10
1958.385064043611
 20
1472.44550706084
 30
0.0
  0
VERTEX
  5
486
330
463
100
AcDbEntity
  8
0
 62
   139
370
     0
100
AcDbVertex
100
AcDb2dVertex
 10
1956.780088919085
 20
1472.298261636572
 30
0.0
  0
SEQEND
  5
487
330
463
100
AcDbEntity
  8
0
 62
   139
370
     0
  0
LWPOLYLINE
  5
488
330
1F
100
AcDbEntity
  8
0
 62
   139
370
     0
100
AcDbPolyline
 90
       94
 70
     1
 43
0.0
 10
1956.780088919085
 20
1522.906513957617
 10
1956.308903561427
 20
1522.906513957617
 10
1954.468335758072
 20
1522.773993075775
 10
1952.730839751705
 20
1522.494226769665
 10
1951.096415542326
 20
1522.037765954433
 10
1949.565063129935
 20
1521.419335172506
 10
1948.151507056958
 20
1520.638934423885
 10
1946.84102278097
 20
1519.681839166139
 10
1945.16242494431
 20
1518.106313126467
 10
1944.116982432004
 20
1516.854727020186
 10
1943.159887174259
 20
1515.455895489637
 10
1942.305863713503
 20
1513.953992162099
 10
1941.540187507307
 20
1512.304843410293
 10
1940.8775830981
 20
1510.523173776645
 10
1940.803960385965
 20
1510.302305640243
 10
1940.391673198014
 20
1508.932923194547
 10
1940.023559637343
 20
1507.489918036718
 10
1939.714344246379
 20
1505.9438410819
 10
1939.449302482697
 20
1504.309416872519
 10
1939.24315888872
 20
1502.601369951006
 10
1939.066464379599
 20
1500.790251232505
 10
1938.948668040184
 20
1498.876060717016
 10
1938.87504532805
 20
1496.888247489392
 10
1938.845596243196
 20
1494.812087007208
 10
1938.860320785623
 20
1493.280734594817
 10
1938.933943497757
 20
1491.130951400499
 10
1939.066464379599
 20
1489.069515460741
 10
1939.24315888872
 20
1487.096426775545
 10
1939.493476109977
 20
1485.211685344909
 10
1939.787966958514
 20
1483.430015711262
 10
1940.156080519184
 20
1481.736693332175
 10
1940.568367707136
 20
1480.13171820765
 10
1941.039553064795
 20
1478.615090337685
 10
1941.569636592161
 20
1477.201534264709
 10
1942.173342831662
 20
1475.876325446293
 10
1942.821222698442
 20
1474.639463882439
 10
1943.528000734931
 20
1473.505674115572
 10
1944.293676941126
 20
1472.44550706084
 10
1944.794311383639
 20
1471.841800821341
 10
1945.957550235359
 20
1470.649112884766
 10
1947.20913634164
 20
1469.618394914886
 10
1948.563794244909
 20
1468.734922369277
 10
1950.021523945167
 20
1468.028144332788
 10
1951.567600899985
 20
1467.468611720568
 10
1953.202025109364
 20
1467.071049075043
 10
1954.939521115731
 20
1466.835456396214
 10
1956.780088919085
 20
1466.747109141653
 10
1957.339621531307
 20
1466.761833684081
 10
1959.165464792234
 20
1466.894354565922
 10
1960.902960798601
 20
1467.188845414458
 10
1962.522660465553
 20
1467.64530622969
 10
1964.054012877944
 20
1468.263737011617
 10
1965.467568950921
 20
1469.058862302667
 10
1966.778053226908
 20
1470.015957560411
 10
1967.322861296702
 20
1470.472418375643
 10
1968.456651063569
 20
1471.591483600083
 10
1969.487369033448
 20
1472.857794248791
 10
1970.429739748765
 20
1474.241901236915
 10
1971.283763209522
 20
1475.773253649305
 10
1972.049439415719
 20
1477.422402401111
 10
1972.712043824926
 20
1479.204072034759
 10
1972.756217452206
 20
1479.3365929166
 10
1973.153780097731
 20
1480.705975362296
 10
1973.521893658402
 20
1482.148980520127
 10
1973.831109049365
 20
1483.680332932518
 10
1974.096150813048
 20
1485.314757141898
 10
1974.317018949451
 20
1487.037528605837
 10
1974.478988916146
 20
1488.833922781912
 10
1974.596785255561
 20
1490.733388754974
 10
1974.670407967695
 20
1492.735926525025
 10
1974.699857052549
 20
1494.812087007208
 10
1974.685132510122
 20
1495.975325858928
 10
1974.640958882842
 20
1498.022037256259
 10
1974.552611628281
 20
1499.950952314175
 10
1974.420090746439
 20
1501.762071032676
 10
1974.243396237317
 20
1503.455393411763
 10
1974.022528100914
 20
1505.030919451435
 10
1973.757486337231
 20
1506.488649151692
 10
1973.462995488694
 20
1507.828582512534
 10
1973.38937277656
 20
1508.064175191363
 10
1972.859289249195
 20
1509.875293909865
 10
1972.27030755212
 20
1511.568616288951
 10
1971.592978600486
 20
1513.15886687105
 10
1970.856751479144
 20
1514.631321113734
 10
1970.046901645668
 20
1516.00070355943
 10
1969.619889915289
 20
1516.619134341357
 10
1968.530273775703
 20
1517.988516787052
 10
1967.322861296702
 20
1519.195929266053
 10
1965.98292793586
 20
1520.256096320786
 10
1964.53992277803
 20
1521.139568866397
 10
1963.568102977858
 20
1521.610754224055
 10
1962.02202602304
 20
1522.185011378702
 10
1960.372877271234
 20
1522.582574024226
 10
1958.620656722439
 20
1522.832891245483
  0
POLYLINE
  5
489
330
1F
100
AcDbEntity
  8
0
 62
   139
370
     0
100
AcDb2dPolyline
 66
     1
 10
0.0
 20
0.0
 30
0.0
  0
VERTEX
  5
48A
330
489
100
AcDbEntity
  8
0
 62
   139
370
     0
100
AcDbVertex
100
AcDb2dVertex
 10
2037.750809938904
 20
1517.316609283259
 30
0.0
  0
VERTEX
  5
48B
330
489
100
AcDbEntity
  8
0
 62
   139
370
     0
100
AcDbVertex
100
AcDb2dVertex
 10
2038.194113194045
 20
1517.310776345692
 30
0.0
  0
VERTEX
  5
48C
330
489
100
AcDbEntity
  8
0
 62
   139
370
     0
100
AcDbVertex
100
AcDb2dVertex
 10
2039.039889141355
 20
1517.258279907583
 30
0.0
  0
VERTEX
  5
48D
330
489
100
AcDbEntity
  8
0
 62
   139
370
     0
100
AcDbVertex
100
AcDb2dVertex
 10
2039.856500400826
 20
1517.159119968933
 30
0.0
  0
VERTEX
  5
48E
330
489
100
AcDbEntity
  8
0
 62
   139
370
     0
100
AcDbVertex
100
AcDb2dVertex
 10
2040.638114034891
 20
1517.013296529741
 30
0.0
  0
VERTEX
  5
48F
330
489
100
AcDbEntity
  8
0
 62
   139
370
     0
100
AcDbVertex
100
AcDb2dVertex
 10
2041.390562981118
 20
1516.814976652441
 30
0.0
  0
VERTEX
  5
490
330
489
100
AcDbEntity
  8
0
 62
   139
370
     0
100
AcDbVertex
100
AcDb2dVertex
 10
2042.113847239506
 20
1516.564160337032
 30
0.0
  0
VERTEX
  5
491
330
489
100
AcDbEntity
  8
0
 62
   139
370
     0
100
AcDbVertex
100
AcDb2dVertex
 10
2042.80213387249
 20
1516.266680521082
 30
0.0
  0
VERTEX
  5
492
330
489
100
AcDbEntity
  8
0
 62
   139
370
     0
100
AcDbVertex
100
AcDb2dVertex
 10
2043.461255817634
 20
1515.916704267023
 30
0.0
  0
VERTEX
  5
493
330
489
100
AcDbEntity
  8
0
 62
   139
370
     0
100
AcDbVertex
100
AcDb2dVertex
 10
2044.09121307494
 20
1515.520064512423
 30
0.0
  0
VERTEX
  5
494
330
489
100
AcDbEntity
  8
0
 62
   139
370
     0
100
AcDbVertex
100
AcDb2dVertex
 10
2044.68617270684
 20
1515.076761257281
 30
0.0
  0
VERTEX
  5
495
330
489
100
AcDbEntity
  8
0
 62
   139
370
     0
100
AcDbVertex
100
AcDb2dVertex
 10
2045.251967650903
 20
1514.580961564031
 30
0.0
  0
VERTEX
  5
496
330
489
100
AcDbEntity
  8
0
 62
   139
370
     0
100
AcDbVertex
100
AcDb2dVertex
 10
2045.671939155774
 20
1514.143491246457
 30
0.0
  0
VERTEX
  5
497
330
489
100
AcDbEntity
  8
0
 62
   139
370
     0
100
AcDbVertex
100
AcDb2dVertex
 10
2046.179404724159
 20
1513.542698676989
 30
0.0
  0
VERTEX
  5
498
330
489
100
AcDbEntity
  8
0
 62
   139
370
     0
100
AcDbVertex
100
AcDb2dVertex
 10
2046.628540916868
 20
1512.912741419682
 30
0.0
  0
VERTEX
  5
499
330
489
100
AcDbEntity
  8
0
 62
   139
370
     0
100
AcDbVertex
100
AcDb2dVertex
 10
2047.019347733901
 20
1512.259452412105
 30
0.0
  0
VERTEX
  5
49A
330
489
100
AcDbEntity
  8
0
 62
   139
370
     0
100
AcDbVertex
100
AcDb2dVertex
 10
2047.351825175257
 20
1511.582831654258
 30
0.0
  0
VERTEX
  5
49B
330
489
100
AcDbEntity
  8
0
 62
   139
370
     0
100
AcDbVertex
100
AcDb2dVertex
 10
2047.620140303369
 20
1510.877046208572
 30
0.0
  0
VERTEX
  5
49C
330
489
100
AcDbEntity
  8
0
 62
   139
370
     0
100
AcDbVertex
100
AcDb2dVertex
 10
2047.830126055806
 20
1510.142096075048
 30
0.0
  0
VERTEX
  5
49D
330
489
100
AcDbEntity
  8
0
 62
   139
370
     0
100
AcDbVertex
100
AcDb2dVertex
 10
2047.981782432563
 20
1509.383814191254
 30
0.0
  0
VERTEX
  5
49E
330
489
100
AcDbEntity
  8
0
 62
   139
370
     0
100
AcDbVertex
100
AcDb2dVertex
 10
2048.069276496078
 20
1508.602200557188
 30
0.0
  0
VERTEX
  5
49F
330
489
100
AcDbEntity
  8
0
 62
   139
370
     0
100
AcDbVertex
100
AcDb2dVertex
 10
2048.098441183917
 20
1507.791422235285
 30
0.0
  0
VERTEX
  5
4A0
330
489
100
AcDbEntity
  8
0
 62
   139
370
     0
100
AcDbVertex
100
AcDb2dVertex
 10
2048.098441183917
 20
1507.610601170688
 30
0.0
  0
VERTEX
  5
4A1
330
489
100
AcDbEntity
  8
0
 62
   139
370
     0
100
AcDbVertex
100
AcDb2dVertex
 10
2048.057610620944
 20
1506.928147475272
 30
0.0
  0
VERTEX
  5
4A2
330
489
100
AcDbEntity
  8
0
 62
   139
370
     0
100
AcDbVertex
100
AcDb2dVertex
 10
2047.970116557428
 20
1506.234027904722
 30
0.0
  0
VERTEX
  5
4A3
330
489
100
AcDbEntity
  8
0
 62
   139
370
     0
100
AcDbVertex
100
AcDb2dVertex
 10
2047.835958993372
 20
1505.534075396604
 30
0.0
  0
VERTEX
  5
4A4
330
489
100
AcDbEntity
  8
0
 62
   139
370
     0
100
AcDbVertex
100
AcDb2dVertex
 10
2047.649304991207
 20
1504.828289950918
 30
0.0
  0
VERTEX
  5
4A5
330
489
100
AcDbEntity
  8
0
 62
   139
370
     0
100
AcDbVertex
100
AcDb2dVertex
 10
2047.410154550934
 20
1504.116671567664
 30
0.0
  0
VERTEX
  5
4A6
330
489
100
AcDbEntity
  8
0
 62
   139
370
     0
100
AcDbVertex
100
AcDb2dVertex
 10
2047.124340610119
 20
1503.393387309276
 30
0.0
  0
VERTEX
  5
4A7
330
489
100
AcDbEntity
  8
0
 62
   139
370
     0
100
AcDbVertex
100
AcDb2dVertex
 10
2046.791863168762
 20
1502.670103050887
 30
0.0
  0
VERTEX
  5
4A8
330
489
100
AcDbEntity
  8
0
 62
   139
370
     0
100
AcDbVertex
100
AcDb2dVertex
 10
2046.406889289298
 20
1501.935152917363
 30
0.0
  0
VERTEX
  5
4A9
330
489
100
AcDbEntity
  8
0
 62
   139
370
     0
100
AcDbVertex
100
AcDb2dVertex
 10
2045.969418971724
 20
1501.188536908703
 30
0.0
  0
VERTEX
  5
4AA
330
489
100
AcDbEntity
  8
0
 62
   139
370
     0
100
AcDbVertex
100
AcDb2dVertex
 10
2045.485285153609
 20
1500.441920900044
 30
0.0
  0
VERTEX
  5
4AB
330
489
100
AcDbEntity
  8
0
 62
   139
370
     0
100
AcDbVertex
100
AcDb2dVertex
 10
2044.948654897385
 20
1499.683639016249
 30
0.0
  0
VERTEX
  5
4AC
330
489
100
AcDbEntity
  8
0
 62
   139
370
     0
100
AcDbVertex
100
AcDb2dVertex
 10
2044.901991396844
 20
1499.619476703005
 30
0.0
  0
VERTEX
  5
4AD
330
489
100
AcDbEntity
  8
0
 62
   139
370
     0
100
AcDbVertex
100
AcDb2dVertex
 10
2044.587012768191
 20
1499.199505198134
 30
0.0
  0
VERTEX
  5
4AE
330
489
100
AcDbEntity
  8
0
 62
   139
370
     0
100
AcDbVertex
100
AcDb2dVertex
 10
2044.242869451699
 20
1498.773700755696
 30
0.0
  0
VERTEX
  5
4AF
330
489
100
AcDbEntity
  8
0
 62
   139
370
     0
100
AcDbVertex
100
AcDb2dVertex
 10
2043.881227322504
 20
1498.330397500555
 30
0.0
  0
VERTEX
  5
4B0
330
489
100
AcDbEntity
  8
0
 62
   139
370
     0
100
AcDbVertex
100
AcDb2dVertex
 10
2043.484587567904
 20
1497.86959543271
 30
0.0
  0
VERTEX
  5
4B1
330
489
100
AcDbEntity
  8
0
 62
   139
370
     0
100
AcDbVertex
100
AcDb2dVertex
 10
2043.064616063034
 20
1497.39712748973
 30
0.0
  0
VERTEX
  5
4B2
330
489
100
AcDbEntity
  8
0
 62
   139
370
     0
100
AcDbVertex
100
AcDb2dVertex
 10
2042.621312807893
 20
1496.912993671615
 30
0.0
  0
VERTEX
  5
4B3
330
489
100
AcDbEntity
  8
0
 62
   139
370
     0
100
AcDbVertex
100
AcDb2dVertex
 10
2042.154677802479
 20
1496.417193978365
 30
0.0
  0
VERTEX
  5
4B4
330
489
100
AcDbEntity
  8
0
 62
   139
370
     0
100
AcDbVertex
100
AcDb2dVertex
 10
2041.653045171662
 20
1495.903895472412
 30
0.0
  0
VERTEX
  5
4B5
330
489
100
AcDbEntity
  8
0
 62
   139
370
     0
100
AcDbVertex
100
AcDb2dVertex
 10
2041.133913728141
 20
1495.378931091323
 30
0.0
  0
VERTEX
  5
4B6
330
489
100
AcDbEntity
  8
0
 62
   139
370
     0
100
AcDbVertex
100
AcDb2dVertex
 10
2040.585617596782
 20
1494.842300835099
 30
0.0
  0
VERTEX
  5
4B7
330
489
100
AcDbEntity
  8
0
 62
   139
370
     0
100
AcDbVertex
100
AcDb2dVertex
 10
2040.008156777584
 20
1494.288171766173
 30
0.0
  0
VERTEX
  5
4B8
330
489
100
AcDbEntity
  8
0
 62
   139
370
     0
100
AcDbVertex
100
AcDb2dVertex
 10
2039.413197145684
 20
1493.722376822111
 30
0.0
  0
VERTEX
  5
4B9
330
489
100
AcDbEntity
  8
0
 62
   139
370
     0
100
AcDbVertex
100
AcDb2dVertex
 10
2038.783239888378
 20
1493.144916002913
 30
0.0
  0
VERTEX
  5
4BA
330
489
100
AcDbEntity
  8
0
 62
   139
370
     0
100
AcDbVertex
100
AcDb2dVertex
 10
2038.129950880801
 20
1492.549956371012
 30
0.0
  0
VERTEX
  5
4BB
330
489
100
AcDbEntity
  8
0
 62
   139
370
     0
100
AcDbVertex
100
AcDb2dVertex
 10
2037.453330122953
 20
1491.943330863976
 30
0.0
  0
VERTEX
  5
4BC
330
489
100
AcDbEntity
  8
0
 62
   139
370
     0
100
AcDbVertex
100
AcDb2dVertex
 10
2036.747544677267
 20
1491.325039481805
 30
0.0
  0
VERTEX
  5
4BD
330
489
100
AcDbEntity
  8
0
 62
   139
370
     0
100
AcDbVertex
100
AcDb2dVertex
 10
2036.018427481312
 20
1490.689249286931
 30
0.0
  0
VERTEX
  5
4BE
330
489
100
AcDbEntity
  8
0
 62
   139
370
     0
100
AcDbVertex
100
AcDb2dVertex
 10
2035.265978535084
 20
1490.041793216922
 30
0.0
  0
VERTEX
  5
4BF
330
489
100
AcDbEntity
  8
0
 62
   139
370
     0
100
AcDbVertex
100
AcDb2dVertex
 10
2034.484364901019
 20
1489.382671271778
 30
0.0
  0
VERTEX
  5
4C0
330
489
100
AcDbEntity
  8
0
 62
   139
370
     0
100
AcDbVertex
100
AcDb2dVertex
 10
2033.673586579115
 20
1488.706050513931
 30
0.0
  0
VERTEX
  5
4C1
330
489
100
AcDbEntity
  8
0
 62
   139
370
     0
100
AcDbVertex
100
AcDb2dVertex
 10
2032.839476506941
 20
1488.017763880947
 30
0.0
  0
VERTEX
  5
4C2
330
489
100
AcDbEntity
  8
0
 62
   139
370
     0
100
AcDbVertex
100
AcDb2dVertex
 10
2032.670321317479
 20
1487.877773379323
 30
0.0
  0
VERTEX
  5
4C3
330
489
100
AcDbEntity
  8
0
 62
   139
370
     0
100
AcDbVertex
100
AcDb2dVertex
 10
2031.92370530882
 20
1487.26531493472
 30
0.0
  0
VERTEX
  5
4C4
330
489
100
AcDbEntity
  8
0
 62
   139
370
     0
100
AcDbVertex
100
AcDb2dVertex
 10
2031.206253987999
 20
1486.658689427684
 30
0.0
  0
VERTEX
  5
4C5
330
489
100
AcDbEntity
  8
0
 62
   139
370
     0
100
AcDbVertex
100
AcDb2dVertex
 10
2030.517967355017
 20
1486.063729795784
 30
0.0
  0
VERTEX
  5
4C6
330
489
100
AcDbEntity
  8
0
 62
   139
370
     0
100
AcDbVertex
100
AcDb2dVertex
 10
2029.847179534737
 20
1485.480436039019
 30
0.0
  0
VERTEX
  5
4C7
330
489
100
AcDbEntity
  8
0
 62
   139
370
     0
100
AcDbVertex
100
AcDb2dVertex
 10
2029.199723464727
 20
1484.902975219821
 30
0.0
  0
VERTEX
  5
4C8
330
489
100
AcDbEntity
  8
0
 62
   139
370
     0
100
AcDbVertex
100
AcDb2dVertex
 10
2028.575599144988
 20
1484.343013213327
 30
0.0
  0
VERTEX
  5
4C9
330
489
100
AcDbEntity
  8
0
 62
   139
370
     0
100
AcDbVertex
100
AcDb2dVertex
 10
2027.97480657552
 20
1483.783051206833
 30
0.0
  0
VERTEX
  5
4CA
330
489
100
AcDbEntity
  8
0
 62
   139
370
     0
100
AcDbVertex
100
AcDb2dVertex
 10
2027.397345756322
 20
1483.24058801304
 30
0.0
  0
VERTEX
  5
4CB
330
489
100
AcDbEntity
  8
0
 62
   139
370
     0
100
AcDbVertex
100
AcDb2dVertex
 10
2026.849049624964
 20
1482.703957756817
 30
0.0
  0
VERTEX
  5
4CC
330
489
100
AcDbEntity
  8
0
 62
   139
370
     0
100
AcDbVertex
100
AcDb2dVertex
 10
2026.318252306308
 20
1482.178993375728
 30
0.0
  0
VERTEX
  5
4CD
330
489
100
AcDbEntity
  8
0
 62
   139
370
     0
100
AcDbVertex
100
AcDb2dVertex
 10
2025.816619675489
 20
1481.659861932207
 30
0.0
  0
VERTEX
  5
4CE
330
489
100
AcDbEntity
  8
0
 62
   139
370
     0
100
AcDbVertex
100
AcDb2dVertex
 10
2025.332485857374
 20
1481.152396363822
 30
0.0
  0
VERTEX
  5
4CF
330
489
100
AcDbEntity
  8
0
 62
   139
370
     0
100
AcDbVertex
100
AcDb2dVertex
 10
2024.877516727097
 20
1480.656596670571
 30
0.0
  0
VERTEX
  5
4D0
330
489
100
AcDbEntity
  8
0
 62
   139
370
     0
100
AcDbVertex
100
AcDb2dVertex
 10
2024.440046409524
 20
1480.166629914888
 30
0.0
  0
VERTEX
  5
4D1
330
489
100
AcDbEntity
  8
0
 62
   139
370
     0
100
AcDbVertex
100
AcDb2dVertex
 10
2024.031740779789
 20
1479.688329034341
 30
0.0
  0
VERTEX
  5
4D2
330
489
100
AcDbEntity
  8
0
 62
   139
370
     0
100
AcDbVertex
100
AcDb2dVertex
 10
2023.565105774376
 20
1479.128367027847
 30
0.0
  0
VERTEX
  5
4D3
330
489
100
AcDbEntity
  8
0
 62
   139
370
     0
100
AcDbVertex
100
AcDb2dVertex
 10
2023.034308455719
 20
1478.463412145134
 30
0.0
  0
VERTEX
  5
4D4
330
489
100
AcDbEntity
  8
0
 62
   139
370
     0
100
AcDbVertex
100
AcDb2dVertex
 10
2022.532675824901
 20
1477.792624324855
 30
0.0
  0
VERTEX
  5
4D5
330
489
100
AcDbEntity
  8
0
 62
   139
370
     0
100
AcDbVertex
100
AcDb2dVertex
 10
2022.06604081949
 20
1477.121836504575
 30
0.0
  0
VERTEX
  5
4D6
330
489
100
AcDbEntity
  8
0
 62
   139
370
     0
100
AcDbVertex
100
AcDb2dVertex
 10
2021.622737564349
 20
1476.451048684295
 30
0.0
  0
VERTEX
  5
4D7
330
489
100
AcDbEntity
  8
0
 62
   139
370
     0
100
AcDbVertex
100
AcDb2dVertex
 10
2021.208598997044
 20
1475.774427926447
 30
0.0
  0
VERTEX
  5
4D8
330
489
100
AcDbEntity
  8
0
 62
   139
370
     0
100
AcDbVertex
100
AcDb2dVertex
 10
2020.82362511758
 20
1475.0978071686
 30
0.0
  0
VERTEX
  5
4D9
330
489
100
AcDbEntity
  8
0
 62
   139
370
     0
100
AcDbVertex
100
AcDb2dVertex
 10
2020.467815925953
 20
1474.421186410752
 30
0.0
  0
VERTEX
  5
4DA
330
489
100
AcDbEntity
  8
0
 62
   139
370
     0
100
AcDbVertex
100
AcDb2dVertex
 10
2020.135338484597
 20
1473.738732715337
 30
0.0
  0
VERTEX
  5
4DB
330
489
100
AcDbEntity
  8
0
 62
   139
370
     0
100
AcDbVertex
100
AcDb2dVertex
 10
2019.837858668646
 20
1473.062111957489
 30
0.0
  0
VERTEX
  5
4DC
330
489
100
AcDbEntity
  8
0
 62
   139
370
     0
100
AcDbVertex
100
AcDb2dVertex
 10
2019.569543540535
 20
1472.373825324506
 30
0.0
  0
VERTEX
  5
4DD
330
489
100
AcDbEntity
  8
0
 62
   139
370
     0
100
AcDbVertex
100
AcDb2dVertex
 10
2019.557877665399
 20
1472.350493574236
 30
0.0
  0
VERTEX
  5
4DE
330
489
100
AcDbEntity
  8
0
 62
   139
370
     0
100
AcDbVertex
100
AcDb2dVertex
 10
2019.301228412424
 20
1471.598044628009
 30
0.0
  0
VERTEX
  5
4DF
330
489
100
AcDbEntity
  8
0
 62
   139
370
     0
100
AcDbVertex
100
AcDb2dVertex
 10
2019.091242659987
 20
1470.833929806646
 30
0.0
  0
VERTEX
  5
4E0
330
489
100
AcDbEntity
  8
0
 62
   139
370
     0
100
AcDbVertex
100
AcDb2dVertex
 10
2018.939586283228
 20
1470.063982047717
 30
0.0
  0
VERTEX
  5
4E1
330
489
100
AcDbEntity
  8
0
 62
   139
370
     0
100
AcDbVertex
100
AcDb2dVertex
 10
2018.834593407011
 20
1469.282368413651
 30
0.0
  0
VERTEX
  5
4E2
330
489
100
AcDbEntity
  8
0
 62
   139
370
     0
100
AcDbVertex
100
AcDb2dVertex
 10
2018.782096968902
 20
1468.489088904451
 30
0.0
  0
VERTEX
  5
4E3
330
489
100
AcDbEntity
  8
0
 62
   139
370
     0
100
AcDbVertex
100
AcDb2dVertex
 10
2018.782096968902
 20
1467.684143520115
 30
0.0
  0
VERTEX
  5
4E4
330
489
100
AcDbEntity
  8
0
 62
   139
370
     0
100
AcDbVertex
100
AcDb2dVertex
 10
2055.109632140233
 20
1467.684143520115
 30
0.0
  0
VERTEX
  5
4E5
330
489
100
AcDbEntity
  8
0
 62
   139
370
     0
100
AcDbVertex
100
AcDb2dVertex
 10
2055.109632140233
 20
1474.176203032911
 30
0.0
  0
VERTEX
  5
4E6
330
489
100
AcDbEntity
  8
0
 62
   139
370
     0
100
AcDbVertex
100
AcDb2dVertex
 10
2028.155627640117
 20
1474.176203032911
 30
0.0
  0
VERTEX
  5
4E7
330
489
100
AcDbEntity
  8
0
 62
   139
370
     0
100
AcDbVertex
100
AcDb2dVertex
 10
2028.493938019041
 20
1474.707000351567
 30
0.0
  0
VERTEX
  5
4E8
330
489
100
AcDbEntity
  8
0
 62
   139
370
     0
100
AcDbVertex
100
AcDb2dVertex
 10
2028.925575399047
 20
1475.336957608873
 30
0.0
  0
VERTEX
  5
4E9
330
489
100
AcDbEntity
  8
0
 62
   139
370
     0
100
AcDbVertex
100
AcDb2dVertex
 10
2029.392210404459
 20
1475.966914866179
 30
0.0
  0
VERTEX
  5
4EA
330
489
100
AcDbEntity
  8
0
 62
   139
370
     0
100
AcDbVertex
100
AcDb2dVertex
 10
2029.893843035277
 20
1476.596872123486
 30
0.0
  0
VERTEX
  5
4EB
330
489
100
AcDbEntity
  8
0
 62
   139
370
     0
100
AcDbVertex
100
AcDb2dVertex
 10
2030.430473291502
 20
1477.220996443225
 30
0.0
  0
VERTEX
  5
4EC
330
489
100
AcDbEntity
  8
0
 62
   139
370
     0
100
AcDbVertex
100
AcDb2dVertex
 10
2031.002101173132
 20
1477.850953700531
 30
0.0
  0
VERTEX
  5
4ED
330
489
100
AcDbEntity
  8
0
 62
   139
370
     0
100
AcDbVertex
100
AcDb2dVertex
 10
2031.019599985834
 20
1477.868452513234
 30
0.0
  0
VERTEX
  5
4EE
330
489
100
AcDbEntity
  8
0
 62
   139
370
     0
100
AcDbVertex
100
AcDb2dVertex
 10
2031.311246864216
 20
1478.165932329184
 30
0.0
  0
VERTEX
  5
4EF
330
489
100
AcDbEntity
  8
0
 62
   139
370
     0
100
AcDbVertex
100
AcDb2dVertex
 10
2031.655390180708
 20
1478.504242708108
 30
0.0
  0
VERTEX
  5
4F0
330
489
100
AcDbEntity
  8
0
 62
   139
370
     0
100
AcDbVertex
100
AcDb2dVertex
 10
2032.052029935308
 20
1478.877550712437
 30
0.0
  0
VERTEX
  5
4F1
330
489
100
AcDbEntity
  8
0
 62
   139
370
     0
100
AcDbVertex
100
AcDb2dVertex
 10
2032.49533319045
 20
1479.291689279741
 30
0.0
  0
VERTEX
  5
4F2
330
489
100
AcDbEntity
  8
0
 62
   139
370
     0
100
AcDbVertex
100
AcDb2dVertex
 10
2032.9911328837
 20
1479.74082547245
 30
0.0
  0
VERTEX
  5
4F3
330
489
100
AcDbEntity
  8
0
 62
   139
370
     0
100
AcDbVertex
100
AcDb2dVertex
 10
2033.539429015059
 20
1480.230792228133
 30
0.0
  0
VERTEX
  5
4F4
330
489
100
AcDbEntity
  8
0
 62
   139
370
     0
100
AcDbVertex
100
AcDb2dVertex
 10
2034.140221584527
 20
1480.761589546789
 30
0.0
  0
VERTEX
  5
4F5
330
489
100
AcDbEntity
  8
0
 62
   139
370
     0
100
AcDbVertex
100
AcDb2dVertex
 10
2034.787677654537
 20
1481.333217428419
 30
0.0
  0
VERTEX
  5
4F6
330
489
100
AcDbEntity
  8
0
 62
   139
370
     0
100
AcDbVertex
100
AcDb2dVertex
 10
2035.487630162656
 20
1481.939842935455
 30
0.0
  0
VERTEX
  5
4F7
330
489
100
AcDbEntity
  8
0
 62
   139
370
     0
100
AcDbVertex
100
AcDb2dVertex
 10
2036.240079108882
 20
1482.587299005464
 30
0.0
  0
VERTEX
  5
4F8
330
489
100
AcDbEntity
  8
0
 62
   139
370
     0
100
AcDbVertex
100
AcDb2dVertex
 10
2037.045024493219
 20
1483.269752700879
 30
0.0
  0
VERTEX
  5
4F9
330
489
100
AcDbEntity
  8
0
 62
   139
370
     0
100
AcDbVertex
100
AcDb2dVertex
 10
2037.896633378096
 20
1483.993036959269
 30
0.0
  0
VERTEX
  5
4FA
330
489
100
AcDbEntity
  8
0
 62
   139
370
     0
100
AcDbVertex
100
AcDb2dVertex
 10
2038.800738701081
 20
1484.75715178063
 30
0.0
  0
VERTEX
  5
4FB
330
489
100
AcDbEntity
  8
0
 62
   139
370
     0
100
AcDbVertex
100
AcDb2dVertex
 10
2039.483192396497
 20
1485.32877966226
 30
0.0
  0
VERTEX
  5
4FC
330
489
100
AcDbEntity
  8
0
 62
   139
370
     0
100
AcDbVertex
100
AcDb2dVertex
 10
2040.258973092994
 20
1485.99956748254
 30
0.0
  0
VERTEX
  5
4FD
330
489
100
AcDbEntity
  8
0
 62
   139
370
     0
100
AcDbVertex
100
AcDb2dVertex
 10
2041.017254976788
 20
1486.647023552549
 30
0.0
  0
VERTEX
  5
4FE
330
489
100
AcDbEntity
  8
0
 62
   139
370
     0
100
AcDbVertex
100
AcDb2dVertex
 10
2041.746372172744
 20
1487.282813747423
 30
0.0
  0
VERTEX
  5
4FF
330
489
100
AcDbEntity
  8
0
 62
   139
370
     0
100
AcDbVertex
100
AcDb2dVertex
 10
2042.446324680863
 20
1487.901105129594
 30
0.0
  0
VERTEX
  5
500
330
489
100
AcDbEntity
  8
0
 62
   139
370
     0
100
AcDbVertex
100
AcDb2dVertex
 10
2043.12294543871
 20
1488.501897699062
 30
0.0
  0
VERTEX
  5
501
330
489
100
AcDbEntity
  8
0
 62
   139
370
     0
100
AcDbVertex
100
AcDb2dVertex
 10
2043.776234446288
 20
1489.091024393395
 30
0.0
  0
VERTEX
  5
502
330
489
100
AcDbEntity
  8
0
 62
   139
370
     0
100
AcDbVertex
100
AcDb2dVertex
 10
2044.400358766026
 20
1489.656819337457
 30
0.0
  0
VERTEX
  5
503
330
489
100
AcDbEntity
  8
0
 62
   139
370
     0
100
AcDbVertex
100
AcDb2dVertex
 10
2045.001151335494
 20
1490.210948406384
 30
0.0
  0
VERTEX
  5
504
330
489
100
AcDbEntity
  8
0
 62
   139
370
     0
100
AcDbVertex
100
AcDb2dVertex
 10
2045.572779217124
 20
1490.74174572504
 30
0.0
  0
VERTEX
  5
505
330
489
100
AcDbEntity
  8
0
 62
   139
370
     0
100
AcDbVertex
100
AcDb2dVertex
 10
2046.121075348483
 20
1491.260877168561
 30
0.0
  0
VERTEX
  5
506
330
489
100
AcDbEntity
  8
0
 62
   139
370
     0
100
AcDbVertex
100
AcDb2dVertex
 10
2046.640206792004
 20
1491.768342736947
 30
0.0
  0
VERTEX
  5
507
330
489
100
AcDbEntity
  8
0
 62
   139
370
     0
100
AcDbVertex
100
AcDb2dVertex
 10
2047.136006485255
 20
1492.252476555062
 30
0.0
  0
VERTEX
  5
508
330
489
100
AcDbEntity
  8
0
 62
   139
370
     0
100
AcDbVertex
100
AcDb2dVertex
 10
2047.602641490667
 20
1492.719111560474
 30
0.0
  0
VERTEX
  5
509
330
489
100
AcDbEntity
  8
0
 62
   139
370
     0
100
AcDbVertex
100
AcDb2dVertex
 10
2048.045944745807
 20
1493.174080690751
 30
0.0
  0
VERTEX
  5
50A
330
489
100
AcDbEntity
  8
0
 62
   139
370
     0
100
AcDbVertex
100
AcDb2dVertex
 10
2048.465916250679
 20
1493.611551008325
 30
0.0
  0
VERTEX
  5
50B
330
489
100
AcDbEntity
  8
0
 62
   139
370
     0
100
AcDbVertex
100
AcDb2dVertex
 10
2048.856723067713
 20
1494.031522513196
 30
0.0
  0
VERTEX
  5
50C
330
489
100
AcDbEntity
  8
0
 62
   139
370
     0
100
AcDbVertex
100
AcDb2dVertex
 10
2049.224198134473
 20
1494.433995205363
 30
0.0
  0
VERTEX
  5
50D
330
489
100
AcDbEntity
  8
0
 62
   139
370
     0
100
AcDbVertex
100
AcDb2dVertex
 10
2049.335023948259
 20
1494.562319831852
 30
0.0
  0
VERTEX
  5
50E
330
489
100
AcDbEntity
  8
0
 62
   139
370
     0
100
AcDbVertex
100
AcDb2dVertex
 10
2049.924150642592
 20
1495.250606464834
 30
0.0
  0
VERTEX
  5
50F
330
489
100
AcDbEntity
  8
0
 62
   139
370
     0
100
AcDbVertex
100
AcDb2dVertex
 10
2050.478279711518
 20
1495.93306016025
 30
0.0
  0
VERTEX
  5
510
330
489
100
AcDbEntity
  8
0
 62
   139
370
     0
100
AcDbVertex
100
AcDb2dVertex
 10
2050.997411155039
 20
1496.60384798053
 30
0.0
  0
VERTEX
  5
511
330
489
100
AcDbEntity
  8
0
 62
   139
370
     0
100
AcDbVertex
100
AcDb2dVertex
 10
2051.481544973155
 20
1497.274635800809
 30
0.0
  0
VERTEX
  5
512
330
489
100
AcDbEntity
  8
0
 62
   139
370
     0
100
AcDbVertex
100
AcDb2dVertex
 10
2051.936514103431
 20
1497.933757745954
 30
0.0
  0
VERTEX
  5
513
330
489
100
AcDbEntity
  8
0
 62
   139
370
     0
100
AcDbVertex
100
AcDb2dVertex
 10
2052.350652670734
 20
1498.592879691099
 30
0.0
  0
VERTEX
  5
514
330
489
100
AcDbEntity
  8
0
 62
   139
370
     0
100
AcDbVertex
100
AcDb2dVertex
 10
2052.735626550199
 20
1499.240335761109
 30
0.0
  0
VERTEX
  5
515
330
489
100
AcDbEntity
  8
0
 62
   139
370
     0
100
AcDbVertex
100
AcDb2dVertex
 10
2053.085602804259
 20
1499.881958893549
 30
0.0
  0
VERTEX
  5
516
330
489
100
AcDbEntity
  8
0
 62
   139
370
     0
100
AcDbVertex
100
AcDb2dVertex
 10
2053.400581432912
 20
1500.517749088424
 30
0.0
  0
VERTEX
  5
517
330
489
100
AcDbEntity
  8
0
 62
   139
370
     0
100
AcDbVertex
100
AcDb2dVertex
 10
2053.686395373726
 20
1501.14770634573
 30
0.0
  0
VERTEX
  5
518
330
489
100
AcDbEntity
  8
0
 62
   139
370
     0
100
AcDbVertex
100
AcDb2dVertex
 10
2053.814720000215
 20
1501.462684974383
 30
0.0
  0
VERTEX
  5
519
330
489
100
AcDbEntity
  8
0
 62
   139
370
     0
100
AcDbVertex
100
AcDb2dVertex
 10
2054.10053394103
 20
1502.226799795746
 30
0.0
  0
VERTEX
  5
51A
330
489
100
AcDbEntity
  8
0
 62
   139
370
     0
100
AcDbVertex
100
AcDb2dVertex
 10
2054.351350256439
 20
1502.990914617108
 30
0.0
  0
VERTEX
  5
51B
330
489
100
AcDbEntity
  8
0
 62
   139
370
     0
100
AcDbVertex
100
AcDb2dVertex
 10
2054.561336008874
 20
1503.75502943847
 30
0.0
  0
VERTEX
  5
51C
330
489
100
AcDbEntity
  8
0
 62
   139
370
     0
100
AcDbVertex
100
AcDb2dVertex
 10
2054.730491198336
 20
1504.5249771974
 30
0.0
  0
VERTEX
  5
51D
330
489
100
AcDbEntity
  8
0
 62
   139
370
     0
100
AcDbVertex
100
AcDb2dVertex
 10
2054.864648762392
 20
1505.300757893898
 30
0.0
  0
VERTEX
  5
51E
330
489
100
AcDbEntity
  8
0
 62
   139
370
     0
100
AcDbVertex
100
AcDb2dVertex
 10
2054.957975763474
 20
1506.076538590395
 30
0.0
  0
VERTEX
  5
51F
330
489
100
AcDbEntity
  8
0
 62
   139
370
     0
100
AcDbVertex
100
AcDb2dVertex
 10
2055.016305139151
 20
1506.858152224461
 30
0.0
  0
VERTEX
  5
520
330
489
100
AcDbEntity
  8
0
 62
   139
370
     0
100
AcDbVertex
100
AcDb2dVertex
 10
2055.033803951854
 20
1507.639765858526
 30
0.0
  0
VERTEX
  5
521
330
489
100
AcDbEntity
  8
0
 62
   139
370
     0
100
AcDbVertex
100
AcDb2dVertex
 10
2055.027971014286
 20
1508.188061989885
 30
0.0
  0
VERTEX
  5
522
330
489
100
AcDbEntity
  8
0
 62
   139
370
     0
100
AcDbVertex
100
AcDb2dVertex
 10
2054.981307513747
 20
1508.998840311788
 30
0.0
  0
VERTEX
  5
523
330
489
100
AcDbEntity
  8
0
 62
   139
370
     0
100
AcDbVertex
100
AcDb2dVertex
 10
2054.899646387799
 20
1509.786286883421
 30
0.0
  0
VERTEX
  5
524
330
489
100
AcDbEntity
  8
0
 62
   139
370
     0
100
AcDbVertex
100
AcDb2dVertex
 10
2054.782987636445
 20
1510.562067579919
 30
0.0
  0
VERTEX
  5
525
330
489
100
AcDbEntity
  8
0
 62
   139
370
     0
100
AcDbVertex
100
AcDb2dVertex
 10
2054.625498322118
 20
1511.320349463714
 30
0.0
  0
VERTEX
  5
526
330
489
100
AcDbEntity
  8
0
 62
   139
370
     0
100
AcDbVertex
100
AcDb2dVertex
 10
2054.433011382386
 20
1512.061132534807
 30
0.0
  0
VERTEX
  5
527
330
489
100
AcDbEntity
  8
0
 62
   139
370
     0
100
AcDbVertex
100
AcDb2dVertex
 10
2054.19969387968
 20
1512.784416793194
 30
0.0
  0
VERTEX
  5
528
330
489
100
AcDbEntity
  8
0
 62
   139
370
     0
100
AcDbVertex
100
AcDb2dVertex
 10
2053.931378751569
 20
1513.49020223888
 30
0.0
  0
VERTEX
  5
529
330
489
100
AcDbEntity
  8
0
 62
   139
370
     0
100
AcDbVertex
100
AcDb2dVertex
 10
2053.622233060482
 20
1514.178488871862
 30
0.0
  0
VERTEX
  5
52A
330
489
100
AcDbEntity
  8
0
 62
   139
370
     0
100
AcDbVertex
100
AcDb2dVertex
 10
2053.278089743992
 20
1514.849276692143
 30
0.0
  0
VERTEX
  5
52B
330
489
100
AcDbEntity
  8
0
 62
   139
370
     0
100
AcDbVertex
100
AcDb2dVertex
 10
2052.898948802093
 20
1515.50256569972
 30
0.0
  0
VERTEX
  5
52C
330
489
100
AcDbEntity
  8
0
 62
   139
370
     0
100
AcDbVertex
100
AcDb2dVertex
 10
2052.478977297223
 20
1516.138355894595
 30
0.0
  0
VERTEX
  5
52D
330
489
100
AcDbEntity
  8
0
 62
   139
370
     0
100
AcDbVertex
100
AcDb2dVertex
 10
2052.018175229378
 20
1516.762480214332
 30
0.0
  0
VERTEX
  5
52E
330
489
100
AcDbEntity
  8
0
 62
   139
370
     0
100
AcDbVertex
100
AcDb2dVertex
 10
2051.528208473696
 20
1517.363272783801
 30
0.0
  0
SEQEND
  5
52F
330
489
100
AcDbEntity
  8
0
 62
   139
370
     0
  0
LWPOLYLINE
  5
530
330
1F
100
AcDbEntity
  8
0
 62
   139
370
     0
100
AcDbPolyline
 90
      244
 70
     1
 43
0.0
 10
2051.528208473696
 20
1517.363272783801
 10
2050.991578217472
 20
1517.946566540565
 10
2050.42578327341
 20
1518.518194422195
 10
2050.174966958
 20
1518.751511924901
 10
2049.626670826641
 20
1519.22397986788
 10
2049.055042945012
 20
1519.67311606059
 10
2048.460083313111
 20
1520.087254627893
 10
2047.847624868508
 20
1520.478061444926
 10
2047.211834673634
 20
1520.833870636553
 10
2046.558545666057
 20
1521.166348077909
 10
2045.876091970642
 20
1521.469660831427
 10
2045.176139462523
 20
1521.743808897106
 10
2044.452855204134
 20
1521.988792274948
 10
2043.712072133043
 20
1522.204610964951
 10
2042.947957311681
 20
1522.391264967116
 10
2042.160510740048
 20
1522.548754281442
 10
2041.349732418144
 20
1522.677078907931
 10
2040.521455283538
 20
1522.776238846581
 10
2039.669846398661
 20
1522.85206703496
 10
2038.794905763513
 20
1522.892897597934
 10
2037.902466315662
 20
1522.904563473069
 10
2037.739144063769
 20
1522.904563473069
 10
2036.84087167835
 20
1522.887064660366
 10
2035.965931043202
 20
1522.840401159825
 10
2035.108489220757
 20
1522.770405909013
 10
2034.280212086152
 20
1522.665413032795
 10
2033.469433764247
 20
1522.537088406308
 10
2032.676154255047
 20
1522.385432029549
 10
2031.912039433685
 20
1522.198778027383
 10
2031.165423425025
 20
1521.988792274948
 10
2030.436306229069
 20
1521.749641834674
 10
2029.736353720951
 20
1521.48715964413
 10
2029.053900025536
 20
1521.18967982818
 10
2028.394778080391
 20
1520.868868261959
 10
2027.753154947949
 20
1520.524724945468
 10
2027.140696503347
 20
1520.14558400357
 10
2026.545736871445
 20
1519.743111311402
 10
2025.968276052248
 20
1519.311473931397
 10
2025.419979920889
 20
1518.856504801119
 10
2025.355817607644
 20
1518.80400836301
 10
2024.830853226556
 20
1518.30820866976
 10
2024.329220595737
 20
1517.789077226239
 10
2023.856752652758
 20
1517.246614032447
 10
2023.407616460049
 20
1516.674986150818
 10
2022.993477892747
 20
1516.085859456486
 10
2022.596838138146
 20
1515.467568074314
 10
2022.235196008952
 20
1514.820112004304
 10
2021.896885630027
 20
1514.149324184024
 10
2021.581907001374
 20
1513.455204613474
 10
2021.29609306056
 20
1512.737753292653
 10
2021.039443807582
 20
1511.996970221561
 10
2020.806126304876
 20
1511.227022462631
 10
2020.601973490009
 20
1510.427910015863
 10
2020.426985362979
 20
1509.611298756392
 10
2020.275328986221
 20
1508.765522809082
 10
2020.1528372973
 20
1507.896415111502
 10
2020.053677358649
 20
1506.998142726084
 10
2026.989040126587
 20
1506.286524342831
 10
2026.994873064155
 20
1506.630667659322
 10
2027.041536564697
 20
1507.511441232038
 10
2027.134863565779
 20
1508.357217179347
 10
2027.269021129834
 20
1509.162162563683
 10
2027.449842194431
 20
1509.93794326018
 10
2027.671493822002
 20
1510.678726331272
 10
2027.939808950114
 20
1511.384511776958
 10
2028.254787578767
 20
1512.055299597238
 10
2028.610596770394
 20
1512.691089792112
 10
2029.013069462562
 20
1513.291882361581
 10
2029.462205655271
 20
1513.857677305642
 10
2029.952172410954
 20
1514.394307561866
 10
2029.958005348523
 20
1514.394307561866
 10
2030.50630147988
 20
1514.901773130252
 10
2031.083762299079
 20
1515.362575198096
 10
2031.696220743683
 20
1515.770880827831
 10
2032.337843876124
 20
1516.132522957026
 10
2033.014464633971
 20
1516.44750158568
 10
2033.726083017226
 20
1516.715816713791
 10
2034.466866088316
 20
1516.931635403794
 10
2035.236813847246
 20
1517.100790593256
 10
2036.047592169149
 20
1517.223282282177
 10
2036.881702241323
 20
1517.293277532988
 10
2037.750809938904
 20
1517.316609283259
 10
2038.194113194045
 20
1517.310776345692
 10
2039.039889141355
 20
1517.258279907583
 10
2039.856500400826
 20
1517.159119968933
 10
2040.638114034891
 20
1517.013296529741
 10
2041.390562981118
 20
1516.814976652441
 10
2042.113847239506
 20
1516.564160337032
 10
2042.80213387249
 20
1516.266680521082
 10
2043.461255817634
 20
1515.916704267023
 10
2044.09121307494
 20
1515.520064512423
 10
2044.68617270684
 20
1515.076761257281
 10
2045.251967650903
 20
1514.580961564031
 10
2045.671939155774
 20
1514.143491246457
 10
2046.179404724159
 20
1513.542698676989
 10
2046.628540916868
 20
1512.912741419682
 10
2047.019347733901
 20
1512.259452412105
 10
2047.351825175257
 20
1511.582831654258
 10
2047.620140303369
 20
1510.877046208572
 10
2047.830126055806
 20
1510.142096075048
 10
2047.981782432563
 20
1509.383814191254
 10
2048.069276496078
 20
1508.602200557188
 10
2048.098441183917
 20
1507.791422235285
 10
2048.098441183917
 20
1507.610601170688
 10
2048.057610620944
 20
1506.928147475272
 10
2047.970116557428
 20
1506.234027904722
 10
2047.835958993372
 20
1505.534075396604
 10
2047.649304991207
 20
1504.828289950918
 10
2047.410154550934
 20
1504.116671567664
 10
2047.124340610119
 20
1503.393387309276
 10
2046.791863168762
 20
1502.670103050887
 10
2046.406889289298
 20
1501.935152917363
 10
2045.969418971724
 20
1501.188536908703
 10
2045.485285153609
 20
1500.441920900044
 10
2044.948654897385
 20
1499.683639016249
 10
2044.901991396844
 20
1499.619476703005
 10
2044.587012768191
 20
1499.199505198134
 10
2044.242869451699
 20
1498.773700755696
 10
2043.881227322504
 20
1498.330397500555
 10
2043.484587567904
 20
1497.86959543271
 10
2043.064616063034
 20
1497.39712748973
 10
2042.621312807893
 20
1496.912993671615
 10
2042.154677802479
 20
1496.417193978365
 10
2041.653045171662
 20
1495.903895472412
 10
2041.133913728141
 20
1495.378931091323
 10
2040.585617596782
 20
1494.842300835099
 10
2040.008156777584
 20
1494.288171766173
 10
2039.413197145684
 20
1493.722376822111
 10
2038.783239888378
 20
1493.144916002913
 10
2038.129950880801
 20
1492.549956371012
 10
2037.453330122953
 20
1491.943330863976
 10
2036.747544677267
 20
1491.325039481805
 10
2036.018427481312
 20
1490.689249286931
 10
2035.265978535084
 20
1490.041793216922
 10
2034.484364901019
 20
1489.382671271778
 10
2033.673586579115
 20
1488.706050513931
 10
2032.839476506941
 20
1488.017763880947
 10
2032.670321317479
 20
1487.877773379323
 10
2031.92370530882
 20
1487.26531493472
 10
2031.206253987999
 20
1486.658689427684
 10
2030.517967355017
 20
1486.063729795784
 10
2029.847179534737
 20
1485.480436039019
 10
2029.199723464727
 20
1484.902975219821
 10
2028.575599144988
 20
1484.343013213327
 10
2027.97480657552
 20
1483.783051206833
 10
2027.397345756322
 20
1483.24058801304
 10
2026.849049624964
 20
1482.703957756817
 10
2026.318252306308
 20
1482.178993375728
 10
2025.816619675489
 20
1481.659861932207
 10
2025.332485857374
 20
1481.152396363822
 10
2024.877516727097
 20
1480.656596670571
 10
2024.440046409524
 20
1480.166629914888
 10
2024.031740779789
 20
1479.688329034341
 10
2023.565105774376
 20
1479.128367027847
 10
2023.034308455719
 20
1478.463412145134
 10
2022.532675824901
 20
1477.792624324855
 10
2022.06604081949
 20
1477.121836504575
 10
2021.622737564349
 20
1476.451048684295
 10
2021.208598997044
 20
1475.774427926447
 10
2020.82362511758
 20
1475.0978071686
 10
2020.467815925953
 20
1474.421186410752
 10
2020.135338484597
 20
1473.738732715337
 10
2019.837858668646
 20
1473.062111957489
 10
2019.569543540535
 20
1472.373825324506
 10
2019.301228412424
 20
1471.598044628009
 10
2019.091242659987
 20
1470.833929806646
 10
2018.939586283228
 20
1470.063982047717
 10
2018.834593407011
 20
1469.282368413651
 10
2018.782096968902
 20
1468.489088904451
 10
2018.782096968902
 20
1467.684143520115
 10
2055.109632140233
 20
1467.684143520115
 10
2055.109632140233
 20
1474.176203032911
 10
2028.155627640117
 20
1474.176203032911
 10
2028.493938019041
 20
1474.707000351567
 10
2028.925575399047
 20
1475.336957608873
 10
2029.392210404459
 20
1475.966914866179
 10
2029.893843035277
 20
1476.596872123486
 10
2030.430473291502
 20
1477.220996443225
 10
2031.002101173132
 20
1477.850953700531
 10
2031.019599985834
 20
1477.868452513234
 10
2031.311246864216
 20
1478.165932329184
 10
2031.655390180708
 20
1478.504242708108
 10
2032.052029935308
 20
1478.877550712437
 10
2032.49533319045
 20
1479.291689279741
 10
2032.9911328837
 20
1479.74082547245
 10
2033.539429015059
 20
1480.230792228133
 10
2034.140221584527
 20
1480.761589546789
 10
2034.787677654537
 20
1481.333217428419
 10
2035.487630162656
 20
1481.939842935455
 10
2036.240079108882
 20
1482.587299005464
 10
2037.045024493219
 20
1483.269752700879
 10
2037.896633378096
 20
1483.993036959269
 10
2038.800738701081
 20
1484.75715178063
 10
2039.483192396497
 20
1485.32877966226
 10
2040.258973092994
 20
1485.99956748254
 10
2041.017254976788
 20
1486.647023552549
 10
2041.746372172744
 20
1487.282813747423
 10
2042.446324680863
 20
1487.901105129594
 10
2043.12294543871
 20
1488.501897699062
 10
2043.776234446288
 20
1489.091024393395
 10
2044.400358766026
 20
1489.656819337457
 10
2045.001151335494
 20
1490.210948406384
 10
2045.572779217124
 20
1490.74174572504
 10
2046.121075348483
 20
1491.260877168561
 10
2046.640206792004
 20
1491.768342736947
 10
2047.136006485255
 20
1492.252476555062
 10
2047.602641490667
 20
1492.719111560474
 10
2048.045944745807
 20
1493.174080690751
 10
2048.465916250679
 20
1493.611551008325
 10
2048.856723067713
 20
1494.031522513196
 10
2049.224198134473
 20
1494.433995205363
 10
2049.335023948259
 20
1494.562319831852
 10
2049.924150642592
 20
1495.250606464834
 10
2050.478279711518
 20
1495.93306016025
 10
2050.997411155039
 20
1496.60384798053
 10
2051.481544973155
 20
1497.274635800809
 10
2051.936514103431
 20
1497.933757745954
 10
2052.350652670734
 20
1498.592879691099
 10
2052.735626550199
 20
1499.240335761109
 10
2053.085602804259
 20
1499.881958893549
 10
2053.400581432912
 20
1500.517749088424
 10
2053.686395373726
 20
1501.14770634573
 10
2053.814720000215
 20
1501.462684974383
 10
2054.10053394103
 20
1502.226799795746
 10
2054.351350256439
 20
1502.990914617108
 10
2054.561336008874
 20
1503.75502943847
 10
2054.730491198336
 20
1504.5249771974
 10
2054.864648762392
 20
1505.300757893898
 10
2054.957975763474
 20
1506.076538590395
 10
2055.016305139151
 20
1506.858152224461
 10
2055.033803951854
 20
1507.639765858526
 10
2055.027971014286
 20
1508.188061989885
 10
2054.981307513747
 20
1508.998840311788
 10
2054.899646387799
 20
1509.786286883421
 10
2054.782987636445
 20
1510.562067579919
 10
2054.625498322118
 20
1511.320349463714
 10
2054.433011382386
 20
1512.061132534807
 10
2054.19969387968
 20
1512.784416793194
 10
2053.931378751569
 20
1513.49020223888
 10
2053.622233060482
 20
1514.178488871862
 10
2053.278089743992
 20
1514.849276692143
 10
2052.898948802093
 20
1515.50256569972
 10
2052.478977297223
 20
1516.138355894595
 10
2052.018175229378
 20
1516.762480214332
  0
LWPOLYLINE
  5
531
330
1F
100
AcDbEntity
  8
0
 62
   139
370
     0
100
AcDbPolyline
 90
       52
 70
     1
 43
0.0
 10
2000.046701501606
 20
1510.713723956678
 10
2000.046701501606
 20
1467.684143520115
 10
2006.795410267378
 20
1467.684143520115
 10
2006.795410267378
 20
1522.904563473069
 10
2002.44403884191
 20
1522.904563473069
 10
2002.438205904343
 20
1522.887064660366
 10
2002.123227275689
 20
1522.297937966033
 10
2001.779083959198
 20
1521.697145396565
 10
2001.399943017301
 20
1521.096352827097
 10
2000.985804449998
 20
1520.49556025763
 10
2000.536668257288
 20
1519.888934750593
 10
2000.058367376741
 20
1519.27647630599
 10
1999.53923593322
 20
1518.664017861387
 10
1998.990939801861
 20
1518.051559416783
 10
1998.407646045096
 20
1517.427435097045
 10
1997.783521725357
 20
1516.809143714873
 10
1997.13023271778
 20
1516.185019395136
 10
1996.447779022366
 20
1515.555062137829
 10
1995.922814641277
 20
1515.094260069984
 10
1995.339520884512
 20
1514.604293314302
 10
1994.738728315043
 20
1514.120159496186
 10
1994.12626987044
 20
1513.647691553207
 10
1993.502145550701
 20
1513.181056547794
 10
1992.866355355827
 20
1512.726087417518
 10
1992.21306634825
 20
1512.282784162376
 10
1991.548111465538
 20
1511.85114678237
 10
1990.183204074707
 20
1511.017036710196
 10
1989.483251566589
 20
1510.614564018028
 10
1988.771633183336
 20
1510.217924263428
 10
1988.04251598738
 20
1509.83878332153
 10
1987.301732916289
 20
1509.4654753172
 10
1986.54928397006
 20
1509.103833188006
 10
1986.54928397006
 20
1502.576776049805
 10
1987.167575352232
 20
1502.81009355251
 10
1987.820864359809
 20
1503.078408680623
 10
1988.497485117656
 20
1503.370055559005
 10
1989.185771750639
 20
1503.685034187658
 10
1989.891557196325
 20
1504.023344566583
 10
1990.614841454714
 20
1504.384986695777
 10
1991.355624525806
 20
1504.769960575241
 10
1992.108073472032
 20
1505.178266204978
 10
1992.88385416853
 20
1505.609903584983
 10
1993.671300740163
 20
1506.06487271526
 10
1994.394584998552
 20
1506.496510095266
 10
1995.141201007211
 20
1506.968978038246
 10
1995.8644852656
 20
1507.435613043658
 10
1996.552771898583
 20
1507.90224804907
 10
1997.211893843728
 20
1508.37471599205
 10
1997.836018163466
 20
1508.841350997462
 10
1998.436810732934
 20
1509.307986002874
 10
1999.002605676997
 20
1509.780453945854
 10
1999.53923593322
 20
1510.247088951267
  0
LWPOLYLINE
  5
532
330
1F
100
AcDbEntity
  8
0
 62
   139
370
     0
100
AcDbPolyline
 90
       68
 70
     1
 43
0.0
 10
1956.780088919085
 20
1472.298261636572
 10
1955.778820034061
 20
1472.357159806279
 10
1954.232743079243
 20
1472.666375197242
 10
1952.775013378985
 20
1473.270081436743
 10
1951.40563093329
 20
1474.16827852478
 10
1950.139320284581
 20
1475.346241918927
 10
1948.976081432861
 20
1476.803971619184
 10
1948.534345160057
 20
1477.496025113245
 10
1948.00426163269
 20
1478.526743083124
 10
1947.547800817456
 20
1479.704706477271
 10
1947.135513629506
 20
1481.044639838114
 10
1946.782124611262
 20
1482.546543165651
 10
1946.472909220299
 20
1484.195691917457
 10
1946.222591999042
 20
1486.006810635958
 10
1946.031172947493
 20
1487.979899321156
 10
1945.898652065651
 20
1490.10023343062
 10
1945.810304811091
 20
1492.38253750678
 10
1945.780855726237
 20
1494.812087007208
 10
1945.795580268664
 20
1495.150751483025
 10
1945.825029353518
 20
1497.491953728893
 10
1945.913376608078
 20
1499.700635092919
 10
1946.060622032347
 20
1501.762071032676
 10
1946.266765626322
 20
1503.690986090592
 10
1946.531807390006
 20
1505.487380266666
 10
1946.84102278097
 20
1507.151253560899
 10
1947.223860884067
 20
1508.667881430864
 10
1947.650872614445
 20
1510.051988418986
 10
1948.136782514531
 20
1511.303574525268
 10
1948.681590584324
 20
1512.407915207281
 10
1949.270572281398
 20
1513.379735007452
 10
1949.520889502654
 20
1513.71839948327
 10
1950.684128354375
 20
1515.014159216831
 10
1951.979888087936
 20
1516.030152644283
 10
1953.422893245766
 20
1516.736930680773
 10
1956.691741664526
 20
1517.311187835418
 10
1957.766633261684
 20
1517.267014208138
 10
1959.32743475893
 20
1516.943074274747
 10
1960.785164459187
 20
1516.339368035247
 10
1962.154546904882
 20
1515.455895489637
 10
1963.435582096017
 20
1514.292656637916
 10
1964.613545490164
 20
1512.849651480086
 10
1965.055281762969
 20
1512.142873443598
 10
1965.570640747909
 20
1511.126880016146
 10
1966.027101563141
 20
1509.934192079572
 10
1966.439388751092
 20
1508.59425871873
 10
1966.778053226908
 20
1507.092355391192
 10
1967.087268617873
 20
1505.443206639386
 10
1967.322861296702
 20
1503.617363378458
 10
1967.514280348251
 20
1501.658999235688
 10
1967.646801230093
 20
1499.523940583797
 10
1967.735148484654
 20
1497.241636507637
 10
1967.764597569507
 20
1494.812087007208
 10
1967.735148484654
 20
1492.927345576573
 10
1967.676250314946
 20
1490.615592415559
 10
1967.543729433105
 20
1488.465809221241
 10
1967.367034923983
 20
1486.463271451192
 10
1967.146166787581
 20
1484.607979105409
 10
1966.851675939044
 20
1482.92938126875
 10
1966.513011463226
 20
1481.383304313931
 10
1966.115448817701
 20
1480.013921868235
 10
1965.673712544896
 20
1478.791784846807
 10
1965.173078102385
 20
1477.716893249648
 10
1964.613545490164
 20
1476.803971619184
 10
1963.892042911249
 20
1475.861600903866
 10
1962.655181347394
 20
1474.580565712731
 10
1961.315247986552
 20
1473.579296827706
 10
1959.901691913575
 20
1472.872518791218
 10
1958.385064043611
 20
1472.44550706084
  0
LWPOLYLINE
  5
533
102
{ACAD_REACTORS
330
53E
330
541
102
}
330
1F
100
AcDbEntity
  8
0
100
AcDbPolyline
 90
       21
 70
     0
 43
0.0
 10
1976.574556541882
 20
1527.271025454505
 10
1936.574556541882
 20
1527.271025454505
 10
1936.574556541882
 20
1462.271025454505
 10
1941.574556541882
 20
1462.271025454505
 10
1941.574556541882
 20
1457.271025454505
 10
1971.574556541882
 20
1457.271025454505
 10
1971.574556541882
 20
1462.271025454505
 10
1976.574556541882
 20
1462.271025454505
 10
1981.574556541882
 20
1462.271025454505
 10
1981.574556541882
 20
1457.271025454505
 10
2011.574556541882
 20
1457.271025454505
 10
2011.574556541882
 20
1462.271025454505
 10
2016.574556541882
 20
1462.271025454505
 10
2021.574556541882
 20
1462.271025454505
 10
2021.574556541882
 20
1457.271025454505
 10
2051.574556541882
 20
1457.271025454505
 10
2051.574556541882
 20
1462.271025454505
 10
2056.574556541882
 20
1462.271025454505
 10
2056.574556541882
 20
1527.271025454505
 10
2016.574556541882
 20
1527.271025454505
 10
2016.574556541882
 20
1462.271025454505
  0
LWPOLYLINE
  5
534
330
1F
100
AcDbEntity
  8
0
100
AcDbPolyline
 90
        3
 70
     0
 43
0.0
 10
1976.574556541882
 20
1462.271025454505
 10
1976.574556541882
 20
1527.271025454505
 10
2016.574556541882
 20
1527.271025454505
  0
LWPOLYLINE
  5
535
330
1F
100
AcDbEntity
  8
0
 62
   139
370
     0
100
AcDbPolyline
 90
       46
 70
     0
 43
0.0
 10
2054.428146609636
 20
1409.043738511683
 10
2054.833712393759
 20
1408.557059570734
 10
2055.215421367052
 20
1408.056066543287
 10
2055.573273529515
 20
1407.540759429341
 10
2055.912040243312
 20
1407.015909591063
 10
2056.231721508446
 20
1406.481517028453
 10
2056.532317324914
 20
1405.932810379344
 10
2056.809056330551
 20
1405.374561005903
 10
2057.061938525357
 20
1404.801997545964
 10
2057.300506633666
 20
1404.215119999526
 10
2057.515217931143
 20
1403.618699728755
 10
2057.706072417789
 20
1403.012736733653
 10
2057.882612817937
 20
1402.392459652052
 10
2058.030525045088
 20
1401.757868483952
 10
2058.164123185741
 20
1401.11373459152
 10
2058.273864515563
 20
1400.455286612589
 10
2058.36452039672
 20
1399.787295909326
 10
2058.431319467047
 20
1399.109762481732
 10
2058.479033088708
 20
1398.417914967638
 10
2058.507661261705
 20
1397.711753367046
 10
2058.512432623871
 20
1397.153503993605
 10
2058.502889899539
 20
1396.456885117345
 10
2058.474261726543
 20
1395.769808965417
 10
2058.42654810488
 20
1395.087504175657
 10
2058.359749034555
 20
1394.419513472393
 10
2058.269093153397
 20
1393.756294131297
 10
2058.164123185741
 20
1393.102617514533
 10
2058.040067769422
 20
1392.458483622101
 10
2057.896926904437
 20
1391.823892454001
 10
2057.734700590787
 20
1391.198844010234
 10
2057.548617466306
 20
1390.583338290798
 10
2057.348220255327
 20
1389.97260393353
 10
2057.128737595684
 20
1389.376183662759
 10
2056.885398125209
 20
1388.784534754156
 10
2056.627744568237
 20
1388.207199932049
 10
2056.351005562599
 20
1387.63463647211
 10
2056.050409746131
 20
1387.071615736503
 10
2055.735499843165
 20
1386.513366363062
 10
2055.396733129367
 20
1385.969431076119
 10
2055.043652329072
 20
1385.435038513509
 10
2054.666714717944
 20
1384.905417313065
 10
2054.275463020318
 20
1384.39011019912
 10
2054.160950328331
 20
1384.246969334134
 10
2053.745841819874
 20
1383.736433582355
 10
2053.31641922492
 20
1383.249754641406
 10
2052.872861514086
 20
1382.777366218618
  0
LWPOLYLINE
  5
536
330
1F
100
AcDbEntity
  8
0
 62
   139
370
     0
100
AcDbPolyline
 90
      328
 70
     0
 43
0.0
 10
2039.727579775688
 20
1383.12092786292
 10
2039.288614456401
 20
1383.130470587252
 10
2038.611081028806
 20
1383.173412846747
 10
2037.952633049875
 20
1383.259297365739
 10
2037.31327051961
 20
1383.378581419893
 10
2036.692993438008
 20
1383.540807733542
 10
2036.087030442906
 20
1383.741204944521
 10
2035.500152896467
 20
1383.975001690663
 10
2034.932360798694
 20
1384.256512058466
 10
2034.37888278742
 20
1384.571421961433
 10
2033.844490224809
 20
1384.92450276173
 10
2033.329183110864
 20
1385.315754459355
 10
2032.828190083416
 20
1385.749948416475
 10
2032.646878321102
 20
1385.916946092291
 10
2032.241312536978
 20
1386.332054600747
 10
2031.854832201519
 20
1386.771019920034
 10
2031.492208676891
 20
1387.238613412319
 10
2031.153441963093
 20
1387.739606439765
 10
2030.838532060127
 20
1388.264456278043
 10
2030.54747896799
 20
1388.822705651484
 10
2030.280282686685
 20
1389.404811835756
 10
2030.032171854046
 20
1390.020317555191
 10
2029.812689194402
 20
1390.659680085457
 10
2029.612291983423
 20
1391.332442150886
 10
2029.435751583275
 20
1392.029061027146
 10
2029.283067993957
 20
1392.759079438569
 10
2029.154241215471
 20
1393.512954660822
 10
2022.068768398718
 20
1392.916534390052
 10
2022.111710658215
 20
1392.520511330261
 10
2022.202366539372
 20
1391.828663816167
 10
2022.31687923136
 20
1391.146359026406
 10
2022.450477372013
 20
1390.483139685309
 10
2022.607932323496
 20
1389.829463068545
 10
2022.784472723643
 20
1389.190100538279
 10
2022.980098572457
 20
1388.569823456678
 10
2023.204352594266
 20
1387.959089099409
 10
2023.442920702574
 20
1387.367440190805
 10
2023.705345621714
 20
1386.785334006533
 10
2023.991627351684
 20
1386.222313270926
 10
2024.296994530317
 20
1385.668835259651
 10
2024.621447157616
 20
1385.129671334875
 10
2024.969756595747
 20
1384.609592858763
 10
2025.337151482542
 20
1384.099057106984
 10
2025.728403180167
 20
1383.607606803868
 10
2026.143511688622
 20
1383.125699225086
 10
2026.577705645744
 20
1382.662877094968
 10
2027.03098505153
 20
1382.209597689183
 10
2027.508121268145
 20
1381.770632369896
 10
2027.656033495297
 20
1381.641805591409
 10
2028.133169711912
 20
1381.241011169452
 10
2028.624620015027
 20
1380.868844920491
 10
2029.125613042474
 20
1380.510992758029
 10
2029.64092015642
 20
1380.176997406397
 10
2030.170541356865
 20
1379.857316141264
 10
2030.714476643806
 20
1379.566263049129
 10
2031.272726017247
 20
1379.289524043491
 10
2031.840518115021
 20
1379.036641848684
 10
2032.427395661459
 20
1378.802845102543
 10
2033.02381593223
 20
1378.588133805065
 10
2033.629778927332
 20
1378.392507956253
 10
2034.254827371099
 20
1378.22073891827
 10
2034.894189901365
 20
1378.068055328953
 10
2035.543095155964
 20
1377.939228550467
 10
2036.206314497059
 20
1377.824715858479
 10
2036.883847924655
 20
1377.734059977322
 10
2037.575695438748
 20
1377.66248954483
 10
2038.28185703934
 20
1377.610004561002
 10
2038.997561364265
 20
1377.581376388005
 10
2039.727579775688
 20
1377.571833663673
 10
2040.199944630138
 20
1377.576605025839
 10
2040.901334868566
 20
1377.600461836669
 10
2041.588411020491
 20
1377.643404096165
 10
2042.265944448087
 20
1377.705431804325
 10
2042.929163789183
 20
1377.791316323316
 10
2043.578069043781
 20
1377.896286290972
 10
2044.222202936214
 20
1378.020341707292
 10
2044.847251379982
 20
1378.168253934443
 10
2045.467528461582
 20
1378.330480248092
 10
2046.073491456685
 20
1378.516563372573
 10
2046.665140365289
 20
1378.726503307884
 10
2047.247246549561
 20
1378.950757329693
 10
2047.8198100095
 20
1379.198868162334
 10
2048.378059382941
 20
1379.466064443639
 10
2048.921994669884
 20
1379.752346173609
 10
2049.456387232494
 20
1380.057713352243
 10
2049.981237070773
 20
1380.386937341708
 10
2050.491772822551
 20
1380.735246779838
 10
2050.992765849998
 20
1381.102641666634
 10
2051.479444790947
 20
1381.489122002092
 10
2051.956581007563
 20
1381.899459148382
 10
2052.419403137681
 20
1382.328881743337
 10
2052.872861514086
 20
1382.777366218618
 10
2053.31641922492
 20
1383.249754641406
 10
2053.745841819874
 20
1383.736433582355
 10
2054.160950328331
 20
1384.246969334134
 10
2054.275463020318
 20
1384.39011019912
 10
2054.666714717944
 20
1384.905417313065
 10
2055.043652329072
 20
1385.435038513509
 10
2055.396733129367
 20
1385.969431076119
 10
2055.735499843165
 20
1386.513366363062
 10
2056.050409746131
 20
1387.071615736503
 10
2056.351005562599
 20
1387.63463647211
 10
2056.627744568237
 20
1388.207199932049
 10
2056.885398125209
 20
1388.784534754156
 10
2057.128737595684
 20
1389.376183662759
 10
2057.348220255327
 20
1389.97260393353
 10
2057.548617466306
 20
1390.583338290798
 10
2057.734700590787
 20
1391.198844010234
 10
2057.896926904437
 20
1391.823892454001
 10
2058.040067769422
 20
1392.458483622101
 10
2058.164123185741
 20
1393.102617514533
 10
2058.269093153397
 20
1393.756294131297
 10
2058.359749034555
 20
1394.419513472393
 10
2058.42654810488
 20
1395.087504175657
 10
2058.474261726543
 20
1395.769808965417
 10
2058.502889899539
 20
1396.456885117345
 10
2058.512432623871
 20
1397.153503993605
 10
2058.507661261705
 20
1397.711753367046
 10
2058.479033088708
 20
1398.417914967638
 10
2058.431319467047
 20
1399.109762481732
 10
2058.36452039672
 20
1399.787295909326
 10
2058.273864515563
 20
1400.455286612589
 10
2058.164123185741
 20
1401.11373459152
 10
2058.030525045088
 20
1401.757868483952
 10
2057.882612817937
 20
1402.392459652052
 10
2057.706072417789
 20
1403.012736733653
 10
2057.515217931143
 20
1403.618699728755
 10
2057.300506633666
 20
1404.215119999526
 10
2057.061938525357
 20
1404.801997545964
 10
2056.809056330551
 20
1405.374561005903
 10
2056.532317324914
 20
1405.932810379344
 10
2056.231721508446
 20
1406.481517028453
 10
2055.912040243312
 20
1407.015909591063
 10
2055.573273529515
 20
1407.540759429341
 10
2055.215421367052
 20
1408.056066543287
 10
2054.833712393759
 20
1408.557059570734
 10
2054.428146609636
 20
1409.043738511683
 10
2054.008266739014
 20
1409.520874728298
 10
2053.56453005756
 20
1409.983696858416
 10
2053.163735635602
 20
1410.374948556042
 10
2052.672285332488
 20
1410.823456599661
 10
2052.176063667207
 20
1411.24810783245
 10
2051.665527915427
 20
1411.648902254408
 10
2051.145449439316
 20
1412.0306112277
 10
2050.615828238873
 20
1412.388463390162
 10
2050.076664314095
 20
1412.717687379628
 10
2049.52318630282
 20
1413.027825920429
 10
2048.960165567213
 20
1413.318879012565
 10
2048.39237346944
 20
1413.581303931703
 10
2047.805495923001
 20
1413.824643402178
 10
2047.213847014398
 20
1414.039354699655
 10
2046.612655381461
 20
1414.234980548468
 10
2045.997149662027
 20
1414.411520948616
 10
2045.376872580425
 20
1414.559433175767
 10
2044.742281412326
 20
1414.683488592087
 10
2044.098147519893
 20
1414.788458559743
 10
2043.444470903129
 20
1414.869571716567
 10
2042.776480199866
 20
1414.926828062561
 10
2042.103718134438
 20
1414.960227597725
 10
2041.416641982511
 20
1414.974541684223
 10
2040.791593538742
 20
1414.960227597725
 10
2040.157002370643
 20
1414.926828062561
 10
2039.522411202544
 20
1414.864800354402
 10
2038.897362758776
 20
1414.783687197577
 10
2038.272314315008
 20
1414.673945867755
 10
2037.647265871241
 20
1414.545119089268
 10
2037.031760151807
 20
1414.387664137785
 10
2036.416254432371
 20
1414.211123737637
 10
2035.805520075102
 20
1414.005955164492
 10
2035.194785717833
 20
1413.781701142682
 10
2034.588822722731
 20
1413.528818947876
 10
2033.987631089795
 20
1413.256851304404
 10
2033.391210819024
 20
1412.956255487937
 10
2032.794790548254
 20
1412.631802860637
 10
2032.20314163965
 20
1412.288264784673
 10
2031.616264093211
 20
1411.916098535713
 10
2031.029386546773
 20
1411.520075475921
 10
2033.992402451962
 20
1426.301755466694
 10
2055.926354329811
 20
1426.301755466694
 10
2055.926354329811
 20
1432.752637115347
 10
2028.59599184203
 20
1432.752637115347
 10
2023.271151664593
 20
1404.506173091662
 10
2029.607520621256
 20
1403.680727436915
 10
2029.841317367398
 20
1404.038579599377
 10
2030.223026340691
 20
1404.55865807549
 10
2030.633363486981
 20
1405.054879740771
 10
2031.077100168435
 20
1405.52724459522
 10
2031.544693660719
 20
1405.97575263884
 10
2032.045686688166
 20
1406.400403871628
 10
2032.580079250775
 20
1406.805969655752
 10
2033.138328624217
 20
1407.187678629045
 10
2033.729977532821
 20
1407.545530791507
 10
2033.911289295135
 20
1407.64095803483
 10
2034.483852755075
 20
1407.932011126967
 10
2035.075501663679
 20
1408.180121959607
 10
2035.681464658782
 20
1408.399604619251
 10
2036.301741740383
 20
1408.585687743731
 10
2036.931561546316
 20
1408.738371333048
 10
2037.580466800915
 20
1408.857655387202
 10
2038.243686142012
 20
1408.938768544027
 10
2038.925990931773
 20
1408.991253527855
 10
2039.617838445866
 20
1409.01033897652
 10
2039.985233332661
 20
1409.005567614353
 10
2040.691394933253
 20
1408.97216807919
 10
2041.378471085181
 20
1408.905369008864
 10
2042.041690426277
 20
1408.809941765541
 10
2042.690595680875
 20
1408.685886349221
 10
2043.320415486809
 20
1408.523660035571
 10
2043.926378481912
 20
1408.332805548924
 10
2044.518027390515
 20
1408.113322889281
 10
2045.090590850455
 20
1407.860440694474
 10
2045.64406886173
 20
1407.574158964505
 10
2046.178461424339
 20
1407.254477699371
 10
2046.693768538287
 20
1406.906168261241
 10
2047.189990203566
 20
1406.524459287948
 10
2047.667126420183
 20
1406.114122141658
 10
2048.125177188135
 20
1405.670385460205
 10
2048.24446124229
 20
1405.546330043885
 10
2048.645255664246
 20
1405.0930506381
 10
2049.017421913208
 20
1404.62068578365
 10
2049.360959989171
 20
1404.124464118369
 10
2049.680641254304
 20
1403.609157004423
 10
2049.971694346439
 20
1403.069993079647
 10
2050.234119265578
 20
1402.511743706205
 10
2050.467916011721
 20
1401.9344088841
 10
2050.673084584866
 20
1401.333217251163
 10
2050.85439634718
 20
1400.712940169562
 10
2051.007079936497
 20
1400.073577639296
 10
2051.131135352817
 20
1399.4103582982
 10
2051.226562596141
 20
1398.728053508438
 10
2051.293361666467
 20
1398.021891907846
 10
2051.336303925962
 20
1397.296644858589
 10
2051.350618012461
 20
1396.552312360668
 10
2051.350618012461
 20
1396.361457874023
 10
2051.331532563796
 20
1395.631439462599
 10
2051.283818942135
 20
1394.915735137675
 10
2051.217019871808
 20
1394.214344899249
 10
2051.121592628486
 20
1393.536811471654
 10
2050.997537212166
 20
1392.873592130557
 10
2050.849624985014
 20
1392.229458238125
 10
2050.677855947032
 20
1391.604409794357
 10
2050.482230098219
 20
1390.998446799254
 10
2050.257976076411
 20
1390.411569252817
 10
2050.009865243769
 20
1389.839005792877
 10
2049.733126238131
 20
1389.290299143768
 10
2049.432530421663
 20
1388.755906581158
 10
2049.108077794365
 20
1388.240599467213
 10
2048.754996994068
 20
1387.739606439765
 10
2048.378059382941
 20
1387.26247022315
 10
2047.977264960984
 20
1386.799648093032
 10
2047.786410474338
 20
1386.594479519886
 10
2047.304502895555
 20
1386.11734330327
 10
2046.808281230275
 20
1385.673606621817
 10
2046.297745478494
 20
1385.268040837693
 10
2045.772895640216
 20
1384.895874588732
 10
2045.23373171544
 20
1384.557107874935
 10
2044.680253704166
 20
1384.256512058466
 10
2044.112461606392
 20
1383.989315777161
 10
2043.53035542212
 20
1383.760290393186
 10
2042.929163789183
 20
1383.564664544373
 10
2042.318429431915
 20
1383.407209592889
 10
2041.693380988147
 20
1383.283154176569
 10
2041.054018457881
 20
1383.192498295412
 10
2040.400341841117
 20
1383.140013311584
 10
2039.727579775688
 20
1383.12092786292
 10
2040.400341841117
 20
1383.140013311584
 10
2041.054018457881
 20
1383.192498295412
 10
2041.693380988147
 20
1383.283154176569
 10
2042.318429431915
 20
1383.407209592889
 10
2042.929163789183
 20
1383.564664544373
 10
2043.53035542212
 20
1383.760290393186
 10
2044.112461606392
 20
1383.989315777161
 10
2044.680253704166
 20
1384.256512058466
 10
2045.23373171544
 20
1384.557107874935
 10
2045.772895640216
 20
1384.895874588732
 10
2046.297745478494
 20
1385.268040837693
 10
2046.808281230275
 20
1385.673606621817
 10
2047.304502895555
 20
1386.11734330327
 10
2047.786410474338
 20
1386.594479519886
 10
2047.977264960984
 20
1386.799648093032
 10
2048.378059382941
 20
1387.26247022315
 10
2048.754996994068
 20
1387.739606439765
 10
2049.108077794365
 20
1388.240599467213
 10
2049.432530421663
 20
1388.755906581158
 10
2049.733126238131
 20
1389.290299143768
 10
2050.009865243769
 20
1389.839005792877
 10
2050.257976076411
 20
1390.411569252817
 10
2050.482230098219
 20
1390.998446799254
 10
2050.677855947032
 20
1391.604409794357
 10
2050.849624985014
 20
1392.229458238125
 10
2050.997537212166
 20
1392.873592130557
 10
2051.121592628486
 20
1393.536811471654
 10
2051.217019871808
 20
1394.214344899249
 10
2051.283818942135
 20
1394.915735137675
 10
2051.331532563796
 20
1395.631439462599
 10
2051.350618012461
 20
1396.361457874023
 10
2051.350618012461
 20
1396.552312360668
 10
2051.336303925962
 20
1397.296644858589
 10
2051.293361666467
 20
1398.021891907846
 10
2051.226562596141
 20
1398.728053508438
 10
2051.131135352817
 20
1399.4103582982
 10
2051.007079936497
 20
1400.073577639296
 10
2050.85439634718
 20
1400.712940169562
 10
2050.673084584866
 20
1401.333217251163
 10
2050.467916011721
 20
1401.9344088841
 10
2050.234119265578
 20
1402.511743706205
 10
2049.971694346439
 20
1403.069993079647
 10
2049.680641254304
 20
1403.609157004423
 10
2049.360959989171
 20
1404.124464118369
 10
2049.017421913208
 20
1404.62068578365
 10
2048.645255664246
 20
1405.0930506381
 10
2048.24446124229
 20
1405.546330043885
 10
2048.125177188135
 20
1405.670385460205
 10
2047.667126420183
 20
1406.114122141658
 10
2047.189990203566
 20
1406.524459287948
 10
2046.693768538287
 20
1406.906168261241
 10
2046.178461424339
 20
1407.254477699371
 10
2045.64406886173
 20
1407.574158964505
 10
2045.090590850455
 20
1407.860440694474
 10
2044.518027390515
 20
1408.113322889281
 10
2043.926378481912
 20
1408.332805548924
 10
2043.320415486809
 20
1408.523660035571
 10
2042.690595680875
 20
1408.685886349221
 10
2042.041690426277
 20
1408.809941765541
 10
2041.378471085181
 20
1408.905369008864
 10
2040.691394933253
 20
1408.97216807919
 10
2039.985233332661
 20
1409.005567614353
 10
2039.617838445866
 20
1409.01033897652
  0
LWPOLYLINE
  5
537
330
1F
100
AcDbEntity
  8
0
 62
   139
370
     0
100
AcDbPolyline
 90
        4
 70
     1
 43
0.0
 10
2004.806110460386
 20
1422.664318154262
 10
2004.806110460386
 20
1397.86827134222
 10
2004.806110460386
 20
1397.86827134222
 10
1987.596308487894
 20
1397.86827134222
  0
LWPOLYLINE
  5
538
330
1F
100
AcDbEntity
  8
0
 62
   139
370
     0
100
AcDbPolyline
 90
       10
 70
     1
 43
0.0
 10
2011.552620022099
 20
1397.86827134222
 10
2011.552620022099
 20
1433.504537195431
 10
2006.041857261292
 20
1433.504537195431
 10
1980.959537059079
 20
1397.86827134222
 10
1980.959537059079
 20
1391.675223668171
 10
2004.806110460386
 20
1391.675223668171
 10
2004.806110460386
 20
1378.506647720272
 10
2011.552620022099
 20
1378.506647720272
 10
2011.552620022099
 20
1391.675223668171
 10
2018.976643273886
 20
1391.675223668171
  0
LWPOLYLINE
  5
539
330
1F
100
AcDbEntity
  8
0
 62
   139
370
     0
100
AcDbPolyline
 90
      250
 70
     0
 43
0.0
 10
1973.654721546834
 20
1405.276808376131
 10
1974.554115449708
 20
1404.429103778019
 10
1975.370806464962
 20
1403.488358431334
 10
1975.422495769725
 20
1403.415993404666
 10
1976.104794592595
 20
1402.413220892266
 10
1976.694052666892
 20
1401.348421214151
 10
1977.169594270711
 20
1400.211256509367
 10
1977.562432986909
 20
1399.012064638868
 10
1977.841555232628
 20
1397.750845602653
 10
1978.027636729775
 20
1396.41726153977
 10
1978.110339617395
 20
1395.021650311172
 10
1978.120677478348
 20
1394.525432985448
 10
1978.068988173585
 20
1393.202186783518
 10
1977.934595981202
 20
1391.920292025398
 10
1977.707163040245
 20
1390.669410850135
 10
1977.386689350715
 20
1389.459881118684
 10
1976.973174912612
 20
1388.291702831043
 10
1976.476957586888
 20
1387.154538126259
 10
1975.877361651638
 20
1386.069062726238
 10
1975.195062828768
 20
1385.014600909075
 10
1974.419723257325
 20
1383.99115267477
 10
1973.551342937308
 20
1383.019393745227
 10
1972.869044114437
 20
1382.337094922357
 10
1971.928298767753
 20
1381.489390324246
 10
1970.946201977258
 20
1380.724388613754
 10
1969.912415882
 20
1380.031751929932
 10
1968.837278342932
 20
1379.42181813373
 10
1967.731127221005
 20
1378.894587225148
 10
1966.573286794317
 20
1378.429383482282
 10
1965.374094923817
 20
1378.057220487989
 10
1964.133551609508
 20
1377.757422520364
 10
1962.841318990435
 20
1377.529989579407
 10
1961.518072788505
 20
1377.385259526071
 10
1960.143137281813
 20
1377.312894499403
 10
1959.595230651325
 20
1377.312894499403
 10
1958.199619422727
 20
1377.354245943213
 10
1956.855697498892
 20
1377.478300274645
 10
1955.553127018867
 20
1377.685057493696
 10
1954.302245843605
 20
1377.974517600368
 10
1953.092716112153
 20
1378.346680594661
 10
1951.934875685464
 20
1378.801546476574
 10
1950.828724563539
 20
1379.339115246109
 10
1949.763924885422
 20
1379.969724764216
 10
1948.75081451207
 20
1380.672699308991
 10
1947.779055582527
 20
1381.458376741387
 10
1947.603311946333
 20
1381.623782516629
 10
1946.683242321554
 20
1382.512838558551
 10
1947.603311946333
 20
1381.623782516629
 10
1947.779055582527
 20
1381.458376741387
 10
1948.75081451207
 20
1380.672699308991
 10
1949.763924885422
 20
1379.969724764216
 10
1950.828724563539
 20
1379.339115246109
 10
1951.934875685464
 20
1378.801546476574
 10
1953.092716112153
 20
1378.346680594661
 10
1954.302245843605
 20
1377.974517600368
 10
1955.553127018867
 20
1377.685057493696
 10
1956.855697498892
 20
1377.478300274645
 10
1958.199619422727
 20
1377.354245943213
 10
1959.595230651325
 20
1377.312894499403
 10
1960.143137281813
 20
1377.312894499403
 10
1961.518072788505
 20
1377.385259526071
 10
1962.841318990435
 20
1377.529989579407
 10
1964.133551609508
 20
1377.757422520364
 10
1965.374094923817
 20
1378.057220487989
 10
1966.573286794317
 20
1378.429383482282
 10
1967.731127221005
 20
1378.894587225148
 10
1968.837278342932
 20
1379.42181813373
 10
1969.912415882
 20
1380.031751929932
 10
1970.946201977258
 20
1380.724388613754
 10
1971.928298767753
 20
1381.489390324246
 10
1972.869044114437
 20
1382.337094922357
 10
1973.551342937308
 20
1383.019393745227
 10
1974.419723257325
 20
1383.99115267477
 10
1975.195062828768
 20
1385.014600909075
 10
1975.877361651638
 20
1386.069062726238
 10
1976.476957586888
 20
1387.154538126259
 10
1976.973174912612
 20
1388.291702831043
 10
1977.386689350715
 20
1389.459881118684
 10
1977.707163040245
 20
1390.669410850135
 10
1977.934595981202
 20
1391.920292025398
 10
1978.068988173585
 20
1393.202186783518
 10
1978.120677478348
 20
1394.525432985448
 10
1978.110339617395
 20
1395.021650311172
 10
1978.027636729775
 20
1396.41726153977
 10
1977.841555232628
 20
1397.750845602653
 10
1977.562432986909
 20
1399.012064638868
 10
1977.169594270711
 20
1400.211256509367
 10
1976.694052666892
 20
1401.348421214151
 10
1976.104794592595
 20
1402.413220892266
 10
1975.422495769725
 20
1403.415993404666
 10
1975.370806464962
 20
1403.488358431334
 10
1974.554115449708
 20
1404.429103778019
 10
1973.654721546834
 20
1405.276808376131
 10
1972.672624756339
 20
1406.021134364716
 10
1971.597487217271
 20
1406.682757465681
 10
1970.429308929629
 20
1407.241001957121
 10
1969.178427754367
 20
1407.706205699987
 10
1967.844843691484
 20
1408.068030833327
 10
1968.785589038169
 20
1408.533234576193
 10
1969.95376732581
 20
1409.225871260016
 10
1971.008229142973
 20
1409.990872970507
 10
1971.948974489658
 20
1410.828239707666
 10
1972.786341226817
 20
1411.737971471493
 10
1973.509991493497
 20
1412.720068261988
 10
1973.727086573502
 20
1413.071555534375
 10
1974.337020369704
 20
1414.20872023916
 10
1974.812561973522
 20
1415.387236387753
 10
1975.143373524005
 20
1416.61744184111
 10
1975.350130743057
 20
1417.888998738278
 10
1975.422495769725
 20
1419.212244940208
 10
1975.381144325915
 20
1420.194341730703
 10
1975.236414272578
 20
1421.46589862787
 10
1974.967629887811
 20
1422.70644194218
 10
1974.574791171614
 20
1423.936647395536
 10
1974.057898123984
 20
1425.125501405083
 10
1973.437626466831
 20
1426.304017553678
 10
1973.334247857304
 20
1426.46942332892
 10
1972.610597590623
 20
1427.503209424177
 10
1971.804244436322
 20
1428.464630492767
 10
1970.894512672496
 20
1429.364024395641
 10
1969.902078021047
 20
1430.180715410896
 10
1968.806264760075
 20
1430.925041399481
 10
1967.617410750527
 20
1431.586664500446
 10
1966.914436205752
 20
1431.927813911881
 10
1965.735920057158
 20
1432.413693376652
 10
1964.516052464754
 20
1432.80653209285
 10
1963.275509150444
 20
1433.106330060475
 10
1961.993614392324
 20
1433.333763001432
 10
1960.680706051347
 20
1433.457817332863
 10
1959.336784127511
 20
1433.509506637626
 10
1959.088675464649
 20
1433.499168776673
 10
1957.703402097003
 20
1433.44747947191
 10
1956.359480173168
 20
1433.292411557621
 10
1955.077585415048
 20
1433.064978616665
 10
1953.837042100739
 20
1432.734167066182
 10
1952.658525952145
 20
1432.320652628079
 10
1951.521361247361
 20
1431.824435302355
 10
1950.43588584734
 20
1431.235177228058
 10
1949.412437613035
 20
1430.552878405188
 10
1948.43034082254
 20
1429.787876694697
 10
1947.985812801579
 20
1429.395037978499
 10
1947.127770342515
 20
1428.536995519435
 10
1946.34209291012
 20
1427.616925894655
 10
1945.628780504391
 20
1426.624491243207
 10
1944.977495264378
 20
1425.559691565092
 10
1944.408912911986
 20
1424.43286472126
 10
1943.90235772531
 20
1423.244010711714
 10
1943.468167565302
 20
1421.982791675499
 10
1943.096004571009
 20
1420.649207612617
 10
1942.806544464337
 20
1419.253596384018
 10
1949.546829805418
 20
1418.044066652567
 10
1949.670884136849
 20
1418.73670333639
 10
1949.981019965427
 20
1420.152990286892
 10
1950.39453440353
 20
1421.455560766918
 10
1950.890751729255
 20
1422.644414776464
 10
1951.480009803551
 20
1423.70921445458
 10
1952.162308626421
 20
1424.649959801265
 10
1952.927310336912
 20
1425.476988677471
 10
1953.526906272161
 20
1425.9938817251
 10
1954.550354506467
 20
1426.696856269875
 10
1955.656505628393
 20
1427.244762900362
 10
1956.855697498892
 20
1427.63760161656
 10
1958.127254396059
 20
1427.87537241847
 10
1959.481514180847
 20
1427.947737445138
 10
1960.277529474196
 20
1427.927061723232
 10
1961.611113537078
 20
1427.761655947991
 10
1962.841318990435
 20
1427.430844397509
 10
1963.978483695219
 20
1426.95530279369
 10
1965.02260765143
 20
1426.31435541463
 10
1965.973690859067
 20
1425.518340121281
 10
1966.294164548597
 20
1425.177190709846
 10
1967.079841980993
 20
1424.195093919351
 10
1967.700113638148
 20
1423.119956380283
 10
1968.134303798156
 20
1421.951778092642
 10
1968.392750321971
 20
1420.70089691738
 10
1968.485791070544
 20
1419.356974993544
 10
1968.465115348639
 20
1418.716027614484
 10
1968.31004743435
 20
1417.37210569065
 10
1967.98957374482
 20
1416.152238098244
 10
1967.493356419096
 20
1415.046086976319
 10
1966.842071179084
 20
1414.053652324871
 10
1966.02538016383
 20
1413.174934143902
 10
1965.032945512382
 20
1412.420270294363
 10
1964.66078251809
 20
1412.182499492454
 10
1963.533955674258
 20
1411.572565696252
 10
1962.365777386617
 20
1411.066010509575
 10
1961.156247655165
 20
1410.673171793377
 10
1959.905366479903
 20
1410.394049547658
 10
1958.613133860831
 20
1410.228643772416
 10
1957.269211936995
 20
1410.166616606701
 10
1956.183736536974
 20
1410.249319494322
 10
1955.439410548389
 20
1404.315387307541
 10
1956.483534504599
 20
1404.573833831356
 10
1957.858470011292
 20
1404.852956077075
 10
1959.099013325602
 20
1405.018361852316
 10
1960.194826586575
 20
1405.070051157079
 10
1961.114896211355
 20
1405.039037574222
 10
1962.438142413285
 20
1404.883969659933
 10
1963.678685727594
 20
1404.584171692308
 10
1964.857201876188
 20
1404.160319393252
 10
1965.953015137162
 20
1403.602074901813
 10
1966.976463371467
 20
1402.899100357037
 10
1967.917208718152
 20
1402.072071480831
 10
1968.485791070544
 20
1401.451799823676
 10
1969.240454920083
 20
1400.459365172229
 10
1969.860726577237
 20
1399.38422763316
 10
1970.336268181056
 20
1398.247062928377
 10
1970.687755453443
 20
1397.027195335972
 10
1970.894512672496
 20
1395.7349627169
 10
1970.95653983821
 20
1394.380702932112
 10
1970.95653983821
 20
1394.266986461634
 10
1970.884174811542
 20
1392.923064537798
 10
1970.677417592491
 20
1391.651507640631
 10
1970.336268181056
 20
1390.431640048227
 10
1969.87106443819
 20
1389.28413748249
 10
1969.281806363893
 20
1388.188324221517
 10
1968.54781823626
 20
1387.164875987212
 10
1967.700113638148
 20
1386.203454918622
 10
1967.679437916243
 20
1386.182779196716
 10
1966.707678986701
 20
1385.3143988767
 10
1965.684230752395
 20
1384.580410749067
 10
1964.588417491421
 20
1383.970476952865
 10
1963.440914925685
 20
1383.505273209999
 10
1962.231385194233
 20
1383.164123798563
 10
1961.017685964503
 20
1382.976641803727
 10
1959.636588438685
 20
1382.992528436539
 10
1958.551106695115
 20
1382.947028718559
 10
1957.258874076043
 20
1383.143448076658
 10
1956.049344344591
 20
1383.494935349046
 10
1954.912179639808
 20
1383.99115267477
 10
1953.847379961692
 20
1384.642437914782
 10
1952.854945310244
 20
1385.448791069083
 10
1952.67920167405
 20
1385.614196844324
 10
1951.945213546417
 20
1386.399874276721
 10
1951.273252584499
 20
1387.299268179595
 10
1950.663318788297
 20
1388.333054274853
 10
1950.125750018763
 20
1389.490894701542
 10
1949.650208414944
 20
1390.772789459662
 10
1949.226356115888
 20
1392.178738549213
 10
1948.874868843501
 20
1393.698404109242
 10
1942.124245641466
 20
1392.799010206368
 10
1942.29998927766
 20
1391.506777587295
 10
1942.548097940522
 20
1390.204207107269
 10
1942.889247351957
 20
1388.953325932008
 10
1943.313099651014
 20
1387.743796200556
 10
1943.819654837689
 20
1386.59629363482
 10
1944.408912911986
 20
1385.500480373847
 10
1945.080873873904
 20
1384.456356417636
 10
1945.835537723442
 20
1383.453583905236
 10
1946.683242321554
 20
1382.512838558551
  0
LWPOLYLINE
  5
53A
330
1F
100
AcDbEntity
  8
0
100
AcDbPolyline
 90
       21
 70
     0
 43
0.0
 10
1979.955840244571
 20
1437.869503941792
 10
1939.955840244571
 20
1437.869503941792
 10
1939.955840244571
 20
1372.869503941792
 10
1944.955840244571
 20
1372.869503941792
 10
1944.955840244571
 20
1367.869503941792
 10
1974.955840244571
 20
1367.869503941792
 10
1974.955840244571
 20
1372.869503941792
 10
1979.955840244571
 20
1372.869503941792
 10
1984.955840244571
 20
1372.869503941792
 10
1984.955840244571
 20
1367.869503941792
 10
2014.955840244571
 20
1367.869503941792
 10
2014.955840244571
 20
1372.869503941792
 10
2019.955840244571
 20
1372.869503941792
 10
2024.955840244571
 20
1372.869503941792
 10
2024.955840244571
 20
1367.869503941792
 10
2054.955840244571
 20
1367.869503941792
 10
2054.955840244571
 20
1372.869503941792
 10
2059.955840244571
 20
1372.869503941792
 10
2059.955840244571
 20
1437.869503941792
 10
2019.955840244571
 20
1437.869503941792
 10
2019.955840244571
 20
1372.869503941792
  0
LWPOLYLINE
  5
53B
330
1F
100
AcDbEntity
  8
0
100
AcDbPolyline
 90
        3
 70
     0
 43
0.0
 10
1979.955840244571
 20
1372.869503941792
 10
1979.955840244571
 20
1437.869503941792
 10
2019.955840244571
 20
1437.869503941792
  0
DIMENSION
  5
53C
102
{ACAD_XDICTIONARY
360
53D
102
}
102
{ACAD_REACTORS
330
53E
102
}
330
1F
100
AcDbEntity
  8
groove
100
AcDbDimension
280
     0
  2
*D4
 10
2075.618085896892
 20
1457.365385791356
 30
0.0
 11
2077.342790538079
 21
1492.374985381993
 31
0.0
 70
    33
 71
     5
 42
70.00089211319323
 73
     0
 74
     0
 75
     0
  3
ISO-25
100
AcDbAlignedDimension
 13
2056.574556541882
 23
1527.271025454505
 33
0.0
 14
2056.92796373322
 24
1457.271025454505
 34
0.0
  0
DIMENSION
  5
53F
102
{ACAD_XDICTIONARY
360
540
102
}
102
{ACAD_REACTORS
330
541
102
}
330
1F
100
AcDbEntity
  8
groove
100
AcDbDimension
280
     0
  2
*D5
 10
2056.574556541882
 20
1535.372954955703
 30
0.0
 11
1996.574556541882
 21
1537.274387425007
 31
0.0
 70
    33
 71
     5
 42
120.0
 73
     0
 74
     0
 75
     0
  3
ISO-25
100
AcDbAlignedDimension
 13
1936.574556541882
 23
1527.271025454505
 33
0.0
 14
2056.574556541882
 24
1527.271025454505
 34
0.0
  0
POLYLINE
  5
542
330
1F
100
AcDbEntity
  8
0
 62
   139
370
     0
100
AcDb2dPolyline
 66
     1
 10
0.0
 20
0.0
 30
0.0
 70
     1
  0
VERTEX
  5
543
330
542
100
AcDbEntity
  8
0
 62
   139
370
     0
100
AcDbVertex
100
AcDb2dVertex
 10
2016.113256650912
 20
1339.392683643675
 30
0.0
  0
VERTEX
  5
544
330
542
100
AcDbEntity
  8
0
 62
   139
370
     0
100
AcDbVertex
100
AcDb2dVertex
 10
1980.53121137911
 20
1339.392683643675
 30
0.0
  0
VERTEX
  5
545
330
542
100
AcDbEntity
  8
0
 62
   139
370
     0
100
AcDbVertex
100
AcDb2dVertex
 10
1980.53121137911
 20
1332.906433418972
 30
0.0
  0
VERTEX
  5
546
330
542
100
AcDbEntity
  8
0
 62
   139
370
     0
100
AcDbVertex
100
AcDb2dVertex
 10
2007.457228770974
 20
1332.906433418972
 30
0.0
  0
VERTEX
  5
547
330
542
100
AcDbEntity
  8
0
 62
   139
370
     0
100
AcDbVertex
100
AcDb2dVertex
 10
2007.353356436414
 20
1332.791019713908
 30
0.0
  0
VERTEX
  5
548
330
542
100
AcDbEntity
  8
0
 62
   139
370
     0
100
AcDbVertex
100
AcDb2dVertex
 10
2006.510836389434
 20
1331.79846185034
 30
0.0
  0
VERTEX
  5
549
330
542
100
AcDbEntity
  8
0
 62
   139
370
     0
100
AcDbVertex
100
AcDb2dVertex
 10
2005.668316342454
 20
1330.771279875255
 30
0.0
  0
VERTEX
  5
54A
330
542
100
AcDbEntity
  8
0
 62
   139
370
     0
100
AcDbVertex
100
AcDb2dVertex
 10
2004.848879036486
 20
1329.709473788649
 30
0.0
  0
VERTEX
  5
54B
330
542
100
AcDbEntity
  8
0
 62
   139
370
     0
100
AcDbVertex
100
AcDb2dVertex
 10
2004.029441730518
 20
1328.613043590522
 30
0.0
  0
VERTEX
  5
54C
330
542
100
AcDbEntity
  8
0
 62
   139
370
     0
100
AcDbVertex
100
AcDb2dVertex
 10
2003.221545795057
 20
1327.481989280878
 30
0.0
  0
VERTEX
  5
54D
330
542
100
AcDbEntity
  8
0
 62
   139
370
     0
100
AcDbVertex
100
AcDb2dVertex
 10
2002.413649859596
 20
1326.316310859713
 30
0.0
  0
VERTEX
  5
54E
330
542
100
AcDbEntity
  8
0
 62
   139
370
     0
100
AcDbVertex
100
AcDb2dVertex
 10
2001.628836665148
 20
1325.104466956522
 30
0.0
  0
VERTEX
  5
54F
330
542
100
AcDbEntity
  8
0
 62
   139
370
     0
100
AcDbVertex
100
AcDb2dVertex
 10
2000.844023470699
 20
1323.869540312317
 30
0.0
  0
VERTEX
  5
550
330
542
100
AcDbEntity
  8
0
 62
   139
370
     0
100
AcDbVertex
100
AcDb2dVertex
 10
2000.059210276253
 20
1322.588448186086
 30
0.0
  0
VERTEX
  5
551
330
542
100
AcDbEntity
  8
0
 62
   139
370
     0
100
AcDbVertex
100
AcDb2dVertex
 10
1999.297479822818
 20
1321.272731948335
 30
0.0
  0
VERTEX
  5
552
330
542
100
AcDbEntity
  8
0
 62
   139
370
     0
100
AcDbVertex
100
AcDb2dVertex
 10
1998.535749369383
 20
1319.922391599065
 30
0.0
  0
VERTEX
  5
553
330
542
100
AcDbEntity
  8
0
 62
   139
370
     0
100
AcDbVertex
100
AcDb2dVertex
 10
1997.785560286454
 20
1318.537427138274
 30
0.0
  0
VERTEX
  5
554
330
542
100
AcDbEntity
  8
0
 62
   139
370
     0
100
AcDbVertex
100
AcDb2dVertex
 10
1997.543191505817
 20
1318.087313688517
 30
0.0
  0
VERTEX
  5
555
330
542
100
AcDbEntity
  8
0
 62
   139
370
     0
100
AcDbVertex
100
AcDb2dVertex
 10
1996.873792016435
 20
1316.794680191779
 30
0.0
  0
VERTEX
  5
556
330
542
100
AcDbEntity
  8
0
 62
   139
370
     0
100
AcDbVertex
100
AcDb2dVertex
 10
1996.239016638573
 20
1315.502046695042
 30
0.0
  0
VERTEX
  5
557
330
542
100
AcDbEntity
  8
0
 62
   139
370
     0
100
AcDbVertex
100
AcDb2dVertex
 10
1995.615782631217
 20
1314.197871827798
 30
0.0
  0
VERTEX
  5
558
330
542
100
AcDbEntity
  8
0
 62
   139
370
     0
100
AcDbVertex
100
AcDb2dVertex
 10
1995.027172735381
 20
1312.893696960553
 30
0.0
  0
VERTEX
  5
559
330
542
100
AcDbEntity
  8
0
 62
   139
370
     0
100
AcDbVertex
100
AcDb2dVertex
 10
1994.461645580558
 20
1311.577980722803
 30
0.0
  0
VERTEX
  5
55A
330
542
100
AcDbEntity
  8
0
 62
   139
370
     0
100
AcDbVertex
100
AcDb2dVertex
 10
1993.907659796243
 20
1310.250723114546
 30
0.0
  0
VERTEX
  5
55B
330
542
100
AcDbEntity
  8
0
 62
   139
370
     0
100
AcDbVertex
100
AcDb2dVertex
 10
1993.388298123445
 20
1308.923465506288
 30
0.0
  0
VERTEX
  5
55C
330
542
100
AcDbEntity
  8
0
 62
   139
370
     0
100
AcDbVertex
100
AcDb2dVertex
 10
1992.892019191663
 20
1307.584666527524
 30
0.0
  0
VERTEX
  5
55D
330
542
100
AcDbEntity
  8
0
 62
   139
370
     0
100
AcDbVertex
100
AcDb2dVertex
 10
1992.418823000893
 20
1306.24586754876
 30
0.0
  0
VERTEX
  5
55E
330
542
100
AcDbEntity
  8
0
 62
   139
370
     0
100
AcDbVertex
100
AcDb2dVertex
 10
1991.968709551136
 20
1304.89552719949
 30
0.0
  0
VERTEX
  5
55F
330
542
100
AcDbEntity
  8
0
 62
   139
370
     0
100
AcDbVertex
100
AcDb2dVertex
 10
1991.553220212899
 20
1303.533645479712
 30
0.0
  0
VERTEX
  5
560
330
542
100
AcDbEntity
  8
0
 62
   139
370
     0
100
AcDbVertex
100
AcDb2dVertex
 10
1991.149272245167
 20
1302.171763759936
 30
0.0
  0
VERTEX
  5
561
330
542
100
AcDbEntity
  8
0
 62
   139
370
     0
100
AcDbVertex
100
AcDb2dVertex
 10
1990.768407018451
 20
1300.798340669652
 30
0.0
  0
VERTEX
  5
562
330
542
100
AcDbEntity
  8
0
 62
   139
370
     0
100
AcDbVertex
100
AcDb2dVertex
 10
1990.722241536425
 20
1300.590596000534
 30
0.0
  0
VERTEX
  5
563
330
542
100
AcDbEntity
  8
0
 62
   139
370
     0
100
AcDbVertex
100
AcDb2dVertex
 10
1990.306752198188
 20
1298.963262759105
 30
0.0
  0
VERTEX
  5
564
330
542
100
AcDbEntity
  8
0
 62
   139
370
     0
100
AcDbVertex
100
AcDb2dVertex
 10
1989.92588697147
 20
1297.382094999703
 30
0.0
  0
VERTEX
  5
565
330
542
100
AcDbEntity
  8
0
 62
   139
370
     0
100
AcDbVertex
100
AcDb2dVertex
 10
1989.59118722678
 20
1295.847092722327
 30
0.0
  0
VERTEX
  5
566
330
542
100
AcDbEntity
  8
0
 62
   139
370
     0
100
AcDbVertex
100
AcDb2dVertex
 10
1989.279570223101
 20
1294.358255926977
 30
0.0
  0
VERTEX
  5
567
330
542
100
AcDbEntity
  8
0
 62
   139
370
     0
100
AcDbVertex
100
AcDb2dVertex
 10
1989.01411870145
 20
1292.904043243147
 30
0.0
  0
VERTEX
  5
568
330
542
100
AcDbEntity
  8
0
 62
   139
370
     0
100
AcDbVertex
100
AcDb2dVertex
 10
1988.794832661825
 20
1291.495996041344
 30
0.0
  0
VERTEX
  5
569
330
542
100
AcDbEntity
  8
0
 62
   139
370
     0
100
AcDbVertex
100
AcDb2dVertex
 10
1988.598629363213
 20
1290.134114321567
 30
0.0
  0
VERTEX
  5
56A
330
542
100
AcDbEntity
  8
0
 62
   139
370
     0
100
AcDbVertex
100
AcDb2dVertex
 10
1988.448591546628
 20
1288.806856713309
 30
0.0
  0
VERTEX
  5
56B
330
542
100
AcDbEntity
  8
0
 62
   139
370
     0
100
AcDbVertex
100
AcDb2dVertex
 10
1988.333177841562
 20
1287.537305957585
 30
0.0
  0
VERTEX
  5
56C
330
542
100
AcDbEntity
  8
0
 62
   139
370
     0
100
AcDbVertex
100
AcDb2dVertex
 10
1988.263929618522
 20
1286.302379313381
 30
0.0
  0
VERTEX
  5
56D
330
542
100
AcDbEntity
  8
0
 62
   139
370
     0
100
AcDbVertex
100
AcDb2dVertex
 10
1988.217764136496
 20
1285.113618151203
 30
0.0
  0
VERTEX
  5
56E
330
542
100
AcDbEntity
  8
0
 62
   139
370
     0
100
AcDbVertex
100
AcDb2dVertex
 10
1995.154127810954
 20
1285.113618151203
 30
0.0
  0
VERTEX
  5
56F
330
542
100
AcDbEntity
  8
0
 62
   139
370
     0
100
AcDbVertex
100
AcDb2dVertex
 10
1995.2349174045
 20
1286.221589719833
 30
0.0
  0
VERTEX
  5
570
330
542
100
AcDbEntity
  8
0
 62
   139
370
     0
100
AcDbVertex
100
AcDb2dVertex
 10
1995.373413850579
 20
1287.72196788569
 30
0.0
  0
VERTEX
  5
571
330
542
100
AcDbEntity
  8
0
 62
   139
370
     0
100
AcDbVertex
100
AcDb2dVertex
 10
1995.53499303767
 20
1289.21080468104
 30
0.0
  0
VERTEX
  5
572
330
542
100
AcDbEntity
  8
0
 62
   139
370
     0
100
AcDbVertex
100
AcDb2dVertex
 10
1995.719654965776
 20
1290.665017364871
 30
0.0
  0
VERTEX
  5
573
330
542
100
AcDbEntity
  8
0
 62
   139
370
     0
100
AcDbVertex
100
AcDb2dVertex
 10
1995.938941005401
 20
1292.096147307687
 30
0.0
  0
VERTEX
  5
574
330
542
100
AcDbEntity
  8
0
 62
   139
370
     0
100
AcDbVertex
100
AcDb2dVertex
 10
1996.169768415533
 20
1293.515735879996
 30
0.0
  0
VERTEX
  5
575
330
542
100
AcDbEntity
  8
0
 62
   139
370
     0
100
AcDbVertex
100
AcDb2dVertex
 10
1996.435219937184
 20
1294.900700340787
 30
0.0
  0
VERTEX
  5
576
330
542
100
AcDbEntity
  8
0
 62
   139
370
     0
100
AcDbVertex
100
AcDb2dVertex
 10
1996.723754199849
 20
1296.274123431071
 30
0.0
  0
VERTEX
  5
577
330
542
100
AcDbEntity
  8
0
 62
   139
370
     0
100
AcDbVertex
100
AcDb2dVertex
 10
1997.035371203526
 20
1297.612922409834
 30
0.0
  0
VERTEX
  5
578
330
542
100
AcDbEntity
  8
0
 62
   139
370
     0
100
AcDbVertex
100
AcDb2dVertex
 10
1997.381612318725
 20
1298.928638647585
 30
0.0
  0
VERTEX
  5
579
330
542
100
AcDbEntity
  8
0
 62
   139
370
     0
100
AcDbVertex
100
AcDb2dVertex
 10
1997.739394804429
 20
1300.232813514829
 30
0.0
  0
VERTEX
  5
57A
330
542
100
AcDbEntity
  8
0
 62
   139
370
     0
100
AcDbVertex
100
AcDb2dVertex
 10
1997.924056732535
 20
1300.856047522185
 30
0.0
  0
VERTEX
  5
57B
330
542
100
AcDbEntity
  8
0
 62
   139
370
     0
100
AcDbVertex
100
AcDb2dVertex
 10
1998.33954607077
 20
1302.206387871455
 30
0.0
  0
VERTEX
  5
57C
330
542
100
AcDbEntity
  8
0
 62
   139
370
     0
100
AcDbVertex
100
AcDb2dVertex
 10
1998.766576779515
 20
1303.54518685022
 30
0.0
  0
VERTEX
  5
57D
330
542
100
AcDbEntity
  8
0
 62
   139
370
     0
100
AcDbVertex
100
AcDb2dVertex
 10
1999.228231599778
 20
1304.883985828982
 30
0.0
  0
VERTEX
  5
57E
330
542
100
AcDbEntity
  8
0
 62
   139
370
     0
100
AcDbVertex
100
AcDb2dVertex
 10
1999.701427790549
 20
1306.222784807747
 30
0.0
  0
VERTEX
  5
57F
330
542
100
AcDbEntity
  8
0
 62
   139
370
     0
100
AcDbVertex
100
AcDb2dVertex
 10
2000.209248092838
 20
1307.550042416004
 30
0.0
  0
VERTEX
  5
580
330
542
100
AcDbEntity
  8
0
 62
   139
370
     0
100
AcDbVertex
100
AcDb2dVertex
 10
2000.728609765635
 20
1308.877300024262
 30
0.0
  0
VERTEX
  5
581
330
542
100
AcDbEntity
  8
0
 62
   139
370
     0
100
AcDbVertex
100
AcDb2dVertex
 10
2001.271054179444
 20
1310.193016262013
 30
0.0
  0
VERTEX
  5
582
330
542
100
AcDbEntity
  8
0
 62
   139
370
     0
100
AcDbVertex
100
AcDb2dVertex
 10
2001.848122704773
 20
1311.508732499763
 30
0.0
  0
VERTEX
  5
583
330
542
100
AcDbEntity
  8
0
 62
   139
370
     0
100
AcDbVertex
100
AcDb2dVertex
 10
2002.43673260061
 20
1312.824448737515
 30
0.0
  0
VERTEX
  5
584
330
542
100
AcDbEntity
  8
0
 62
   139
370
     0
100
AcDbVertex
100
AcDb2dVertex
 10
2003.048425237458
 20
1314.117082234252
 30
0.0
  0
VERTEX
  5
585
330
542
100
AcDbEntity
  8
0
 62
   139
370
     0
100
AcDbVertex
100
AcDb2dVertex
 10
2003.683200615322
 20
1315.421257101496
 30
0.0
  0
VERTEX
  5
586
330
542
100
AcDbEntity
  8
0
 62
   139
370
     0
100
AcDbVertex
100
AcDb2dVertex
 10
2004.341058734196
 20
1316.713890598234
 30
0.0
  0
VERTEX
  5
587
330
542
100
AcDbEntity
  8
0
 62
   139
370
     0
100
AcDbVertex
100
AcDb2dVertex
 10
2005.021999594084
 20
1318.006524094972
 30
0.0
  0
VERTEX
  5
588
330
542
100
AcDbEntity
  8
0
 62
   139
370
     0
100
AcDbVertex
100
AcDb2dVertex
 10
2005.726023194986
 20
1319.287616221203
 30
0.0
  0
VERTEX
  5
589
330
542
100
AcDbEntity
  8
0
 62
   139
370
     0
100
AcDbVertex
100
AcDb2dVertex
 10
2006.291550349809
 20
1320.291715455275
 30
0.0
  0
VERTEX
  5
58A
330
542
100
AcDbEntity
  8
0
 62
   139
370
     0
100
AcDbVertex
100
AcDb2dVertex
 10
2007.099446285268
 20
1321.699762657079
 30
0.0
  0
VERTEX
  5
58B
330
542
100
AcDbEntity
  8
0
 62
   139
370
     0
100
AcDbVertex
100
AcDb2dVertex
 10
2007.918883591238
 20
1323.061644376855
 30
0.0
  0
VERTEX
  5
58C
330
542
100
AcDbEntity
  8
0
 62
   139
370
     0
100
AcDbVertex
100
AcDb2dVertex
 10
2008.726779526699
 20
1324.3658192441
 30
0.0
  0
VERTEX
  5
58D
330
542
100
AcDbEntity
  8
0
 62
   139
370
     0
100
AcDbVertex
100
AcDb2dVertex
 10
2009.546216832665
 20
1325.635369999824
 30
0.0
  0
VERTEX
  5
58E
330
542
100
AcDbEntity
  8
0
 62
   139
370
     0
100
AcDbVertex
100
AcDb2dVertex
 10
2010.365654138634
 20
1326.858755273522
 30
0.0
  0
VERTEX
  5
58F
330
542
100
AcDbEntity
  8
0
 62
   139
370
     0
100
AcDbVertex
100
AcDb2dVertex
 10
2011.173550074094
 20
1328.035975065194
 30
0.0
  0
VERTEX
  5
590
330
542
100
AcDbEntity
  8
0
 62
   139
370
     0
100
AcDbVertex
100
AcDb2dVertex
 10
2011.992987380062
 20
1329.16702937484
 30
0.0
  0
VERTEX
  5
591
330
542
100
AcDbEntity
  8
0
 62
   139
370
     0
100
AcDbVertex
100
AcDb2dVertex
 10
2012.81242468603
 20
1330.251918202459
 30
0.0
  0
VERTEX
  5
592
330
542
100
AcDbEntity
  8
0
 62
   139
370
     0
100
AcDbVertex
100
AcDb2dVertex
 10
2013.643403362504
 20
1331.302182918558
 30
0.0
  0
VERTEX
  5
593
330
542
100
AcDbEntity
  8
0
 62
   139
370
     0
100
AcDbVertex
100
AcDb2dVertex
 10
2014.46284066847
 20
1332.294740782124
 30
0.0
  0
VERTEX
  5
594
330
542
100
AcDbEntity
  8
0
 62
   139
370
     0
100
AcDbVertex
100
AcDb2dVertex
 10
2015.293819344947
 20
1333.241133163664
 30
0.0
  0
VERTEX
  5
595
330
542
100
AcDbEntity
  8
0
 62
   139
370
     0
100
AcDbVertex
100
AcDb2dVertex
 10
2016.113256650912
 20
1334.141360063178
 30
0.0
  0
SEQEND
  5
596
330
542
100
AcDbEntity
  8
0
 62
   139
370
     0
  0
POLYLINE
  5
597
330
1F
100
AcDbEntity
  8
0
 62
   139
370
     0
100
AcDb2dPolyline
 66
     1
 10
0.0
 20
0.0
 30
0.0
  0
VERTEX
  5
598
330
597
100
AcDbEntity
  8
0
 62
   139
370
     0
100
AcDbVertex
100
AcDb2dVertex
 10
2038.319237714474
 20
1334.556518425831
 30
0.0
  0
VERTEX
  5
599
330
597
100
AcDbEntity
  8
0
 62
   139
370
     0
100
AcDbVertex
100
AcDb2dVertex
 10
2038.991971786546
 20
1334.542789159054
 30
0.0
  0
VERTEX
  5
59A
330
597
100
AcDbEntity
  8
0
 62
   139
370
     0
100
AcDbVertex
100
AcDb2dVertex
 10
2040.612025266229
 20
1334.309391623845
 30
0.0
  0
VERTEX
  5
59B
330
597
100
AcDbEntity
  8
0
 62
   139
370
     0
100
AcDbVertex
100
AcDb2dVertex
 10
2042.108515344921
 20
1333.815138019874
 30
0.0
  0
VERTEX
  5
59C
330
597
100
AcDbEntity
  8
0
 62
   139
370
     0
100
AcDbVertex
100
AcDb2dVertex
 10
2043.481442022619
 20
1333.06002834714
 30
0.0
  0
VERTEX
  5
59D
330
597
100
AcDbEntity
  8
0
 62
   139
370
     0
100
AcDbVertex
100
AcDb2dVertex
 10
2044.730805299324
 20
1332.044062605644
 30
0.0
  0
VERTEX
  5
59E
330
597
100
AcDbEntity
  8
0
 62
   139
370
     0
100
AcDbVertex
100
AcDb2dVertex
 10
2045.087766235524
 20
1331.645913869111
 30
0.0
  0
VERTEX
  5
59F
330
597
100
AcDbEntity
  8
0
 62
   139
370
     0
100
AcDbVertex
100
AcDb2dVertex
 10
2046.048814909912
 20
1330.369092058852
 30
0.0
  0
VERTEX
  5
5A0
330
597
100
AcDbEntity
  8
0
 62
   139
370
     0
100
AcDbVertex
100
AcDb2dVertex
 10
2046.735278248761
 20
1328.968706847601
 30
0.0
  0
VERTEX
  5
5A1
330
597
100
AcDbEntity
  8
0
 62
   139
370
     0
100
AcDbVertex
100
AcDb2dVertex
 10
2047.133426985294
 20
1327.431028968579
 30
0.0
  0
VERTEX
  5
5A2
330
597
100
AcDbEntity
  8
0
 62
   139
370
     0
100
AcDbVertex
100
AcDb2dVertex
 10
2047.270719653064
 20
1325.783516955341
 30
0.0
  0
VERTEX
  5
5A3
330
597
100
AcDbEntity
  8
0
 62
   139
370
     0
100
AcDbVertex
100
AcDb2dVertex
 10
2047.270719653064
 20
1325.508931619802
 30
0.0
  0
VERTEX
  5
5A4
330
597
100
AcDbEntity
  8
0
 62
   139
370
     0
100
AcDbVertex
100
AcDb2dVertex
 10
2047.078509918186
 20
1323.888878140117
 30
0.0
  0
VERTEX
  5
5A5
330
597
100
AcDbEntity
  8
0
 62
   139
370
     0
100
AcDbVertex
100
AcDb2dVertex
 10
2046.611714847769
 20
1322.378658794651
 30
0.0
  0
VERTEX
  5
5A6
330
597
100
AcDbEntity
  8
0
 62
   139
370
     0
100
AcDbVertex
100
AcDb2dVertex
 10
2045.842875908257
 20
1321.01946138373
 30
0.0
  0
VERTEX
  5
5A7
330
597
100
AcDbEntity
  8
0
 62
   139
370
     0
100
AcDbVertex
100
AcDb2dVertex
 10
2044.799451633208
 20
1319.770098107025
 30
0.0
  0
VERTEX
  5
5A8
330
597
100
AcDbEntity
  8
0
 62
   139
370
     0
100
AcDbVertex
100
AcDb2dVertex
 10
2044.33265656279
 20
1319.358220103716
 30
0.0
  0
VERTEX
  5
5A9
330
597
100
AcDbEntity
  8
0
 62
   139
370
     0
100
AcDbVertex
100
AcDb2dVertex
 10
2043.069564019308
 20
1318.452088496435
 30
0.0
  0
VERTEX
  5
5AA
330
597
100
AcDbEntity
  8
0
 62
   139
370
     0
100
AcDbVertex
100
AcDb2dVertex
 10
2041.655449541279
 20
1317.820542224695
 30
0.0
  0
VERTEX
  5
5AB
330
597
100
AcDbEntity
  8
0
 62
   139
370
     0
100
AcDbVertex
100
AcDb2dVertex
 10
2040.090313128704
 20
1317.422393488162
 30
0.0
  0
VERTEX
  5
5AC
330
597
100
AcDbEntity
  8
0
 62
   139
370
     0
100
AcDbVertex
100
AcDb2dVertex
 10
2038.387884048358
 20
1317.298830087169
 30
0.0
  0
SEQEND
  5
5AD
330
597
100
AcDbEntity
  8
0
 62
   139
370
     0
  0
LWPOLYLINE
  5
5AE
330
1F
100
AcDbEntity
  8
0
 62
   139
370
     0
100
AcDbPolyline
 90
       83
 70
     1
 43
0.0
 10
2182.050715302727
 20
1310.155935811429
 10
2181.989370809124
 20
1306.29123271445
 10
2181.651976094308
 20
1303.408041515116
 10
2181.069203405082
 20
1300.555522562583
 10
2180.731808690266
 20
1299.297960443725
 10
2179.719624545819
 20
1296.414769244392
 10
2178.554079167364
 20
1294.145022981086
 10
2176.959122333691
 20
1292.089982445391
 10
2174.720048317187
 20
1290.310992130908
 10
2172.20492407947
 20
1289.268135739661
 10
2169.260388386534
 20
1288.900068778043
 10
2168.432237722895
 20
1288.930741024844
 10
2165.610391017164
 20
1289.544185960873
 10
2163.309972507057
 20
1290.955109313737
 10
2162.29778836261
 20
1292.059310198589
 10
2161.009553996951
 20
1294.451745449101
 10
2160.150731086511
 20
1297.610986869647
 10
2153.678887011409
 20
1296.997541933619
 10
2153.678887011409
 20
1296.966869686817
 10
2154.292331947439
 20
1293.899645006675
 10
2155.304516091886
 20
1291.231159534951
 10
2156.746111691553
 20
1288.900068778043
 10
2158.586446499637
 20
1286.937044982752
 10
2160.764176022539
 20
1285.37276039588
 10
2163.248628013455
 20
1284.237887264227
 10
2166.039802472384
 20
1283.563097834595
 10
2169.107027152526
 20
1283.348392106985
 10
2171.898201611456
 20
1283.532425587794
 10
2174.720048317187
 20
1284.115198277021
 10
2177.327189295308
 20
1285.158054668269
 10
2179.719624545819
 20
1286.599650267936
 10
2179.995674767032
 20
1286.814355995546
 10
2182.020043055926
 20
1288.62401855683
 10
2183.768361123607
 20
1290.77107583293
 10
2185.271301216876
 20
1293.286200070646
 10
2186.498191088933
 20
1296.138719023179
 10
2187.111636024961
 20
1298.040398324867
 10
2187.72508096099
 20
1300.524850315782
 10
2188.185164663011
 20
1303.224008034308
 10
2188.522559377827
 20
1306.199215974045
 10
2188.737265105437
 20
1309.419801888195
 10
2188.79860959904
 20
1312.916438023557
 10
2188.767937352238
 20
1314.480722610428
 10
2188.645248365034
 20
1317.916014252189
 10
2188.338525897018
 20
1321.013911179133
 10
2187.878442194997
 20
1323.805085638061
 10
2187.264997258969
 20
1326.258865382176
 10
2186.498191088933
 20
1328.405922658275
 10
2185.486006944486
 20
1330.43029094717
 10
2183.891050110812
 20
1332.82272619768
 10
2181.958698562323
 20
1334.908438980177
 10
2179.750296792621
 20
1336.626084801057
 10
2178.216684452549
 20
1337.515579958298
 10
2175.609543474429
 20
1338.61978084315
 10
2172.849041262301
 20
1339.26389802598
 10
2169.935177816165
 20
1339.509276000391
 10
2167.420053578448
 20
1339.355914766384
 10
2164.65955136632
 20
1338.773142077157
 10
2162.083082635001
 20
1337.730285685908
 10
2159.751991878093
 20
1336.288690086242
 10
2157.604934601992
 20
1334.387010784553
 10
2157.267539887178
 20
1334.049616069737
 10
2155.6112385599
 20
1331.902558793638
 10
2154.32300419424
 20
1329.540795789928
 10
2153.402836790198
 20
1326.902982565005
 10
2152.850736347772
 20
1324.050463612474
 10
2152.666702866965
 20
1320.921894438729
 10
2152.666702866965
 20
1320.921894438729
 10
2152.850736347772
 20
1317.823997511785
 10
2153.402836790198
 20
1314.940806312451
 10
2154.353676441042
 20
1312.33366533433
 10
2155.672583053503
 20
1309.971902330621
 10
2157.390228874383
 20
1307.886189548125
 10
2158.555774252837
 20
1306.72064416967
 10
2160.856192762945
 20
1305.064342842393
 10
2163.340644753859
 20
1303.868125217137
 10
2166.039802472384
 20
1303.162663540705
 10
2168.922993671718
 20
1302.917285566293
 10
2171.131395441421
 20
1303.0706468003
 10
2173.92256990035
 20
1303.745436229932
 10
2176.529710878471
 20
1304.941653855187
 10
2178.155339958947
 20
1306.015182493237
 10
2180.302397235046
 20
1307.916861794925
  0
LWPOLYLINE
  5
5AF
330
1F
100
AcDbEntity
  8
0
 62
   139
370
     0
100
AcDbPolyline
 90
       83
 70
     1
 43
0.0
 10
2222.01665288498
 20
1310.155935811429
 10
2221.955308391378
 20
1306.29123271445
 10
2221.617913676562
 20
1303.408041515116
 10
2221.035140987334
 20
1300.555522562583
 10
2220.69774627252
 20
1299.297960443725
 10
2219.716234374874
 20
1296.414769244392
 10
2218.520016749618
 20
1294.145022981086
 10
2216.925059915944
 20
1292.089982445391
 10
2214.716658146242
 20
1290.310992130908
 10
2212.170861661725
 20
1289.268135739661
 10
2209.226325968788
 20
1288.900068778043
 10
2208.398175305149
 20
1288.930741024844
 10
2205.576328599418
 20
1289.544185960873
 10
2203.275910089311
 20
1290.955109313737
 10
2202.263725944864
 20
1292.059310198589
 10
2200.975491579204
 20
1294.451745449101
 10
2200.116668668766
 20
1297.610986869647
 10
2193.644824593664
 20
1296.997541933619
 10
2193.644824593664
 20
1296.966869686817
 10
2194.258269529694
 20
1293.899645006675
 10
2195.27045367414
 20
1291.231159534951
 10
2196.712049273807
 20
1288.900068778043
 10
2198.552384081893
 20
1286.937044982752
 10
2200.730113604792
 20
1285.37276039588
 10
2203.214565595708
 20
1284.237887264227
 10
2206.005740054637
 20
1283.563097834595
 10
2209.07296473478
 20
1283.348392106985
 10
2211.864139193711
 20
1283.532425587794
 10
2214.685985899441
 20
1284.115198277021
 10
2217.293126877562
 20
1285.158054668269
 10
2219.685562128073
 20
1286.599650267936
 10
2219.961612349285
 20
1286.814355995546
 10
2221.98598063818
 20
1288.62401855683
 10
2223.73429870586
 20
1290.77107583293
 10
2225.23723879913
 20
1293.286200070646
 10
2226.464128671187
 20
1296.138719023179
 10
2227.108245854017
 20
1298.040398324867
 10
2227.691018543245
 20
1300.524850315782
 10
2228.151102245265
 20
1303.224008034308
 10
2228.488496960081
 20
1306.199215974045
 10
2228.703202687691
 20
1309.419801888195
 10
2228.764547181294
 20
1312.916438023557
 10
2228.764547181294
 20
1314.480722610428
 10
2228.611185947287
 20
1317.916014252189
 10
2228.304463479272
 20
1321.013911179133
 10
2227.844379777251
 20
1323.805085638061
 10
2227.230934841223
 20
1326.258865382176
 10
2226.464128671187
 20
1328.405922658275
 10
2225.45194452674
 20
1330.43029094717
 10
2223.856987693066
 20
1332.82272619768
 10
2221.955308391378
 20
1334.908438980177
 10
2219.716234374874
 20
1336.626084801057
 10
2218.182622034803
 20
1337.515579958298
 10
2215.575481056682
 20
1338.61978084315
 10
2212.814978844555
 20
1339.26389802598
 10
2209.901115398419
 20
1339.509276000391
 10
2207.416663407503
 20
1339.355914766384
 10
2204.625488948574
 20
1338.773142077157
 10
2202.049020217255
 20
1337.730285685908
 10
2199.717929460346
 20
1336.288690086242
 10
2197.570872184247
 20
1334.387010784553
 10
2197.233477469431
 20
1334.049616069737
 10
2195.577176142154
 20
1331.902558793638
 10
2194.288941776493
 20
1329.540795789928
 10
2193.368774372452
 20
1326.902982565005
 10
2192.816673930026
 20
1324.050463612474
 10
2192.632640449218
 20
1320.921894438729
 10
2192.632640449218
 20
1320.921894438729
 10
2192.816673930026
 20
1317.823997511785
 10
2193.368774372452
 20
1314.940806312451
 10
2194.319614023296
 20
1312.33366533433
 10
2195.638520635757
 20
1309.971902330621
 10
2197.356166456637
 20
1307.886189548125
 10
2198.552384081893
 20
1306.72064416967
 10
2200.822130345197
 20
1305.064342842393
 10
2203.306582336113
 20
1303.868125217137
 10
2206.005740054637
 20
1303.162663540705
 10
2208.888931253972
 20
1302.917285566293
 10
2211.097333023674
 20
1303.0706468003
 10
2213.888507482603
 20
1303.745436229932
 10
2216.495648460723
 20
1304.941653855187
 10
2218.1212775412
 20
1306.015182493237
 10
2220.299007064101
 20
1307.916861794925
  0
LWPOLYLINE
  5
5B0
330
1F
100
AcDbEntity
  8
0
 62
   139
370
     0
100
AcDbPolyline
 90
       30
 70
     1
 43
0.0
 10
2210.545232581248
 20
1308.898373692571
 10
2210.330526853639
 20
1308.898373692571
 10
2204.96288366339
 20
1310.40131378584
 10
2202.754481893687
 20
1312.180304100323
 10
2202.233053698063
 20
1312.763076789551
 10
2200.730113604792
 20
1315.032823052855
 10
2199.871290694354
 20
1317.701308524579
 10
2199.564568226339
 20
1320.707188711118
 10
2199.656584966743
 20
1322.670212506409
 10
2200.23935765597
 20
1325.522731458942
 10
2201.31288629402
 20
1328.037855696658
 10
2202.907843127694
 20
1330.246257466361
 10
2203.214565595708
 20
1330.583652181177
 10
2205.484311859014
 20
1332.423986989262
 10
2207.99943609673
 20
1333.528187874113
 10
2210.729266062057
 20
1333.89625483573
 10
2213.459096027384
 20
1333.528187874113
 10
2215.974220265101
 20
1332.393314742461
 10
2218.182622034803
 20
1330.491635440772
 10
2218.98010045164
 20
1329.479451296324
 10
2220.2683348173
 20
1327.148360539418
 10
2221.004468740533
 20
1324.41853057409
 10
2221.280518961748
 20
1321.259289153544
 10
2221.219174468144
 20
1319.848365800678
 10
2220.759090766121
 20
1316.87315786094
 10
2219.746906621674
 20
1314.296689129621
 10
2218.274638775207
 20
1312.180304100323
 10
2218.151949788001
 20
1312.057615113117
 10
2215.974220265101
 20
1310.309297045436
 10
2213.428423780583
 20
1309.235768407386
  0
LWPOLYLINE
  5
5B1
330
1F
100
AcDbEntity
  8
0
 62
   139
370
     0
100
AcDbPolyline
 90
       30
 70
     1
 43
0.0
 10
2170.579294998995
 20
1308.898373692571
 10
2170.364589271385
 20
1308.898373692571
 10
2164.996946081136
 20
1310.40131378584
 10
2162.788544311434
 20
1312.180304100323
 10
2162.267116115809
 20
1312.763076789551
 10
2160.764176022539
 20
1315.032823052855
 10
2159.874680865298
 20
1317.701308524579
 10
2159.598630644084
 20
1320.707188711118
 10
2159.69064738449
 20
1322.670212506409
 10
2160.273420073716
 20
1325.522731458942
 10
2161.346948711766
 20
1328.037855696658
 10
2162.911233298638
 20
1330.246257466361
 10
2163.248628013455
 20
1330.583652181177
 10
2165.51837427676
 20
1332.423986989262
 10
2168.033498514476
 20
1333.528187874113
 10
2170.763328479803
 20
1333.89625483573
 10
2173.49315844513
 20
1333.528187874113
 10
2176.008282682846
 20
1332.393314742461
 10
2178.216684452549
 20
1330.491635440772
 10
2179.014162869386
 20
1329.479451296324
 10
2180.271724988245
 20
1327.148360539418
 10
2181.03853115828
 20
1324.41853057409
 10
2181.283909132691
 20
1321.259289153544
 10
2181.25323688589
 20
1319.848365800678
 10
2180.762480937067
 20
1316.87315786094
 10
2179.78096903942
 20
1314.296689129621
 10
2178.308701192953
 20
1312.180304100323
 10
2178.186012205749
 20
1312.057615113117
 10
2176.008282682846
 20
1310.309297045436
 10
2173.462486198329
 20
1309.235768407386
  0
LWPOLYLINE
  5
5B2
330
1F
100
AcDbEntity
  8
0
 62
   139
370
     0
100
AcDbPolyline
 90
       83
 70
     1
 43
0.0
 10
2142.084777720473
 20
1310.155935811429
 10
2142.02343322687
 20
1306.29123271445
 10
2141.686038512054
 20
1303.408041515116
 10
2141.103265822827
 20
1300.555522562583
 10
2140.765871108012
 20
1299.297960443725
 10
2139.753686963564
 20
1296.414769244392
 10
2138.588141585112
 20
1294.145022981086
 10
2136.993184751437
 20
1292.089982445391
 10
2134.754110734932
 20
1290.310992130908
 10
2132.238986497217
 20
1289.268135739661
 10
2129.294450804279
 20
1288.900068778043
 10
2128.466300140641
 20
1288.930741024844
 10
2125.64445343491
 20
1289.544185960873
 10
2123.313362678002
 20
1290.955109313737
 10
2122.331850780356
 20
1292.059310198589
 10
2121.043616414696
 20
1294.451745449101
 10
2120.184793504257
 20
1297.610986869647
 10
2113.682277182356
 20
1296.997541933619
 10
2113.682277182356
 20
1296.966869686817
 10
2114.326394365185
 20
1293.899645006675
 10
2115.338578509632
 20
1291.231159534951
 10
2116.780174109299
 20
1288.900068778043
 10
2118.589836670583
 20
1286.937044982752
 10
2120.767566193484
 20
1285.37276039588
 10
2123.2826904312
 20
1284.237887264227
 10
2126.043192643328
 20
1283.563097834595
 10
2129.141089570274
 20
1283.348392106985
 10
2131.932264029202
 20
1283.532425587794
 10
2134.723438488132
 20
1284.115198277021
 10
2137.330579466253
 20
1285.158054668269
 10
2139.753686963564
 20
1286.599650267936
 10
2140.029737184777
 20
1286.814355995546
 10
2142.054105473671
 20
1288.62401855683
 10
2143.802423541353
 20
1290.77107583293
 10
2145.305363634622
 20
1293.286200070646
 10
2146.532253506678
 20
1296.138719023179
 10
2147.145698442708
 20
1298.040398324867
 10
2147.759143378736
 20
1300.524850315782
 10
2148.219227080757
 20
1303.224008034308
 10
2148.556621795574
 20
1306.199215974045
 10
2148.740655276382
 20
1309.419801888195
 10
2148.832672016786
 20
1312.916438023557
 10
2148.801999769984
 20
1314.480722610428
 10
2148.648638535977
 20
1317.916014252189
 10
2148.372588314765
 20
1321.013911179133
 10
2147.912504612743
 20
1323.805085638061
 10
2147.299059676715
 20
1326.258865382176
 10
2146.532253506678
 20
1328.405922658275
 10
2145.520069362232
 20
1330.43029094717
 10
2143.894440281756
 20
1332.82272619768
 10
2141.992760980068
 20
1334.908438980177
 10
2139.784359210366
 20
1336.626084801057
 10
2138.250746870295
 20
1337.515579958298
 10
2135.612933645373
 20
1338.61978084315
 10
2132.852431433244
 20
1339.26389802598
 10
2129.969240233911
 20
1339.509276000391
 10
2127.454115996194
 20
1339.355914766384
 10
2124.693613784066
 20
1338.773142077157
 10
2122.117145052746
 20
1337.730285685908
 10
2119.755382049037
 20
1336.288690086242
 10
2117.638997019739
 20
1334.387010784553
 10
2117.301602304923
 20
1334.049616069737
 10
2115.645300977647
 20
1331.902558793638
 10
2114.357066611987
 20
1329.540795789928
 10
2113.406226961142
 20
1326.902982565005
 10
2112.854126518717
 20
1324.050463612474
 10
2112.670093037908
 20
1320.921894438729
 10
2112.670093037908
 20
1320.921894438729
 10
2112.854126518717
 20
1317.823997511785
 10
2113.436899207945
 20
1314.940806312451
 10
2114.387738858788
 20
1312.33366533433
 10
2115.70664547125
 20
1309.971902330621
 10
2117.393619045327
 20
1307.886189548125
 10
2118.589836670583
 20
1306.72064416967
 10
2120.890255180689
 20
1305.064342842393
 10
2123.374707171605
 20
1303.868125217137
 10
2126.07386489013
 20
1303.162663540705
 10
2128.957056089465
 20
1302.917285566293
 10
2131.165457859166
 20
1303.0706468003
 10
2133.925960071294
 20
1303.745436229932
 10
2136.563773296217
 20
1304.941653855187
 10
2138.189402376692
 20
1306.015182493237
 10
2140.336459652792
 20
1307.916861794925
  0
LWPOLYLINE
  5
5B3
330
1F
100
AcDbEntity
  8
0
 62
   139
370
     0
100
AcDbPolyline
 90
       30
 70
     1
 43
0.0
 10
2130.61335741674
 20
1308.898373692571
 10
2130.367979442329
 20
1308.898373692571
 10
2125.00033625208
 20
1310.40131378584
 10
2122.791934482378
 20
1312.180304100323
 10
2122.270506286753
 20
1312.763076789551
 10
2120.798238440285
 20
1315.032823052855
 10
2119.908743283044
 20
1317.701308524579
 10
2119.60202081503
 20
1320.707188711118
 10
2119.724709802236
 20
1322.670212506409
 10
2120.276810244661
 20
1325.522731458942
 10
2121.350338882711
 20
1328.037855696658
 10
2122.945295716385
 20
1330.246257466361
 10
2123.2826904312
 20
1330.583652181177
 10
2125.552436694506
 20
1332.423986989262
 10
2128.036888685421
 20
1333.528187874113
 10
2130.797390897549
 20
1333.89625483573
 10
2133.527220862876
 20
1333.528187874113
 10
2136.011672853791
 20
1332.393314742461
 10
2138.250746870295
 20
1330.491635440772
 10
2139.048225287132
 20
1329.479451296324
 10
2140.30578740599
 20
1327.148360539418
 10
2141.072593576026
 20
1324.41853057409
 10
2141.317971550437
 20
1321.259289153544
 10
2141.287299303636
 20
1319.848365800678
 10
2140.796543354813
 20
1316.87315786094
 10
2139.815031457168
 20
1314.296689129621
 10
2138.312091363898
 20
1312.180304100323
 10
2138.220074623493
 20
1312.057615113117
 10
2136.042345100592
 20
1310.309297045436
 10
2133.496548616074
 20
1309.235768407386
  0
LWPOLYLINE
  5
5B4
330
1F
100
AcDbEntity
  8
0
 62
   139
370
     0
100
AcDbPolyline
 90
       38
 70
     0
 43
0.0
 10
2050.96389241607
 20
1334.734998893932
 10
2051.938670357236
 20
1333.444447816896
 10
2052.734967830301
 20
1332.085250405976
 10
2053.366514102042
 20
1330.657406661169
 10
2053.819579905682
 20
1329.160916582479
 10
2054.094165241222
 20
1327.595780169903
 10
2054.203999375437
 20
1325.948268156665
 10
2054.203999375437
 20
1325.742329155011
 10
2054.107894507999
 20
1324.026170807889
 10
2053.792121372128
 20
1322.433575861759
 10
2053.256679967826
 20
1320.937085783068
 10
2052.51529956187
 20
1319.550429838594
 10
2052.226984959553
 20
1319.097364034953
 10
2051.265936285164
 20
1317.944105625687
 10
2050.126407142675
 20
1316.914410617414
 10
2048.794668265308
 20
1315.994549743356
 10
2047.284448919839
 20
1315.198252270292
 10
2046.117461243797
 20
1314.717727933098
 10
2047.764973257035
 20
1314.086181661357
 10
2049.275192602502
 20
1313.358530522177
 10
2050.6481192802
 20
1312.507315982004
 10
2051.883753290128
 20
1311.532538040839
 10
2052.982094632286
 20
1310.447925965457
 10
2053.833309172458
 20
1309.39077242363
 10
2054.670794445855
 20
1308.059033546263
 10
2055.343528517927
 20
1306.644919068234
 10
2055.865240655452
 20
1305.148428989544
 10
2056.222201591653
 20
1303.569563310191
 10
2056.414411326531
 20
1301.8945927634
 10
2056.455599126862
 20
1300.604041686364
 10
2056.386952792978
 20
1298.929071139573
 10
2056.167284524546
 20
1297.322746926666
 10
2055.796594321567
 20
1295.771339780868
 10
2055.288611450819
 20
1294.302308235731
 10
2054.629606645525
 20
1292.888193757702
 10
2053.819579905682
 20
1291.542725613558
 10
2052.87226049807
 20
1290.252174536522
 10
2052.409970163999
 20
1289.744279836473
  0
LWPOLYLINE
  5
5B5
330
1F
100
AcDbEntity
  8
0
 62
   139
370
     0
100
AcDbPolyline
 90
      120
 70
     0
 43
0.0
 10
2025.123108641575
 20
1312.010980721205
 10
2023.985883199309
 20
1310.983367369759
 10
2022.983646724589
 20
1309.802650426939
 10
2022.201078518301
 20
1308.635662750896
 10
2021.500885912674
 20
1307.262736073198
 10
2020.951715241596
 20
1305.793704528062
 10
2020.553566505064
 20
1304.228568115486
 10
2020.320168969855
 20
1302.553597568694
 10
2020.237793369193
 20
1300.796251421242
 10
2020.25152263597
 20
1300.219622216608
 10
2020.375086036963
 20
1298.544651669817
 10
2020.635942105726
 20
1296.938327456911
 10
2021.047820109035
 20
1295.414378844666
 10
2021.596990780114
 20
1293.94534729953
 10
2022.283454118963
 20
1292.558691355055
 10
2023.120939392359
 20
1291.226952477688
 10
2024.109446600301
 20
1289.977589200983
 10
2025.235246476015
 20
1288.783142991386
 10
2026.292400017841
 20
1287.835823583774
 10
2027.528034027769
 20
1286.929691976494
 10
2028.832314371582
 20
1286.133394503429
 10
2030.218970316056
 20
1285.474389698134
 10
2031.688001861193
 20
1284.925219027055
 10
2033.239409006992
 20
1284.499611756968
 10
2034.859462486675
 20
1284.197567887875
 10
2036.56189156702
 20
1284.005358152996
 10
2038.346696248028
 20
1283.950441085889
 10
2039.980478994488
 20
1284.005358152996
 10
2041.69663734161
 20
1284.170109354321
 10
2043.330420088071
 20
1284.458423956637
 10
2044.881827233869
 20
1284.870301959947
 10
2046.364588045781
 20
1285.405743364249
 10
2047.764973257035
 20
1286.064748169544
 10
2049.082982867625
 20
1286.833587109055
 10
2050.318616877553
 20
1287.739718716335
 10
2051.471875286819
 20
1288.755684457832
 10
2052.409970163999
 20
1289.744279836473
 10
2052.87226049807
 20
1290.252174536522
 10
2053.819579905682
 20
1291.542725613558
 10
2054.629606645525
 20
1292.888193757702
 10
2055.288611450819
 20
1294.302308235731
 10
2055.796594321567
 20
1295.771339780868
 10
2056.167284524546
 20
1297.322746926666
 10
2056.386952792978
 20
1298.929071139573
 10
2056.455599126862
 20
1300.604041686364
 10
2056.414411326531
 20
1301.8945927634
 10
2056.222201591653
 20
1303.569563310191
 10
2055.865240655452
 20
1305.148428989544
 10
2055.343528517927
 20
1306.644919068234
 10
2054.670794445855
 20
1308.059033546263
 10
2053.833309172458
 20
1309.39077242363
 10
2052.982094632286
 20
1310.447925965457
 10
2051.883753290128
 20
1311.532538040839
 10
2050.6481192802
 20
1312.507315982004
 10
2049.275192602502
 20
1313.358530522177
 10
2047.764973257035
 20
1314.086181661357
 10
2046.117461243797
 20
1314.717727933098
 10
2047.284448919839
 20
1315.198252270292
 10
2048.794668265308
 20
1315.994549743356
 10
2050.126407142675
 20
1316.914410617414
 10
2051.265936285164
 20
1317.944105625687
 10
2052.226984959553
 20
1319.097364034953
 10
2052.51529956187
 20
1319.550429838594
 10
2053.256679967826
 20
1320.937085783068
 10
2053.792121372128
 20
1322.433575861759
 10
2054.107894507999
 20
1324.026170807889
 10
2054.203999375437
 20
1325.742329155011
 10
2054.203999375437
 20
1325.948268156665
 10
2054.094165241222
 20
1327.595780169903
 10
2053.819579905682
 20
1329.160916582479
 10
2053.366514102042
 20
1330.657406661169
 10
2052.734967830301
 20
1332.085250405976
 10
2051.938670357236
 20
1333.444447816896
 10
2050.96389241607
 20
1334.734998893932
 10
2049.824363273581
 20
1335.943174370306
 10
2048.849585332416
 20
1336.794388910478
 10
2047.600222055711
 20
1337.673061984205
 10
2046.268483178344
 20
1338.414442390162
 10
2044.840639433538
 20
1339.032259395127
 10
2043.330420088071
 20
1339.499054465543
 10
2041.724095875164
 20
1339.842286134967
 10
2040.021666794819
 20
1340.048225136622
 10
2038.236862113812
 20
1340.10314220373
 10
2036.863935436114
 20
1340.075683670176
 10
2035.134047822215
 20
1339.897203202075
 10
2033.500265075753
 20
1339.595159332982
 10
2031.962587196733
 20
1339.155822796119
 10
2030.52101418515
 20
1338.565464324708
 10
2029.175546041006
 20
1337.851542452306
 10
2027.926182764301
 20
1337.000327912133
 10
2026.772924355035
 20
1336.025549970967
 10
2026.70427802115
 20
1335.97063290386
 10
2025.578478145437
 20
1334.762457427485
 10
2024.631158737826
 20
1333.485635617227
 10
2023.848590531538
 20
1332.126438206306
 10
2023.230773526575
 20
1330.6985944615
 10
2022.805166256488
 20
1329.188375116032
 10
2022.544310187726
 20
1327.595780169903
 10
2022.448205320287
 20
1325.934538889889
 10
2022.475663853841
 20
1325.124512150047
 10
2022.667873588718
 20
1323.449541603256
 10
2023.066022325251
 20
1321.88440519068
 10
2023.670110063438
 20
1320.442832179097
 10
2024.48013680328
 20
1319.097364034953
 10
2025.180329408905
 20
1318.218690961227
 10
2026.278670751064
 20
1317.175266686177
 10
2027.555492561323
 20
1316.241676545342
 10
2029.038253373236
 20
1315.417920538723
 10
2030.699494653252
 20
1314.717727933098
 10
2029.408943576215
 20
1314.319579196565
 10
2027.843807163639
 20
1313.688032924824
 10
2026.415963418834
 20
1312.919193985313
 10
2025.123108641577
 20
1312.010980721206
 10
2026.415963418834
 20
1312.919193985313
 10
2027.843807163639
 20
1313.688032924824
 10
2029.408943576215
 20
1314.319579196565
 10
2030.699494653252
 20
1314.717727933098
 10
2029.038253373236
 20
1315.417920538723
 10
2027.555492561323
 20
1316.241676545342
 10
2026.278670751064
 20
1317.175266686177
  0
LWPOLYLINE
  5
5B6
330
1F
100
AcDbEntity
  8
0
 62
   139
370
     0
100
AcDbPolyline
 90
       39
 70
     1
 43
0.0
 10
2038.387884048358
 20
1317.298830087169
 10
2037.577857308517
 20
1317.326288620723
 10
2035.930345295279
 20
1317.559686155933
 10
2034.420125949813
 20
1318.053939759903
 10
2033.060928538891
 20
1318.79532016586
 10
2031.866482329295
 20
1319.770098107025
 10
2031.440875059207
 20
1320.223163910666
 10
2030.52101418515
 20
1321.486256454148
 10
2029.875738646632
 20
1322.900370932176
 10
2029.477589910099
 20
1324.451778077975
 10
2029.354026509107
 20
1326.15420715832
 10
2029.354026509107
 20
1326.373875426753
 10
2029.546236243986
 20
1327.980199639658
 10
2030.026760581179
 20
1329.462960451572
 10
2030.823058054244
 20
1330.822157862494
 10
2031.907670129625
 20
1332.085250405976
 10
2032.360735933266
 20
1332.497128409283
 10
2033.651287010301
 20
1333.403260016565
 10
2035.06540148833
 20
1334.048535555083
 10
2036.616808634128
 20
1334.432955024838
 10
2038.991971786546
 20
1334.542789159054
 10
2040.612025266229
 20
1334.309391623845
 10
2042.108515344921
 20
1333.815138019874
 10
2043.481442022619
 20
1333.06002834714
 10
2044.730805299324
 20
1332.044062605644
 10
2045.087766235524
 20
1331.645913869111
 10
2046.048814909912
 20
1330.369092058852
 10
2046.735278248761
 20
1328.968706847601
 10
2047.133426985294
 20
1327.431028968579
 10
2047.270719653064
 20
1325.783516955341
 10
2047.270719653064
 20
1325.508931619802
 10
2047.078509918186
 20
1323.888878140117
 10
2046.611714847769
 20
1322.378658794651
 10
2045.842875908257
 20
1321.01946138373
 10
2044.799451633208
 20
1319.770098107025
 10
2044.33265656279
 20
1319.358220103716
 10
2043.069564019308
 20
1318.452088496435
 10
2041.655449541279
 20
1317.820542224695
 10
2040.090313128704
 20
1317.422393488162
  0
LWPOLYLINE
  5
5B7
330
1F
100
AcDbEntity
  8
0
 62
   139
370
     0
100
AcDbPolyline
 90
        4
 70
     0
 43
0.0
 10
2043.220585953855
 20
1290.430655004623
 10
2041.737825141942
 20
1289.922672133875
 10
2040.131500929035
 20
1289.606898998004
 10
2038.414818343147
 20
1289.497720197378
  0
LWPOLYLINE
  5
5B8
330
1F
100
AcDbEntity
  8
0
 62
   139
370
     0
100
AcDbPolyline
 90
       69
 70
     0
 43
0.0
 10
2038.023398965612
 20
1311.769860554734
 10
2036.506974499913
 20
1311.683559975384
 10
2034.914379553783
 20
1311.354057572739
 10
2033.445348008646
 20
1310.818616168436
 10
2032.086150597726
 20
1310.077235762479
 10
2030.836787321021
 20
1309.11618708809
 10
2030.328804450272
 20
1308.635662750896
 10
2029.271650908445
 20
1307.413758007745
 10
2028.434165635049
 20
1306.095748397155
 10
2027.802619363308
 20
1304.667904652349
 10
2027.390741359999
 20
1303.130226773327
 10
2027.198531625121
 20
1301.496444026867
 10
2027.184802358345
 20
1300.755063620911
 10
2027.29463649256
 20
1299.148739408004
 10
2027.610409628431
 20
1297.569873728651
 10
2028.15958029951
 20
1296.018466582852
 10
2028.571458302819
 20
1295.167252042681
 10
2029.408943576215
 20
1293.780596098206
 10
2030.452367851265
 20
1292.572420621831
 10
2031.715460394746
 20
1291.556454880334
 10
2032.621592002028
 20
1291.007284209256
 10
2034.090623547164
 20
1290.307091603629
 10
2035.642030692963
 20
1289.826567266435
 10
2037.234625639091
 20
1289.551981930896
 10
2038.414818343147
 20
1289.497720197378
 10
2040.131500929035
 20
1289.606898998004
 10
2041.737825141942
 20
1289.922672133875
 10
2043.220585953855
 20
1290.430655004623
 10
2044.593512631553
 20
1291.158306143802
 10
2045.842875908257
 20
1292.091896284638
 10
2046.405775846114
 20
1292.613608422163
 10
2047.462929387942
 20
1293.821783898536
 10
2048.300414661337
 20
1295.126064242349
 10
2048.918231666301
 20
1296.553907987155
 10
2049.343838936387
 20
1298.091585866177
 10
2049.536048671265
 20
1299.739097879414
 10
2049.563507204819
 20
1300.535395352479
 10
2049.453673070603
 20
1302.237824432824
 10
2049.137899934733
 20
1303.816690112177
 10
2048.616187797207
 20
1305.29945092409
 10
2047.888536658028
 20
1306.672377601788
 10
2046.954946517193
 20
1307.935470145269
 10
2046.337129512229
 20
1308.594474950565
 10
2045.115224769077
 20
1309.637899225615
 10
2043.797215158488
 20
1310.475384499011
 10
2042.369371413681
 20
1311.106930770752
 10
2040.831693534661
 20
1311.532538040839
 10
2039.197910788201
 20
1311.75220630927
 10
2038.023398965608
 20
1311.769860554734
 10
2039.197910788201
 20
1311.75220630927
 10
2040.831693534661
 20
1311.532538040839
 10
2042.369371413681
 20
1311.106930770752
 10
2043.797215158488
 20
1310.475384499011
 10
2045.115224769077
 20
1309.637899225615
 10
2046.337129512229
 20
1308.594474950565
 10
2046.954946517193
 20
1307.935470145269
 10
2047.888536658028
 20
1306.672377601788
 10
2048.616187797207
 20
1305.29945092409
 10
2049.137899934733
 20
1303.816690112177
 10
2049.453673070603
 20
1302.237824432824
 10
2049.563507204819
 20
1300.535395352479
 10
2049.536048671265
 20
1299.739097879414
 10
2049.343838936387
 20
1298.091585866177
 10
2048.918231666301
 20
1296.553907987155
 10
2048.300414661337
 20
1295.126064242349
 10
2047.462929387942
 20
1293.821783898536
 10
2046.405775846114
 20
1292.613608422163
 10
2045.842875908257
 20
1292.091896284638
 10
2044.593512631553
 20
1291.158306143802
  0
LWPOLYLINE
  5
5B9
330
1F
100
AcDbEntity
  8
0
 62
   139
370
     0
100
AcDbPolyline
 90
      163
 70
     1
 43
0.0
 10
1960.356895733598
 20
1320.568708347433
 10
1959.779827208268
 20
1320.557166976927
 10
1958.371780006465
 20
1320.441753271861
 10
1956.986815545675
 20
1320.210925861729
 10
1955.624933825898
 20
1319.853143376025
 10
1954.286134847134
 20
1319.368405814748
 10
1952.970418609383
 20
1318.768254548405
 10
1952.024026227843
 20
1318.237351505103
 10
1950.892971918198
 20
1317.464079681162
 10
1949.831165831591
 20
1316.58693552266
 10
1948.82706659752
 20
1315.58283628859
 10
1947.880674215979
 20
1314.474864719955
 10
1947.003530057478
 20
1313.251479446258
 10
1947.015071427985
 20
1313.366893151324
 10
1947.049695539504
 20
1315.132722838831
 10
1947.130485133051
 20
1316.806221562286
 10
1947.257440208624
 20
1318.398930692195
 10
1947.430560766222
 20
1319.887767487545
 10
1947.638305435341
 20
1321.284273318842
 10
1947.892215586486
 20
1322.599989556592
 10
1948.192291219657
 20
1323.811833459784
 10
1948.538532334854
 20
1324.931346398923
 10
1948.919397561572
 20
1325.970069744515
 10
1948.942480302585
 20
1326.027776597049
 10
1949.588797050954
 20
1327.435823798852
 10
1950.315903392869
 20
1328.739998666096
 10
1951.112257957823
 20
1329.917218457768
 10
1951.977860745817
 20
1330.979024544374
 10
1952.924253127356
 20
1331.925416925914
 10
1953.939893731937
 20
1332.756395602386
 10
1954.274593476627
 20
1332.98722301252
 10
1955.474896009312
 20
1333.679705242914
 10
1956.76752950605
 20
1334.164442804191
 10
1958.140952596332
 20
1334.464518437362
 10
1959.60670665067
 20
1334.556849401415
 10
1960.218399287519
 20
1334.545308030909
 10
1961.614905118815
 20
1334.360646102803
 10
1962.930621356567
 20
1333.979780876085
 10
1964.165548000771
 20
1333.402712350757
 10
1965.296602310417
 20
1332.640981897321
 10
1966.358408397022
 20
1331.671506774769
 10
1966.70464951222
 20
1331.244476066025
 10
1967.374049001602
 20
1330.228835461446
 10
1967.951117526932
 20
1328.993908817241
 10
1968.470479199728
 20
1327.551237503917
 10
1968.909051278978
 20
1325.889280150969
 10
1975.614587543304
 20
1326.420183194272
 10
1975.579963431785
 20
1326.674093345417
 10
1975.314511910133
 20
1328.18601288178
 10
1974.945188053922
 20
1329.617142824597
 10
1974.483533233659
 20
1330.967483173867
 10
1973.918006078836
 20
1332.237033929591
 10
1972.48687613602
 20
1334.522225289895
 10
1971.621273348026
 20
1335.537865894475
 10
1970.663339595979
 20
1336.472716905509
 10
1970.467136297367
 20
1336.645837463107
 10
1969.405330210761
 20
1337.453733398568
 10
1968.262734530609
 20
1338.15775699947
 10
1967.062431997924
 20
1338.757908265812
 10
1965.7928812422
 20
1339.24264582709
 10
1964.454082263436
 20
1339.623511053806
 10
1963.046035061632
 20
1339.888962575458
 10
1961.56873963679
 20
1340.050541762549
 10
1960.022195988906
 20
1340.108248615083
 10
1959.479751575096
 20
1340.108248615083
 10
1957.990914779748
 20
1340.01591765103
 10
1956.571326207438
 20
1339.842797093431
 10
1955.186361746648
 20
1339.554262830767
 10
1953.870645508897
 20
1339.184938974556
 10
1952.612636123679
 20
1338.711742783786
 10
1951.400792220488
 20
1338.134674258457
 10
1950.246655169829
 20
1337.465274769075
 10
1949.150224971703
 20
1336.70354431564
 10
1948.099960255604
 20
1335.82640015714
 10
1947.118943762544
 20
1334.868466405093
 10
1946.184092751511
 20
1333.806660318487
 10
1945.987889452899
 20
1333.552750167342
 10
1945.330031334023
 20
1332.675606008843
 10
1944.729880067681
 20
1331.729213627302
 10
1944.152811542352
 20
1330.736655763735
 10
1943.621908499049
 20
1329.674849677129
 10
1943.125629567265
 20
1328.555336737991
 10
1942.675516117509
 20
1327.378116946319
 10
1942.260026779272
 20
1326.154731672621
 10
1941.890702923061
 20
1324.862098175883
 10
1941.556003178369
 20
1323.511757826613
 10
1941.267468915705
 20
1322.103710624809
 10
1941.002017394054
 20
1320.637956570473
 10
1940.794272724935
 20
1319.114495663603
 10
1940.60961079683
 20
1317.533327904202
 10
1940.471114350751
 20
1315.894453292266
 10
1940.378783386698
 20
1314.197871827798
 10
1940.321076534166
 20
1312.43204214029
 10
1940.297993793151
 20
1310.620046970756
 10
1940.297993793151
 20
1310.031437074921
 10
1940.332617904672
 20
1308.219441905387
 10
1940.424948868725
 20
1306.488236329399
 10
1940.551903944297
 20
1304.826278976451
 10
1940.725024501896
 20
1303.222028476035
 10
1940.944310541521
 20
1301.698567569166
 10
1941.209762063172
 20
1300.232813514829
 10
1941.509837696344
 20
1298.836307683532
 10
1941.867620182048
 20
1297.520591445782
 10
1942.271568149778
 20
1296.262582060565
 10
1942.710140229029
 20
1295.073820898386
 10
1943.206419160811
 20
1293.954307959247
 10
1943.737322204115
 20
1292.915584613654
 10
1944.325932099951
 20
1291.934568120595
 10
1944.949166107306
 20
1291.022799850574
 10
1945.618565596688
 20
1290.180279803593
 10
1945.84939300682
 20
1289.914828281941
 10
1946.83040949988
 20
1288.887646306855
 10
1947.86913284547
 20
1287.941253925316
 10
1948.942480302585
 20
1287.110275248842
 10
1950.07353461223
 20
1286.37162753642
 10
1951.262295774408
 20
1285.725310788051
 10
1952.485681048106
 20
1285.182866374242
 10
1953.766773174338
 20
1284.744294294991
 10
1955.094030782595
 20
1284.398053179794
 10
1956.478995243385
 20
1284.144143028649
 10
1957.898583815695
 20
1283.994105212063
 10
1959.375879240538
 20
1283.947939730037
 10
1960.195316546506
 20
1283.97102247105
 10
1961.661070600842
 20
1284.086436176116
 10
1963.069117802646
 20
1284.305722215741
 10
1964.430999522423
 20
1284.640421960432
 10
1965.746715760174
 20
1285.090535410189
 10
1967.016266515898
 20
1285.644521194505
 10
1968.22811041909
 20
1286.313920683888
 10
1968.897509908471
 20
1286.740951392631
 10
1970.005481477104
 20
1287.571930069105
 10
1971.03266345219
 20
1288.483698339125
 10
1971.97905583373
 20
1289.510880314212
 10
1972.85619999223
 20
1290.618851882843
 10
1973.652554557185
 20
1291.830695786035
 10
1974.3796608991
 20
1293.146412023786
 10
1974.956729424429
 20
1294.41596277951
 10
1975.453008356212
 20
1295.720137646755
 10
1975.868497694449
 20
1297.070477996025
 10
1976.180114698127
 20
1298.443901086309
 10
1976.410942108259
 20
1299.840406917605
 10
1976.537897183831
 20
1301.283078230928
 10
1976.584062665857
 20
1302.748832285265
 10
1976.584062665857
 20
1302.794997767291
 10
1976.537897183831
 20
1304.341541415174
 10
1976.399400737752
 20
1305.818836840017
 10
1976.157031957114
 20
1307.249966782833
 10
1975.822332212422
 20
1308.611848502611
 10
1975.395301503679
 20
1309.927564740362
 10
1974.875939830883
 20
1311.174032755073
 10
1974.264247194033
 20
1312.374335287758
 10
1973.560223593132
 20
1313.505389597403
 10
1972.763869028177
 20
1314.590278425022
 10
1971.863642128664
 20
1315.617460400108
 10
1971.621273348026
 20
1315.871370551253
 10
1970.547925890913
 20
1316.852387044313
 10
1969.439954322281
 20
1317.717989832306
 10
1968.285817271622
 20
1318.479720285741
 10
1967.073973368431
 20
1319.114495663603
 10
1965.82750535372
 20
1319.6338573364
 10
1964.523330486474
 20
1320.03780530413
 10
1963.184531507712
 20
1320.337880937302
 10
1961.788025676415
 20
1320.5110014949
  0
LWPOLYLINE
  5
5BA
330
1F
100
AcDbEntity
  8
0
 62
   139
370
     0
100
AcDbPolyline
 90
       57
 70
     1
 43
0.0
 10
1959.006555384328
 20
1314.601819795528
 10
1959.225841423953
 20
1314.601819795528
 10
1960.668512737276
 20
1314.486406090463
 10
1962.030394457053
 20
1314.197871827798
 10
1964.511789115968
 20
1313.112983000179
 10
1965.619760684601
 20
1312.316628435224
 10
1966.658484030194
 20
1311.335611942165
 10
1967.420214483629
 20
1310.400760931131
 10
1968.112696714024
 20
1309.304330733006
 10
1968.678223868845
 20
1308.104028200321
 10
1969.128337318602
 20
1306.811394703583
 10
1969.439954322281
 20
1305.414888872286
 10
1969.624616250385
 20
1303.926052076937
 10
1969.693864473426
 20
1302.333342947028
 10
1969.693864473426
 20
1302.02172594335
 10
1969.601533509372
 20
1300.429016813441
 10
1969.405330210761
 20
1298.951721388598
 10
1969.082171836577
 20
1297.555215557302
 10
1968.643599757327
 20
1296.262582060565
 10
1968.089613973011
 20
1295.062279527879
 10
1967.408673113122
 20
1293.965849329753
 10
1966.612318548167
 20
1292.950208725175
 10
1966.600777177661
 20
1292.92712598416
 10
1965.538971091055
 20
1291.888402638568
 10
1964.419458151916
 20
1291.022799850574
 10
1963.230696989738
 20
1290.364941731699
 10
1961.97268760452
 20
1289.880204170422
 10
1960.656971366769
 20
1289.603211278264
 10
1959.272006905979
 20
1289.499338943705
 10
1959.018096754834
 20
1289.510880314212
 10
1957.633132294044
 20
1289.637835389784
 10
1956.29433331528
 20
1289.960993763969
 10
1954.967075707021
 20
1290.480355436764
 10
1953.685983580791
 20
1291.195920408173
 10
1953.039666832423
 20
1291.622951116917
 10
1952.00094348683
 20
1292.500095275417
 10
1951.066092475796
 20
1293.527277250503
 10
1950.258196540336
 20
1294.704497042175
 10
1949.554172939433
 20
1296.031754650432
 10
1949.080976748664
 20
1297.151267589571
 10
1948.630863298907
 20
1298.501607938842
 10
1948.319246295229
 20
1299.875031029125
 10
1948.123042996616
 20
1301.283078230928
 10
1948.053794773577
 20
1302.702666803239
 10
1948.099960255604
 20
1303.856803853896
 10
1948.273080813203
 20
1305.322557908234
 10
1948.58469781688
 20
1306.707522369024
 10
1949.034811266637
 20
1308.000155865762
 10
1949.634962532981
 20
1309.200458398446
 10
1950.373610245401
 20
1310.308429967079
 10
1951.250754403902
 20
1311.335611942165
 10
1951.45849907302
 20
1311.543356611283
 10
1952.531846530133
 20
1312.478207622317
 10
1953.685983580791
 20
1313.239938075751
 10
1954.90936885449
 20
1313.840089342094
 10
1956.202002351227
 20
1314.255578680331
 10
1957.563884071004
 20
1314.509488831476
  0
LWPOLYLINE
  5
5BB
330
1F
100
AcDbEntity
  8
0
100
AcDbPolyline
 90
       21
 70
     0
 43
0.0
 10
2150.717389623103
 20
1343.851447627022
 10
2110.717389623104
 20
1343.851447627022
 10
2110.717389623104
 20
1278.851447627022
 10
2115.717389623103
 20
1278.851447627022
 10
2115.717389623103
 20
1273.851447627021
 10
2145.717389623103
 20
1273.851447627021
 10
2145.717389623103
 20
1278.851447627022
 10
2150.717389623103
 20
1278.851447627022
 10
2155.717389623104
 20
1278.851447627022
 10
2155.717389623104
 20
1273.851447627021
 10
2185.717389623103
 20
1273.851447627021
 10
2185.717389623103
 20
1278.851447627022
 10
2190.717389623103
 20
1278.851447627022
 10
2195.717389623103
 20
1278.851447627022
 10
2195.717389623103
 20
1273.851447627021
 10
2225.717389623103
 20
1273.851447627021
 10
2225.717389623103
 20
1278.851447627022
 10
2230.717389623104
 20
1278.851447627022
 10
2230.717389623104
 20
1343.851447627022
 10
2190.717389623103
 20
1343.851447627022
 10
2190.717389623103
 20
1278.851447627022
  0
LWPOLYLINE
  5
5BC
330
1F
100
AcDbEntity
  8
0
100
AcDbPolyline
 90
        3
 70
     0
 43
0.0
 10
2150.717389623103
 20
1278.851447627022
 10
2150.717389623103
 20
1343.851447627022
 10
2190.717389623103
 20
1343.851447627022
  0
LWPOLYLINE
  5
5BD
330
1F
100
AcDbEntity
  8
0
100
AcDbPolyline
 90
       21
 70
     0
 43
0.0
 10
1978.152611988256
 20
1344.47065724266
 10
1938.152611988257
 20
1344.47065724266
 10
1938.152611988257
 20
1279.47065724266
 10
1943.152611988256
 20
1279.47065724266
 10
1943.152611988256
 20
1274.47065724266
 10
1973.152611988256
 20
1274.47065724266
 10
1973.152611988256
 20
1279.47065724266
 10
1978.152611988256
 20
1279.47065724266
 10
1983.152611988256
 20
1279.47065724266
 10
1983.152611988256
 20
1274.47065724266
 10
2013.152611988256
 20
1274.47065724266
 10
2013.152611988256
 20
1279.47065724266
 10
2018.152611988256
 20
1279.47065724266
 10
2023.152611988256
 20
1279.47065724266
 10
2023.152611988256
 20
1274.47065724266
 10
2053.152611988256
 20
1274.47065724266
 10
2053.152611988256
 20
1279.47065724266
 10
2058.152611988256
 20
1279.47065724266
 10
2058.152611988256
 20
1344.47065724266
 10
2018.152611988256
 20
1344.47065724266
 10
2018.152611988256
 20
1279.47065724266
  0
LWPOLYLINE
  5
5BE
330
1F
100
AcDbEntity
  8
0
100
AcDbPolyline
 90
        3
 70
     0
 43
0.0
 10
1978.152611988256
 20
1279.47065724266
 10
1978.152611988256
 20
1344.47065724266
 10
2018.152611988256
 20
1344.47065724266
  0
CIRCLE
  5
5BF
330
1F
100
AcDbEntity
  8
0
100
AcDbCircle
 10
2086.667189564517
 20
1322.572335987372
 30
0.0
 40
3.552394738924931
  0
CIRCLE
  5
5C0
330
1F
100
AcDbEntity
  8
0
100
AcDbCircle
 10
2086.667189564517
 20
1301.368978497949
 30
0.0
 40
3.552394738924931
  0
LINE
  5
5C1
330
1F
100
AcDbEntity
  8
0
100
AcDbLine
 10
2095.667189564517
 20
1344.47065724266
 30
0.0
 11
2095.667189564517
 21
1279.47065724266
 31
0.0
  0
LINE
  5
5C2
330
1F
100
AcDbEntity
  8
0
100
AcDbLine
 10
2077.667189564516
 20
1344.47065724266
 30
0.0
 11
2077.667189564516
 21
1279.470657242661
 31
0.0
  0
LINE
  5
5C3
330
1F
100
AcDbEntity
  8
0
100
AcDbLine
 10
2077.667189564516
 20
1279.47065724266
 30
0.0
 11
2082.667189564516
 21
1279.47065724266
 31
0.0
  0
LINE
  5
5C4
330
1F
100
AcDbEntity
  8
0
100
AcDbLine
 10
2082.667189564516
 20
1279.47065724266
 30
0.0
 11
2082.667189564516
 21
1274.470657242661
 31
0.0
  0
LINE
  5
5C5
330
1F
100
AcDbEntity
  8
0
100
AcDbLine
 10
2095.667189564517
 20
1279.47065724266
 30
0.0
 11
2090.667189564516
 21
1279.47065724266
 31
0.0
  0
LINE
  5
5C6
330
1F
100
AcDbEntity
  8
0
100
AcDbLine
 10
2090.667189564516
 20
1279.47065724266
 30
0.0
 11
2090.667189564516
 21
1274.47065724266
 31
0.0
  0
LINE
  5
5C7
330
1F
100
AcDbEntity
  8
0
100
AcDbLine
 10
2090.667189564516
 20
1274.47065724266
 30
0.0
 11
2082.667189564516
 21
1274.47065724266
 31
0.0
  0
LINE
  5
5C8
330
1F
100
AcDbEntity
  8
0
100
AcDbLine
 10
2077.667189564516
 20
1344.47065724266
 30
0.0
 11
2095.667189564517
 21
1344.47065724266
 31
0.0
  0
ENDSEC
  0
SECTION
  2
OBJECTS
  0
DICTIONARY
  5
C
330
0
100
AcDbDictionary
281
     1
  3
ACAD_CIP_PREVIOUS_PRODUCT_INFO
350
216
  3
ACAD_COLOR
350
6B
  3
ACAD_DETAILVIEWSTYLE
350
21B
  3
ACAD_GROUP
350
D
  3
ACAD_LAYOUT
350
1A
  3
ACAD_MATERIAL
350
6A
  3
ACAD_MLEADERSTYLE
350
12D
  3
ACAD_MLINESTYLE
350
17
  3
ACAD_PLOTSETTINGS
350
19
  3
ACAD_PLOTSTYLENAME
350
E
  3
ACAD_SCALELIST
350
10C
  3
ACAD_SECTIONVIEWSTYLE
350
219
  3
ACAD_TABLESTYLE
350
7E
  3
ACAD_VISUALSTYLE
350
EF
  3
ACDB_RECOMPOSE_DATA
350
5E2
  3
AcDbVariableDictionary
350
5E
  3
AcDsDecomposeData
350
5E8
  0
DICTIONARY
  5
1FF
330
2
100
AcDbDictionary
280
     1
281
     1
  3
ACAD_LAYERSTATES
360
200
  0
DICTIONARY
  5
13C
330
10
100
AcDbDictionary
280
     1
281
     1
  0
DICTIONARY
  5
1CE
330
1F
100
AcDbDictionary
280
     1
281
     1
  0
DICTIONARY
  5
53D
330
53C
100
AcDbDictionary
280
     1
281
     1
  3
ACAD_DIMASSOC
360
53E
  0
DICTIONARY
  5
540
330
53F
100
AcDbDictionary
280
     1
281
     1
  3
ACAD_DIMASSOC
360
541
  0
XRECORD
  5
216
102
{ACAD_REACTORS
330
C
102
}
330
C
100
AcDbXrecord
280
     1
300
ACD
300
2018
300
ACD_F_S
  0
DICTIONARY
  5
6B
102
{ACAD_REACTORS
330
C
102
}
330
C
100
AcDbDictionary
281
     1
  0
DICTIONARY
  5
21B
102
{ACAD_REACTORS
330
C
102
}
330
C
100
AcDbDictionary
281
     1
  3
Metric50
350
21C
  0
DICTIONARY
  5
D
102
{ACAD_REACTORS
330
C
102
}
330
C
100
AcDbDictionary
281
     1
  0
DICTIONARY
  5
1A
102
{ACAD_REACTORS
330
C
102
}
330
C
100
AcDbDictionary
281
     1
  3
Layout1
350
D3
  3
Layout2
350
D7
  3
Model
350
22
  0
DICTIONARY
  5
6A
102
{ACAD_REACTORS
330
C
102
}
330
C
100
AcDbDictionary
281
     1
  3
ByBlock
350
ED
  3
ByLayer
350
EC
  3
Global
350
EE
  0
DICTIONARY
  5
12D
102
{ACAD_REACTORS
330
C
102
}
330
C
100
AcDbDictionary
281
     1
  3
Annotative
350
13B
  3
Standard
350
12E
  0
DICTIONARY
  5
17
102
{ACAD_REACTORS
330
C
102
}
330
C
100
AcDbDictionary
281
     1
  3
Standard
350
18
  0
DICTIONARY
  5
19
102
{ACAD_REACTORS
330
C
102
}
330
C
100
AcDbDictionary
281
     1
  0
ACDBDICTIONARYWDFLT
  5
E
102
{ACAD_REACTORS
330
C
102
}
330
C
100
AcDbDictionary
281
     1
  3
Normal
350
F
100
AcDbDictionaryWithDefault
340
F
  0
DICTIONARY
  5
10C
102
{ACAD_REACTORS
330
C
102
}
330
C
100
AcDbDictionary
281
     1
  3
A0
350
10D
  3
A1
350
1BE
  3
A2
350
1BF
  3
A3
350
1C0
  3
A4
350
1C1
  3
A5
350
1C2
  3
A6
350
1C3
  3
A7
350
1C4
  3
A8
350
1C5
  3
A9
350
1C6
  3
B0
350
1C7
  3
B1
350
1C8
  3
B2
350
1C9
  3
B3
350
1CA
  3
B4
350
1CB
  3
B5
350
1CC
  3
B6
350
1CD
  0
DICTIONARY
  5
219
102
{ACAD_REACTORS
330
C
102
}
330
C
100
AcDbDictionary
281
     1
  3
Metric50
350
21A
  0
DICTIONARY
  5
7E
102
{ACAD_REACTORS
330
C
102
}
330
C
100
AcDbDictionary
281
     1
  3
Standard
350
7F
  0
DICTIONARY
  5
EF
102
{ACAD_REACTORS
330
C
102
}
330
C
100
AcDbDictionary
281
     1
  3
2dWireframe
350
F5
  3
Basic
350
F4
  3
Brighten
350
FB
  3
ColorChange
350
FF
  3
Conceptual
350
F8
  3
Dim
350
FA
  3
EdgeColorOff
350
1E6
  3
Facepattern
350
FE
  3
Flat
350
F0
  3
FlatWithEdges
350
F1
  3
Gouraud
350
F2
  3
GouraudWithEdges
350
F3
  3
Hidden
350
F7
  3
JitterOff
350
1E4
  3
Linepattern
350
FD
  3
OverhangOff
350
1E5
  3
Realistic
350
F9
  3
Shaded
350
1F3
  3
Shaded with edges
350
1F2
  3
Shades of Gray
350
1EF
  3
Sketchy
350
1F0
  3
Thicken
350
FC
  3
Wireframe
350
F6
  3
X-Ray
350
1F1
  0
XRECORD
  5
5E2
102
{ACAD_REACTORS
330
C
102
}
330
C
100
AcDbXrecord
280
     1
 90
        1
330
7F
  0
DICTIONARY
  5
5E
102
{ACAD_REACTORS
330
C
102
}
330
C
100
AcDbDictionary
281
     1
  3
CANNOSCALE
350
146
  3
CENTEREXE
350
259
  3
CENTERLTYPEFILE
350
25A
  3
CMLEADERSTYLE
350
145
  3
CTABLESTYLE
350
84
  3
CVIEWDETAILSTYLE
350
227
  3
CVIEWSECTIONSTYLE
350
228
  3
DIMASSOC
350
5F
  3
HIDETEXT
350
63
  3
LAYEREVAL
350
1AE
  3
LAYERNOTIFY
350
1AF
  0
DICTIONARY
  5
5E8
102
{ACAD_REACTORS
330
C
102
}
330
C
100
AcDbDictionary
281
     1
  3
AcDsRecords
350
5EA
  3
AcDsSchemas
350
5E9
1001
ACAD
1070
     2
  0
DICTIONARY
  5
200
102
{ACAD_REACTORS
330
1FF
102
}
330
1FF
100
AcDbDictionary
281
     1
  0
DIMASSOC
  5
53E
102
{ACAD_REACTORS
330
53D
102
}
330
53D
100
AcDbDimAssoc
330
53C
 90
        1
 70
     0
 71
     0
  1
AcDbOsnapPointRef
 72
     1
331
533
 73
     2
 91
       18
 40
1.0
 10
0.0
 20
0.0
 30
2.000000000000000E+50
 75
     0
  0
DIMASSOC
  5
541
102
{ACAD_REACTORS
330
540
102
}
330
540
100
AcDbDimAssoc
330
53F
 90
        1
 70
     0
 71
     0
  1
AcDbOsnapPointRef
 72
     1
331
533
 73
     2
 91
        1
 40
1.0
 10
0.0
 20
0.0
 30
2.000000000000000E+50
 75
     0
  0
ACDBDETAILVIEWSTYLE
  5
21C
102
{ACAD_XDICTIONARY
360
5ED
102
}
102
{ACAD_REACTORS
330
21B
102
}
330
21B
100
AcDbModelDocViewStyle
 70
     0
  3
Metric50
290
     0
100
AcDbDetailViewStyle
 70
     0
 71
     0
 90
        3
 71
     1
340
11
 62
   256
 40
5.0
340
0
 62
   256
 40
5.0
300

 40
0.0
280
     1
 71
     2
340
16
 90
       25
 62
   256
 71
     3
340
11
 62
   256
 40
5.0
 90
        0
 40
15.0
 90
        1
300
%<\AcVar ViewDetailId>% (%<\AcVar ViewScale \f "%sn">%)
 71
     4
340
16
 90
       25
 62
   256
340
16
 90
       25
 62
   256
280
     0
  0
LAYOUT
  5
D3
102
{ACAD_REACTORS
330
1A
102
}
330
1A
100
AcDbPlotSettings
  1

  2
C:\Documents and Settings\basas\Application Data\Autodesk\AutoCAD 2005\R16.1\enu\plotters\Default Windows System Printer.pc3
  4

  6

 40
0.0
 41
0.0
 42
0.0
 43
0.0
 44
0.0
 45
0.0
 46
0.0
 47
0.0
 48
0.0
 49
0.0
140
0.0
141
0.0
142
1.0
143
1.0
 70
   688
 72
     0
 73
     0
 74
     5
  7

 75
    16
147
1.0
 76
     0
 77
     2
 78
   300
148
0.0
149
0.0
100
AcDbLayout
  1
Layout1
 70
     1
 71
     1
 10
0.0
 20
0.0
 11
12.0
 21
9.0
 12
0.0
 22
0.0
 32
0.0
 14
0.0
 24
0.0
 34
0.0
 15
0.0
 25
0.0
 35
0.0
146
0.0
 13
0.0
 23
0.0
 33
0.0
 16
1.0
 26
0.0
 36
0.0
 17
0.0
 27
1.0
 37
0.0
 76
     0
330
D2
  0
LAYOUT
  5
D7
102
{ACAD_REACTORS
330
1A
102
}
330
1A
100
AcDbPlotSettings
  1

  2
C:\Documents and Settings\basas\Application Data\Autodesk\AutoCAD 2005\R16.1\enu\plotters\Default Windows System Printer.pc3
  4

  6

 40
0.0
 41
0.0
 42
0.0
 43
0.0
 44
0.0
 45
0.0
 46
0.0
 47
0.0
 48
0.0
 49
0.0
140
0.0
141
0.0
142
1.0
143
1.0
 70
   688
 72
     0
 73
     0
 74
     5
  7

 75
    16
147
1.0
 76
     0
 77
     2
 78
   300
148
0.0
149
0.0
100
AcDbLayout
  1
Layout2
 70
     1
 71
     2
 10
0.0
 20
0.0
 11
12.0
 21
9.0
 12
0.0
 22
0.0
 32
0.0
 14
0.0
 24
0.0
 34
0.0
 15
0.0
 25
0.0
 35
0.0
146
0.0
 13
0.0
 23
0.0
 33
0.0
 16
1.0
 26
0.0
 36
0.0
 17
0.0
 27
1.0
 37
0.0
 76
     0
330
D6
  0
LAYOUT
  5
22
102
{ACAD_XDICTIONARY
360
205
102
}
102
{ACAD_REACTORS
330
1A
102
}
330
1A
100
AcDbPlotSettings
  1

  2
none_device
  4
ISO_A4_(210.00_x_297.00_MM)
  6

 40
7.5
 41
20.0
 42
7.5
 43
20.0
 44
210.0
 45
297.0
 46
11.54999923706054
 47
-13.65000009536743
 48
0.0
 49
0.0
140
0.0
141
0.0
142
1.0
143
8.704084754739808
 70
 11952
 72
     1
 73
     0
 74
     0
  7

 75
     0
147
0.1148885871608098
 76
     0
 77
     2
 78
   300
148
0.0
149
0.0
100
AcDbLayout
  1
Model
 70
     1
 71
     0
 10
0.0
 20
0.0
 11
12.0
 21
9.0
 12
0.0
 22
0.0
 32
0.0
 14
0.0
 24
0.0
 34
0.0
 15
0.0
 25
0.0
 35
0.0
146
0.0
 13
0.0
 23
0.0
 33
0.0
 16
1.0
 26
0.0
 36
0.0
 17
0.0
 27
1.0
 37
0.0
 76
     0
330
1F
331
EA
1001
ACAD_PSEXT
1000
None
1000
None
1000
Not applicable
1000
The layout will not be plotted unless a new plotter configuration name is selected.
1070
     0
  0
MATERIAL
  5
ED
102
{ACAD_XDICTIONARY
360
1F9
102
}
102
{ACAD_REACTORS
330
6A
102
}
330
6A
100
AcDbMaterial
  1
ByBlock
 94
       63
  0
MATERIAL
  5
EC
102
{ACAD_XDICTIONARY
360
1F7
102
}
102
{ACAD_REACTORS
330
6A
102
}
330
6A
100
AcDbMaterial
  1
ByLayer
 94
       63
  0
MATERIAL
  5
EE
102
{ACAD_XDICTIONARY
360
173
102
}
102
{ACAD_REACTORS
330
6A
102
}
330
6A
100
AcDbMaterial
  1
Global
 43
0.0007999999797903
 43
0.0
 43
0.0
 43
0.0
 43
0.0
 43
0.0007999999797903
 43
0.0
 43
0.0
 43
0.0
 43
0.0
 43
1.0
 43
0.0
 43
0.0
 43
0.0
 43
0.0
 43
1.0
 49
0.0007999999797903
 49
0.0
 49
0.0
 49
0.0
 49
0.0
 49
0.0007999999797903
 49
0.0
 49
0.0
 49
0.0
 49
0.0
 49
1.0
 49
0.0
 49
0.0
 49
0.0
 49
0.0
 49
1.0
142
0.0007999999797903
142
0.0
142
0.0
142
0.0
142
0.0
142
0.0007999999797903
142
0.0
142
0.0
142
0.0
142
0.0
142
1.0
142
0.0
142
0.0
142
0.0
142
0.0
142
1.0
144
0.0007999999797903
144
0.0
144
0.0
144
0.0
144
0.0
144
0.0007999999797903
144
0.0
144
0.0
144
0.0
144
0.0
144
1.0
144
0.0
144
0.0
144
0.0
144
0.0
144
1.0
 94
       63
1001
ACAD
1070
    -1
1070
     3
1070
     0
1000

1071
        0
1070
     0
  0
MLEADERSTYLE
  5
13B
102
{ACAD_REACTORS
330
12D
102
}
330
12D
100
AcDbMLeaderStyle
179
     2
170
     2
171
     1
172
     0
 90
        2
 40
0.0
 41
0.0
173
     1
 91
-1056964608
340
14
 92
       -2
290
     1
 42
2.0
291
     1
 43
8.0
  3
Standard
 44
4.0
300

342
11
174
     1
178
     1
175
     1
176
     0
 93
-1056964608
 45
4.0
292
     0
297
     0
 46
4.0
 94
-1056964608
 47
1.0
 49
1.0
140
1.0
293
     1
141
0.0
294
     1
177
     0
142
1.0
295
     0
296
     1
143
3.75
271
     0
272
     9
273
     9
298
     0
  0
MLEADERSTYLE
  5
12E
102
{ACAD_REACTORS
330
12D
102
}
330
12D
100
AcDbMLeaderStyle
179
     2
170
     2
171
     1
172
     0
 90
        2
 40
0.0
 41
0.0
173
     1
 91
-1056964608
340
14
 92
       -2
290
     1
 42
2.0
291
     1
 43
8.0
  3
Standard
 44
4.0
300

342
11
174
     1
178
     1
175
     1
176
     0
 93
-1056964608
 45
4.0
292
     0
297
     0
 46
4.0
 94
-1056964608
 47
1.0
 49
1.0
140
1.0
293
     1
141
0.0
294
     1
177
     0
142
1.0
295
     0
296
     0
143
3.75
271
     0
272
     9
273
     9
298
     0
  0
MLINESTYLE
  5
18
102
{ACAD_REACTORS
330
17
102
}
330
17
100
AcDbMlineStyle
  2
STANDARD
 70
     0
  3

 62
   256
 51
90.0
 52
90.0
 71
     2
 49
0.5
 62
   256
  6
BYLAYER
 49
-0.5
 62
   256
  6
BYLAYER
  0
ACDBPLACEHOLDER
  5
F
102
{ACAD_REACTORS
330
E
102
}
330
E
  0
SCALE
  5
10D
102
{ACAD_REACTORS
330
10C
102
}
330
10C
100
AcDbScale
 70
     0
300
1:1
140
1.0
141
1.0
290
     1
  0
SCALE
  5
1BE
102
{ACAD_REACTORS
330
10C
102
}
330
10C
100
AcDbScale
 70
     0
300
1:2
140
1.0
141
2.0
290
     0
  0
SCALE
  5
1BF
102
{ACAD_REACTORS
330
10C
102
}
330
10C
100
AcDbScale
 70
     0
300
1:4
140
1.0
141
4.0
290
     0
  0
SCALE
  5
1C0
102
{ACAD_REACTORS
330
10C
102
}
330
10C
100
AcDbScale
 70
     0
300
1:5
140
1.0
141
5.0
290
     0
  0
SCALE
  5
1C1
102
{ACAD_REACTORS
330
10C
102
}
330
10C
100
AcDbScale
 70
     0
300
1:8
140
1.0
141
8.0
290
     0
  0
SCALE
  5
1C2
102
{ACAD_REACTORS
330
10C
102
}
330
10C
100
AcDbScale
 70
     0
300
1:10
140
1.0
141
10.0
290
     0
  0
SCALE
  5
1C3
102
{ACAD_REACTORS
330
10C
102
}
330
10C
100
AcDbScale
 70
     0
300
1:16
140
1.0
141
16.0
290
     0
  0
SCALE
  5
1C4
102
{ACAD_REACTORS
330
10C
102
}
330
10C
100
AcDbScale
 70
     0
300
1:20
140
1.0
141
20.0
290
     0
  0
SCALE
  5
1C5
102
{ACAD_REACTORS
330
10C
102
}
330
10C
100
AcDbScale
 70
     0
300
1:30
140
1.0
141
30.0
290
     0
  0
SCALE
  5
1C6
102
{ACAD_REACTORS
330
10C
102
}
330
10C
100
AcDbScale
 70
     0
300
1:40
140
1.0
141
40.0
290
     0
  0
SCALE
  5
1C7
102
{ACAD_REACTORS
330
10C
102
}
330
10C
100
AcDbScale
 70
     0
300
1:50
140
1.0
141
50.0
290
     0
  0
SCALE
  5
1C8
102
{ACAD_REACTORS
330
10C
102
}
330
10C
100
AcDbScale
 70
     0
300
1:100
140
1.0
141
100.0
290
     0
  0
SCALE
  5
1C9
102
{ACAD_REACTORS
330
10C
102
}
330
10C
100
AcDbScale
 70
     0
300
2:1
140
2.0
141
1.0
290
     0
  0
SCALE
  5
1CA
102
{ACAD_REACTORS
330
10C
102
}
330
10C
100
AcDbScale
 70
     0
300
4:1
140
4.0
141
1.0
290
     0
  0
SCALE
  5
1CB
102
{ACAD_REACTORS
330
10C
102
}
330
10C
100
AcDbScale
 70
     0
300
8:1
140
8.0
141
1.0
290
     0
  0
SCALE
  5
1CC
102
{ACAD_REACTORS
330
10C
102
}
330
10C
100
AcDbScale
 70
     0
300
10:1
140
10.0
141
1.0
290
     0
  0
SCALE
  5
1CD
102
{ACAD_REACTORS
330
10C
102
}
330
10C
100
AcDbScale
 70
     0
300
100:1
140
100.0
141
1.0
290
     0
  0
ACDBSECTIONVIEWSTYLE
  5
21A
102
{ACAD_XDICTIONARY
360
5EB
102
}
102
{ACAD_REACTORS
330
219
102
}
330
219
100
AcDbModelDocViewStyle
 70
     0
  3
Metric50
290
     0
100
AcDbSectionViewStyle
 70
     0
 71
     0
 90
      102
 71
     1
340
11
 62
   256
 40
5.0
340
0
340
0
 62
   256
 40
5.0
300
I, O, Q, S, X, Z
 40
10.0
 90
        0
 40
2.5
 90
        0
 71
     2
340
16
 90
       25
 62
   256
340
16
 90
       50
 62
   256
 40
5.0
 40
2.5
 40
5.0
 71
     3
340
11
 62
   256
 40
5.0
 90
        0
 40
15.0
 90
        1
300
%<\AcVar ViewSectionStartId>%-%<\AcVar ViewSectionEndId>% (%<\AcVar ViewScale \f "%sn">%)
 71
     4
 62
   256
 62
   257
300
ANSI31
 40
1.0
 90
        0
290
     0
290
     0
 90
        6
 40
0.0
 40
1.570796326794896
 40
0.2617993877991494
 40
1.308996938995747
 40
-0.2617993877991494
 40
1.832595714594046
  0
TABLESTYLE
  5
7F
102
{ACAD_XDICTIONARY
360
162
102
}
102
{ACAD_REACTORS
330
7E
102
}
330
7E
100
AcDbTableStyle
280
     0
  3
Standard
 70
     0
 71
     0
 40
1.5
 41
1.5
280
     0
281
     0
  7
Standard
140
4.5
170
     2
 62
     0
 63
     7
283
     0
 90
      512
 91
        0
  1

274
    -2
284
     1
 64
     0
275
    -2
285
     1
 65
     0
276
    -2
286
     1
 66
     0
277
    -2
287
     1
 67
     0
278
    -2
288
     1
 68
     0
279
    -2
289
     1
 69
     0
  7
Standard
140
6.0
170
     5
 62
     0
 63
     7
283
     0
 90
      512
 91
        0
  1

274
    -2
284
     1
 64
     0
275
    -2
285
     1
 65
     0
276
    -2
286
     1
 66
     0
277
    -2
287
     1
 67
     0
278
    -2
288
     1
 68
     0
279
    -2
289
     1
 69
     0
  7
Standard
140
4.5
170
     5
 62
     0
 63
     7
283
     0
 90
      512
 91
        0
  1

274
    -2
284
     1
 64
     0
275
    -2
285
     1
 65
     0
276
    -2
286
     1
 66
     0
277
    -2
287
     1
 67
     0
278
    -2
288
     1
 68
     0
279
    -2
289
     1
 69
     0
  0
VISUALSTYLE
  5
F5
102
{ACAD_REACTORS
330
EF
102
}
330
EF
100
AcDbVisualStyle
  2
2dWireframe
 70
     4
177
     3
291
     0
 70
    58
 90
        0
176
     1
 90
        2
176
     1
 90
        1
176
     1
 90
        0
176
     1
 40
0.6
176
     1
 40
30.0
176
     1
 62
     7
420
 16777215
176
     1
 90
        1
176
     1
 90
        4
176
     1
 62
     7
176
     1
 62
   257
176
     1
 90
        1
176
     1
 90
        1
176
     1
 40
1.0
176
     1
 90
        0
176
     1
 62
   257
176
     1
 40
1.0
176
     1
 90
        1
176
     1
 90
        6
176
     1
 90
        2
176
     1
 62
     7
176
     1
 90
        5
176
     1
 90
        0
176
     1
 90
        0
176
     1
290
     0
176
     1
 90
        1
176
     1
 40
0.0
176
     1
 90
        0
176
     1
290
     1
176
     1
290
     1
176
     1
290
     0
176
     1
290
     0
176
     1
290
     0
176
     1
290
     0
176
     1
290
     0
176
     1
290
     0
176
     1
290
     0
176
     1
 90
       50
176
     1
 40
0.0
176
     1
 40
1.0
176
     1
 90
        0
176
     1
 62
    18
420
        0
176
     1
 90
       50
176
     1
 90
        3
176
     1
 62
     5
420
      255
176
     1
290
     0
176
     1
 90
       50
176
     1
 90
       50
176
     1
 90
       50
176
     1
290
     0
176
     1
 90
       50
176
     1
 62
   256
176
     0
 40
1.0
176
     0
 90
        2
176
     1
  1
strokes_ogs.tif
176
     1
290
     0
176
     1
 40
1.0
176
     1
 40
1.0
176
     1
1001
ACAD
1000
AcDbSavedByObjectVersion
1070
     0
  0
VISUALSTYLE
  5
F4
102
{ACAD_REACTORS
330
EF
102
}
330
EF
100
AcDbVisualStyle
  2
Basic
 70
     7
177
     3
291
     1
 70
    58
 90
        1
176
     1
 90
        0
176
     1
 90
        1
176
     1
 90
        0
176
     1
 40
0.6
176
     1
 40
30.0
176
     1
 62
     7
420
 16777215
176
     1
 90
        0
176
     1
 90
        4
176
     1
 62
     7
176
     1
 62
   257
176
     1
 90
        1
176
     1
 90
        1
176
     1
 40
1.0
176
     1
 90
        8
176
     1
 62
     7
176
     1
 40
1.0
176
     1
 90
        1
176
     1
 90
        6
176
     1
 90
        2
176
     1
 62
     7
176
     1
 90
        5
176
     1
 90
        0
176
     1
 90
        0
176
     1
290
     0
176
     1
 90
        1
176
     1
 40
0.0
176
     1
 90
        0
176
     1
290
     0
176
     1
290
     1
176
     1
290
     1
176
     1
290
     0
176
     1
290
     0
176
     1
290
     0
176
     1
290
     0
176
     1
290
     0
176
     1
290
     0
176
     1
 90
       50
176
     1
 40
0.0
176
     1
 40
1.0
176
     1
 90
        0
176
     1
 62
    18
420
        0
176
     1
 90
       50
176
     1
 90
        3
176
     1
 62
     5
420
      255
176
     1
290
     0
176
     1
 90
       50
176
     1
 90
       50
176
     1
 90
       50
176
     1
290
     0
176
     1
 90
       50
176
     1
 62
   256
176
     0
 40
1.0
176
     0
 90
        2
176
     1
  1
strokes_ogs.tif
176
     1
290
     0
176
     1
 40
1.0
176
     1
 40
1.0
176
     1
1001
ACAD
1000
AcDbSavedByObjectVersion
1070
     0
  0
VISUALSTYLE
  5
FB
102
{ACAD_REACTORS
330
EF
102
}
330
EF
100
AcDbVisualStyle
  2
Brighten
 70
    12
177
     3
291
     1
 70
    58
 90
        2
176
     1
 90
        2
176
     1
 90
        1
176
     1
 90
        0
176
     1
 40
0.6
176
     1
 40
30.0
176
     1
 62
     7
420
 16777215
176
     1
 90
        1
176
     1
 90
        4
176
     1
 62
     7
176
     1
 62
   257
176
     1
 90
        1
176
     1
 90
        1
176
     1
 40
1.0
176
     1
 90
        8
176
     1
 62
     7
176
     1
 40
1.0
176
     1
 90
        1
176
     1
 90
        6
176
     1
 90
        2
176
     1
 62
     7
176
     1
 90
        5
176
     1
 90
        0
176
     1
 90
        0
176
     1
290
     0
176
     1
 90
        1
176
     1
 40
50.0
176
     1
 90
        0
176
     1
290
     0
176
     1
290
     1
176
     1
290
     1
176
     1
290
     0
176
     1
290
     0
176
     1
290
     0
176
     1
290
     0
176
     1
290
     0
176
     1
290
     0
176
     1
 90
       50
176
     1
 40
0.0
176
     1
 40
1.0
176
     1
 90
        0
176
     1
 62
    18
420
        0
176
     1
 90
       50
176
     1
 90
        3
176
     1
 62
     5
420
      255
176
     1
290
     0
176
     1
 90
       50
176
     1
 90
       50
176
     1
 90
       50
176
     1
290
     0
176
     1
 90
       50
176
     1
 62
   256
176
     0
 40
1.0
176
     0
 90
        2
176
     1
  1
strokes_ogs.tif
176
     1
290
     0
176
     1
 40
1.0
176
     1
 40
1.0
176
     1
1001
ACAD
1000
AcDbSavedByObjectVersion
1070
     0
  0
VISUALSTYLE
  5
FF
102
{ACAD_REACTORS
330
EF
102
}
330
EF
100
AcDbVisualStyle
  2
ColorChange
 70
    16
177
     3
291
     1
 70
    58
 90
        2
176
     1
 90
        2
176
     1
 90
        3
176
     1
 90
        0
176
     1
 40
0.6
176
     1
 40
30.0
176
     1
 62
     8
420
  8421504
176
     1
 90
        1
176
     1
 90
        4
176
     1
 62
     7
176
     1
 62
   257
176
     1
 90
        1
176
     1
 90
        1
176
     1
 40
1.0
176
     1
 90
        8
176
     1
 62
     8
420
  8421504
176
     1
 40
1.0
176
     1
 90
        1
176
     1
 90
        6
176
     1
 90
        2
176
     1
 62
     7
176
     1
 90
        5
176
     1
 90
        0
176
     1
 90
        0
176
     1
290
     0
176
     1
 90
        1
176
     1
 40
0.0
176
     1
 90
        0
176
     1
290
     0
176
     1
290
     1
176
     1
290
     1
176
     1
290
     0
176
     1
290
     0
176
     1
290
     0
176
     1
290
     0
176
     1
290
     0
176
     1
290
     0
176
     1
 90
       50
176
     1
 40
0.0
176
     1
 40
1.0
176
     1
 90
        0
176
     1
 62
    18
420
        0
176
     1
 90
       50
176
     1
 90
        3
176
     1
 62
     5
420
      255
176
     1
290
     0
176
     1
 90
       50
176
     1
 90
       50
176
     1
 90
       50
176
     1
290
     0
176
     1
 90
       50
176
     1
 62
   256
176
     0
 40
1.0
176
     0
 90
        2
176
     1
  1
strokes_ogs.tif
176
     1
290
     0
176
     1
 40
1.0
176
     1
 40
1.0
176
     1
1001
ACAD
1000
AcDbSavedByObjectVersion
1070
     0
  0
VISUALSTYLE
  5
F8
102
{ACAD_REACTORS
330
EF
102
}
330
EF
100
AcDbVisualStyle
  2
Conceptual
 70
     9
177
     3
291
     0
 70
    58
 90
        3
176
     1
 90
        2
176
     1
 90
        1
176
     1
 90
        0
176
     1
 40
0.6
176
     1
 40
30.0
176
     1
 62
     7
420
 16777215
176
     1
 90
        2
176
     1
 90
        2
176
     1
 62
     7
176
     1
 62
   257
176
     1
 90
        1
176
     1
 90
        1
176
     1
 40
40.0
176
     1
 90
        8
176
     1
 62
     7
176
     1
 40
1.0
176
     1
 90
        1
176
     1
 90
        6
176
     1
 90
        2
176
     1
 62
     7
176
     1
 90
        3
176
     1
 90
        0
176
     1
 90
        0
176
     1
290
     0
176
     1
 90
        1
176
     1
 40
0.0
176
     1
 90
        0
176
     1
290
     0
176
     1
290
     1
176
     1
290
     1
176
     1
290
     0
176
     1
290
     0
176
     1
290
     0
176
     1
290
     0
176
     1
290
     0
176
     1
290
     0
176
     1
 90
       50
176
     1
 40
0.0
176
     1
 40
1.0
176
     1
 90
        0
176
     1
 62
    18
420
        0
176
     1
 90
       50
176
     1
 90
        3
176
     1
 62
     5
420
      255
176
     1
290
     0
176
     1
 90
       50
176
     1
 90
       50
176
     1
 90
       50
176
     1
290
     0
176
     1
 90
       50
176
     1
 62
   256
176
     0
 40
1.0
176
     0
 90
        2
176
     1
  1
strokes_ogs.tif
176
     1
290
     0
176
     1
 40
1.0
176
     1
 40
1.0
176
     1
1001
ACAD
1000
AcDbSavedByObjectVersion
1070
     0
  0
VISUALSTYLE
  5
FA
102
{ACAD_REACTORS
330
EF
102
}
330
EF
100
AcDbVisualStyle
  2
Dim
 70
    11
177
     3
291
     1
 70
    58
 90
        2
176
     1
 90
        2
176
     1
 90
        1
176
     1
 90
        0
176
     1
 40
0.6
176
     1
 40
30.0
176
     1
 62
     7
420
 16777215
176
     1
 90
        1
176
     1
 90
        4
176
     1
 62
     7
176
     1
 62
   257
176
     1
 90
        1
176
     1
 90
        1
176
     1
 40
1.0
176
     1
 90
        8
176
     1
 62
     7
176
     1
 40
1.0
176
     1
 90
        1
176
     1
 90
        6
176
     1
 90
        2
176
     1
 62
     7
176
     1
 90
        5
176
     1
 90
        0
176
     1
 90
        0
176
     1
290
     0
176
     1
 90
        1
176
     1
 40
-50.0
176
     1
 90
        0
176
     1
290
     0
176
     1
290
     1
176
     1
290
     1
176
     1
290
     0
176
     1
290
     0
176
     1
290
     0
176
     1
290
     0
176
     1
290
     0
176
     1
290
     0
176
     1
 90
       50
176
     1
 40
0.0
176
     1
 40
1.0
176
     1
 90
        0
176
     1
 62
    18
420
        0
176
     1
 90
       50
176
     1
 90
        3
176
     1
 62
     5
420
      255
176
     1
290
     0
176
     1
 90
       50
176
     1
 90
       50
176
     1
 90
       50
176
     1
290
     0
176
     1
 90
       50
176
     1
 62
   256
176
     0
 40
1.0
176
     0
 90
        2
176
     1
  1
strokes_ogs.tif
176
     1
290
     0
176
     1
 40
1.0
176
     1
 40
1.0
176
     1
1001
ACAD
1000
AcDbSavedByObjectVersion
1070
     0
  0
VISUALSTYLE
  5
1E6
102
{ACAD_REACTORS
330
EF
102
}
330
EF
100
AcDbVisualStyle
  2
EdgeColorOff
 70
    22
177
     3
291
     1
 70
    58
 90
        2
176
     0
 90
        2
176
     0
 90
        0
176
     0
 90
        0
176
     0
 40
0.6
176
     0
 40
30.0
176
     0
 62
     7
420
 16777215
176
     0
 90
        1
176
     0
 90
        4
176
     0
 62
     7
176
     0
 62
   257
176
     0
 90
        1
176
     0
 90
        1
176
     0
 40
1.0
176
     0
 90
        8
176
     2
 62
     7
176
     0
 40
1.0
176
     0
 90
        1
176
     0
 90
        6
176
     0
 90
        2
176
     0
 62
     7
176
     0
 90
        5
176
     0
 90
        0
176
     0
 90
        0
176
     0
290
     0
176
     0
 90
        1
176
     0
 40
0.0
176
     0
 90
        0
176
     0
290
     0
176
     1
290
     1
176
     1
290
     1
176
     1
290
     0
176
     1
290
     0
176
     1
290
     0
176
     1
290
     0
176
     1
290
     0
176
     1
290
     0
176
     1
 90
       50
176
     1
 40
0.0
176
     1
 40
1.0
176
     1
 90
        0
176
     1
 62
    18
420
        0
176
     1
 90
       50
176
     1
 90
        3
176
     1
 62
     5
420
      255
176
     1
290
     0
176
     1
 90
       50
176
     1
 90
       50
176
     1
 90
       50
176
     1
290
     0
176
     1
 90
       50
176
     1
 62
   256
176
     0
 40
1.0
176
     0
 90
        2
176
     1
  1
strokes_ogs.tif
176
     1
290
     0
176
     1
 40
1.0
176
     1
 40
1.0
176
     1
1001
ACAD
1000
AcDbSavedByObjectVersion
1070
     0
  0
VISUALSTYLE
  5
FE
102
{ACAD_REACTORS
330
EF
102
}
330
EF
100
AcDbVisualStyle
  2
Facepattern
 70
    15
177
     3
291
     1
 70
    58
 90
        2
176
     1
 90
        2
176
     1
 90
        1
176
     1
 90
        0
176
     1
 40
0.6
176
     1
 40
30.0
176
     1
 62
     7
420
 16777215
176
     1
 90
        1
176
     1
 90
        4
176
     1
 62
     7
176
     1
 62
   257
176
     1
 90
        1
176
     1
 90
        1
176
     1
 40
1.0
176
     1
 90
        8
176
     1
 62
     7
176
     1
 40
1.0
176
     1
 90
        1
176
     1
 90
        6
176
     1
 90
        2
176
     1
 62
     7
176
     1
 90
        5
176
     1
 90
        0
176
     1
 90
        0
176
     1
290
     0
176
     1
 90
        1
176
     1
 40
0.0
176
     1
 90
        0
176
     1
290
     0
176
     1
290
     1
176
     1
290
     1
176
     1
290
     0
176
     1
290
     0
176
     1
290
     0
176
     1
290
     0
176
     1
290
     0
176
     1
290
     0
176
     1
 90
       50
176
     1
 40
0.0
176
     1
 40
1.0
176
     1
 90
        0
176
     1
 62
    18
420
        0
176
     1
 90
       50
176
     1
 90
        3
176
     1
 62
     5
420
      255
176
     1
290
     0
176
     1
 90
       50
176
     1
 90
       50
176
     1
 90
       50
176
     1
290
     0
176
     1
 90
       50
176
     1
 62
   256
176
     0
 40
1.0
176
     0
 90
        2
176
     1
  1
strokes_ogs.tif
176
     1
290
     0
176
     1
 40
1.0
176
     1
 40
1.0
176
     1
1001
ACAD
1000
AcDbSavedByObjectVersion
1070
     0
  0
VISUALSTYLE
  5
F0
102
{ACAD_REACTORS
330
EF
102
}
330
EF
100
AcDbVisualStyle
  2
Flat
 70
     0
177
     3
291
     1
 70
    58
 90
        2
176
     1
 90
        1
176
     1
 90
        1
176
     1
 90
        2
176
     1
 40
0.6
176
     1
 40
30.0
176
     1
 62
     7
420
 16777215
176
     1
 90
        0
176
     1
 90
        0
176
     1
 62
     7
176
     1
 62
   257
176
     1
 90
        1
176
     1
 90
        1
176
     1
 40
1.0
176
     1
 90
        8
176
     1
 62
     7
176
     1
 40
1.0
176
     1
 90
        1
176
     1
 90
        6
176
     1
 90
        2
176
     1
 62
     7
176
     1
 90
        5
176
     1
 90
        0
176
     1
 90
        0
176
     1
290
     0
176
     1
 90
       13
176
     1
 40
0.0
176
     1
 90
        0
176
     1
290
     0
176
     1
290
     1
176
     1
290
     1
176
     1
290
     0
176
     1
290
     0
176
     1
290
     0
176
     1
290
     0
176
     1
290
     0
176
     1
290
     0
176
     1
 90
       50
176
     1
 40
0.0
176
     1
 40
1.0
176
     1
 90
        0
176
     1
 62
    18
420
        0
176
     1
 90
       50
176
     1
 90
        3
176
     1
 62
     5
420
      255
176
     1
290
     0
176
     1
 90
       50
176
     1
 90
       50
176
     1
 90
       50
176
     1
290
     0
176
     1
 90
       50
176
     1
 62
   256
176
     0
 40
1.0
176
     0
 90
        2
176
     1
  1
strokes_ogs.tif
176
     1
290
     0
176
     1
 40
1.0
176
     1
 40
1.0
176
     1
1001
ACAD
1000
AcDbSavedByObjectVersion
1070
     0
  0
VISUALSTYLE
  5
F1
102
{ACAD_REACTORS
330
EF
102
}
330
EF
100
AcDbVisualStyle
  2
FlatWithEdges
 70
     1
177
     3
291
     1
 70
    58
 90
        2
176
     1
 90
        1
176
     1
 90
        1
176
     1
 90
        2
176
     1
 40
0.6
176
     1
 40
30.0
176
     1
 62
     7
420
 16777215
176
     1
 90
        1
176
     1
 90
        0
176
     1
 62
     7
176
     1
 62
   257
176
     1
 90
        1
176
     1
 90
        1
176
     1
 40
1.0
176
     1
 90
        0
176
     1
 62
   257
176
     1
 40
1.0
176
     1
 90
        1
176
     1
 90
        6
176
     1
 90
        2
176
     1
 62
     7
176
     1
 90
        5
176
     1
 90
        0
176
     1
 90
        0
176
     1
290
     0
176
     1
 90
       13
176
     1
 40
0.0
176
     1
 90
        0
176
     1
290
     0
176
     1
290
     1
176
     1
290
     1
176
     1
290
     0
176
     1
290
     0
176
     1
290
     0
176
     1
290
     0
176
     1
290
     0
176
     1
290
     0
176
     1
 90
       50
176
     1
 40
0.0
176
     1
 40
1.0
176
     1
 90
        0
176
     1
 62
    18
420
        0
176
     1
 90
       50
176
     1
 90
        3
176
     1
 62
     5
420
      255
176
     1
290
     0
176
     1
 90
       50
176
     1
 90
       50
176
     1
 90
       50
176
     1
290
     0
176
     1
 90
       50
176
     1
 62
   256
176
     0
 40
1.0
176
     0
 90
        2
176
     1
  1
strokes_ogs.tif
176
     1
290
     0
176
     1
 40
1.0
176
     1
 40
1.0
176
     1
1001
ACAD
1000
AcDbSavedByObjectVersion
1070
     0
  0
VISUALSTYLE
  5
F2
102
{ACAD_REACTORS
330
EF
102
}
330
EF
100
AcDbVisualStyle
  2
Gouraud
 70
     2
177
     3
291
     1
 70
    58
 90
        2
176
     1
 90
        2
176
     1
 90
        1
176
     1
 90
        2
176
     1
 40
0.6
176
     1
 40
30.0
176
     1
 62
     7
420
 16777215
176
     1
 90
        0
176
     1
 90
        0
176
     1
 62
     7
176
     1
 62
   257
176
     1
 90
        1
176
     1
 90
        1
176
     1
 40
1.0
176
     1
 90
        0
176
     1
 62
     7
176
     1
 40
1.0
176
     1
 90
        1
176
     1
 90
        6
176
     1
 90
        2
176
     1
 62
     7
176
     1
 90
        5
176
     1
 90
        0
176
     1
 90
        0
176
     1
290
     0
176
     1
 90
       13
176
     1
 40
0.0
176
     1
 90
        0
176
     1
290
     0
176
     1
290
     1
176
     1
290
     1
176
     1
290
     0
176
     1
290
     0
176
     1
290
     0
176
     1
290
     0
176
     1
290
     0
176
     1
290
     0
176
     1
 90
       50
176
     1
 40
0.0
176
     1
 40
1.0
176
     1
 90
        0
176
     1
 62
    18
420
        0
176
     1
 90
       50
176
     1
 90
        3
176
     1
 62
     5
420
      255
176
     1
290
     0
176
     1
 90
       50
176
     1
 90
       50
176
     1
 90
       50
176
     1
290
     0
176
     1
 90
       50
176
     1
 62
   256
176
     0
 40
1.0
176
     0
 90
        2
176
     1
  1
strokes_ogs.tif
176
     1
290
     0
176
     1
 40
1.0
176
     1
 40
1.0
176
     1
1001
ACAD
1000
AcDbSavedByObjectVersion
1070
     0
  0
VISUALSTYLE
  5
F3
102
{ACAD_REACTORS
330
EF
102
}
330
EF
100
AcDbVisualStyle
  2
GouraudWithEdges
 70
     3
177
     3
291
     1
 70
    58
 90
        2
176
     1
 90
        2
176
     1
 90
        1
176
     1
 90
        2
176
     1
 40
0.6
176
     1
 40
30.0
176
     1
 62
     7
420
 16777215
176
     1
 90
        1
176
     1
 90
        0
176
     1
 62
     7
176
     1
 62
   257
176
     1
 90
        1
176
     1
 90
        1
176
     1
 40
1.0
176
     1
 90
        0
176
     1
 62
   257
176
     1
 40
1.0
176
     1
 90
        1
176
     1
 90
        6
176
     1
 90
        2
176
     1
 62
     7
176
     1
 90
        5
176
     1
 90
        0
176
     1
 90
        0
176
     1
290
     0
176
     1
 90
       13
176
     1
 40
0.0
176
     1
 90
        0
176
     1
290
     0
176
     1
290
     1
176
     1
290
     1
176
     1
290
     0
176
     1
290
     0
176
     1
290
     0
176
     1
290
     0
176
     1
290
     0
176
     1
290
     0
176
     1
 90
       50
176
     1
 40
0.0
176
     1
 40
1.0
176
     1
 90
        0
176
     1
 62
    18
420
        0
176
     1
 90
       50
176
     1
 90
        3
176
     1
 62
     5
420
      255
176
     1
290
     0
176
     1
 90
       50
176
     1
 90
       50
176
     1
 90
       50
176
     1
290
     0
176
     1
 90
       50
176
     1
 62
   256
176
     0
 40
1.0
176
     0
 90
        2
176
     1
  1
strokes_ogs.tif
176
     1
290
     0
176
     1
 40
1.0
176
     1
 40
1.0
176
     1
1001
ACAD
1000
AcDbSavedByObjectVersion
1070
     0
  0
VISUALSTYLE
  5
F7
102
{ACAD_REACTORS
330
EF
102
}
330
EF
100
AcDbVisualStyle
  2
Hidden
 70
     6
177
     3
291
     0
 70
    58
 90
        1
176
     1
 90
        2
176
     1
 90
        2
176
     1
 90
        0
176
     1
 40
0.6
176
     1
 40
30.0
176
     1
 62
     7
420
 16777215
176
     1
 90
        2
176
     1
 90
        2
176
     1
 62
     7
176
     1
 62
   257
176
     1
 90
        2
176
     1
 90
        1
176
     1
 40
40.0
176
     1
 90
        0
176
     1
 62
   257
176
     1
 40
1.0
176
     1
 90
        1
176
     1
 90
        6
176
     1
 90
        2
176
     1
 62
     7
176
     1
 90
        3
176
     1
 90
        0
176
     1
 90
        0
176
     1
290
     0
176
     1
 90
        1
176
     1
 40
0.0
176
     1
 90
        0
176
     1
290
     0
176
     1
290
     1
176
     1
290
     1
176
     1
290
     0
176
     1
290
     0
176
     1
290
     0
176
     1
290
     0
176
     1
290
     0
176
     1
290
     0
176
     1
 90
       50
176
     1
 40
0.0
176
     1
 40
1.0
176
     1
 90
        0
176
     1
 62
    18
420
        0
176
     1
 90
       50
176
     1
 90
        3
176
     1
 62
     5
420
      255
176
     1
290
     0
176
     1
 90
       50
176
     1
 90
       50
176
     1
 90
       50
176
     1
290
     0
176
     1
 90
       50
176
     1
 62
   256
176
     0
 40
1.0
176
     0
 90
        2
176
     1
  1
strokes_ogs.tif
176
     1
290
     0
176
     1
 40
1.0
176
     1
 40
1.0
176
     1
1001
ACAD
1000
AcDbSavedByObjectVersion
1070
     0
  0
VISUALSTYLE
  5
1E4
102
{ACAD_REACTORS
330
EF
102
}
330
EF
100
AcDbVisualStyle
  2
JitterOff
 70
    20
177
     3
291
     1
 70
    58
 90
        2
176
     0
 90
        2
176
     0
 90
        0
176
     0
 90
        0
176
     0
 40
0.6
176
     0
 40
30.0
176
     0
 62
     7
420
 16777215
176
     0
 90
        1
176
     0
 90
        4
176
     0
 62
     7
176
     0
 62
   257
176
     0
 90
        1
176
     0
 90
        1
176
     0
 40
1.0
176
     0
 90
       10
176
     2
 62
     7
176
     0
 40
1.0
176
     0
 90
        1
176
     0
 90
        6
176
     0
 90
        2
176
     0
 62
     7
176
     0
 90
        5
176
     0
 90
        0
176
     0
 90
        0
176
     0
290
     0
176
     0
 90
        1
176
     0
 40
0.0
176
     0
 90
        0
176
     0
290
     0
176
     1
290
     1
176
     1
290
     1
176
     1
290
     0
176
     1
290
     0
176
     1
290
     0
176
     1
290
     0
176
     1
290
     0
176
     1
290
     0
176
     1
 90
       50
176
     1
 40
0.0
176
     1
 40
1.0
176
     1
 90
        0
176
     1
 62
    18
420
        0
176
     1
 90
       50
176
     1
 90
        3
176
     1
 62
     5
420
      255
176
     1
290
     0
176
     1
 90
       50
176
     1
 90
       50
176
     1
 90
       50
176
     1
290
     0
176
     1
 90
       50
176
     1
 62
   256
176
     0
 40
1.0
176
     0
 90
        2
176
     1
  1
strokes_ogs.tif
176
     1
290
     0
176
     1
 40
1.0
176
     1
 40
1.0
176
     1
1001
ACAD
1000
AcDbSavedByObjectVersion
1070
     0
  0
VISUALSTYLE
  5
FD
102
{ACAD_REACTORS
330
EF
102
}
330
EF
100
AcDbVisualStyle
  2
Linepattern
 70
    14
177
     3
291
     1
 70
    58
 90
        2
176
     1
 90
        2
176
     1
 90
        1
176
     1
 90
        0
176
     1
 40
0.6
176
     1
 40
30.0
176
     1
 62
     7
420
 16777215
176
     1
 90
        1
176
     1
 90
        4
176
     1
 62
     7
176
     1
 62
   257
176
     1
 90
        7
176
     1
 90
        7
176
     1
 40
1.0
176
     1
 90
        8
176
     1
 62
     7
176
     1
 40
1.0
176
     1
 90
        1
176
     1
 90
        6
176
     1
 90
        2
176
     1
 62
     7
176
     1
 90
        5
176
     1
 90
        0
176
     1
 90
        0
176
     1
290
     0
176
     1
 90
        1
176
     1
 40
0.0
176
     1
 90
        0
176
     1
290
     0
176
     1
290
     1
176
     1
290
     1
176
     1
290
     0
176
     1
290
     0
176
     1
290
     0
176
     1
290
     0
176
     1
290
     0
176
     1
290
     0
176
     1
 90
       50
176
     1
 40
0.0
176
     1
 40
1.0
176
     1
 90
        0
176
     1
 62
    18
420
        0
176
     1
 90
       50
176
     1
 90
        3
176
     1
 62
     5
420
      255
176
     1
290
     0
176
     1
 90
       50
176
     1
 90
       50
176
     1
 90
       50
176
     1
290
     0
176
     1
 90
       50
176
     1
 62
   256
176
     0
 40
1.0
176
     0
 90
        2
176
     1
  1
strokes_ogs.tif
176
     1
290
     0
176
     1
 40
1.0
176
     1
 40
1.0
176
     1
1001
ACAD
1000
AcDbSavedByObjectVersion
1070
     0
  0
VISUALSTYLE
  5
1E5
102
{ACAD_REACTORS
330
EF
102
}
330
EF
100
AcDbVisualStyle
  2
OverhangOff
 70
    21
177
     3
291
     1
 70
    58
 90
        2
176
     0
 90
        2
176
     0
 90
        0
176
     0
 90
        0
176
     0
 40
0.6
176
     0
 40
30.0
176
     0
 62
     7
420
 16777215
176
     0
 90
        1
176
     0
 90
        4
176
     0
 62
     7
176
     0
 62
   257
176
     0
 90
        1
176
     0
 90
        1
176
     0
 40
1.0
176
     0
 90
        9
176
     2
 62
     7
176
     0
 40
1.0
176
     0
 90
        1
176
     0
 90
        6
176
     0
 90
        2
176
     0
 62
     7
176
     0
 90
        5
176
     0
 90
        0
176
     0
 90
        0
176
     0
290
     0
176
     0
 90
        1
176
     0
 40
0.0
176
     0
 90
        0
176
     0
290
     0
176
     1
290
     1
176
     1
290
     1
176
     1
290
     0
176
     1
290
     0
176
     1
290
     0
176
     1
290
     0
176
     1
290
     0
176
     1
290
     0
176
     1
 90
       50
176
     1
 40
0.0
176
     1
 40
1.0
176
     1
 90
        0
176
     1
 62
    18
420
        0
176
     1
 90
       50
176
     1
 90
        3
176
     1
 62
     5
420
      255
176
     1
290
     0
176
     1
 90
       50
176
     1
 90
       50
176
     1
 90
       50
176
     1
290
     0
176
     1
 90
       50
176
     1
 62
   256
176
     0
 40
1.0
176
     0
 90
        2
176
     1
  1
strokes_ogs.tif
176
     1
290
     0
176
     1
 40
1.0
176
     1
 40
1.0
176
     1
1001
ACAD
1000
AcDbSavedByObjectVersion
1070
     0
  0
VISUALSTYLE
  5
F9
102
{ACAD_REACTORS
330
EF
102
}
330
EF
100
AcDbVisualStyle
  2
Realistic
 70
     8
177
     3
291
     0
 70
    58
 90
        2
176
     1
 90
        3
176
     1
 90
        0
176
     1
 90
        2
176
     1
 40
0.6
176
     1
 40
30.0
176
     1
 62
     7
420
 16777215
176
     1
 90
        0
176
     1
 90
        0
176
     1
 62
     7
176
     1
 62
   257
176
     1
 90
        1
176
     1
 90
        1
176
     1
 40
1.0
176
     1
 90
        8
176
     1
 62
   257
176
     1
 40
1.0
176
     1
 90
        1
176
     1
 90
        6
176
     1
 90
        2
176
     1
 62
     7
176
     1
 90
        3
176
     1
 90
        0
176
     1
 90
        0
176
     1
290
     0
176
     1
 90
       13
176
     1
 40
0.0
176
     1
 90
        0
176
     1
290
     0
176
     1
290
     1
176
     1
290
     1
176
     1
290
     0
176
     1
290
     0
176
     1
290
     0
176
     1
290
     0
176
     1
290
     0
176
     1
290
     0
176
     1
 90
       50
176
     1
 40
0.0
176
     1
 40
1.0
176
     1
 90
        0
176
     1
 62
    18
420
        0
176
     1
 90
       50
176
     1
 90
        3
176
     1
 62
     5
420
      255
176
     1
290
     0
176
     1
 90
       50
176
     1
 90
       50
176
     1
 90
       50
176
     1
290
     0
176
     1
 90
       50
176
     1
 62
   256
176
     0
 40
1.0
176
     0
 90
        2
176
     1
  1
strokes_ogs.tif
176
     1
290
     0
176
     1
 40
1.0
176
     1
 40
1.0
176
     1
1001
ACAD
1000
AcDbSavedByObjectVersion
1070
     0
  0
VISUALSTYLE
  5
1F3
102
{ACAD_REACTORS
330
EF
102
}
330
EF
100
AcDbVisualStyle
  2
Shaded
 70
    27
177
     3
291
     0
 70
    58
 90
        2
176
     1
 90
        2
176
     1
 90
        1
176
     1
 90
        2
176
     1
 40
0.6
176
     1
 40
30.0
176
     1
 62
     7
420
 16777215
176
     1
 90
        0
176
     1
 90
        4
176
     1
 62
     7
176
     1
 62
   257
176
     1
 90
        1
176
     1
 90
        1
176
     1
 40
1.0
176
     1
 90
        8
176
     1
 62
   257
176
     1
 40
1.0
176
     1
 90
        1
176
     1
 90
        6
176
     1
 90
        2
176
     1
 62
     8
420
  7895160
176
     1
 90
        3
176
     1
 90
        0
176
     1
 90
        0
176
     1
290
     0
176
     1
 90
        5
176
     1
 40
0.0
176
     1
 90
        0
176
     1
290
     0
176
     1
290
     1
176
     1
290
     1
176
     1
290
     0
176
     1
290
     0
176
     1
290
     0
176
     1
290
     0
176
     1
290
     0
176
     1
290
     0
176
     1
 90
       50
176
     1
 40
0.0
176
     1
 40
1.0
176
     1
 90
        0
176
     1
 62
    18
420
        0
176
     1
 90
       50
176
     1
 90
        3
176
     1
 62
     5
420
      255
176
     1
290
     0
176
     1
 90
       50
176
     1
 90
       50
176
     1
 90
       50
176
     1
290
     0
176
     1
 90
       50
176
     1
 62
   256
176
     0
 40
1.0
176
     0
 90
        2
176
     1
  1
strokes_ogs.tif
176
     1
290
     0
176
     1
 40
1.0
176
     1
 40
1.0
176
     1
1001
ACAD
1000
AcDbSavedByObjectVersion
1070
     0
  0
VISUALSTYLE
  5
1F2
102
{ACAD_REACTORS
330
EF
102
}
330
EF
100
AcDbVisualStyle
  2
Shaded with edges
 70
    26
177
     3
291
     0
 70
    58
 90
        2
176
     1
 90
        2
176
     1
 90
        1
176
     1
 90
        2
176
     1
 40
0.6
176
     1
 40
30.0
176
     1
 62
     7
420
 16777215
176
     1
 90
        1
176
     1
 90
        2
176
     1
 62
     7
176
     1
 62
   257
176
     1
 90
        2
176
     1
 90
        1
176
     1
 40
1.0
176
     1
 90
        8
176
     1
 62
   257
176
     1
 40
1.0
176
     1
 90
        1
176
     1
 90
        6
176
     1
 90
        2
176
     1
 62
     7
176
     1
 90
        3
176
     1
 90
        0
176
     1
 90
        0
176
     1
290
     0
176
     1
 90
        5
176
     1
 40
0.0
176
     1
 90
        0
176
     1
290
     0
176
     1
290
     1
176
     1
290
     1
176
     1
290
     0
176
     1
290
     0
176
     1
290
     0
176
     1
290
     0
176
     1
290
     0
176
     1
290
     0
176
     1
 90
       50
176
     1
 40
0.0
176
     1
 40
1.0
176
     1
 90
        0
176
     1
 62
    18
420
        0
176
     1
 90
       50
176
     1
 90
        3
176
     1
 62
     5
420
      255
176
     1
290
     0
176
     1
 90
       50
176
     1
 90
       50
176
     1
 90
       50
176
     1
290
     0
176
     1
 90
       50
176
     1
 62
   256
176
     0
 40
1.0
176
     0
 90
        2
176
     1
  1
strokes_ogs.tif
176
     1
290
     0
176
     1
 40
1.0
176
     1
 40
1.0
176
     1
1001
ACAD
1000
AcDbSavedByObjectVersion
1070
     0
  0
VISUALSTYLE
  5
1EF
102
{ACAD_REACTORS
330
EF
102
}
330
EF
100
AcDbVisualStyle
  2
Shades of Gray
 70
    23
177
     3
291
     0
 70
    58
 90
        2
176
     1
 90
        2
176
     1
 90
        3
176
     1
 90
        0
176
     1
 40
0.6
176
     1
 40
30.0
176
     1
 62
     7
420
 16777215
176
     1
 90
        2
176
     1
 90
        2
176
     1
 62
     7
176
     1
 62
     7
176
     1
 90
        1
176
     1
 90
        1
176
     1
 40
40.0
176
     1
 90
        8
176
     1
 62
     7
176
     1
 40
1.0
176
     1
 90
        1
176
     1
 90
        6
176
     1
 90
        2
176
     1
 62
     7
176
     1
 90
        3
176
     1
 90
        0
176
     1
 90
        0
176
     1
290
     0
176
     1
 90
        1
176
     1
 40
0.0
176
     1
 90
        0
176
     1
290
     0
176
     1
290
     1
176
     1
290
     1
176
     1
290
     0
176
     1
290
     0
176
     1
290
     0
176
     1
290
     0
176
     1
290
     0
176
     1
290
     0
176
     1
 90
       50
176
     1
 40
0.0
176
     1
 40
1.0
176
     1
 90
        0
176
     1
 62
    18
420
        0
176
     1
 90
       50
176
     1
 90
        3
176
     1
 62
     5
420
      255
176
     1
290
     0
176
     1
 90
       50
176
     1
 90
       50
176
     1
 90
       50
176
     1
290
     0
176
     1
 90
       50
176
     1
 62
   256
176
     0
 40
1.0
176
     0
 90
        2
176
     1
  1
strokes_ogs.tif
176
     1
290
     0
176
     1
 40
1.0
176
     1
 40
1.0
176
     1
1001
ACAD
1000
AcDbSavedByObjectVersion
1070
     0
  0
VISUALSTYLE
  5
1F0
102
{ACAD_REACTORS
330
EF
102
}
330
EF
100
AcDbVisualStyle
  2
Sketchy
 70
    24
177
     3
291
     0
 70
    58
 90
        1
176
     1
 90
        2
176
     1
 90
        2
176
     1
 90
        0
176
     1
 40
0.6
176
     1
 40
30.0
176
     1
 62
     7
420
 16777215
176
     1
 90
        2
176
     1
 90
        2
176
     1
 62
     7
176
     1
 62
     7
176
     1
 90
        1
176
     1
 90
        1
176
     1
 40
40.0
176
     1
 90
       11
176
     1
 62
     7
176
     1
 40
1.0
176
     1
 90
        1
176
     1
 90
        6
176
     1
 90
        2
176
     1
 62
     7
176
     1
 90
        6
176
     1
 90
        0
176
     1
 90
        0
176
     1
290
     0
176
     1
 90
        1
176
     1
 40
0.0
176
     1
 90
        0
176
     1
290
     0
176
     1
290
     1
176
     1
290
     1
176
     1
290
     0
176
     1
290
     0
176
     1
290
     0
176
     1
290
     0
176
     1
290
     0
176
     1
290
     0
176
     1
 90
       50
176
     1
 40
0.0
176
     1
 40
1.0
176
     1
 90
        0
176
     1
 62
    18
420
        0
176
     1
 90
       50
176
     1
 90
        3
176
     1
 62
     5
420
      255
176
     1
290
     0
176
     1
 90
       50
176
     1
 90
       50
176
     1
 90
       50
176
     1
290
     0
176
     1
 90
       50
176
     1
 62
   256
176
     0
 40
1.0
176
     0
 90
        2
176
     1
  1
strokes_ogs.tif
176
     1
290
     0
176
     1
 40
1.0
176
     1
 40
1.0
176
     1
1001
ACAD
1000
AcDbSavedByObjectVersion
1070
     0
  0
VISUALSTYLE
  5
FC
102
{ACAD_REACTORS
330
EF
102
}
330
EF
100
AcDbVisualStyle
  2
Thicken
 70
    13
177
     3
291
     1
 70
    58
 90
        2
176
     1
 90
        2
176
     1
 90
        1
176
     1
 90
        0
176
     1
 40
0.6
176
     1
 40
30.0
176
     1
 62
     7
420
 16777215
176
     1
 90
        1
176
     1
 90
        4
176
     1
 62
     7
176
     1
 62
   257
176
     1
 90
        1
176
     1
 90
        1
176
     1
 40
1.0
176
     1
 90
       12
176
     1
 62
     7
176
     1
 40
1.0
176
     1
 90
        1
176
     1
 90
        6
176
     1
 90
        2
176
     1
 62
     7
176
     1
 90
        5
176
     1
 90
        0
176
     1
 90
        0
176
     1
290
     0
176
     1
 90
        1
176
     1
 40
0.0
176
     1
 90
        0
176
     1
290
     0
176
     1
290
     1
176
     1
290
     1
176
     1
290
     0
176
     1
290
     0
176
     1
290
     0
176
     1
290
     0
176
     1
290
     0
176
     1
290
     0
176
     1
 90
       50
176
     1
 40
0.0
176
     1
 40
1.0
176
     1
 90
        0
176
     1
 62
    18
420
        0
176
     1
 90
       50
176
     1
 90
        3
176
     1
 62
     5
420
      255
176
     1
290
     0
176
     1
 90
       50
176
     1
 90
       50
176
     1
 90
       50
176
     1
290
     0
176
     1
 90
       50
176
     1
 62
   256
176
     0
 40
1.0
176
     0
 90
        2
176
     1
  1
strokes_ogs.tif
176
     1
290
     0
176
     1
 40
1.0
176
     1
 40
1.0
176
     1
1001
ACAD
1000
AcDbSavedByObjectVersion
1070
     0
  0
VISUALSTYLE
  5
F6
102
{ACAD_REACTORS
330
EF
102
}
330
EF
100
AcDbVisualStyle
  2
Wireframe
 70
     5
177
     3
291
     0
 70
    58
 90
        0
176
     1
 90
        2
176
     1
 90
        0
176
     1
 90
        0
176
     1
 40
0.6
176
     1
 40
30.0
176
     1
 62
     7
420
 16777215
176
     1
 90
        1
176
     1
 90
        4
176
     1
 62
     7
176
     1
 62
   257
176
     1
 90
        1
176
     1
 90
        1
176
     1
 40
1.0
176
     1
 90
        0
176
     1
 62
   257
176
     1
 40
1.0
176
     1
 90
        1
176
     1
 90
        6
176
     1
 90
        2
176
     1
 62
     7
176
     1
 90
        3
176
     1
 90
        0
176
     1
 90
        0
176
     1
290
     0
176
     1
 90
        1
176
     1
 40
0.0
176
     1
 90
        0
176
     1
290
     0
176
     1
290
     1
176
     1
290
     1
176
     1
290
     0
176
     1
290
     0
176
     1
290
     0
176
     1
290
     0
176
     1
290
     0
176
     1
290
     0
176
     1
 90
       50
176
     1
 40
0.0
176
     1
 40
1.0
176
     1
 90
        0
176
     1
 62
    18
420
        0
176
     1
 90
       50
176
     1
 90
        3
176
     1
 62
     5
420
      255
176
     1
290
     0
176
     1
 90
       50
176
     1
 90
       50
176
     1
 90
       50
176
     1
290
     0
176
     1
 90
       50
176
     1
 62
   256
176
     0
 40
1.0
176
     0
 90
        2
176
     1
  1
strokes_ogs.tif
176
     1
290
     0
176
     1
 40
1.0
176
     1
 40
1.0
176
     1
1001
ACAD
1000
AcDbSavedByObjectVersion
1070
     0
  0
VISUALSTYLE
  5
1F1
102
{ACAD_REACTORS
330
EF
102
}
330
EF
100
AcDbVisualStyle
  2
X-Ray
 70
    25
177
     3
291
     0
 70
    58
 90
        2
176
     1
 90
        2
176
     1
 90
        1
176
     1
 90
        1
176
     1
 40
0.5
176
     1
 40
30.0
176
     1
 62
     7
420
 16777215
176
     1
 90
        1
176
     1
 90
        0
176
     1
 62
     7
176
     1
 62
   257
176
     1
 90
        1
176
     1
 90
        1
176
     1
 40
1.0
176
     1
 90
        8
176
     1
 62
     7
176
     1
 40
1.0
176
     1
 90
        1
176
     1
 90
        6
176
     1
 90
        2
176
     1
 62
     7
176
     1
 90
        3
176
     1
 90
        0
176
     1
 90
        0
176
     1
290
     0
176
     1
 90
       13
176
     1
 40
0.0
176
     1
 90
        0
176
     1
290
     0
176
     1
290
     1
176
     1
290
     1
176
     1
290
     0
176
     1
290
     0
176
     1
290
     0
176
     1
290
     0
176
     1
290
     0
176
     1
290
     0
176
     1
 90
       50
176
     1
 40
0.0
176
     1
 40
1.0
176
     1
 90
        0
176
     1
 62
    18
420
        0
176
     1
 90
       50
176
     1
 90
        3
176
     1
 62
     5
420
      255
176
     1
290
     0
176
     1
 90
       50
176
     1
 90
       50
176
     1
 90
       50
176
     1
290
     0
176
     1
 90
       50
176
     1
 62
   256
176
     0
 40
1.0
176
     0
 90
        2
176
     1
  1
strokes_ogs.tif
176
     1
290
     0
176
     1
 40
1.0
176
     1
 40
1.0
176
     1
1001
ACAD
1000
AcDbSavedByObjectVersion
1070
     0
  0
DICTIONARYVAR
  5
146
102
{ACAD_REACTORS
330
5E
102
}
330
5E
100
DictionaryVariables
280
     0
  1
1:1
  0
DICTIONARYVAR
  5
259
102
{ACAD_REACTORS
330
5E
102
}
330
5E
100
DictionaryVariables
280
     0
  1
3.500000
  0
DICTIONARYVAR
  5
25A
102
{ACAD_REACTORS
330
5E
102
}
330
5E
100
DictionaryVariables
280
     0
  1
acadiso.lin
  0
DICTIONARYVAR
  5
145
102
{ACAD_REACTORS
330
5E
102
}
330
5E
100
DictionaryVariables
280
     0
  1
STANDARD
  0
DICTIONARYVAR
  5
84
102
{ACAD_REACTORS
330
5E
102
}
330
5E
100
DictionaryVariables
280
     0
  1
STANDARD
  0
DICTIONARYVAR
  5
227
102
{ACAD_REACTORS
330
5E
102
}
330
5E
100
DictionaryVariables
280
     0
  1
Metric50
  0
DICTIONARYVAR
  5
228
102
{ACAD_REACTORS
330
5E
102
}
330
5E
100
DictionaryVariables
280
     0
  1
Metric50
  0
DICTIONARYVAR
  5
5F
102
{ACAD_REACTORS
330
5E
102
}
330
5E
100
DictionaryVariables
280
     0
  1
2
  0
DICTIONARYVAR
  5
63
102
{ACAD_REACTORS
330
5E
102
}
330
5E
100
DictionaryVariables
280
     0
  1
1
  0
DICTIONARYVAR
  5
1AE
102
{ACAD_REACTORS
330
5E
102
}
330
5E
100
DictionaryVariables
280
     0
  1
0
  0
DICTIONARYVAR
  5
1AF
102
{ACAD_REACTORS
330
5E
102
}
330
5E
100
DictionaryVariables
280
     0
  1
0
  0
DICTIONARY
  5
5EA
102
{ACAD_REACTORS
330
5E8
102
}
330
5E8
100
AcDbDictionary
281
     1
  0
DICTIONARY
  5
5E9
102
{ACAD_REACTORS
330
5E8
102
}
330
5E8
100
AcDbDictionary
281
     1
  3
2376038518448
350
5E3
  3
2376038518464
350
5E4
  3
2376038518480
350
5E5
  3
2376038518496
350
5E6
  3
2376038518512
350
5E7
  0
DICTIONARY
  5
5ED
330
21C
100
AcDbDictionary
280
     1
281
     1
  3
ACAD_XREC_ROUNDTRIP
360
5EE
  0
DICTIONARY
  5
205
330
22
100
AcDbDictionary
280
     1
281
     1
  0
DICTIONARY
  5
1F9
330
ED
100
AcDbDictionary
280
     1
281
     1
  3
FBXASSET
360
1FA
  0
DICTIONARY
  5
1F7
330
EC
100
AcDbDictionary
280
     1
281
     1
  3
FBXASSET
360
1F8
  0
DICTIONARY
  5
173
330
EE
100
AcDbDictionary
280
     1
281
     1
  3
BUMPTILE
360
175
  3
DIFFUSETILE
360
174
  3
FBXASSET
360
1FB
  3
OPACITYTILE
360
176
  3
REFLECTIONTILE
360
177
  0
DICTIONARY
  5
5EB
330
21A
100
AcDbDictionary
280
     1
281
     1
  3
ACAD_XREC_ROUNDTRIP
360
5EC
  0
DICTIONARY
  5
162
330
7F
100
AcDbDictionary
280
     1
281
     1
  3
ACAD_ROUNDTRIP_2008_TABLESTYLE_CELLSTYLEMAP
360
5E1
  0
XRECORD
  5
5E3
102
{ACAD_REACTORS
330
5E9
102
}
330
5E9
100
AcDbXrecord
280
     1
  1
AcDb_Thumbnail_Schema
102
{ATTRRECORD
341
5E4
  2
AcDbDs::TreatedAsObjectData
280
     1
291
     1
102
ATTRRECORD}
102
{ATTRRECORD
341
5E5
  2
AcDbDs::Legacy
280
     1
291
     1
102
ATTRRECORD}
  2
AcDbDs::ID
280
    10
 91
        8
102
{ATTRRECORD
341
5E6
  2
AcDs:Indexable
280
     1
291
     1
102
ATTRRECORD}
102
{ATTRRECORD
341
5E7
  2
AcDbDs::HandleAttribute
280
     7
282
     1
102
ATTRRECORD}
  2
Thumbnail_Data
280
    15
 91
        0
  0
XRECORD
  5
5E4
102
{ACAD_REACTORS
330
5E9
102
}
330
5E9
100
AcDbXrecord
280
     1
  1
AcDbDs::TreatedAsObjectDataSchema
  2
AcDbDs::TreatedAsObjectData
280
     1
 91
        0
  0
XRECORD
  5
5E5
102
{ACAD_REACTORS
330
5E9
102
}
330
5E9
100
AcDbXrecord
280
     1
  1
AcDbDs::LegacySchema
  2
AcDbDs::Legacy
280
     1
 91
        0
  0
XRECORD
  5
5E6
102
{ACAD_REACTORS
330
5E9
102
}
330
5E9
100
AcDbXrecord
280
     1
  1
AcDbDs::IndexedPropertySchema
  2
AcDs:Indexable
280
     1
 91
        0
  0
XRECORD
  5
5E7
102
{ACAD_REACTORS
330
5E9
102
}
330
5E9
100
AcDbXrecord
280
     1
  1
AcDbDs::HandleAttributeSchema
  2
AcDbDs::HandleAttribute
280
     7
 91
        1
284
     1
  0
XRECORD
  5
5EE
102
{ACAD_REACTORS
330
5ED
102
}
330
5ED
100
AcDbXrecord
280
     1
102
DISPLAYNAME
  1
Metric50
102
FLAGS
 90
        0
  0
XRECORD
  5
1FA
102
{ACAD_REACTORS
330
1F9
102
}
330
1F9
100
AcDbXrecord
280
     1
 70
     1
 90
429727718
  1
D62C5603-E3A1-4AEA-B7FB-FE5D8D0755AF
310
504B03040A0000080000CC70623B3DEE336E79000000790000001B0000006175746F6465736B2D64657369676E2D7061636B6167652E786D6C3C3F786D6C2076657273696F6E3D22312E302220656E636F64696E673D227574662D3822203F3E3C666F726D6174733E3C666F726D61743E687474703A2F2F736368656D612E
310
6175746F6465736B2E636F6D2F64657369676E2D7061636B6167652F323030393C2F666F726D61743E3C2F666F726D6174733E504B0304140006080800CC70623BD486FD9CA0000000F4000000130000005B436F6E74656E745F54797065735D2E786D6C7D8EC10E82300C865F65E91D8A1E8C310C0EEA1BF002731658846E
310
D98AC1B77784ABF1D8FE5FBFBF75BBCE937A534CCEB38643598122B6FEE978D0B0485F9C41B54DDD7D022595594E1A469170414C76A4D9A4D207E29CF43ECE46F218070CC6BECC4078ACAA135ACF422C856C0E68EA1BF5669944DDD7BCDE7B1F8E415D77AECB980613C2E4AC91FC167A2B244592486606FC29C8FD7F045B9A
310
EF7053A7E60B504B0304140006080800CC70623B853B8169EB0000007C01000008000000636F72652E786D6C8D90416EC3201045AF62CDB6C206821CC7C244919D9CA01740401C94182C03558F5F9C3852BBEB6A467FFE9B197D7EFC9E1EC5975982F5AE035262288C535E5B377690E21535501C055FBC8FBF6C503839990E
310
5619041F179FE64D52DE45E362569DD7661365082642A11EB9E920A89B99642953CC8E702F67A9EE7234257977194EC9EAE275C4EABCCF5EAD5940D4AC6F0E35A568B8F43562CD7046CD199FD07E60174276A7BE677B5EADB0E0D14EEFFB6A31321A0D82627C4084204C3F096B71DD52F6819B16635EADF63F509AF53FA164
310
5DDCD1EDDD17164090FCC8732078B56691CB33A85CD7DCC40F504B0304140006080800CC70623B55019EA25F0000007C00000007000000636E782E786D6C4DCB3B0E80201045D1AD90E915ED2CF8AC45050C11660C8261F98AB1B07AC9C97D42D718D865D3E909258CFD00CCE24AC6E326A164D74DC0B4128928FF32603847
310
2BA13128B1252AC747C6BAB984FC68F0B87FE8960A5C09FE86CFB69FBA01504B0304140006080800CC70623BDBABAAF470010000D40300000C0000006662782F636F72652E786D6CC553D16E823014FD95A6AF4B694182CC941A83FA05FB810A9511A125A5257EFE2E82712ECEB8A7F100CD39F7F69E734AF9FADC366850B6
310
AF8DCE7018308C942E4C59EB2AC3DE1D498AD15A706B8CFB56869196ADCAF00863C12B6B7C374385D14E6907A836A59A41D9F7CA615434B0C8705F7CAA5606D23BA8E84F41278B93AC54100640439DE0BDB320004D43C63716C7C399D30917DCFBBA9CD9BA8469F5B156168B24CED3F7248AC8769F27244EB73B92EED8862C
310
B7F13E0C179B3C8F979C8ECD82BBBABDAA2BAC924E9558448CBD9330242CFA08E3154B5651FCC6D215639C8EE5774DBE2B5F6CF2B5768B68963BB5F5588420E442FC700B1139D4CB01F450C1E918227C2E09DF070D8140C84E1E9AAB8F1340832A9CB13130A5F1376A908D57309505ECF2A0DF179C4E9D30F5B239B87E3823
310
7A79C6F31DE1A8A5AEC08474B03C7837EAE4938639B44E5932B833D2C6B6B279CDC613877FA26EE21F4A2A4C63EC7F29A2F301D1F9F7A0E37D145F504B0304140006080800CC70623B9C113CC27E0000009D0000000B0000006662782F636E782E786D6C4DCCDF0A83201C86E15B91DFB94BFB330DD428C8FB886521330DA7
310
6397BF1A1DECE883878F57749FCDA1B7892F1BBC047A23808C7F84D9FA55424E0BE6803A256208E9EF06C84F9B91703228B1C690F78B66B34CD9A5439DF5CF0BFBF65E35BCA1B8D6A5C6F540381E886698B5741C695F9503EBA150A2F8958E3DC3EA0B504B0304140006080800CC70623B7DF2F77C2A010000120200003100
310
00006662782F41393633353835312D344632462D344230382D423046372D3739314545314133324237412F636F72652E786D6C8D51DB8EC22014FC15C2939B0D2DB4B45643319AE817EC0F6041255A68B86CFCFC856D4D76DF7CE190393373060EDB3DC707F856CE6B6B7A480A0C81328395DA5C7B18C3057510EC3873D686
310
3F34088C18550F330C39BB3A1BA7051AAC09CA84841A2BD5020AEF55806078A44B0FFD7053A328440C89E1EFC52486BBB8AA8214A99D789CF9E05200300FC927E4FB4D5B375D43103D5527440FB843077C5AA3F5861C8F645F5787F59E95B390B318B55CE45AA638FAA2957BD7248B390B7A7CC51F9C124149C82B8C378810
310
84AB2F42B7B8DD56F413775B8C5999E9FF4471926F8AA236A1AE96B8B3CC434E5839373893369E1FAF30EA395917409EB7F26AF8801C171837A4A6AC9C89E9F9C9B1A58BA30FD6A5EF5DDDCF894B9AD9B6A59C957943A9FCAE2FD5BC4DFE03504B0304140006080800CC70623BAD7543B64E01000033030000300000006662
310
782F41393633353835312D344632462D344230382D423046372D3739314545314133324237412F636E782E786D6CD593CD6EC32010845F0571AD6CE3D48AD20813A9873E410FBD12D82434182C7EAAE6EDBB2424CD25871E7B41D6EC30B3FA84F9E67BB2E40B4234DE8DB46F1925E094D7C6ED479AD3AE5951B2113C789FEE
310
6C943839C1488B4C05DF079FE72A69D8C96C13AAD6B8631503449F83828872B949AC57D26200B826A308D316B4064D6E46FCDA41C05550DC9E483A00797BFD207EFB092A45DE9514C1BBD22178396BD39D891265658C238DEA00936C654E5E433CB65A26D9F6EDB5EBC14EBF49A45CB856E66048291F6939A9A81BB5C89177
310
38143CA680F4AA299D66A042CEB3354A2684DC9D8D178FE0D9B8B41CAAD720F880EE7EF93C0C18769E099ECC04D5A102C8049A8A05632F4DDF376CF1DE0F6BB65C2F8627B65A33C6BB62177CEBBDAD973006829F89F22E814B54F4BC2BE347F8AA8F681390B50FA73F804400B5F542E796F19FF974E7F78DB802FE05E20750
310
4B0304140006080800CC70623BE75B7789680500003C100000340000006662782F41393633353835312D344632462D344230382D423046372D3739314545314133324237412F6F626A656374732E786D6CAD575B8F9B3818FD2B887D06C22499CB8AA1CA655245D5B455A356FB305264C061D8018C6C3393D95FBFC7600890
310
A4CD5EF210B0B1BFEBF98E3F7B1FF6596ABC522E1296DF9BAE3D320D9A872C4AF2F8DE2CE5CEBA358D0FBEC719939D65A691938CDE9B6ADAF4BD98B3B2D05311DD91329583D9D5FC0F438434A7A611A644887B5384CF34233629258BA878B12322891DEFF6B66BD70BFB62634E8AE781D082709A4B588AF91C528CDA28B73F
310
1C998EEF39EABBEFA97FBD6A7C7E9553F9D3D79FE442923C3C523610337627CB87ABE99D359D4CC6D6E4FACAB5E6ABF9D2726FC6A3C5F56271377BB88362213924694B38DD99FE47C48627A1E7D49F5A8BB5E1A74C0A599ED3B0F21F1E56366B89112D681E218F0915D0D6F17AD41FBA2A369DCF6335D62ABBD39779D5DDD1
310
11D4D8DE3CBB96B2E04FB8202E41051754A1AA8E8F76B4C6DFE810B580B1547F4B84911149794252234D024EF8BBE963A95AE27B3D310A9D5C215C7960FAEE415ED75694C6AFB17BCACA5D99A60A9AA65F217B0BFC53292ACB92BF283FAD0D3621576592CB5BED907C2FA8E9DF794E35E97BEA31BED21FEB401ABB94C44839
310
DCACBF0E1C5DA8DA5B2F4DFFD32AD86F543D9E565E7056502E157C00AD2671CD534549AB752FCA9CDA00677A313F04E51B22FF19E57B300579E3C97EB29F682D92935CEC18CF901B7B54FD8C51F362B56FC72FE0B3C1EAE335EDCCBF5AEC39ADB17DC238973F804BA5E6F6BFE7AF1FB32E523BE9F3BD571418E3631DCA4D48
310
5250CF639223210A9446CA30052EDF057BD35F8329C1ECD84552BF0DC8D18BE7BCE23BFE6BD960AB4A7DE79923A103BEBD80F911CBAA2C60DB19B01CF164A5583B772EE6D3FFA56666CBCDA74DC97724A48F9A58967497E489C4D979006FD7A05E227A1EBDD0F737C623387A9C844D3709995625106D157315F8B8392CD4E0
310
A0B9A720C4BE9829CEF37EA1E13111214D53925356365ADA634861B52519DD27A00AEB808EAF0628E6F435519D446F45CF2C9CF5214F0A15B2F6D06B79DA3EE3CBF7F56780D2F4E7EF73A0F5E5B02A38D07DC852C6B7C1FBB6664213E0C39E3EBA7FF4E1AD23EA2829407C85E586727488B751B2DB9502BC7B228A3FD68B6E
310
A65A22397E690AA8D158D7E404EC8CDA235CC3B7D1898680131CEC2CDF2638C65196279577750F15884AEE19F94199155B92B13297978469D4F8D358DF0AEF7631E28DC8F0D9F437D5D39A83B2231A1D52D543813A824EF8D44BCFF2FA6A31BD1E8DAD87F1CCB526B3879935BF59CDADD5C37479BB1CDD4CA7B3556B516589
310
EF352754B706114D9C885EC9131DE6EFEB43D99AFE2391C2F958179413D7CFEF6B1B6DB1E7600F00DE6E5C67454A339A4BA2E0FBA85ED26F045D454F463DBFCE484C2F90F2E5E3666003662ED8F755951A7D1BECD5B30B550B2785C8E7320B7292A4838DDA71BBC863ED7613CAF659337A3354231D4FF4A182A54904C2898C
310
98B28C4AD0CE056CCF332A80986E571EE9DBC305BB5FEB7E509220A58D25CF042D712A806AC0AD0C657FDEF80D2D9CEAA2EE4D1C76F60BFE74219A06527D6F82DF6412526107381E55E353090704D085B52408A8913C4ED159D79BDA71BB4BC506F4831350EB6F975CD22D69BF7AC49B91A2C0A9DDA3D5CA36AD20FC478E37
310
E61844E2352865EBCB61A275A65283CAAA9DD27703B4102F5AF51EF5F573B75CBB5AD38BC845F7A49F82A0966A49C2E3EA5EA0ECD326CD965F1DB402C6FA8B51A4658C5C5E2EC9E214602E55810345408596591009A82E7E7FFACA19EEA299B14A0081A705CB3296EBC14CDF658DCD336EA6D1136881AAEB87B81AB9EE53D5
310
F5EB8BC8362082DA24122F98680A4E7930C01A0079749CEA14382A0783E5EBA5A10F8C098456A03D6A4AEB6BB881E2513747552A5DB22C7EDAF83BD5528081A365F7FF06504B0304140006080000CC70623B000000000000000000000000350000006662782F41393633353835312D344632462D344230382D423046372D37
310
39314545314133324237412F76657274696365732E62696E504B0304140006080800CC70623BF270F1330600000004000000360000006662782F41393633353835312D344632462D344230382D423046372D3739314545314133324237412F747269616E676C65732E62696E636660600000504B0304140006080000CC7062
310
3B000000000000000000000000370000006662782F41393633353835312D344632462D344230382D423046372D3739314545314133324237412F617474726962757465732E62696E504B0304140006080800CC70623B08DA0BD19000000041010000360000006662782F41393633353835312D344632462D344230382D4230
310
46372D3739314545314133324237412F6469726563746F72792E786D6C858F410AC3201045AF22B36F53E9A60B35CBEEBAE80D244E44489C6234F4F835464A48035D0DF398FF9F8AF63D0E6CC63039F212F8F9020C7D47C6792B21C5FE7403D62A1188E2E60C98D7234A5830286103A55745067B9D86B8A3CF9C7F90C11DE6
310
07FB144396D7B6A82D282E9A152AD114D5EF2CB866EEE831B8EEA07A7BB5A8D7D61A2BAAEB7FD5F70921FF497D00504B0304140006080800CC70623BEDD1DC58FD000000A00100003B0000006662782F41393633353835312D344632462D344230382D423046372D3739314545314133324237412F7265736F75726365732F
310
636F72652E786D6C8D504B6E833010BD0A9A6D65B00922041947112427E8052C33A156828DFCA97AFC9A40A576D7CDCCE87D344F8F9FBFE667F689CE6B6B3A6039850C8DB2A336530731DC4903D95970676DF82583CCC8193B5861107C72362E3BA4AC096842428D1D7107A5F7182053CF7474E0D507CE32973124857FE48B
310
540F3961CEF244279DE03EB81420DB9EAC1384436FA353E879B1B182C7A8C75DA3C7F453DF353A1075D537A7BA6464B8F535A99AE14A9A2BBD90E350DD183B5CFABE3AF262350B1EF4FC9351399401471025A527C218A1E53BAB5A5AB765F5469B96525EACF23FA6B88CFF34456DC2A1DCE36E360F82A5202F42F062ED2BAD
310
579969AFDD8A6F504B010214000A0000080000CC70623B3DEE336E79000000790000001B00000000000000000000000000000000006175746F6465736B2D64657369676E2D7061636B6167652E786D6C504B01021400140006080800CC70623BD486FD9CA0000000F40000001300000000000000000000000000B20000005B
310
436F6E74656E745F54797065735D2E786D6C504B01021400140006080800CC70623B853B8169EB0000007C010000080000000000000000000000000083010000636F72652E786D6C504B01021400140006080800CC70623B55019EA25F0000007C000000070000000000000000000000000094020000636E782E786D6C504B
310
01021400140006080800CC70623BDBABAAF470010000D40300000C00000000000000000000000000180300006662782F636F72652E786D6C504B01021400140006080800CC70623B9C113CC27E0000009D0000000B00000000000000000000000000B20400006662782F636E782E786D6C504B01021400140006080800CC70
310
623B7DF2F77C2A010000120200003100000000000000000000000000590500006662782F41393633353835312D344632462D344230382D423046372D3739314545314133324237412F636F72652E786D6C504B01021400140006080800CC70623BAD7543B64E010000330300003000000000000000000000000000D2060000
310
6662782F41393633353835312D344632462D344230382D423046372D3739314545314133324237412F636E782E786D6C504B01021400140006080800CC70623BE75B7789680500003C10000034000000000000000000000000006E0800006662782F41393633353835312D344632462D344230382D423046372D3739314545
310
314133324237412F6F626A656374732E786D6C504B01021400140006080000CC70623B0000000000000000000000003500000000000000000000000000280E00006662782F41393633353835312D344632462D344230382D423046372D3739314545314133324237412F76657274696365732E62696E504B01021400140006
310
080800CC70623BF270F133060000000400000036000000000000000000000000007B0E00006662782F41393633353835312D344632462D344230382D423046372D3739314545314133324237412F747269616E676C65732E62696E504B01021400140006080000CC70623B0000000000000000000000003700000000000000
310
000000000000D50E00006662782F41393633353835312D344632462D344230382D423046372D3739314545314133324237412F617474726962757465732E62696E504B01021400140006080800CC70623B08DA0BD1900000004101000036000000000000000000000000002A0F00006662782F41393633353835312D344632
310
462D344230382D423046372D3739314545314133324237412F6469726563746F72792E786D6C504B01021400140006080800CC70623BEDD1DC58FD000000A00100003B000000000000000000000000000E1000006662782F41393633353835312D344632462D344230382D423046372D3739314545314133324237412F7265
310
736F75726365732F636F72652E786D6C504B0506000000000E000E0080040000641100000000
  0
XRECORD
  5
1F8
102
{ACAD_REACTORS
330
1F7
102
}
330
1F7
100
AcDbXrecord
280
     1
 70
     1
 90
429727718
  1
30362254-06B7-45E0-A893-8CFA70E3D6BC
310
504B03040A0000080000CC70623B3DEE336E79000000790000001B0000006175746F6465736B2D64657369676E2D7061636B6167652E786D6C3C3F786D6C2076657273696F6E3D22312E302220656E636F64696E673D227574662D3822203F3E3C666F726D6174733E3C666F726D61743E687474703A2F2F736368656D612E
310
6175746F6465736B2E636F6D2F64657369676E2D7061636B6167652F323030393C2F666F726D61743E3C2F666F726D6174733E504B0304140006080800CC70623BD486FD9CA0000000F4000000130000005B436F6E74656E745F54797065735D2E786D6C7D8EC10E82300C865F65E91D8A1E8C310C0EEA1BF002731658846E
310
D98AC1B77784ABF1D8FE5FBFBF75BBCE937A534CCEB38643598122B6FEE978D0B0485F9C41B54DDD7D022595594E1A469170414C76A4D9A4D207E29CF43ECE46F218070CC6BECC4078ACAA135ACF422C856C0E68EA1BF5669944DDD7BCDE7B1F8E415D77AECB980613C2E4AC91FC167A2B244592486606FC29C8FD7F045B9A
310
EF7053A7E60B504B0304140006080800CC70623B1EC5D7A3EB0000007C01000008000000636F72652E786D6C8D90416EC3201045AF82665B6103C6756C6122AB4D4ED00B204C5C94182C03558F5F9C3852BBEB6A467FFE9B197D71FC9E6FE8CBACC17AD7032D0820E3B41FAD9B7A48F1820F808E52ACDEC75F36404ECDA687
310
4D0629A6D5A76597B477D1B89855E747B38B2A041301E95B6E7A08FAD3CCAA50296647B8168BD2573599823EBB0CA76447F43862C7BCCF5EAC59410E4DDD9C7973C2755553CCCFA4C603E3040F1565ED3B1FDE4E432BCA0D9622DAF9795FAF464533826484B498524CD807E51D79ED187F21878E10516EF63F505AC67F42C9
310
BA58B1FDDD071640D2FCC87D2045B96591CB3DA85CB7DCE40F504B0304140006080800CC70623B55019EA25F0000007C00000007000000636E782E786D6C4DCB3B0E80201045D1AD90E915ED2CF8AC45050C11660C8261F98AB1B07AC9C97D42D718D865D3E909258CFD00CCE24AC6E326A164D74DC0B4128928FF32603847
310
2BA13128B1252AC747C6BAB984FC68F0B87FE8960A5C09FE86CFB69FBA01504B0304140006080800CC70623B8C9102E971010000D40300000C0000006662782F636F72652E786D6CC5535B6E833010BC8AE5DF0A6C08340F1947A84D4ED00B38C6A128602363A31CBFCB234A53A551FA553EC09AD9F5CE8C31DB9E9B1AF5CA
310
7695D1198E428A91D2D214952E33ECDD315861B4E5CC1AE3BE9561A445A3323CC098B3D21ADFCE9034DA29ED00D5A6503328BA4E398C640D8B0C77F253352214DE4145770A5B214FA2546114020D759C75CE8200340D19DE981F0F6746269C33EFAB6266AB02A655C74A59CCF365BADC27CB5D902ED22848F6340DF238A141
310
BE88E2F57B92BFEDF23523433367AE6A2EEAA455C2A902F398D2751045018D3FA264435F3771F242571B4A1919CA6F9A7C5B3CD9E42BED16F12C776AEB308F40C848FC700B1139D4891EF410CEC810227CC6846F8386402064270EF5C5C709A05E49676C024C61FC95EA45ED154CA5211D1FF4FB8291A913A68E9B83EBBB33
310
E2A7673CDE118E5AE8124C0807CB8377834E366998436B950D7A7746DAD846D4CFD978E0F04FD455FC5D49D2D4C6FE9722321F10997F0F32DC47FE05504B0304140006080800CC70623BFFEA85907E0000009D0000000B0000006662782F636E782E786D6C4DCCD10A83201886E15B91FFDC95D95A811AB6F23E625948A6C3
310
E9D8E5AF46073BFAE0E1E365ED67B3E8ADC3CB78C7815C7240DA3DFC64DCC221C519D7805AC182F7F1EF06C88D9BE6703008B6049F9E274D7A1E938DBB5AE3D6131B2589BA0D3D965551E0B2EA732C9B9A624AAEB41E3A557677029960D9AFB4EF11165F504B0304140006080800CC70623B4FEEA4082C0100001202000031
310
0000006662782F39464131463745442D413632322D343644302D413938332D3331353338454246344243312F636F72652E786D6C8D515B6EC32010BC0AE2AB55850DD871ED0813254D72825EC00192A2C460F1A872FC42ED48ED5F7E00CDCECCCEB26C731F6FE05B39AFADE921293004CA082BB5B9F43086336A21D870E6AC
310
0D7F68109861543DCC30E4ECE26C9C164858139409093556AA051CBC570102714B8F1E7AF1A5C6A11862480C7F2DA6415C878B2A4891CA89C7990F2E050073937C42DE1DB7E4F87ED8A36D4329AA9B3D46DBAEAD504556557BD81DEBDD0761E52CE42C462D17B996298E3E6BE59E35C962CE821E1FF18553435012728A7187
310
0841987E927A8D9B35ADDF70BBC6989599FE4F1427F9A4286A132ABAC49D651EF234CD5CE04CDA78BA3DC2A8FB645D00B9DF8B57E215725C60BCA2A463E54C4CE327C7A65E1C7DB02E7DEFCBF594B864C5CA6CDBD49C957943E9FA5D5FBAF336F90F504B0304140006080800CC70623BAD7543B64E01000033030000300000
310
006662782F39464131463745442D413632322D343644302D413938332D3331353338454246344243312F636E782E786D6CD593CD6EC32010845F0571AD6CE3D48AD20813A9873E410FBD12D82434182C7EAAE6EDBB2424CD25871E7B41D6EC30B3FA84F9E67BB2E40B4234DE8DB46F1925E094D7C6ED479AD3AE5951B2113C
310
789FEE6C943839C1488B4C05DF079FE72A69D8C96C13AAD6B8631503449F83828872B949AC57D26200B826A308D316B4064D6E46FCDA41C05550DC9E483A00797BFD207EFB092A45DE9514C1BBD22178396BD39D891265658C238DEA00936C654E5E433CB65A26D9F6EDB5EBC14EBF49A45CB856E66048291F6939A9A81BB5
310
C8917738143CA680F4AA299D66A042CEB3354A2684DC9D8D178FE0D9B8B41CAAD720F880EE7EF93C0C18769E099ECC04D5A102C8049A8A05632F4DDF376CF1DE0F6BB65C2F8627B65A33C6BB62177CEBBDAD973006829F89F22E814B54F4BC2BE347F8AA8F681390B50FA73F804400B5F542E796F19FF974E7F78DB802FE05
310
E207504B0304140006080800CC70623B16AB87BA640500003C100000340000006662782F39464131463745442D413632322D343644302D413938332D3331353338454246344243312F6F626A656374732E786D6CAD575B6FA33818FD2B887DE6924B3BED8A326A92B68A663B534DD4D13E548A0C38942D60649B369D5FBFC7
310
600890A493BDE42160637FD7F31D7FF63E6FB3D478A55C242CBF3247B66B1A340F5994E4F19559CA8D75611A9F7D8F33263BCB4C232719BD32D5B4E97B316765A1A722BA21652A07B3B7B33F0D11D29C9A46981221AE4C113ED38CD8A4942CA2E2C58E882476BCD9DA23BB5ED8171B73523C0F841684D35CC252CCE79062D4
310
468DFA43D7747CCF51DF7D4FFDEB5593E3AB9CCA9FBEFE241792E4E19EB28198C968BAB8199F5D5A67D3E9C49A9E8F47D6EC76B6B0469F26EEFC7C3EBFBCBEB98462213924694B38DD98FE1D62C393D073EA4FADC5DAF04326852CCF6958F90F0F2B9BB5C48816348F90C7840A68EB78EDF68723159BCEE7891A6B95DDE9D3
310
BCEAEEE8086A6C6F9E5D4B59F0175C10A7A0820BAA5055C7473B5AE3CFDD452D602CD5DF12616444529E90D448938013FE6EFA58AA96F85E4F8C42275708571E98FE6827AF6B2B4AE3D7D83D64E5A64C53054DD3AF90BD06FEA9149565C94FCA0F6B834DC85599E4F2423B24DF0B6AFA979E534DFA9E7A4CC6FA631D486393
310
921829879BF5D781A373557BCB85E97FB90DB62B558F8795179C15944B051F40AB495CF35451D26A4727654E6D8033BD98EF82F21D91FF8AF2DD9982BCF1643BDD4EB516C9492E368C67C88DED563FC36D5EACF66DFF057C3658BDBFA69DF9578B3DA735B64F18C7F20770A9D45CFCF7FCF563D6456A277DBEF78A02637CA2
310
43B90A490AEAB94F72244481D24819A6C0E59B606BFA4B3025981DBB48EAB701D97BF19C577CC77F2D1B6C55A9EF3C732474C0B727303F625995056C3B02963D9EAC146BE78EC5FCEC7FA999EBC5EACBAAE41B12D27B4D2C0BBA49F244E2ECDC81B76B502F113D8F5EE8FB1BE3111CDD4FC2AA9B844CAB1288B68AB90A7CDC
310
1C166AB0D3DC5310625FCC14E779BFD0709F8890A629C9292B1B2DED31A4B0DA928CEE135085754027E3018A397D4D5427D15BD1330B677DC8934285AC3DF45A9EB68FF8F2B8FC0A509AFEECFD0FF2DE25CC6047F7214B195F07EFEB9A094D800F7BFAE8FED187B78EA8A3A400F115961BCAD1215E47C966530AF0EE8128FE
310
58CEBB996A8964FFA529A046635D9353B0336A8F700DDF46271A024E70B0B37C9DE01847591E54DED53D54202AB947E4076556AC49C6CA5C9E1226B7F1A7B1BE15DEED62C41B91E1B3E9AFAAA735036547343A925075041DF0A9979E893B391F8FCFA6967B3EFB644DCF6E5CEBFAE272625DCC6FAF3FB93793C5F90CE1EF57
310
407342756B10D1C489E8953CD1617E5CEECAD6F4EF8914CE5D5D504E5C3F1F9736DA62CFC11E00BCDDB8CC8A9466349744C1F75EBDA4DF09BA8A9E8C7A7E9991989E20E5DBDD6A6003664ED8F7A04A8DBE0DF6EAD9B9AA858342E47399053949D2C146EDB85DE4B176BB0965FBAC19BD19AA918E27FA50C1D22402E144464C
310
59462568E704B6E71915404CB72B8FF4EDE184DDAF753F284990D2C6926782963815403548A70C657FDEF80D2D9CEAA2AE4C1C76F60BFE74219A06527D6582DF6412526107381E55E353090704D085B52408D0933C4ED159D79BDA71BB4BC506F4831350EB6F979CD22D69BF7AC49B91A2C0A9DDA3D5CA36AD20FC478E37E6
310
1844E2352865EBCB6EA275A652E3836BE04EFB400BF1A2556F515F1FBB35B2AB35BD889C744FFA1004B5544B121E57F70215746DD2F5E2C1412B602CBF19455AC6C8E5E9922C4E01E65215385004546899059180EAFCF7A707CE7017CD8CDB0410789AB32C63B91E5CEBBBACB17AC6CD347A022D5075FD106377347AAABA7E
310
7D11590744509B44E205134DC1290F06580320F78E537D3D73540E06CB970B431F185308AD40BBD794D6D77003C5A36E8EAA54BA64597CD8F83BD552A080A365F7FF06504B0304140006080000CC70623B000000000000000000000000350000006662782F39464131463745442D413632322D343644302D413938332D3331
310
353338454246344243312F76657274696365732E62696E504B0304140006080800CC70623BF270F1330600000004000000360000006662782F39464131463745442D413632322D343644302D413938332D3331353338454246344243312F747269616E676C65732E62696E636660600000504B0304140006080000CC70623B
310
000000000000000000000000370000006662782F39464131463745442D413632322D343644302D413938332D3331353338454246344243312F617474726962757465732E62696E504B0304140006080800CC70623B08DA0BD19000000041010000360000006662782F39464131463745442D413632322D343644302D413938
310
332D3331353338454246344243312F6469726563746F72792E786D6C858F410AC3201045AF22B36F53E9A60B35CBEEBAE80D244E44489C6234F4F835464A48035D0DF398FF9F8AF63D0E6CC63039F212F8F9020C7D47C6792B21C5FE7403D62A1188E2E60C98D7234A5830286103A55745067B9D86B8A3CF9C7F90C11DE607
310
FB144396D7B6A82D282E9A152AD114D5EF2CB866EEE831B8EEA07A7BB5A8D7D61A2BAAEB7FD5F70921FF497D00504B0304140006080800CC70623B0D6EF93BFE000000A00100003B0000006662782F39464131463745442D413632322D343644302D413938332D3331353338454246344243312F7265736F75726365732F63
310
6F72652E786D6C8D50596E833010BD0A9ADFCA60B334011947A8694ED00B586642AC041B79A97AFC9A40A5F6AF3F33A3B7689E1E3F7DCD8FEC139DD7D6F4C0720A191A65476DA61E62B892236427C19DB5E1970C322367EC618541F0C9D9B8EC90B226A009093576C41D94DE63804C3DD2D18357379C652E63480A7FCF17A9
310
EE72C29CE5894E3AC17D702940B63D59270887DE46A7D0F36263058F518FBB468FE9A7BE6A7420864373B8D4873369AA8691FA421B3294352543C5CAF65C0F6FEF43CB8BD52C78D0F34F46E550061C419494B6843142CB0F5677F4B52BEB177AEC28E5C52AFF638ACBF84F53D42654E51E77B379102C05791282176B5F693D
310
CB4C7BED567C03504B010214000A0000080000CC70623B3DEE336E79000000790000001B00000000000000000000000000000000006175746F6465736B2D64657369676E2D7061636B6167652E786D6C504B01021400140006080800CC70623BD486FD9CA0000000F40000001300000000000000000000000000B20000005B
310
436F6E74656E745F54797065735D2E786D6C504B01021400140006080800CC70623B1EC5D7A3EB0000007C010000080000000000000000000000000083010000636F72652E786D6C504B01021400140006080800CC70623B55019EA25F0000007C000000070000000000000000000000000094020000636E782E786D6C504B
310
01021400140006080800CC70623B8C9102E971010000D40300000C00000000000000000000000000180300006662782F636F72652E786D6C504B01021400140006080800CC70623BFFEA85907E0000009D0000000B00000000000000000000000000B30400006662782F636E782E786D6C504B01021400140006080800CC70
310
623B4FEEA4082C0100001202000031000000000000000000000000005A0500006662782F39464131463745442D413632322D343644302D413938332D3331353338454246344243312F636F72652E786D6C504B01021400140006080800CC70623BAD7543B64E010000330300003000000000000000000000000000D5060000
310
6662782F39464131463745442D413632322D343644302D413938332D3331353338454246344243312F636E782E786D6C504B01021400140006080800CC70623B16AB87BA640500003C1000003400000000000000000000000000710800006662782F39464131463745442D413632322D343644302D413938332D3331353338
310
454246344243312F6F626A656374732E786D6C504B01021400140006080000CC70623B0000000000000000000000003500000000000000000000000000270E00006662782F39464131463745442D413632322D343644302D413938332D3331353338454246344243312F76657274696365732E62696E504B01021400140006
310
080800CC70623BF270F133060000000400000036000000000000000000000000007A0E00006662782F39464131463745442D413632322D343644302D413938332D3331353338454246344243312F747269616E676C65732E62696E504B01021400140006080000CC70623B0000000000000000000000003700000000000000
310
000000000000D40E00006662782F39464131463745442D413632322D343644302D413938332D3331353338454246344243312F617474726962757465732E62696E504B01021400140006080800CC70623B08DA0BD190000000410100003600000000000000000000000000290F00006662782F39464131463745442D413632
310
322D343644302D413938332D3331353338454246344243312F6469726563746F72792E786D6C504B01021400140006080800CC70623B0D6EF93BFE000000A00100003B000000000000000000000000000D1000006662782F39464131463745442D413632322D343644302D413938332D3331353338454246344243312F7265
310
736F75726365732F636F72652E786D6C504B0506000000000E000E0080040000641100000000
  0
XRECORD
  5
175
102
{ACAD_REACTORS
330
173
102
}
330
173
100
AcDbXrecord
280
     1
270
     1
271
     1
  0
XRECORD
  5
174
102
{ACAD_REACTORS
330
173
102
}
330
173
100
AcDbXrecord
280
     1
270
     1
271
     1
  0
XRECORD
  5
1FB
102
{ACAD_REACTORS
330
173
102
}
330
173
100
AcDbXrecord
280
     1
 70
     0
 90
1673772943
  1
ECE7A1D2-D628-4531-984C-D00F80459256
310
504B03040A0000080000CC70623B3DEE336E79000000790000001B0000006175746F6465736B2D64657369676E2D7061636B6167652E786D6C3C3F786D6C2076657273696F6E3D22312E302220656E636F64696E673D227574662D3822203F3E3C666F726D6174733E3C666F726D61743E687474703A2F2F736368656D612E
310
6175746F6465736B2E636F6D2F64657369676E2D7061636B6167652F323030393C2F666F726D61743E3C2F666F726D6174733E504B0304140006080800CC70623BD486FD9CA0000000F4000000130000005B436F6E74656E745F54797065735D2E786D6C7D8EC10E82300C865F65E91D8A1E8C310C0EEA1BF002731658846E
310
D98AC1B77784ABF1D8FE5FBFBF75BBCE937A534CCEB38643598122B6FEE978D0B0485F9C41B54DDD7D022595594E1A469170414C76A4D9A4D207E29CF43ECE46F218070CC6BECC4078ACAA135ACF422C856C0E68EA1BF5669944DDD7BCDE7B1F8E415D77AECB980613C2E4AC91FC167A2B244592486606FC29C8FD7F045B9A
310
EF7053A7E60B504B0304140006080800CC70623BD9DDAED0EC0000007C01000008000000636F72652E786D6C8D90416EC3201045AF82665B61836D9CD8C2444DD39CA01740405C94182C03558F5F9C3852BBEB6A467FFE9B197D7EF89E6EE8CB2CC17A37002D0820E394D7D68D03A478C17B4007C117EFE32F1B20272733C0
310
2A83E0E3E2D3BC49CABB685CCCAAF3DA6CA20CC14440EA969B0182FA34932C648AD911AEC52CD5558EA6A0CF2EC329598D1E47ACCEFBECC59A050463A7EA5833865FEBDD0E37353BE3EE8DBDE3F6786A48D375FBF6CC78B9C282473B3DEFABC5C86834888A900E538A49F5419B9EB47DD5BC907D4F082F57FB1F28CDFA9F50
310
B22ED6D5F6EE030B20687EE43E10BC5CB3C8E51E54AE6B6EE207504B0304140006080800CC70623B55019EA25F0000007C00000007000000636E782E786D6C4DCB3B0E80201045D1AD90E915ED2CF8AC45050C11660C8261F98AB1B07AC9C97D42D718D865D3E909258CFD00CCE24AC6E326A164D74DC0B4128928FF326038
310
472BA13128B1252AC747C6BAB984FC68F0B87FE8960A5C09FE86CFB69FBA01504B0304140006080800CC70623BA24EB22D72010000D40300000C0000006662782F636F72652E786D6CC5535B6E833010BC8AE5DF0A6C5E49888CA3A6694ED00B38E05014B091B1518EDFE511A5A9D228FD2A1F60CDEC7A67C6986DCE4D8D7A
310
69BA4AAB0C073EC548AA5C17952A33ECECD15B61B4E1CC686DBF9561A44423333CC098B3D268D7CE50AE9595CA02AA74216750749DB418E5352C32DCE59FB211BE70162ABA93DF8AFC244AE9073ED050C759670D0840D390E18DF9F1706664C23973AE2A66B62A605A75ACA4C13C4976E1364A12EF355A2EBD384AF65EFA96
310
BC7B8BED2EA6719AAE16FB8491A199335B351775B991C2CA02F390D2D40B028F861F41BCA68B7518BFD0D59A524686F29B26D7164F36B94AD9289CE54E6D1DE6010819891F6E21228B3AD1831EC219194284CF98F06DD01008846CC5A1BEF83801D4CBDC6A1303536877A57A513B0953A94FC707FDBE6064EA84A9E3E6E0FA
310
EE8CF0E9198F7784A316AA0413C2C2F2E0ECA0934D1AE6D05A69BCDE9E91D2A611F573361E38FC1375157F5752AE6B6DFE4B11990F88CCBF0719EE23FF02504B0304140006080800CC70623B408A7D3B7C0000009D0000000B0000006662782F636E782E786D6C4DCCD10A83201886E15B91FFDC552A92A0064DBC8F581632
310
D3703A76F9ABD1C18E3E78F878E5F0D9027ABBFCF2292AE86E2D20171F69F6715550CB827B40839639A5F2770314A7CD293819B45C73AAFB45B35BA61ACAA1C1C7E7855C58C15BC331339661262CC762340413D68D77DA5B42298546CBE6573AF60CEB2F504B0304140006080800CC70623B449FB9BD290100001202000031
310
0000006662782F36394639363044362D344446342D343946362D394244322D3234314243333846323333332F636F72652E786D6C8D515B6EC32010BC0AE22B55850D98B871848994463E412FE002495162B07854397EA176A4F62F3F2C9A9D991D587EB84F37F0AD7D30CEF6905418026DA553C65E7A98E219ED203808EE9D
310
8B7F6810D871D23D2C3014FCE25D9A57483A1BB58D19B54EE9151C43D0110279CB971E06F9A5A7B11A53CC8C70ADE6515EC78BAE4895DB992778883E0700CB907242D17643D7E2538BD869608875438BBAE38922CAC8F1BDD90DB4691A5E2F42C153326A951B95E398B3D1FE599322163C9AE9115F7A3D46ADA0A018778810
310
84E907617BDCEE297BC5BB3DC6BC2EF47FA234AB2745C9D8D8D035EE220B50105E2F0DC1954B9FB747187D9F9D8FA0CCDB042D5FA0C015C65B42DF78BD10F3F3B363CB56C7109DCFDFBBB97E662ED92EB62D13BC2E1BCAE5777DB9966D8A1F504B0304140006080800CC70623BAD7543B64E01000033030000300000006662
310
782F36394639363044362D344446342D343946362D394244322D3234314243333846323333332F636E782E786D6CD593CD6EC32010845F0571AD6CE3D48AD20813A9873E410FBD12D82434182C7EAAE6EDBB2424CD25871E7B41D6EC30B3FA84F9E67BB2E40B4234DE8DB46F1925E094D7C6ED479AD3AE5951B2113C789FEE
310
6C943839C1488B4C05DF079FE72A69D8C96C13AAD6B8631503449F83828872B949AC57D26200B826A308D316B4064D6E46FCDA41C05550DC9E483A00797BFD207EFB092A45DE9514C1BBD22178396BD39D891265658C238DEA00936C654E5E433CB65A26D9F6EDB5EBC14EBF49A45CB856E66048291F6939A9A81BB5C89177
310
38143CA680F4AA299D66A042CEB3354A2684DC9D8D178FE0D9B8B41CAAD720F880EE7EF93C0C18769E099ECC04D5A102C8049A8A05632F4DDF376CF1DE0F6BB65C2F8627B65A33C6BB62177CEBBDAD973006829F89F22E814B54F4BC2BE347F8AA8F681390B50FA73F804400B5F542E796F19FF974E7F78DB802FE05E20750
310
4B0304140006080800CC70623B8D05915C650500003B100000340000006662782F36394639363044362D344446342D343946362D394244322D3234314243333846323333332F6F626A656374732E786D6CAD575B6FA33814FE2B887D06429276DA1565D4266D158D3A339A6846FB502932E050B66023DB74D2FDF5FB190C01
310
9276B2973C046C8ECFF53B17071F77456EBD502133CEAE6CDF9DD81665314F32965ED995DA3A17B6F5310C04E7AA47665B8C14F4CAD6DB7618A48257A5D94AE89654B91AEDDEDDFC61C998326A5B714EA4BCB265FC440BE2924AF184CA6737218AB8E976E7FA6E4338649B0A523E8D98964450A6A029F619B8588D52FE7039
310
B1BD30F0F4F730D0FF866AF6369557DB33949F31A9088B0F848DD8CCFCF9F2767A76E99CCDE733677E3EF59D9BBB9BA5E37F984D16E78BC5E5F5ED25044B25C0C96822E8D60EEFE11B91C581D77CEA34368A1F5329E68CD1B8B61F16D63A1B8E092D294B10C78C4A48EB593D192E7DED9BDEE7995E1B91FDEDD3ACEA9FE831
310
6A756F9F7D4D79F4274C90A7A04248AA51D5F8C718DAE06FB2F75AC4796EBE65D22A88A22223B995679120E2D50E41AA49C260C046A35368846B0BECD0DFF3EBEB8AD4F835768F69B9ADF25C43D30E6B646F807FAA64AD59F61715C7A54127C4AACA98BA3006A9D792DAE165E0D59B61A01FB3A9F9D838D2DAE62445C86166
310
F37564E842E7DE6A69879FEEA2DD5AE7E371E1A5E025154AC307D06A03D73EB5978C58FFA4C8E9033066E0F3BD53BEC1F39F91BE7B55103791EDE6BBB991A2046172CB4581D8B893FA674DDA17A77B3B7C413D1B511FD2743BFF8A38F03A658705E3ADF8015C3A3417FF3D7E439FF591DA0B5F18BC20C1B8981957AE6392A3
310
F43C640C01D1A0B4728E2DD4F26DB4B3C3152A252A3B4E913CEC1C72F012782FF88EFF8637AA552DBEF76408E8A8DE9E50F9E1CB3A2DA0DB1B6039A893B56063DC5B3E3FFB5F72E67AB9FEB4AEC496C4F4C1149625DD662C53E89D7BF0F6151A046260D1337DFDC94502430F83B0EE07A130A224BCAD7DAE1D9FB6CD422FF6
310
920702629C4BB9AE79C12F243C6432A6794E18E5552BA56B431AAB5D91317302B2B071E86C3A42B1A02F999E24061403B5D0EB639195DA655DD3EBEAB4FB862DDF579F014AD0E73C22F99E28DA57FB98E75C6CA2D74D53086D600F4786E0FE3144B771A8A7B900F03594DB8A633CBC49B2EDB69228BB479CF863B5E807AAAB
310
23872F6DFEB4129B949CA33823F58830E86D65621E10047D9DB34D862E8EAC3C2ABC2F7B2C40D67CDFE01F5545B92105AF983AC54D93D69E56FB8E797F88913F898A9FEC705D3F9D1B54EC8426FB500D40A03BD0119B06E1B95DDC7EB8F6975367793EBD70E66733DFB9BC982F9CE564727731999F5D4ECFCE3B8D6A4DC2A0
310
6D50FD148437D110834A64C6CDDF57FBACB5C307A2A477DFE4939736CFEF2B175371E0E10CF0DD1D5C15654E0BCA14D1E87DD02FF93782A162C0A3D95F1524A52770F972BF1EE9809D13CE7DD599467F8ECE9ADD85CE85A34CD45355448C64F9E8A031DC2D596ACC6E5DD93D9B82DE2EF5CAF81363A8E47996A0DE24564A79
310
4115AACE09C55E14540231FDA13C319787134EBF34E3A022514E5B4D9E0826E25C02D5805B15ABE1BEF51B26383D445DD9E875EE33FE4C22DA16427D65A3BCA92CA6D28DD01DF5DC53330704308475351050232CCD31583787BA75774AFB06E5070DD0C8EF484E19968C5D83BA5B90B244D31E54D55A372320FE4786B7EA58
310
44E135AA5467CB7EA333A61683CC6A8C3257034C10CF46F40EF9F5BE59BE5BD30C3C72D235E95D10345C1D45445A5F0BB47E46A5EBE5570F9380B5FA629579952296A773720405982B9DE04011506178964401AA8BDF1FBF0A8EAB6861DD6580C0E38217056766716DAEB2D6FA0917D3E4116581EADB879C4E7CFFB11EFACD
310
3D641311495D92C8676CB409A72D18610D803CE8A626049E8EC1887CB5B44CC39883690DDA8399B4B9855B481E7D71D4A9D22F96E5BB73BF5793020C02137BF837504B0304140006080000CC70623B000000000000000000000000350000006662782F36394639363044362D344446342D343946362D394244322D32343142
310
43333846323333332F76657274696365732E62696E504B0304140006080800CC70623BF270F1330600000004000000360000006662782F36394639363044362D344446342D343946362D394244322D3234314243333846323333332F747269616E676C65732E62696E636660600000504B0304140006080000CC70623B0000
310
00000000000000000000370000006662782F36394639363044362D344446342D343946362D394244322D3234314243333846323333332F617474726962757465732E62696E504B0304140006080800CC70623B08DA0BD19000000041010000360000006662782F36394639363044362D344446342D343946362D394244322D
310
3234314243333846323333332F6469726563746F72792E786D6C858F410AC3201045AF22B36F53E9A60B35CBEEBAE80D244E44489C6234F4F835464A48035D0DF398FF9F8AF63D0E6CC63039F212F8F9020C7D47C6792B21C5FE7403D62A1188E2E60C98D7234A5830286103A55745067B9D86B8A3CF9C7F90C11DE607FB14
310
4396D7B6A82D282E9A152AD114D5EF2CB866EEE831B8EEA07A7BB5A8D7D61A2BAAEB7FD5F70921FF497D00504B0304140006080800CC70623BCA768048FE000000A00100003B0000006662782F36394639363044362D344446342D343946362D394244322D3234314243333846323333332F7265736F75726365732F636F72
310
652E786D6C8D50596E833010BD0A9ADFCA60D600328E9AA639412F609909B1126CE4A5EAF16B0295DABFFECC8CDEA2797AECF8353F924FB44E193D409E5248504B332A3D0D10FC95B4901C39B3C6F85F3248B49871801506CE266BC2B243D2688FDA47549B11775038871E12F988C7004EDE7016A9083E2ADC3D5D84BC8B09
310
D33C8D74D471E6BC8D0192EDC93A815B742658898E651BCB59086ADC356A8C3FD555A1055ED7E7E254D615792D0F075295F585746FF53B694EE78A565DD736979A65AB9933AFE69F8CD2A2F038022F28ED489E135A7CE4554F9BBEA85E68DB53CAB255FEC71496F19FA6A0B42F8B3DEE6673C0F318E4497096AD7DC5F52C33
310
EEB55BFE0D504B010214000A0000080000CC70623B3DEE336E79000000790000001B00000000000000000000000000000000006175746F6465736B2D64657369676E2D7061636B6167652E786D6C504B01021400140006080800CC70623BD486FD9CA0000000F40000001300000000000000000000000000B20000005B436F
310
6E74656E745F54797065735D2E786D6C504B01021400140006080800CC70623BD9DDAED0EC0000007C010000080000000000000000000000000083010000636F72652E786D6C504B01021400140006080800CC70623B55019EA25F0000007C000000070000000000000000000000000095020000636E782E786D6C504B0102
310
1400140006080800CC70623BA24EB22D72010000D40300000C00000000000000000000000000190300006662782F636F72652E786D6C504B01021400140006080800CC70623B408A7D3B7C0000009D0000000B00000000000000000000000000B50400006662782F636E782E786D6C504B01021400140006080800CC70623B
310
449FB9BD290100001202000031000000000000000000000000005A0500006662782F36394639363044362D344446342D343946362D394244322D3234314243333846323333332F636F72652E786D6C504B01021400140006080800CC70623BAD7543B64E010000330300003000000000000000000000000000D20600006662
310
782F36394639363044362D344446342D343946362D394244322D3234314243333846323333332F636E782E786D6C504B01021400140006080800CC70623B8D05915C650500003B10000034000000000000000000000000006E0800006662782F36394639363044362D344446342D343946362D394244322D32343142433338
310
46323333332F6F626A656374732E786D6C504B01021400140006080000CC70623B0000000000000000000000003500000000000000000000000000250E00006662782F36394639363044362D344446342D343946362D394244322D3234314243333846323333332F76657274696365732E62696E504B010214001400060808
310
00CC70623BF270F13306000000040000003600000000000000000000000000780E00006662782F36394639363044362D344446342D343946362D394244322D3234314243333846323333332F747269616E676C65732E62696E504B01021400140006080000CC70623B00000000000000000000000037000000000000000000
310
00000000D20E00006662782F36394639363044362D344446342D343946362D394244322D3234314243333846323333332F617474726962757465732E62696E504B01021400140006080800CC70623B08DA0BD190000000410100003600000000000000000000000000270F00006662782F36394639363044362D344446342D
310
343946362D394244322D3234314243333846323333332F6469726563746F72792E786D6C504B01021400140006080800CC70623BCA768048FE000000A00100003B000000000000000000000000000B1000006662782F36394639363044362D344446342D343946362D394244322D3234314243333846323333332F7265736F
310
75726365732F636F72652E786D6C504B0506000000000E000E0080040000621100000000
  0
XRECORD
  5
176
102
{ACAD_REACTORS
330
173
102
}
330
173
100
AcDbXrecord
280
     1
270
     1
271
     1
  0
XRECORD
  5
177
102
{ACAD_REACTORS
330
173
102
}
330
173
100
AcDbXrecord
280
     1
270
     1
271
     1
  0
XRECORD
  5
5EC
102
{ACAD_REACTORS
330
5EB
102
}
330
5EB
100
AcDbXrecord
280
     1
102
DISPLAYNAME
  1
Metric50
102
FLAGS
 90
        0
  0
CELLSTYLEMAP
  5
5E1
102
{ACAD_REACTORS
330
162
102
}
330
162
100
AcDbCellStyleMap
 90
        3
300
CELLSTYLE
  1
TABLEFORMAT_BEGIN
 90
        5
170
     1
 91
        0
 92
    32768
 62
   257
 93
        1
300
CONTENTFORMAT
  1
CONTENTFORMAT_BEGIN
 90
        0
 91
        0
 92
      512
 93
        0
300

 40
0.0
140
1.0
 94
        5
 62
     0
340
11
144
6.0
309
CONTENTFORMAT_END
171
     1
301
MARGIN
  1
CELLMARGIN_BEGIN
 40
1.5
 40
1.5
 40
1.5
 40
1.5
 40
4.5
 40
4.5
309
CELLMARGIN_END
 94
        6
 95
        1
302
GRIDFORMAT
  1
GRIDFORMAT_BEGIN
 90
        0
 91
        1
 62
     0
 92
       -2
340
14
 93
        0
 40
1.125
309
GRIDFORMAT_END
 95
        2
302
GRIDFORMAT
  1
GRIDFORMAT_BEGIN
 90
        0
 91
        1
 62
     0
 92
       -2
340
14
 93
        0
 40
1.125
309
GRIDFORMAT_END
 95
        4
302
GRIDFORMAT
  1
GRIDFORMAT_BEGIN
 90
        0
 91
        1
 62
     0
 92
       -2
340
14
 93
        0
 40
1.125
309
GRIDFORMAT_END
 95
        8
302
GRIDFORMAT
  1
GRIDFORMAT_BEGIN
 90
        0
 91
        1
 62
     0
 92
       -2
340
14
 93
        0
 40
1.125
309
GRIDFORMAT_END
 95
       16
302
GRIDFORMAT
  1
GRIDFORMAT_BEGIN
 90
        0
 91
        1
 62
     0
 92
       -2
340
14
 93
        0
 40
1.125
309
GRIDFORMAT_END
 95
       32
302
GRIDFORMAT
  1
GRIDFORMAT_BEGIN
 90
        0
 91
        1
 62
     0
 92
       -2
340
14
 93
        0
 40
1.125
309
GRIDFORMAT_END
309
TABLEFORMAT_END
  1
CELLSTYLE_BEGIN
 90
        1
 91
        1
300
_TITLE
309
CELLSTYLE_END
300
CELLSTYLE
  1
TABLEFORMAT_BEGIN
 90
        5
170
     1
 91
        0
 92
        0
 62
   257
 93
        1
300
CONTENTFORMAT
  1
CONTENTFORMAT_BEGIN
 90
        0
 91
        0
 92
      512
 93
        0
300

 40
0.0
140
1.0
 94
        5
 62
     0
340
11
144
4.5
309
CONTENTFORMAT_END
171
     1
301
MARGIN
  1
CELLMARGIN_BEGIN
 40
1.5
 40
1.5
 40
1.5
 40
1.5
 40
4.5
 40
4.5
309
CELLMARGIN_END
 94
        6
 95
        1
302
GRIDFORMAT
  1
GRIDFORMAT_BEGIN
 90
        0
 91
        1
 62
     0
 92
       -2
340
14
 93
        0
 40
1.125
309
GRIDFORMAT_END
 95
        2
302
GRIDFORMAT
  1
GRIDFORMAT_BEGIN
 90
        0
 91
        1
 62
     0
 92
       -2
340
14
 93
        0
 40
1.125
309
GRIDFORMAT_END
 95
        4
302
GRIDFORMAT
  1
GRIDFORMAT_BEGIN
 90
        0
 91
        1
 62
     0
 92
       -2
340
14
 93
        0
 40
1.125
309
GRIDFORMAT_END
 95
        8
302
GRIDFORMAT
  1
GRIDFORMAT_BEGIN
 90
        0
 91
        1
 62
     0
 92
       -2
340
14
 93
        0
 40
1.125
309
GRIDFORMAT_END
 95
       16
302
GRIDFORMAT
  1
GRIDFORMAT_BEGIN
 90
        0
 91
        1
 62
     0
 92
       -2
340
14
 93
        0
 40
1.125
309
GRIDFORMAT_END
 95
       32
302
GRIDFORMAT
  1
GRIDFORMAT_BEGIN
 90
        0
 91
        1
 62
     0
 92
       -2
340
14
 93
        0
 40
1.125
309
GRIDFORMAT_END
309
TABLEFORMAT_END
  1
CELLSTYLE_BEGIN
 90
        2
 91
        1
300
_HEADER
309
CELLSTYLE_END
300
CELLSTYLE
  1
TABLEFORMAT_BEGIN
 90
        5
170
     1
 91
        0
 92
        0
 62
   257
 93
        1
300
CONTENTFORMAT
  1
CONTENTFORMAT_BEGIN
 90
        0
 91
        0
 92
      512
 93
        0
300

 40
0.0
140
1.0
 94
        2
 62
     0
340
11
144
4.5
309
CONTENTFORMAT_END
171
     1
301
MARGIN
  1
CELLMARGIN_BEGIN
 40
1.5
 40
1.5
 40
1.5
 40
1.5
 40
4.5
 40
4.5
309
CELLMARGIN_END
 94
        6
 95
        1
302
GRIDFORMAT
  1
GRIDFORMAT_BEGIN
 90
        0
 91
        1
 62
     0
 92
       -2
340
14
 93
        0
 40
1.125
309
GRIDFORMAT_END
 95
        2
302
GRIDFORMAT
  1
GRIDFORMAT_BEGIN
 90
        0
 91
        1
 62
     0
 92
       -2
340
14
 93
        0
 40
1.125
309
GRIDFORMAT_END
 95
        4
302
GRIDFORMAT
  1
GRIDFORMAT_BEGIN
 90
        0
 91
        1
 62
     0
 92
       -2
340
14
 93
        0
 40
1.125
309
GRIDFORMAT_END
 95
        8
302
GRIDFORMAT
  1
GRIDFORMAT_BEGIN
 90
        0
 91
        1
 62
     0
 92
       -2
340
14
 93
        0
 40
1.125
309
GRIDFORMAT_END
 95
       16
302
GRIDFORMAT
  1
GRIDFORMAT_BEGIN
 90
        0
 91
        1
 62
     0
 92
       -2
340
14
 93
        0
 40
1.125
309
GRIDFORMAT_END
 95
       32
302
GRIDFORMAT
  1
GRIDFORMAT_BEGIN
 90
        0
 91
        1
 62
     0
 92
       -2
340
14
 93
        0
 40
1.125
309
GRIDFORMAT_END
309
TABLEFORMAT_END
  1
CELLSTYLE_BEGIN
 90
        3
 91
        2
300
_DATA
309
CELLSTYLE_END
  0
ENDSEC
  0
SECTION
  2
ACDSDATA
 70
     2
 71
     8
  0
ACDSSCHEMA
 90
        0
  1
AcDb_Thumbnail_Schema
  2
AcDbDs::ID
280
    10
 91
        8
  2
Thumbnail_Data
280
    15
 91
        0
101
ACDSRECORD
 95
        0
 90
        1
  2
AcDbDs::TreatedAsObjectData
280
     1
291
     1
101
ACDSRECORD
 95
        0
 90
        2
  2
AcDbDs::Legacy
280
     1
291
     1
101
ACDSRECORD
  1
AcDbDs::ID
 90
        3
  2
AcDs:Indexable
280
     1
291
     1
101
ACDSRECORD
  1
AcDbDs::ID
 90
        4
  2
AcDbDs::HandleAttribute
280
     7
282
     1
  0
ACDSSCHEMA
 90
        1
  1
AcDbDs::TreatedAsObjectDataSchema
  2
AcDbDs::TreatedAsObjectData
280
     1
 91
        0
  0
ACDSSCHEMA
 90
        2
  1
AcDbDs::LegacySchema
  2
AcDbDs::Legacy
280
     1
 91
        0
  0
ACDSSCHEMA
 90
        3
  1
AcDbDs::IndexedPropertySchema
  2
AcDs:Indexable
280
     1
 91
        0
  0
ACDSSCHEMA
 90
        4
  1
AcDbDs::HandleAttributeSchema
  2
AcDbDs::HandleAttribute
280
     7
 91
        1
284
     1
  0
ACDSRECORD
 90
        0
  2
AcDbDs::ID
280
    10
320
22
  2
Thumbnail_Data
280
    15
 94
      896
310
89504E470D0A1A0A0000000D49484452000001000000009108030000001BE1960600000300504C5445212830FFFFFF2128300000000000000000000000000000000000000000000000000000330000660000990000CC0000FF0033000033330033660033990033CC0033FF0066000066330066660066990066CC0066FF0099
310
000099330099660099990099CC0099FF00CC0000CC3300CC6600CC9900CCCC00CCFF00FF0000FF3300FF6600FF9900FFCC00FFFF3300003300333300663300993300CC3300FF3333003333333333663333993333CC3333FF3366003366333366663366993366CC3366FF3399003399333399663399993399CC3399FF33CC00
310
33CC3333CC6633CC9933CCCC33CCFF33FF0033FF3333FF6633FF9933FFCC33FFFF6600006600336600666600996600CC6600FF6633006633336633666633996633CC6633FF6666006666336666666666996666CC6666FF6699006699336699666699996699CC6699FF66CC0066CC3366CC6666CC9966CCCC66CCFF66FF0066
310
FF3366FF6666FF9966FFCC66FFFF9900009900339900669900999900CC9900FF9933009933339933669933999933CC9933FF9966009966339966669966999966CC9966FF9999009999339999669999999999CC9999FF99CC0099CC3399CC6699CC9999CCCC99CCFF99FF0099FF3399FF6699FF9999FFCC99FFFFCC0000CC00
310
33CC0066CC0099CC00CCCC00FFCC3300CC3333CC3366CC3399CC33CCCC33FFCC6600CC6633CC6666CC6699CC66CCCC66FFCC9900CC9933CC9966CC9999CC99CCCC99FFCCCC00CCCC33CCCC66CCCC99CCCCCCCCCCFFCCFF00CCFF33CCFF66CCFF99CCFFCCCCFFFFFF0000FF0033FF0066FF0099FF00CCFF00FFFF3300FF3333
310
FF3366FF3399FF33CCFF33FFFF6600FF6633FF6666FF6699FF66CCFF66FFFF9900FF9933FF9966FF9999FF99CCFF99FFFFCC00FFCC33FFCC66FFCC99FFCCCCFFCCFFFFFF00FFFF33FFFF66FFFF99FFFFCCFFFFFF0000000D0D0D1A1A1A2828283535354343435050505D5D5D6B6B6B787878868686939393A1A1A1AEAEAEBB
310
BBBBC9C9C9D6D6D6E4E4E4F1F1F1FFFFFF0000000000000000000000000000000000000000000000000000000000002E4550F10000003B4944415478DAEDC13101000000C2A0F54F6D0B2FA0000000000000000000000000000000000000000000000000000000000000000000000000CE06919100016C9A5B1B0000000049
310
454E44AE426082
  0
ENDSEC
  0
EOF
