  0
SECTION
  2
HEADER
  9
$ACADVER
  1
AC1009
  9
$INSBASE
 10
0.0
 20
0.0
 30
0.0
  9
$EXTMIN
 10
597.48267835527486
 20
-9781.1165398961493
 30
0.0
  9
$EXTMAX
 10
7461.4187169034612
 20
-7192.2418185092492
 30
0.0
  9
$LIMMIN
 10
0.0
 20
0.0
  9
$LIMMAX
 10
12.0
 20
9.0
  9
$ORTHOMODE
 70
     0
  9
$REGENMODE
 70
     1
  9
$FILLMODE
 70
     1
  9
$QTEXTMODE
 70
     0
  9
$MIRRTEXT
 70
     0
  9
$DRAGMODE
 70
     2
  9
$LTSCALE
 40
1.0
  9
$OSMODE
 70
    37
  9
$ATTMODE
 70
     1
  9
$TEXTSIZE
 40
0.2
  9
$TRACEWID
 40
0.05
  9
$TEXTSTYLE
  7
STANDARD
  9
$CLAYER
  8
0
  9
$CELTYPE
  6
BYLAYER
  9
$CECOLOR
 62
     7
  9
$DIMSCALE
 40
1.0
  9
$DIMASZ
 40
0.18
  9
$DIMEXO
 40
0.0625
  9
$DIMDLI
 40
0.38
  9
$DIMRND
 40
0.0
  9
$DIMDLE
 40
0.0
  9
$DIMEXE
 40
0.18
  9
$DIMTP
 40
0.0
  9
$DIMTM
 40
0.0
  9
$DIMTXT
 40
0.18
  9
$DIMCEN
 40
0.09
  9
$DIMTSZ
 40
0.0
  9
$DIMTOL
 70
     0
  9
$DIMLIM
 70
     0
  9
$DIMTIH
 70
     1
  9
$DIMTOH
 70
     1
  9
$DIMSE1
 70
     0
  9
$DIMSE2
 70
     0
  9
$DIMTAD
 70
     0
  9
$DIMZIN
 70
     0
  9
$DIMBLK
  1

  9
$DIMASO
 70
     1
  9
$DIMSHO
 70
     1
  9
$DIMPOST
  1

  9
$DIMAPOST
  1

  9
$DIMALT
 70
     0
  9
$DIMALTD
 70
     2
  9
$DIMALTF
 40
25.399999999999999
  9
$DIMLFAC
 40
1.0
  9
$DIMTOFL
 70
     0
  9
$DIMTVP
 40
0.0
  9
$DIMTIX
 70
     0
  9
$DIMSOXD
 70
     0
  9
$DIMSAH
 70
     0
  9
$DIMBLK1
  1

  9
$DIMBLK2
  1

  9
$DIMSTYLE
  2
STANDARD
  9
$DIMCLRD
 70
     0
  9
$DIMCLRE
 70
     0
  9
$DIMCLRT
 70
     0
  9
$DIMTFAC
 40
1.0
  9
$DIMGAP
 40
0.09
  9
$LUNITS
 70
     2
  9
$LUPREC
 70
     4
  9
$SKETCHINC
 40
0.1
  9
$FILLETRAD
 40
0.0
  9
$AUNITS
 70
     0
  9
$AUPREC
 70
     0
  9
$MENU
  1
.
  9
$ELEVATION
 40
0.0
  9
$PELEVATION
 40
0.0
  9
$THICKNESS
 40
0.0
  9
$LIMCHECK
 70
     0
  9
$BLIPMODE
 70
     0
  9
$CHAMFERA
 40
0.0
  9
$CHAMFERB
 40
0.0
  9
$SKPOLY
 70
     0
  9
$TDCREATE
 40
2457225.9629433681
  9
$TDUPDATE
 40
2457275.6386825349
  9
$TDINDWG
 40
16.5677258449
  9
$TDUSRTIMER
 40
16.567710625
  9
$USRTIMER
 70
     1
  9
$ANGBASE
 50
0.0
  9
$ANGDIR
 70
     0
  9
$PDMODE
 70
     0
  9
$PDSIZE
 40
0.0
  9
$PLINEWID
 40
0.0
  9
$COORDS
 70
     1
  9
$SPLFRAME
 70
     0
  9
$SPLINETYPE
 70
     6
  9
$SPLINESEGS
 70
     8
  9
$ATTDIA
 70
     0
  9
$ATTREQ
 70
     1
  9
$HANDLING
 70
     1
  9
$HANDSEED
  5
880
  9
$SURFTAB1
 70
     6
  9
$SURFTAB2
 70
     6
  9
$SURFTYPE
 70
     6
  9
$SURFU
 70
     6
  9
$SURFV
 70
     6
  9
$UCSNAME
  2

  9
$UCSORG
 10
0.0
 20
0.0
 30
0.0
  9
$UCSXDIR
 10
1.0
 20
0.0
 30
0.0
  9
$UCSYDIR
 10
0.0
 20
1.0
 30
0.0
  9
$PUCSNAME
  2

  9
$PUCSORG
 10
0.0
 20
0.0
 30
0.0
  9
$PUCSXDIR
 10
1.0
 20
0.0
 30
0.0
  9
$PUCSYDIR
 10
0.0
 20
1.0
 30
0.0
  9
$USERI1
 70
     0
  9
$USERI2
 70
     0
  9
$USERI3
 70
     0
  9
$USERI4
 70
     0
  9
$USERI5
 70
     0
  9
$USERR1
 40
0.0
  9
$USERR2
 40
0.0
  9
$USERR3
 40
0.0
  9
$USERR4
 40
0.0
  9
$USERR5
 40
0.0
  9
$WORLDVIEW
 70
     1
  9
$SHADEDGE
 70
     3
  9
$SHADEDIF
 70
    70
  9
$TILEMODE
 70
     1
  9
$MAXACTVP
 70
    64
  9
$PLIMCHECK
 70
     0
  9
$PEXTMIN
 10
0.0
 20
0.0
 30
0.0
  9
$PEXTMAX
 10
0.0
 20
0.0
 30
0.0
  9
$PLIMMIN
 10
0.0
 20
0.0
  9
$PLIMMAX
 10
12.0
 20
9.0
  9
$UNITMODE
 70
     0
  9
$VISRETAIN
 70
     1
  9
$PLINEGEN
 70
     0
  9
$PSLTSCALE
 70
     1
  0
ENDSEC
  0
SECTION
  2
TABLES
  0
TABLE
  2
VPORT
 70
     1
  0
VPORT
  2
*ACTIVE
 70
     0
 10
0.0
 20
0.0
 11
1.0
 21
1.0
 12
32.992365132437037
 22
-65.671950816439903
 13
0.0
 23
0.0
 14
0.5
 24
0.5
 15
0.5
 25
0.5
 16
-0.000000000001819
 26
0.0
 36
9354.8286394186762
 17
4152.5386761523378
 27
-8543.8055643585685
 37
432.5
 40
3158.123209506135
 41
2.290434782608695
 42
49.99999999999973
 43
0.0
 44
0.0
 50
0.0
 51
0.0
 71
     0
 72
  1000
 73
     1
 74
     3
 75
     0
 76
     1
 77
     0
 78
     0
  0
ENDTAB
  0
TABLE
  2
LTYPE
 70
     2
  0
LTYPE
  2
CONTINUOUS
 70
     0
  3
Solid line
 72
    65
 73
     0
 40
0.0
  0
LTYPE
  2
PHANTOM2
 70
     0
  3
Phantom (.5x) ___ _ _ ___ _ _ ___ _ _ ___ _ _
 72
    65
 73
     6
 40
1.25
 49
0.625
 49
-0.125
 49
0.125
 49
-0.125
 49
0.125
 49
-0.125
  0
ENDTAB
  0
TABLE
  2
LAYER
 70
     2
  0
LAYER
  2
0
 70
     0
 62
     7
  6
CONTINUOUS
  0
LAYER
  2
DEFPOINTS
 70
     0
 62
     7
  6
CONTINUOUS
  0
ENDTAB
  0
TABLE
  2
STYLE
 70
     2
  0
STYLE
  2
STANDARD
 70
     0
 40
0.0
 41
1.0
 50
0.0
 71
     0
 42
0.2
  3
txt
  4

  0
STYLE
  2
ANNOTATIVE
 70
     0
 40
0.0
 41
1.0
 50
0.0
 71
     0
 42
0.2
  3
txt
  4

  0
ENDTAB
  0
TABLE
  2
VIEW
 70
     0
  0
ENDTAB
  0
TABLE
  2
UCS
 70
     0
  0
ENDTAB
  0
TABLE
  2
APPID
 70
    10
  0
APPID
  2
ACAD
 70
     0
  0
APPID
  2
ACADANNOPO
 70
     0
  0
APPID
  2
ACADANNOTATIVE
 70
     0
  0
APPID
  2
ACAD_DSTYLE_DIMJAG
 70
     0
  0
APPID
  2
ACAD_DSTYLE_DIMTALN
 70
     0
  0
APPID
  2
ACAD_MLEADERVER
 70
     0
  0
APPID
  2
ACAD_NAV_VCDISPLAY
 70
     0
  0
APPID
  2
ACAD_EXEMPT_FROM_CAD_STANDARDS
 70
     0
  0
APPID
  2
ACAD_STEPID
 70
     0
  0
APPID
  2
ACADANNOMONITORALERTICONDI
 70
     0
  0
ENDTAB
  0
TABLE
  2
DIMSTYLE
 70
     2
  0
DIMSTYLE
  2
STANDARD
 70
     0
  3

  4

  5

  6

  7

 40
1.0
 41
0.18
 42
0.0625
 43
0.38
 44
0.18
 45
0.0
 46
0.0
 47
0.0
 48
0.0
140
0.18
141
0.09
142
0.0
143
25.399999999999999
144
1.0
145
0.0
146
1.0
147
0.09
 71
     0
 72
     0
 73
     1
 74
     1
 75
     0
 76
     0
 77
     0
 78
     0
170
     0
171
     2
172
     0
173
     0
174
     0
175
     0
176
     0
177
     0
178
     0
  0
DIMSTYLE
  2
ANNOTATIVE
 70
     0
  3

  4

  5

  6

  7

 40
0.0
 41
0.18
 42
0.0625
 43
0.38
 44
0.18
 45
0.0
 46
0.0
 47
0.0
 48
0.0
140
0.18
141
0.09
142
0.0
143
25.399999999999999
144
1.0
145
0.0
146
1.0
147
0.09
 71
     0
 72
     0
 73
     1
 74
     1
 75
     0
 76
     0
 77
     0
 78
     0
170
     0
171
     2
172
     0
173
     0
174
     0
175
     0
176
     0
177
     0
178
     0
  0
ENDTAB
  0
ENDSEC
  0
SECTION
  2
BLOCKS
  0
BLOCK
  8
0
  2
$MODEL_SPACE
 70
     0
 10
0.0
 20
0.0
 30
0.0
  3
$MODEL_SPACE
  1

  0
ENDBLK
  5
21
  8
0
  0
BLOCK
 67
     1
  8
0
  2
$PAPER_SPACE
 70
     0
 10
0.0
 20
0.0
 30
0.0
  3
$PAPER_SPACE
  1

  0
ENDBLK
  5
5B
 67
     1
  8
0
  0
BLOCK
  8
0
 62
     5
  2
*D1
 70
     1
 10
0.0
 20
0.0
 30
0.0
  3
*D1
  1

  0
LINE
  5
81A
  8
0
 62
     0
 10
3124.4135891695942
 20
-7397.6997181764737
 30
0.0
 11
2978.3946693593139
 21
-7397.6997181764737
 31
0.0
  0
LINE
  5
81B
  8
0
 62
     0
 10
3124.4135891695942
 20
-8262.6997181764764
 30
0.0
 11
2978.3946693593139
 21
-8262.6997181764764
 31
0.0
  0
LINE
  5
81C
  8
0
 62
     0
 10
2978.5746693593128
 20
-7397.6997181764737
 30
0.0
 11
2978.5746693593128
 21
-7791.8167440973493
 31
0.0
  0
LINE
  5
81D
  8
0
 62
     0
 10
2978.5746693593128
 20
-8262.6997181764764
 30
0.0
 11
2978.5746693593128
 21
-7868.5826922556034
 31
0.0
  0
INSERT
  5
81E
  8
0
 62
     0
  2
_ARCHTICK
 10
2978.5746693593128
 20
-7397.6997181764737
 30
0.0
 41
25.0
 42
25.0
 43
25.0
 50
90.0
  0
INSERT
  5
81F
  8
0
 62
     0
  2
_ARCHTICK
 10
2978.5746693593128
 20
-8262.6997181764764
 30
0.0
 41
25.0
 42
25.0
 43
25.0
 50
270.0
  0
TEXT
  8
0
  40
75
  5
877
  62
0
  72
0
  71
0
 10
2828.57
 20
-7962.95
 30
0.000000
  1
865mm
  0
POINT
  5
821
  8
DEFPOINTS
 62
     0
 10
3124.4760891695942
 20
-7397.6997181764737
 30
0.0
  0
POINT
  5
822
  8
DEFPOINTS
 62
     0
 10
3124.4760891695942
 20
-8262.6997181764764
 30
0.0
  0
POINT
  5
823
  8
DEFPOINTS
 62
     0
 10
2978.5746693593128
 20
-8262.6997181764764
 30
0.0
  0
ENDBLK
  5
3D6
  8
0
 62
     5
  0
BLOCK
  8
0
 62
     7
  2
_ARCHTICK
 70
     0
 10
0.0
 20
0.0
 30
0.0
  3
_ARCHTICK
  1

  0
POLYLINE
  5
460
  8
0
  6
BYBLOCK
 62
     0
 66
     1
 10
0.0
 20
0.0
 30
0.0
 40
0.15
 41
0.15
  0
VERTEX
  5
824
  8
0
  6
BYBLOCK
 62
     0
 10
-0.5
 20
-0.5
 30
0.0
  0
VERTEX
  5
825
  8
0
  6
BYBLOCK
 62
     0
 10
0.5
 20
0.5
 30
0.0
  0
SEQEND
  5
826
  8
0
  6
BYBLOCK
 62
     0
  0
ENDBLK
  5
462
  8
0
 62
     7
  0
BLOCK
  8
0
 62
     7
  2
*D3
 70
     1
 10
0.0
 20
0.0
 30
0.0
  3
*D3
  1

  0
LINE
  5
827
  8
0
 62
     0
 10
3124.4135891695942
 20
-8262.7622181764746
 30
0.0
 11
3124.4135891695942
 21
-8417.3654954547928
 31
0.0
  0
LINE
  5
828
  8
0
 62
     0
 10
4524.4760891695942
 20
-8262.7622181764746
 30
0.0
 11
4524.4760891695942
 21
-8417.3654954547928
 31
0.0
  0
LINE
  5
829
  8
0
 62
     0
 10
3124.4135891695942
 20
-8417.1854954547925
 30
0.0
 11
3629.6157532214361
 21
-8417.1854954547925
 31
0.0
  0
LINE
  5
82A
  8
0
 62
     0
 10
4524.4760891695942
 20
-8417.1854954547925
 30
0.0
 11
4019.2739251177518
 21
-8417.1854954547925
 31
0.0
  0
INSERT
  5
82B
  8
0
 62
     0
  2
_ARCHTICK
 10
3124.4135891695942
 20
-8417.1854954547925
 30
0.0
 41
25.0
 42
25.0
 43
25.0
 50
180.0
  0
INSERT
  5
82C
  8
0
 62
     0
  2
_ARCHTICK
 10
4524.4760891695942
 20
-8417.1854954547925
 30
0.0
 41
25.0
 42
25.0
 43
25.0
  0
TEXT
  8
0
  40
75
  5
878
  62
0
  72
0
  71
0
 10
3674.44
 20
-8549.94
 30
0.000000
  1
1400mm
  0
POINT
  5
82E
  8
DEFPOINTS
 62
     0
 10
3124.4135891695942
 20
-8262.6997181764764
 30
0.0
  0
POINT
  5
82F
  8
DEFPOINTS
 62
     0
 10
4524.4760891695942
 20
-8262.6997181764764
 30
0.0
  0
POINT
  5
830
  8
DEFPOINTS
 62
     0
 10
4524.4760891695942
 20
-8417.1854954547925
 30
0.0
  0
ENDBLK
  5
54E
  8
0
 62
     7
  0
BLOCK
  8
0
 62
     7
  2
*D4
 70
     1
 10
0.0
 20
0.0
 30
0.0
  3
*D4
  1

  0
LINE
  5
831
  8
0
 62
     0
 10
7052.1211927329896
 20
-8262.7622181764746
 30
0.0
 11
7052.1211927329896
 21
-8417.3954954547953
 31
0.0
  0
LINE
  5
832
  8
0
 62
     0
 10
5252.1211927329887
 20
-8262.7622181764746
 30
0.0
 11
5252.1211927329887
 21
-8417.3954954547953
 31
0.0
  0
LINE
  5
833
  8
0
 62
     0
 10
7052.1211927329896
 20
-8417.215495454795
 30
0.0
 11
6346.9502786811481
 21
-8417.215495454795
 31
0.0
  0
LINE
  5
834
  8
0
 62
     0
 10
5252.1211927329887
 20
-8417.215495454795
 30
0.0
 11
5957.292106784831
 21
-8417.215495454795
 31
0.0
  0
INSERT
  5
835
  8
0
 62
     0
  2
_ARCHTICK
 10
7052.1211927329896
 20
-8417.215495454795
 30
0.0
 41
25.0
 42
25.0
 43
25.0
  0
INSERT
  5
836
  8
0
 62
     0
  2
_ARCHTICK
 10
5252.1211927329887
 20
-8417.215495454795
 30
0.0
 41
25.0
 42
25.0
 43
25.0
 50
180.0
  0
TEXT
  8
0
  40
75
  5
879
  62
0
  72
0
  71
0
 10
6002.12
 20
-8549.97
 30
0.000000
  1
1800mm
  0
POINT
  5
838
  8
DEFPOINTS
 62
     0
 10
7052.1211927329896
 20
-8262.6997181764764
 30
0.0
  0
POINT
  5
839
  8
DEFPOINTS
 62
     0
 10
5252.1211927329887
 20
-8262.6997181764764
 30
0.0
  0
POINT
  5
83A
  8
DEFPOINTS
 62
     0
 10
5252.1211927329887
 20
-8417.215495454795
 30
0.0
  0
ENDBLK
  5
568
  8
0
 62
     7
  0
BLOCK
  8
0
 62
     7
  2
*D5
 70
     1
 10
0.0
 20
0.0
 30
0.0
  3
*D5
  1

  0
LINE
  5
83B
  8
0
 62
     0
 10
6602.1211927329896
 20
-7817.6372181764746
 30
0.0
 11
6602.1211927329896
 21
-7687.0814957766179
 31
0.0
  0
LINE
  5
83C
  8
0
 62
     0
 10
5252.1211927329887
 20
-7817.6372181764746
 30
0.0
 11
5252.1211927329887
 21
-7687.0814957766179
 31
0.0
  0
LINE
  5
83D
  8
0
 62
     0
 10
6602.1211927329896
 20
-7687.2614957766191
 30
0.0
 11
6121.9502786811481
 21
-7687.2614957766191
 31
0.0
  0
LINE
  5
83E
  8
0
 62
     0
 10
5252.1211927329887
 20
-7687.2614957766191
 30
0.0
 11
5732.292106784831
 21
-7687.2614957766191
 31
0.0
  0
INSERT
  5
83F
  8
0
 62
     0
  2
_ARCHTICK
 10
6602.1211927329896
 20
-7687.2614957766191
 30
0.0
 41
25.0
 42
25.0
 43
25.0
  0
INSERT
  5
840
  8
0
 62
     0
  2
_ARCHTICK
 10
5252.1211927329887
 20
-7687.2614957766191
 30
0.0
 41
25.0
 42
25.0
 43
25.0
 50
180.0
  0
TEXT
  8
0
  40
75
  5
87A
  62
0
  72
0
  71
0
 10
5777.12
 20
-7820.01
 30
0.000000
  1
1350mm
  0
POINT
  5
842
  8
DEFPOINTS
 62
     0
 10
6602.1211927329896
 20
-7817.6997181764737
 30
0.0
  0
POINT
  5
843
  8
DEFPOINTS
 62
     0
 10
5252.1211927329887
 20
-7817.6997181764737
 30
0.0
  0
POINT
  5
844
  8
DEFPOINTS
 62
     0
 10
5252.1211927329887
 20
-7687.2614957766191
 30
0.0
  0
ENDBLK
  5
582
  8
0
 62
     7
  0
BLOCK
  8
0
 62
     7
  2
*D6
 70
     1
 10
0.0
 20
0.0
 30
0.0
  3
*D6
  1

  0
LINE
  5
845
  8
0
 62
     0
 10
6602.1211927329896
 20
-7397.6372181764764
 30
0.0
 11
6602.1211927329896
 21
-7250.0512455215267
 31
0.0
  0
LINE
  5
846
  8
0
 62
     0
 10
7052.1211927329896
 20
-7397.6372181764737
 30
0.0
 11
7052.1211927329896
 21
-7250.0512455215267
 31
0.0
  0
LINE
  5
847
  8
0
 62
     0
 10
6602.1211927329896
 20
-7250.2312455215269
 30
0.0
 11
6656.388286866686
 21
-7250.2312455215269
 31
0.0
  0
LINE
  5
848
  8
0
 62
     0
 10
7052.1211927329896
 20
-7250.2312455215269
 30
0.0
 11
6997.8540985992922
 21
-7250.2312455215269
 31
0.0
  0
INSERT
  5
849
  8
0
 62
     0
  2
_ARCHTICK
 10
6602.1211927329896
 20
-7250.2312455215269
 30
0.0
 41
25.0
 42
25.0
 43
25.0
 50
180.0
  0
INSERT
  5
84A
  8
0
 62
     0
  2
_ARCHTICK
 10
7052.1211927329896
 20
-7250.2312455215269
 30
0.0
 41
25.0
 42
25.0
 43
25.0
  0
TEXT
  8
0
  40
75
  5
87B
  62
0
  72
0
  71
0
 10
6677.12
 20
-7382.98
 30
0.000000
  1
450mm
  0
POINT
  5
84C
  8
DEFPOINTS
 62
     0
 10
6602.1211927329896
 20
-7397.6997181764746
 30
0.0
  0
POINT
  5
84D
  8
DEFPOINTS
 62
     0
 10
7052.1211927329896
 20
-7397.6997181764737
 30
0.0
  0
POINT
  5
84E
  8
DEFPOINTS
 62
     0
 10
7052.1211927329896
 20
-7250.2312455215269
 30
0.0
  0
ENDBLK
  5
59C
  8
0
 62
     7
  0
BLOCK
  8
0
 62
     7
  2
*D7
 70
     1
 10
0.0
 20
0.0
 30
0.0
  3
*D7
  1

  0
LINE
  5
84F
  8
0
 62
     0
 10
3724.4760891695951
 20
-7817.6372181764746
 30
0.0
 11
3724.4760891695951
 21
-7687.0814957766179
 31
0.0
  0
LINE
  5
850
  8
0
 62
     0
 10
4524.4760891695942
 20
-7817.6372181764746
 30
0.0
 11
4524.4760891695942
 21
-7687.0814957766179
 31
0.0
  0
LINE
  5
851
  8
0
 62
     0
 10
3724.4760891695951
 20
-7687.2614957766191
 30
0.0
 11
3955.2012324165262
 21
-7687.2614957766191
 31
0.0
  0
LINE
  5
852
  8
0
 62
     0
 10
4524.4760891695942
 20
-7687.2614957766191
 30
0.0
 11
4293.750945922664
 21
-7687.2614957766191
 31
0.0
  0
INSERT
  5
853
  8
0
 62
     0
  2
_ARCHTICK
 10
3724.4760891695951
 20
-7687.2614957766191
 30
0.0
 41
25.0
 42
25.0
 43
25.0
 50
180.0
  0
INSERT
  5
854
  8
0
 62
     0
  2
_ARCHTICK
 10
4524.4760891695942
 20
-7687.2614957766191
 30
0.0
 41
25.0
 42
25.0
 43
25.0
  0
TEXT
  8
0
  40
75
  5
87C
  62
0
  72
0
  71
0
 10
3974.48
 20
-7820.01
 30
0.000000
  1
800mm
  0
POINT
  5
856
  8
DEFPOINTS
 62
     0
 10
3724.4760891695951
 20
-7817.6997181764737
 30
0.0
  0
POINT
  5
857
  8
DEFPOINTS
 62
     0
 10
4524.4760891695942
 20
-7817.6997181764737
 30
0.0
  0
POINT
  5
858
  8
DEFPOINTS
 62
     0
 10
4524.4760891695942
 20
-7687.2614957766191
 30
0.0
  0
ENDBLK
  5
5B6
  8
0
 62
     7
  0
BLOCK
  8
0
 62
     7
  2
*D8
 70
     1
 10
0.0
 20
0.0
 30
0.0
  3
*D8
  1

  0
LINE
  5
859
  8
0
 62
     0
 10
3124.4760891695942
 20
-7397.6372181764737
 30
0.0
 11
3124.4760891695942
 21
-7250.0812455215273
 31
0.0
  0
LINE
  5
85A
  8
0
 62
     0
 10
3724.4760891695951
 20
-7397.6372181764737
 30
0.0
 11
3724.4760891695951
 21
-7250.0812455215273
 31
0.0
  0
LINE
  5
85B
  8
0
 62
     0
 10
3124.4760891695942
 20
-7250.2612455215267
 30
0.0
 11
3255.0477535625
 21
-7250.2612455215267
 31
0.0
  0
LINE
  5
85C
  8
0
 62
     0
 10
3724.4760891695951
 20
-7250.2612455215267
 30
0.0
 11
3593.9044247766892
 21
-7250.2612455215267
 31
0.0
  0
INSERT
  5
85D
  8
0
 62
     0
  2
_ARCHTICK
 10
3124.4760891695942
 20
-7250.2612455215267
 30
0.0
 41
25.0
 42
25.0
 43
25.0
 50
180.0
  0
INSERT
  5
85E
  8
0
 62
     0
  2
_ARCHTICK
 10
3724.4760891695951
 20
-7250.2612455215267
 30
0.0
 41
25.0
 42
25.0
 43
25.0
  0
TEXT
  8
0
  40
75
  5
87D
  62
0
  72
0
  71
0
 10
3274.48
 20
-7383.01
 30
0.000000
  1
600mm
  0
POINT
  5
860
  8
DEFPOINTS
 62
     0
 10
3124.4760891695942
 20
-7397.6997181764737
 30
0.0
  0
POINT
  5
861
  8
DEFPOINTS
 62
     0
 10
3724.4760891695951
 20
-7397.6997181764737
 30
0.0
  0
POINT
  5
862
  8
DEFPOINTS
 62
     0
 10
3724.4760891695951
 20
-7250.2612455215267
 30
0.0
  0
ENDBLK
  5
5D0
  8
0
 62
     7
  0
BLOCK
  8
0
 62
     7
  2
*D9
 70
     1
 10
0.0
 20
0.0
 30
0.0
  3
*D9
  1

  0
LINE
  5
863
  8
0
 62
     0
 10
4524.5385891695933
 20
-9322.290714681425
 30
0.0
 11
4753.5019339747041
 21
-9322.290714681425
 31
0.0
  0
LINE
  5
864
  8
0
 62
     0
 10
4524.5385891695933
 20
-9767.2907146814268
 30
0.0
 11
4753.5019339747041
 21
-9767.2907146814268
 31
0.0
  0
LINE
  5
865
  8
0
 62
     0
 10
4753.3219339747038
 20
-9322.290714681425
 30
0.0
 11
4753.3219339747038
 21
-9506.5612194563219
 31
0.0
  0
LINE
  5
866
  8
0
 62
     0
 10
4753.3219339747038
 20
-9767.2907146814268
 30
0.0
 11
4753.3219339747038
 21
-9583.0202099065282
 31
0.0
  0
INSERT
  5
867
  8
0
 62
     0
  2
_ARCHTICK
 10
4753.3219339747038
 20
-9322.290714681425
 30
0.0
 41
25.0
 42
25.0
 43
25.0
 50
90.0
  0
INSERT
  5
868
  8
0
 62
     0
  2
_ARCHTICK
 10
4753.3219339747038
 20
-9767.2907146814268
 30
0.0
 41
25.0
 42
25.0
 43
25.0
 50
270.0
  0
TEXT
  8
0
  40
75
  5
87E
  62
0
  72
0
  71
0
 10
4603.32
 20
-9677.54
 30
0.000000
  1
445mm
  0
POINT
  5
86A
  8
DEFPOINTS
 62
     0
 10
4524.4760891695933
 20
-9322.290714681425
 30
0.0
  0
POINT
  5
86B
  8
DEFPOINTS
 62
     0
 10
4524.4760891695933
 20
-9767.2907146814268
 30
0.0
  0
POINT
  5
86C
  8
DEFPOINTS
 62
     0
 10
4753.3219339747038
 20
-9767.2907146814268
 30
0.0
  0
ENDBLK
  5
69E
  8
0
 62
     7
  0
BLOCK
  8
0
 62
     7
  2
*D10
 70
     1
 10
0.0
 20
0.0
 30
0.0
  3
*D10
  1

  0
LINE
  5
86D
  8
0
 62
     0
 10
7052.1836927329896
 20
-8902.290714681425
 30
0.0
 11
7285.660790573309
 21
-8902.290714681425
 31
0.0
  0
LINE
  5
86E
  8
0
 62
     0
 10
7052.1836927329896
 20
-9767.2907146814268
 30
0.0
 11
7285.660790573309
 21
-9767.2907146814268
 31
0.0
  0
LINE
  5
86F
  8
0
 62
     0
 10
7285.4807905733087
 20
-8902.290714681425
 30
0.0
 11
7285.4807905733087
 21
-9296.4077406022989
 31
0.0
  0
LINE
  5
870
  8
0
 62
     0
 10
7285.4807905733087
 20
-9767.2907146814268
 30
0.0
 11
7285.4807905733087
 21
-9373.1736887605493
 31
0.0
  0
INSERT
  5
871
  8
0
 62
     0
  2
_ARCHTICK
 10
7285.4807905733087
 20
-8902.290714681425
 30
0.0
 41
25.0
 42
25.0
 43
25.0
 50
90.0
  0
INSERT
  5
872
  8
0
 62
     0
  2
_ARCHTICK
 10
7285.4807905733087
 20
-9767.2907146814268
 30
0.0
 41
25.0
 42
25.0
 43
25.0
 50
270.0
  0
TEXT
  8
0
  40
75
  5
87F
  62
0
  72
0
  71
0
 10
7135.48
 20
-9467.54
 30
0.000000
  1
865mm
  0
POINT
  5
874
  8
DEFPOINTS
 62
     0
 10
7052.1211927329896
 20
-8902.290714681425
 30
0.0
  0
POINT
  5
875
  8
DEFPOINTS
 62
     0
 10
7052.1211927329896
 20
-9767.2907146814268
 30
0.0
  0
POINT
  5
876
  8
DEFPOINTS
 62
     0
 10
7285.4807905733087
 20
-9767.2907146814268
 30
0.0
  0
ENDBLK
  5
6B8
  8
0
 62
     7
  0
ENDSEC
  0
SECTION
  2
ENTITIES
  0
POLYLINE
  5
27A
  8
0
 62
     5
 66
     1
 10
0.0
 20
0.0
 30
0.0
  0
VERTEX
  5
813
  8
0
 62
     5
 10
2398.4826783552749
 20
-9666.4369750372571
 30
0.0
  0
VERTEX
  5
814
  8
0
 62
     5
 10
2067.4826783552749
 20
-9666.4369750372571
 30
0.0
  0
VERTEX
  5
815
  8
0
 62
     5
 10
2067.4826783552749
 20
-8866.4369750372589
 30
0.0
  0
VERTEX
  5
816
  8
0
 62
     5
 10
717.48267835527577
 20
-8866.4369750372589
 30
0.0
  0
VERTEX
  5
817
  8
0
 62
     5
 10
717.4826783552752
 20
-8410.4369750372553
 30
0.0
  0
VERTEX
  5
818
  8
0
 62
     5
 10
2398.4826783552749
 20
-8410.4369750372553
 30
0.0
  0
SEQEND
  5
819
  8
0
 62
     5
  0
LINE
  5
27B
  8
0
 62
     5
 10
2398.4826783552749
 20
-8410.4369750372553
 30
0.0
 11
2398.4826783552749
 21
-9666.4369750372571
 31
0.0
  0
LINE
  5
27C
  8
0
 62
     1
 10
2020.4826783552751
 20
-8913.4369750372571
 30
0.0
 11
2067.4826783552749
 21
-8913.4369750372571
 31
0.0
  0
LINE
  5
27D
  8
0
 62
     5
 10
717.48267835527577
 20
-8866.4369750372589
 30
0.0
 11
670.48267835527531
 21
-8866.4369750372589
 31
0.0
  0
LINE
  5
27E
  8
0
 62
     5
 10
717.4826783552752
 20
-8410.4369750372553
 30
0.0
 11
670.48267835527531
 21
-8410.4369750372553
 31
0.0
  0
LINE
  5
27F
  8
0
 62
     5
 10
2398.4826783552749
 20
-8410.4369750372553
 30
0.0
 11
2445.4826783552762
 21
-8410.4369750372553
 31
0.0
  0
LINE
  5
280
  8
0
 62
     5
 10
2067.4826783552749
 20
-9666.4369750372571
 30
0.0
 11
2020.4826783552751
 21
-9666.4369750372571
 31
0.0
  0
LINE
  5
281
  8
0
 62
     5
 10
2398.4826783552749
 20
-9666.4369750372571
 30
0.0
 11
2445.4826783552762
 21
-9666.4369750372571
 31
0.0
  0
LINE
  5
284
  8
0
 10
670.48267835527531
 20
-8363.4369750372589
 30
0.0
 11
670.48267835527531
 21
-8363.4369750372589
 31
0.0
  0
LINE
  5
285
  8
0
 62
     1
 10
670.48267835527531
 20
-8363.4369750372589
 30
0.0
 11
645.48267835527531
 21
-8363.4369750372589
 31
0.0
  0
LINE
  5
286
  8
0
 62
     1
 10
670.48267835527531
 20
-8913.4369750372571
 30
0.0
 11
645.48267835527531
 21
-8913.4369750372571
 31
0.0
  0
LINE
  5
28B
  8
0
 62
     5
 10
2067.4826783552749
 20
-8866.4369750372589
 30
0.0
 11
2067.4826783552749
 21
-8363.4369750372589
 31
0.0
  0
LINE
  5
28C
  8
0
 62
     5
 10
2020.4826783552751
 20
-8913.4369750372571
 30
0.0
 11
2020.4826783552751
 21
-8363.4369750372589
 31
0.0
  0
LINE
  5
291
  8
0
 62
     5
 10
1123.9826783552751
 20
-8363.4369750372589
 30
0.0
 11
1123.9826783552751
 21
-8913.4369750372571
 31
0.0
  0
LINE
  5
292
  8
0
 62
     5
 10
1170.982678355276
 20
-8363.4369750372589
 30
0.0
 11
1170.982678355276
 21
-8913.4369750372571
 31
0.0
  0
LINE
  5
293
  8
0
 62
     5
 10
1553.9826783552751
 20
-8363.4369750372589
 30
0.0
 11
1553.9826783552751
 21
-8913.4369750372571
 31
0.0
  0
LINE
  5
294
  8
0
 62
     5
 10
1600.9826783552751
 20
-8363.4369750372589
 30
0.0
 11
1600.9826783552751
 21
-8913.4369750372571
 31
0.0
  0
LINE
  5
295
  8
0
 62
     5
 10
717.4826783552752
 20
-8363.4369750372589
 30
0.0
 11
717.4826783552752
 21
-8913.4369750372571
 31
0.0
  0
LINE
  5
296
  8
0
 62
     5
 10
2067.4826783552749
 20
-9666.4369750372571
 30
0.0
 11
2067.4826783552749
 21
-9713.4369750372571
 31
0.0
  0
LINE
  5
297
  8
0
 62
     5
 10
2398.4826783552749
 20
-9666.4369750372571
 30
0.0
 11
2398.4826783552749
 21
-9713.4369750372571
 31
0.0
  0
LINE
  5
298
  8
0
 62
     5
 10
2398.4826783552749
 20
-8410.4369750372553
 30
0.0
 11
2398.4826783552749
 21
-8363.4369750372589
 31
0.0
  0
LINE
  5
299
  8
0
 62
     1
 10
1995.4826783552751
 20
-8913.4369750372571
 30
0.0
 11
1995.4826783552751
 21
-8363.4369750372589
 31
0.0
  0
LINE
  5
2A0
  8
0
 62
     5
 10
2067.4826783552749
 20
-8866.4369750372589
 30
0.0
 11
2445.4826783552762
 21
-8866.4369750372589
 31
0.0
  0
LINE
  5
2A1
  8
0
 62
     1
 10
2067.4826783552749
 20
-8913.4369750372571
 30
0.0
 11
2445.4826783552762
 21
-8913.4369750372571
 31
0.0
  0
LINE
  5
2A4
  8
0
 62
     5
 10
2067.4826783552749
 20
-9266.4369750372553
 30
0.0
 11
2020.4826783552751
 21
-9266.4369750372553
 31
0.0
  0
LINE
  5
2A5
  8
0
 62
     5
 10
2067.4826783552749
 20
-9313.4369750372571
 30
0.0
 11
2020.4826783552751
 21
-9313.4369750372571
 31
0.0
  0
LINE
  5
2A6
  8
0
 62
     5
 10
2398.4826783552749
 20
-9266.4369750372553
 30
0.0
 11
2445.4826783552762
 21
-9266.4369750372553
 31
0.0
  0
LINE
  5
2A7
  8
0
 62
     5
 10
2398.4826783552749
 20
-9313.4369750372571
 30
0.0
 11
2445.4826783552762
 21
-9313.4369750372571
 31
0.0
  0
LINE
  5
2A8
  8
0
 62
     1
 10
2445.4826783552762
 20
-9713.4369750372571
 30
0.0
 11
2020.4826783552751
 21
-9713.4369750372571
 31
0.0
  0
LINE
  5
2A9
  8
0
 62
     1
 10
2020.4826783552751
 20
-9713.4369750372571
 30
0.0
 11
2020.4826783552751
 21
-8938.4369750372571
 31
0.0
  0
LINE
  5
2AA
  8
0
 62
     1
 10
2067.4826783552749
 20
-8913.4369750372571
 30
0.0
 11
670.48267835527531
 21
-8913.4369750372571
 31
0.0
  0
LINE
  5
2AB
  8
0
 62
     1
 10
670.48267835527531
 20
-8913.4369750372571
 30
0.0
 11
670.48267835527531
 21
-8363.4369750372589
 31
0.0
  0
LINE
  5
2AC
  8
0
 62
     1
 10
670.48267835527531
 20
-8363.4369750372589
 30
0.0
 11
2445.4826783552762
 21
-8363.4369750372589
 31
0.0
  0
LINE
  5
2C1
  8
0
 62
     1
 10
2445.4826783552762
 20
-9738.4369750372589
 30
0.0
 11
1995.4826783552751
 21
-9738.4369750372589
 31
0.0
  0
LINE
  5
2C2
  8
0
 62
     1
 10
1995.4826783552751
 20
-9738.4369750372589
 30
0.0
 11
1995.4826783552751
 21
-8938.4369750372571
 31
0.0
  0
LINE
  5
2C3
  8
0
 62
     1
 10
2067.4826783552749
 20
-8938.4369750372571
 30
0.0
 11
645.48267835527531
 21
-8938.4369750372571
 31
0.0
  0
LINE
  5
2C4
  8
0
 62
     1
 10
645.48267835527531
 20
-8938.4369750372571
 30
0.0
 11
645.48267835527531
 21
-8338.4369750372571
 31
0.0
  0
LINE
  5
2C5
  8
0
 62
     1
 10
645.48267835527531
 20
-8338.4369750372571
 30
0.0
 11
2445.4826783552762
 21
-8338.4369750372571
 31
0.0
  0
LINE
  5
2C6
  8
0
 62
     5
 10
3124.4760891695951
 20
-8262.6997181764764
 30
0.0
 11
4524.4760891695942
 21
-8262.6997181764764
 31
0.0
  0
LINE
  5
2C7
  8
0
 62
     1
 10
4524.4760891695942
 20
-8262.6997181764764
 30
0.0
 11
4524.4760891695942
 21
-7817.6997181764737
 31
0.0
  0
LINE
  5
2C8
  8
0
 62
     1
 10
4524.4760891695942
 20
-7817.6997181764737
 30
0.0
 11
3724.4760891695951
 21
-7817.6997181764737
 31
0.0
  0
LINE
  5
2C9
  8
0
 62
     1
 10
3124.4760891695942
 20
-7817.6997181764737
 30
0.0
 11
3124.4760891695951
 21
-8262.6997181764764
 31
0.0
  0
LINE
  5
2CA
  8
0
 62
     5
 10
3124.4760891695951
 20
-8262.6997181764764
 30
0.0
 11
3724.4760891695951
 21
-8262.6997181764764
 31
0.0
  0
LINE
  5
2CC
  8
0
 62
     1
 10
3724.4760891695951
 20
-7397.6997181764737
 30
0.0
 11
3124.4760891695942
 21
-7397.6997181764737
 31
0.0
  0
LINE
  5
2CD
  8
0
 62
     1
 10
3124.4760891695942
 20
-7397.6997181764737
 30
0.0
 11
3124.4760891695942
 21
-7817.6997181764737
 31
0.0
  0
LINE
  5
2CE
  8
0
 62
     5
 10
5252.1211927329887
 20
-8262.6997181764764
 30
0.0
 11
7052.1211927329896
 21
-8262.6997181764764
 31
0.0
  0
LINE
  5
2CF
  8
0
 62
     1
 10
7052.1211927329896
 20
-8262.6997181764764
 30
0.0
 11
7052.1211927329896
 21
-7817.6997181764737
 31
0.0
  0
LINE
  5
2D0
  8
0
 62
     1
 10
6602.1211927329896
 20
-7817.6997181764737
 30
0.0
 11
5252.1211927329887
 21
-7817.6997181764737
 31
0.0
  0
LINE
  5
2D1
  8
0
 62
     1
 10
5252.1211927329887
 20
-7817.6997181764737
 30
0.0
 11
5252.1211927329887
 21
-8262.6997181764764
 31
0.0
  0
LINE
  5
2D2
  8
0
 62
     5
 10
7052.1211927329896
 20
-8262.6997181764764
 30
0.0
 11
6602.1211927329896
 21
-8262.6997181764764
 31
0.0
  0
LINE
  5
2D3
  8
0
 62
     1
 10
6602.1211927329896
 20
-8262.6997181764764
 30
0.0
 11
6602.1211927329896
 21
-7817.6997181764737
 31
0.0
  0
LINE
  5
2D5
  8
0
 62
     1
 10
7052.1211927329896
 20
-7817.6997181764737
 30
0.0
 11
7052.1211927329896
 21
-8262.6997181764764
 31
0.0
  0
LINE
  5
2D6
  8
0
 62
     1
 10
7052.1211927329896
 20
-8262.6997181764764
 30
0.0
 11
7052.1211927329896
 21
-7397.6997181764737
 31
0.0
  0
LINE
  5
2D7
  8
0
 62
     1
 10
7052.1211927329896
 20
-7397.6997181764737
 30
0.0
 11
6912.1211927329887
 21
-7397.6997181764737
 31
0.0
  0
LINE
  5
2D8
  8
0
 62
     1
 10
6602.1211927329896
 20
-7397.6997181764746
 30
0.0
 11
6602.1211927329896
 21
-7817.6997181764737
 31
0.0
  0
LINE
  5
2D9
  8
0
 10
3124.4760891695942
 20
-9767.2907146814268
 30
0.0
 11
4524.4760891695933
 21
-9767.2907146814268
 31
0.0
  0
LINE
  5
2DA
  8
0
 10
4524.4760891695933
 20
-9767.2907146814268
 30
0.0
 11
4524.4760891695933
 21
-9322.290714681425
 31
0.0
  0
LINE
  5
2DB
  8
0
 10
4524.4760891695933
 20
-9322.290714681425
 30
0.0
 11
3124.4760891695942
 21
-9322.290714681425
 31
0.0
  0
LINE
  5
2DC
  8
0
 10
3124.4760891695942
 20
-9322.290714681425
 30
0.0
 11
3124.4760891695942
 21
-9767.2907146814268
 31
0.0
  0
LINE
  5
2DD
  8
0
 10
3124.4760891695942
 20
-9767.2907146814268
 30
0.0
 11
3724.4760891695942
 21
-9767.2907146814268
 31
0.0
  0
LINE
  5
2DE
  8
0
 10
3724.4760891695942
 20
-9767.2907146814268
 30
0.0
 11
3724.4760891695942
 21
-8902.290714681425
 31
0.0
  0
LINE
  5
2DF
  8
0
 10
3724.4760891695942
 20
-8902.290714681425
 30
0.0
 11
3124.4760891695928
 21
-8902.290714681425
 31
0.0
  0
LINE
  5
2E0
  8
0
 10
3124.4760891695928
 20
-8902.290714681425
 30
0.0
 11
3124.4760891695942
 21
-9322.290714681425
 31
0.0
  0
LINE
  5
2E1
  8
0
 10
5252.1211927329887
 20
-9767.2907146814268
 30
0.0
 11
7052.1211927329896
 21
-9767.2907146814268
 31
0.0
  0
LINE
  5
2E2
  8
0
 10
7052.1211927329896
 20
-9767.2907146814268
 30
0.0
 11
7052.1211927329896
 21
-9322.290714681425
 31
0.0
  0
LINE
  5
2E3
  8
0
 10
7052.1211927329896
 20
-9322.290714681425
 30
0.0
 11
5252.1211927329887
 21
-9322.290714681425
 31
0.0
  0
LINE
  5
2E4
  8
0
 10
5252.1211927329887
 20
-9322.290714681425
 30
0.0
 11
5252.1211927329887
 21
-9767.2907146814268
 31
0.0
  0
LINE
  5
2E5
  8
0
 10
7052.1211927329896
 20
-9767.2907146814268
 30
0.0
 11
6602.1211927329896
 21
-9767.2907146814268
 31
0.0
  0
LINE
  5
2E6
  8
0
 10
6602.1211927329896
 20
-9767.2907146814268
 30
0.0
 11
6602.1211927329896
 21
-9322.290714681425
 31
0.0
  0
LINE
  5
2E7
  8
0
 10
6602.1211927329896
 20
-9322.290714681425
 30
0.0
 11
7052.1211927329896
 21
-9322.290714681425
 31
0.0
  0
LINE
  5
2E8
  8
0
 10
7052.1211927329896
 20
-9322.290714681425
 30
0.0
 11
7052.1211927329896
 21
-9767.2907146814268
 31
0.0
  0
LINE
  5
2E9
  8
0
 10
7052.1211927329896
 20
-9767.2907146814268
 30
0.0
 11
7052.1211927329896
 21
-8902.290714681425
 31
0.0
  0
LINE
  5
2EA
  8
0
 10
7052.1211927329896
 20
-8902.290714681425
 30
0.0
 11
6602.1211927329896
 21
-8902.290714681425
 31
0.0
  0
LINE
  5
2EB
  8
0
 10
6602.1211927329896
 20
-8902.290714681425
 30
0.0
 11
6602.1211927329896
 21
-9322.290714681425
 31
0.0
  0
LINE
  5
2EC
  8
0
 62
     1
 10
3724.4760891695951
 20
-7422.6997181764737
 30
0.0
 11
3124.4760891695942
 21
-7422.6997181764737
 31
0.0
  0
LINE
  5
2ED
  8
0
 62
     1
 10
3699.4760891695951
 20
-7842.6997181764746
 30
0.0
 11
3699.4760891695951
 21
-7422.6997181764737
 31
0.0
  0
LINE
  5
2EE
  8
0
 62
     1
 10
3149.4760891695942
 20
-7817.6997181764737
 30
0.0
 11
3149.4760891695951
 21
-8262.6997181764764
 31
0.0
  0
LINE
  5
2EF
  8
0
 62
     1
 10
3149.4760891695942
 20
-7422.6997181764737
 30
0.0
 11
3149.4760891695942
 21
-7817.6997181764737
 31
0.0
  0
LINE
  5
2F0
  8
0
 62
     1
 10
4524.4760891695942
 20
-7842.6997181764746
 30
0.0
 11
3699.4760891695951
 21
-7842.6997181764746
 31
0.0
  0
LINE
  5
2F1
  8
0
 62
     1
 10
4499.4760891695933
 20
-8262.6997181764764
 30
0.0
 11
4499.4760891695933
 21
-7842.6997181764746
 31
0.0
  0
LINE
  5
2F2
  8
0
 62
     5
 10
3652.476089169596
 20
-8215.6997181764764
 30
0.0
 11
3652.4760891695951
 21
-7469.6997181764746
 31
0.0
  0
LINE
  5
2F3
  8
0
 62
     5
 10
3699.4760891695951
 20
-7469.6997181764746
 30
0.0
 11
3149.4760891695942
 21
-7469.6997181764746
 31
0.0
  0
LINE
  5
2F4
  8
0
 62
     5
 10
3196.4760891695951
 20
-7469.6997181764746
 30
0.0
 11
3196.4760891695942
 21
-7817.6997181764737
 31
0.0
  0
LINE
  5
2F5
  8
0
 62
     5
 10
3196.4760891695942
 20
-7817.6997181764737
 30
0.0
 11
3196.4760891695951
 21
-8215.6997181764746
 31
0.0
  0
LINE
  5
2F6
  8
0
 62
     5
 10
4499.4760891695933
 20
-7889.6997181764737
 30
0.0
 11
3699.4760891695951
 21
-7889.6997181764764
 31
0.0
  0
LINE
  5
2F7
  8
0
 62
     5
 10
4452.4760891695942
 20
-8215.6997181764764
 30
0.0
 11
4452.4760891695942
 21
-7889.6997181764737
 31
0.0
  0
LINE
  5
2F8
  8
0
 62
     5
 10
3149.4760891695951
 20
-8215.6997181764746
 30
0.0
 11
4499.4760891695933
 21
-8215.6997181764764
 31
0.0
  0
LINE
  5
2FA
  8
0
 62
     1
 10
3724.4760891695951
 20
-7842.6997181764746
 30
0.0
 11
3724.4760891695951
 21
-7397.6997181764737
 31
0.0
  0
LINE
  5
2FB
  8
0
 62
     1
 10
3124.4760891695942
 20
-7397.6997181764737
 30
0.0
 11
3124.4760891695942
 21
-7422.6997181764737
 31
0.0
  0
LINE
  5
334
  8
0
 62
     1
 10
1995.4826783552751
 20
-8938.4369750372571
 30
0.0
 11
2445.4826783552762
 21
-8938.4369750372571
 31
0.0
  0
LINE
  5
335
  8
0
 62
     5
 10
2445.4826783552762
 20
-8913.4369750372571
 30
0.0
 11
2445.4826783552762
 21
-8363.4369750372589
 31
0.0
  0
LINE
  5
336
  8
0
 62
     1
 10
2445.4826783552762
 20
-8338.4369750372571
 30
0.0
 11
1995.4826783552751
 21
-8338.4369750372571
 31
0.0
  0
LINE
  5
337
  8
0
 62
     1
 10
1995.4826783552751
 20
-8338.4369750372571
 30
0.0
 11
1995.4826783552751
 21
-8938.4369750372571
 31
0.0
  0
LINE
  5
358
  8
0
 62
     5
 10
1995.4826783552751
 20
-8186.6023049607429
 30
0.0
 11
645.48267835527531
 21
-8186.6023049607429
 31
0.0
  0
LINE
  5
359
  8
0
 62
     5
 10
645.48267835527531
 20
-8186.6023049607429
 30
0.0
 11
645.48267835527531
 21
-7586.6023049607429
 31
0.0
  0
LINE
  5
35A
  8
0
 62
     5
 10
645.48267835527531
 20
-7586.6023049607429
 30
0.0
 11
1995.4826783552751
 21
-7586.6023049607429
 31
0.0
  0
LINE
  5
35B
  8
0
 62
     7
 10
1995.4826783552751
 20
-7538.6023049607429
 30
0.0
 11
1995.4826783552751
 21
-8234.6023049607429
 31
0.0
  0
LINE
  5
35C
  8
0
 62
     5
 10
1995.4826783552751
 20
-8114.6023049607438
 30
0.0
 11
645.48267835527531
 21
-8114.6023049607438
 31
0.0
  0
LINE
  5
35D
  8
0
 62
     5
 10
645.48267835527531
 20
-7658.6023049607429
 30
0.0
 11
1995.4826783552751
 21
-7658.6023049607429
 31
0.0
  0
LINE
  5
35E
  8
0
 62
     5
 10
717.4826783552752
 20
-8114.6023049607438
 30
0.0
 11
717.4826783552752
 21
-7658.6023049607429
 31
0.0
  0
LINE
  5
35F
  8
0
 62
     1
 10
1995.4826783552751
 20
-8094.602304960742
 30
0.0
 11
737.48267835527531
 21
-8094.602304960742
 31
0.0
  0
LINE
  5
360
  8
0
 62
     1
 10
737.48267835527531
 20
-8094.602304960742
 30
0.0
 11
737.48267835527531
 21
-7678.6023049607438
 31
0.0
  0
LINE
  5
361
  8
0
 62
     1
 10
737.48267835527531
 20
-7678.6023049607438
 30
0.0
 11
1995.4826783552751
 21
-7678.6023049607438
 31
0.0
  0
LINE
  5
362
  8
0
 62
     1
 10
597.48267835527531
 20
-7538.6023049607429
 30
0.0
 11
1995.4826783552751
 21
-7538.6023049607429
 31
0.0
  0
LINE
  5
363
  8
0
 62
     1
 10
597.48267835527486
 20
-8234.6023049607429
 30
0.0
 11
597.48267835527531
 21
-7538.6023049607429
 31
0.0
  0
LINE
  5
364
  8
0
 62
     1
 10
1995.4826783552751
 20
-8234.6023049607429
 30
0.0
 11
597.48267835527486
 21
-8234.6023049607429
 31
0.0
  0
LINE
  5
365
  8
0
 62
     1
 10
737.48267835527531
 20
-8094.602304960742
 30
0.0
 11
597.48267835527486
 21
-8234.6023049607429
 31
0.0
  0
LINE
  5
366
  8
0
 62
     1
 10
737.48267835527531
 20
-7678.6023049607438
 30
0.0
 11
597.48267835527531
 21
-7538.6023049607429
 31
0.0
  0
LINE
  5
367
  8
0
 62
     5
 10
645.48267835527531
 20
-8186.6023049607429
 30
0.0
 11
1095.4826783552751
 21
-8186.6023049607429
 31
0.0
  0
LINE
  5
37B
  8
0
 62
     5
 10
4099.4760891695942
 20
-8215.6997181764764
 30
0.0
 11
4099.4760891695942
 21
-7889.6997181764737
 31
0.0
  0
LINE
  5
37C
  8
0
 62
     5
 10
4052.4760891695928
 20
-8215.6997181764764
 30
0.0
 11
4052.4760891695928
 21
-7889.6997181764737
 31
0.0
  0
LINE
  5
37D
  8
0
 62
     5
 10
3774.476089169596
 20
-8215.6997181764746
 30
0.0
 11
3774.4760891695951
 21
-7889.6997181764727
 31
0.0
  0
LINE
  5
37E
  8
0
 62
     5
 10
3821.4760891695951
 20
-8215.6997181764746
 30
0.0
 11
3821.4760891695951
 21
-7889.6997181764727
 31
0.0
  0
LINE
  5
381
  8
0
 62
     5
 10
3652.4760891695951
 20
-7842.6997181764746
 30
0.0
 11
3196.4760891695942
 21
-7842.6997181764746
 31
0.0
  0
LINE
  5
382
  8
0
 62
     5
 10
3652.4760891695951
 20
-7889.6997181764764
 30
0.0
 11
3196.4760891695942
 21
-7889.6997181764764
 31
0.0
  0
LINE
  5
383
  8
0
 62
     5
 10
3699.4760891695951
 20
-7842.6997181764746
 30
0.0
 11
3699.4760891695951
 21
-8215.6997181764746
 31
0.0
  0
LINE
  5
38B
  8
0
 62
     1
 10
2445.4826783552762
 20
-8338.4369750372571
 30
0.0
 11
2445.4826783552762
 21
-8363.4369750372589
 31
0.0
  0
LINE
  5
38C
  8
0
 62
     1
 10
2445.4826783552762
 20
-8913.4369750372571
 30
0.0
 11
2445.4826783552762
 21
-8938.4369750372571
 31
0.0
  0
LINE
  5
38D
  8
0
 62
     5
 10
2445.4826783552762
 20
-8938.4369750372571
 30
0.0
 11
2445.4826783552762
 21
-9713.4369750372571
 31
0.0
  0
LINE
  5
38E
  8
0
 62
     1
 10
2445.4826783552762
 20
-9713.4369750372571
 30
0.0
 11
2445.4826783552762
 21
-9738.4369750372589
 31
0.0
  0
LINE
  5
38F
  8
0
 62
     5
 10
2020.4826783552751
 20
-9013.4369750372553
 30
0.0
 11
2067.4826783552749
 21
-9013.4369750372553
 31
0.0
  0
LINE
  5
390
  8
0
 62
     5
 10
2020.4826783552751
 20
-9060.4369750372571
 30
0.0
 11
2067.4826783552749
 21
-9060.4369750372571
 31
0.0
  0
LINE
  5
398
  8
0
 10
3124.4760891695942
 20
-9627.290714681425
 30
0.0
 11
4524.4760891695933
 21
-9627.290714681425
 31
0.0
  0
LINE
  5
399
  8
0
 10
3124.4760891695942
 20
-9487.2907146814268
 30
0.0
 11
4524.4760891695933
 21
-9487.2907146814268
 31
0.0
  0
LINE
  5
39A
  8
0
 10
3124.4760891695942
 20
-9347.2907146814268
 30
0.0
 11
4524.4760891695933
 21
-9347.2907146814268
 31
0.0
  0
LINE
  5
39B
  8
0
 10
3124.4760891695942
 20
-9207.290714681425
 30
0.0
 11
3724.4760891695942
 21
-9207.290714681425
 31
0.0
  0
LINE
  5
39C
  8
0
 10
3124.4760891695942
 20
-9067.290714681425
 30
0.0
 11
3724.4760891695942
 21
-9067.290714681425
 31
0.0
  0
LINE
  5
39D
  8
0
 10
3124.4760891695942
 20
-8927.2907146814232
 30
0.0
 11
3724.4760891695942
 21
-8927.2907146814232
 31
0.0
  0
LINE
  5
39E
  8
0
 10
5252.1211927329887
 20
-9627.290714681425
 30
0.0
 11
7052.1211927329896
 21
-9627.290714681425
 31
0.0
  0
LINE
  5
39F
  8
0
 10
5252.1211927329887
 20
-9487.2907146814268
 30
0.0
 11
7052.1211927329896
 21
-9487.2907146814268
 31
0.0
  0
LINE
  5
3A0
  8
0
 10
5252.1211927329887
 20
-9347.2907146814268
 30
0.0
 11
7052.1211927329896
 21
-9347.2907146814268
 31
0.0
  0
LINE
  5
3A1
  8
0
 10
6602.1211927329896
 20
-9207.2907146814268
 30
0.0
 11
7052.1211927329896
 21
-9207.290714681425
 31
0.0
  0
LINE
  5
3A2
  8
0
 10
6602.1211927329896
 20
-9067.290714681425
 30
0.0
 11
7052.1211927329896
 21
-9067.290714681425
 31
0.0
  0
LINE
  5
3A3
  8
0
 10
6602.1211927329896
 20
-8927.2907146814232
 30
0.0
 11
7052.1211927329896
 21
-8927.2907146814232
 31
0.0
  0
LINE
  5
3A4
  8
0
 62
     1
 10
6602.1211927329896
 20
-7842.6997181764746
 30
0.0
 11
5252.1211927329887
 21
-7842.6997181764746
 31
0.0
  0
LINE
  5
3A5
  8
0
 62
     1
 10
5277.1211927329887
 20
-7842.6997181764746
 30
0.0
 11
5277.1211927329887
 21
-8262.6997181764764
 31
0.0
  0
LINE
  5
3A6
  8
0
 62
     1
 10
6627.1211927329896
 20
-8262.6997181764764
 30
0.0
 11
6627.1211927329896
 21
-7817.6997181764737
 31
0.0
  0
LINE
  5
3A7
  8
0
 62
     1
 10
6627.1211927329896
 20
-7422.6997181764764
 30
0.0
 11
6627.1211927329896
 21
-7817.6997181764737
 31
0.0
  0
LINE
  5
3A8
  8
0
 62
     1
 10
7052.1211927329896
 20
-7422.6997181764737
 30
0.0
 11
6602.1211927329896
 21
-7422.6997181764764
 31
0.0
  0
LINE
  5
3AA
  8
0
 62
     5
 10
5324.1211927329896
 20
-7842.6997181764746
 30
0.0
 11
5324.1211927329896
 21
-8262.6997181764764
 31
0.0
  0
LINE
  5
3AC
  8
0
 62
     5
 10
7005.1211927329896
 20
-7889.6997181764737
 30
0.0
 11
6674.1211927329887
 21
-7889.6997181764727
 31
0.0
  0
LINE
  5
3AD
  8
0
 62
     5
 10
6674.1211927329887
 20
-8215.6997181764746
 30
0.0
 11
6674.1211927329887
 21
-7817.6997181764737
 31
0.0
  0
LINE
  5
3AE
  8
0
 62
     5
 10
6674.1211927329887
 20
-7422.6997181764764
 30
0.0
 11
6674.1211927329887
 21
-7817.6997181764737
 31
0.0
  0
LINE
  5
3AF
  8
0
 62
     5
 10
7005.1211927329896
 20
-7469.6997181764746
 30
0.0
 11
6674.1211927329887
 21
-7469.6997181764746
 31
0.0
  0
LINE
  5
3B0
  8
0
 62
     5
 10
7005.1211927329896
 20
-8215.6997181764746
 30
0.0
 11
7005.1211927329896
 21
-7422.6997181764737
 31
0.0
  0
LINE
  5
3B1
  8
0
 62
     1
 10
7052.1211927329896
 20
-7422.6997181764737
 30
0.0
 11
7052.1211927329896
 21
-7397.6997181764737
 31
0.0
  0
LINE
  5
3B2
  8
0
 62
     1
 10
6912.1211927329887
 20
-7422.6997181764737
 30
0.0
 11
6912.1211927329887
 21
-7397.6997181764737
 31
0.0
  0
LINE
  5
3B3
  8
0
 62
     1
 10
6742.1211927329914
 20
-7397.6997181764746
 30
0.0
 11
6742.1211927329887
 21
-7422.6997181764764
 31
0.0
  0
LINE
  5
3B4
  8
0
 62
     1
 10
6757.1211927329914
 20
-7397.6997181764746
 30
0.0
 11
6757.1211927329896
 21
-7422.6997181764764
 31
0.0
  0
LINE
  5
3B5
  8
0
 62
     1
 10
6897.1211927329896
 20
-7397.6997181764818
 30
0.0
 11
6897.1211927329896
 21
-7422.6997181764809
 31
0.0
  0
LINE
  5
3B6
  8
0
 62
     1
 10
6897.1211927329896
 20
-7397.6997181764737
 30
0.0
 11
6757.1211927329914
 21
-7397.6997181764737
 31
0.0
  0
LINE
  5
3B7
  8
0
 62
     1
 10
6742.1211927329914
 20
-7397.6997181764737
 30
0.0
 11
6602.1211927329896
 21
-7397.6997181764746
 31
0.0
  0
LINE
  5
3B8
  8
0
 62
     1
 10
7052.1211927329896
 20
-7817.6997181764737
 30
0.0
 11
6912.1211927329887
 21
-7817.6997181764737
 31
0.0
  0
LINE
  5
3B9
  8
0
 62
     1
 10
6897.1211927329896
 20
-7817.6997181764737
 30
0.0
 11
6757.1211927329914
 21
-7817.6997181764737
 31
0.0
  0
LINE
  5
3BA
  8
0
 62
     1
 10
6742.1211927329914
 20
-7817.6997181764737
 30
0.0
 11
6602.1211927329896
 21
-7817.6997181764764
 31
0.0
  0
LINE
  5
3BB
  8
0
 62
     1
 10
6742.1211927329914
 20
-7817.6997181764764
 30
0.0
 11
6742.1211927329887
 21
-7842.6997181764764
 31
0.0
  0
LINE
  5
3BC
  8
0
 62
     1
 10
6757.1211927329914
 20
-7817.6997181764764
 30
0.0
 11
6757.1211927329896
 21
-7842.6997181764764
 31
0.0
  0
LINE
  5
3BD
  8
0
 62
     1
 10
6897.1211927329896
 20
-7817.6997181764818
 30
0.0
 11
6897.1211927329896
 21
-7842.6997181764818
 31
0.0
  0
LINE
  5
3BE
  8
0
 62
     1
 10
7052.1211927329896
 20
-7842.6997181764746
 30
0.0
 11
7052.1211927329896
 21
-7817.6997181764737
 31
0.0
  0
LINE
  5
3BF
  8
0
 62
     1
 10
6912.1211927329887
 20
-7842.6997181764746
 30
0.0
 11
6912.1211927329887
 21
-7817.6997181764737
 31
0.0
  0
LINE
  5
3C0
  8
0
 62
     1
 10
6602.1211927329896
 20
-7817.6997181764764
 30
0.0
 11
6602.1211927329896
 21
-7842.6997181764746
 31
0.0
  0
LINE
  5
3C1
  8
0
 62
     5
 10
5324.1211927329878
 20
-8215.6997181764746
 30
0.0
 11
7052.1211927329896
 21
-8215.6997181764746
 31
0.0
  0
LINE
  5
3C5
  8
0
 62
     5
 10
6207.6211927329896
 20
-8215.6997181764746
 30
0.0
 11
6207.6211927329896
 21
-7889.6997181764737
 31
0.0
  0
LINE
  5
3C6
  8
0
 62
     5
 10
6160.6211927329887
 20
-8215.6997181764746
 30
0.0
 11
6160.6211927329887
 21
-7889.6997181764737
 31
0.0
  0
LINE
  5
3C7
  8
0
 62
     5
 10
5777.6211927329896
 20
-8215.6997181764746
 30
0.0
 11
5777.6211927329896
 21
-7889.6997181764737
 31
0.0
  0
LINE
  5
3C8
  8
0
 62
     5
 10
5730.6211927329887
 20
-8215.6997181764746
 30
0.0
 11
5730.6211927329887
 21
-7889.6997181764737
 31
0.0
  0
LINE
  5
3C9
  8
0
 62
     1
 10
6627.1211927329896
 20
-7842.6997181764746
 30
0.0
 11
6742.1211927329887
 21
-7842.6997181764746
 31
0.0
  0
LINE
  5
3CA
  8
0
 62
     5
 10
6602.1211927329896
 20
-7842.6997181764746
 30
0.0
 11
6627.1211927329896
 21
-7842.6997181764746
 31
0.0
  0
LINE
  5
3CB
  8
0
 62
     5
 10
6627.1211927329896
 20
-7889.6997181764727
 30
0.0
 11
5324.1211927329914
 21
-7889.6997181764764
 31
0.0
  0
LINE
  5
3CC
  8
0
 62
     1
 10
6757.1211927329878
 20
-7842.6997181764746
 30
0.0
 11
6897.1211927329878
 21
-7842.6997181764764
 31
0.0
  0
LINE
  5
3CD
  8
0
 62
     1
 10
6912.1211927329887
 20
-7842.6997181764764
 30
0.0
 11
7052.1211927329896
 21
-7842.6997181764746
 31
0.0
  0
LINE
  5
3CE
  8
0
 62
     5
 10
6742.1211927329887
 20
-7842.6997181764746
 30
0.0
 11
6757.1211927329878
 21
-7842.6997181764746
 31
0.0
  0
LINE
  5
3CF
  8
0
 62
     5
 10
6897.1211927329896
 20
-7842.6997181764818
 30
0.0
 11
6912.1211927329887
 21
-7842.6997181764764
 31
0.0
  0
DIMENSION
  5
3D3
  8
0
 62
     7
  2
*D1
 10
2978.5746693593128
 20
-8262.6997181764764
 30
0.0
 11
2978.5746693593151
 21
-7830.1997181764746
 31
0.0
 70
   128
  1
865mm
 13
3124.4760891695942
 23
-7397.6997181764737
 33
0.0
 14
3124.4760891695942
 24
-8262.6997181764764
 34
0.0
 50
90.0
1001
ACAD
1000
DSTYLE
1002
{
1070
    41
1040
25.0
1070
   140
1040
75.0
1070
   173
1070
     1
1070
     6
1000
ARCHTICK
1070
     7
1000
ARCHTICK
1002
}
  0
DIMENSION
  5
54B
  8
0
 62
     7
  2
*D3
 10
4524.4760891695942
 20
-8417.1854954547925
 30
0.0
 11
3824.4448391695942
 21
-8417.1854954547925
 31
0.0
 70
     0
  1
1400mm
 13
3124.4135891695942
 23
-8262.6997181764764
 33
0.0
 14
4524.4760891695942
 24
-8262.6997181764764
 34
0.0
1001
ACAD
1000
DSTYLE
1002
{
1070
    41
1040
25.0
1070
   140
1040
75.0
1070
   173
1070
     1
1070
     6
1000
ARCHTICK
1070
     7
1000
ARCHTICK
1002
}
  0
DIMENSION
  5
565
  8
0
 62
     7
  2
*D4
 10
5252.1211927329887
 20
-8417.215495454795
 30
0.0
 11
6152.1211927329887
 21
-8417.215495454795
 31
0.0
 70
     0
  1
1800mm
 13
7052.1211927329896
 23
-8262.6997181764764
 33
0.0
 14
5252.1211927329887
 24
-8262.6997181764764
 34
0.0
1001
ACAD
1000
DSTYLE
1002
{
1070
    41
1040
25.0
1070
   140
1040
75.0
1070
   173
1070
     1
1070
     6
1000
ARCHTICK
1070
     7
1000
ARCHTICK
1002
}
  0
DIMENSION
  5
57F
  8
0
 62
     7
  2
*D5
 10
5252.1211927329887
 20
-7687.2614957766191
 30
0.0
 11
5927.1211927329896
 21
-7687.2614957766191
 31
0.0
 70
     0
  1
1350mm
 13
6602.1211927329896
 23
-7817.6997181764737
 33
0.0
 14
5252.1211927329887
 24
-7817.6997181764737
 34
0.0
1001
ACAD
1000
DSTYLE
1002
{
1070
    41
1040
25.0
1070
   140
1040
75.0
1070
   173
1070
     1
1070
     6
1000
ARCHTICK
1070
     7
1000
ARCHTICK
1002
}
  0
DIMENSION
  5
599
  8
0
 62
     7
  2
*D6
 10
7052.1211927329896
 20
-7250.2312455215269
 30
0.0
 11
6827.1211927329896
 21
-7250.2312455215269
 31
0.0
 70
     0
  1
450mm
 13
6602.1211927329896
 23
-7397.6997181764746
 33
0.0
 14
7052.1211927329896
 24
-7397.6997181764737
 34
0.0
1001
ACAD
1000
DSTYLE
1002
{
1070
    41
1040
25.0
1070
   140
1040
75.0
1070
   173
1070
     1
1070
     6
1000
ARCHTICK
1070
     7
1000
ARCHTICK
1002
}
  0
DIMENSION
  5
5B3
  8
0
 62
     7
  2
*D7
 10
4524.4760891695942
 20
-7687.2614957766191
 30
0.0
 11
4124.4760891695951
 21
-7687.2614957766191
 31
0.0
 70
     0
  1
800mm
 13
3724.4760891695951
 23
-7817.6997181764737
 33
0.0
 14
4524.4760891695942
 24
-7817.6997181764737
 34
0.0
1001
ACAD
1000
DSTYLE
1002
{
1070
    41
1040
25.0
1070
   140
1040
75.0
1070
   173
1070
     1
1070
     6
1000
ARCHTICK
1070
     7
1000
ARCHTICK
1002
}
  0
DIMENSION
  5
5CD
  8
0
 62
     7
  2
*D8
 10
3724.4760891695951
 20
-7250.2612455215267
 30
0.0
 11
3424.4760891695942
 21
-7250.2612455215267
 31
0.0
 70
     0
  1
600mm
 13
3124.4760891695942
 23
-7397.6997181764737
 33
0.0
 14
3724.4760891695951
 24
-7397.6997181764737
 34
0.0
1001
ACAD
1000
DSTYLE
1002
{
1070
    41
1040
25.0
1070
   140
1040
75.0
1070
   173
1070
     1
1070
     6
1000
ARCHTICK
1070
     7
1000
ARCHTICK
1002
}
  0
DIMENSION
  5
69B
  8
0
 62
     7
  2
*D9
 10
4753.3219339747038
 20
-9767.2907146814268
 30
0.0
 11
4753.3219339747047
 21
-9544.7907146814232
 31
0.0
 70
     0
  1
445mm
 13
4524.4760891695933
 23
-9322.290714681425
 33
0.0
 14
4524.4760891695933
 24
-9767.2907146814268
 34
0.0
 50
90.0
1001
ACAD
1000
DSTYLE
1002
{
1070
    41
1040
25.0
1070
   140
1040
75.0
1070
   173
1070
     1
1070
     6
1000
ARCHTICK
1070
     7
1000
ARCHTICK
1002
}
  0
DIMENSION
  5
6B5
  8
0
 62
     7
  2
*D10
 10
7285.4807905733087
 20
-9767.2907146814268
 30
0.0
 11
7285.4807905733114
 21
-9334.7907146814232
 31
0.0
 70
     0
  1
865mm
 13
7052.1211927329896
 23
-8902.290714681425
 33
0.0
 14
7052.1211927329896
 24
-9767.2907146814268
 34
0.0
 50
90.0
1001
ACAD
1000
DSTYLE
1002
{
1070
    41
1040
25.0
1070
   140
1040
75.0
1070
   173
1070
     1
1070
     6
1000
ARCHTICK
1070
     7
1000
ARCHTICK
1002
}
  0
ENDSEC
  0
EOF
