999
dxfrw 0.5.11
0
SECTION
2
HEADER
9
$ACADVER
1
AC1021
9
$HANDSEED
5
20000
9
$DWGCODEPAGE
3
ANSI_1252
9
$INSBASE
10
0
20
0
30
0
9
$EXTMIN
10
-5.62553543787e-014
20
-1031.7816
30
0
9
$EXTMAX
10
3206.25
20
2051
30
0
9
$LIMMIN
10
0
20
0
9
$LIMMAX
10
420
20
297
9
$ORTHOMODE
70
0
9
$LTSCALE
40
1
9
$TEXTSTYLE
7
STANDARD
9
$CLAYER
8
0
9
$DIMASZ
40
2.5
9
$DIMLFAC
40
1
9
$DIMSCALE
40
5
9
$DIMEXO
40
2
9
$DIMEXE
40
1.25
9
$DIMTXT
40
10
9
$DIMTSZ
40
0
9
$DIMAUNIT
70
0
9
$DIMADEC
70
2
9
$DIMLUNIT
70
2
9
$DIMSTYLE
2
STANDARD
9
$DIMGAP
40
2
9
$DIMTIH
70
0
9
$LUNITS
70
2
9
$LUPREC
70
2
9
$AUNITS
70
0
9
$AUPREC
70
2
9
$SPLINESEGS
70
8
9
$GRIDMODE
70
1
9
$SNAPSTYLE
70
0
9
$GRIDUNIT
10
0
20
0
9
$PINSBASE
10
0
20
0
30
0
9
$PLIMMIN
10
0
20
0
9
$PLIMMAX
10
297
20
210
9
$INSUNITS
70
4
9
$PSVPSCALE
40
1
0
ENDSEC
0
SECTION
2
CLASSES
0
ENDSEC
0
SECTION
2
TABLES
0
TABLE
2
VPORT
5
8
330
0
100
AcDbSymbolTable
70
1
0
VPORT
5
31
330
2
100
AcDbSymbolTableRecord
100
AcDbViewportTableRecord
2
*ACTIVE
70
0
10
0
20
0
11
1
21
1
12
1878.5700375
22
1054.35412361
13
0
23
0
14
10
24
10
15
10
25
10
16
0
26
0
36
1
17
0
27
0
37
0
40
3189.82262778
41
1.34731543624
42
50
43
0
44
0
50
0
51
0
71
0
72
100
73
1
74
3
75
0
76
1
77
0
78
1
281
0
65
1
110
0
120
0
130
0
111
1
121
0
131
0
112
0
122
1
132
0
79
0
146
0
348
10020
60
7
61
5
292
1
282
1
141
0
142
0
63
250
421
3358443
0
ENDTAB
0
TABLE
2
LTYPE
5
5
330
0
100
AcDbSymbolTable
70
4
0
LTYPE
5
14
330
5
100
AcDbSymbolTableRecord
100
AcDbLinetypeTableRecord
2
ByBlock
70
0
3

72
65
73
0
40
0
0
LTYPE
5
15
330
5
100
AcDbSymbolTableRecord
100
AcDbLinetypeTableRecord
2
ByLayer
70
0
3

72
65
73
0
40
0
0
LTYPE
5
16
330
5
100
AcDbSymbolTableRecord
100
AcDbLinetypeTableRecord
2
Continuous
70
0
3
Solid line
72
65
73
0
40
0
0
LTYPE
5
32
330
5
100
AcDbSymbolTableRecord
100
AcDbLinetypeTableRecord
2
DOT
70
0
3
Dot . . . . . . . . . . . . . . . . . . . . . .
72
65
73
2
40
6.35
49
0
74
0
49
-6.35
74
0
0
LTYPE
5
33
330
5
100
AcDbSymbolTableRecord
100
AcDbLinetypeTableRecord
2
DOT2
70
0
3
Dot (.5x) .....................................
72
65
73
2
40
3.175
49
0
74
0
49
-3.175
74
0
0
LTYPE
5
34
330
5
100
AcDbSymbolTableRecord
100
AcDbLinetypeTableRecord
2
DOTX2
70
0
3
Dot (2x) .  .  .  .  .  .  .  .  .  .  .  .  .
72
65
73
2
40
12.7
49
0
74
0
49
-12.7
74
0
0
LTYPE
5
35
330
5
100
AcDbSymbolTableRecord
100
AcDbLinetypeTableRecord
2
DASHED
70
0
3
Dot . . . . . . . . . . . . . . . . . . . . . .
72
65
73
2
40
19.05
49
12.7
74
0
49
-6.35
74
0
0
LTYPE
5
36
330
5
100
AcDbSymbolTableRecord
100
AcDbLinetypeTableRecord
2
DASHED2
70
0
3
Dashed (.5x) _ _ _ _ _ _ _ _ _ _ _ _ _ _ _ _ _
72
65
73
2
40
9.525
49
6.35
74
0
49
-3.175
74
0
0
LTYPE
5
37
330
5
100
AcDbSymbolTableRecord
100
AcDbLinetypeTableRecord
2
DASHEDX2
70
0
3
Dashed (2x) ____  ____  ____  ____  ____  ___
72
65
73
2
40
38.1
49
25.4
74
0
49
-12.7
74
0
0
LTYPE
5
38
330
5
100
AcDbSymbolTableRecord
100
AcDbLinetypeTableRecord
2
DASHDOT
70
0
3
Dash dot __ . __ . __ . __ . __ . __ . __ . __
72
65
73
4
40
25.4
49
12.7
74
0
49
-6.35
74
0
49
0
74
0
49
-6.35
74
0
0
LTYPE
5
39
330
5
100
AcDbSymbolTableRecord
100
AcDbLinetypeTableRecord
2
DASHDOT2
70
0
3
Dash dot (.5x) _._._._._._._._._._._._._._._.
72
65
73
4
40
12.7
49
6.35
74
0
49
-3.175
74
0
49
0
74
0
49
-3.175
74
0
0
LTYPE
5
3A
330
5
100
AcDbSymbolTableRecord
100
AcDbLinetypeTableRecord
2
DASHDOTX2
70
0
3
Dash dot (2x) ____  .  ____  .  ____  .  ___
72
65
73
4
40
50.8
49
25.4
74
0
49
-12.7
74
0
49
0
74
0
49
-12.7
74
0
0
LTYPE
5
3B
330
5
100
AcDbSymbolTableRecord
100
AcDbLinetypeTableRecord
2
DIVIDE
70
0
3
Divide ____ . . ____ . . ____ . . ____ . . ____
72
65
73
6
40
31.75
49
12.7
74
0
49
-6.35
74
0
49
0
74
0
49
-6.35
74
0
49
0
74
0
49
-6.35
74
0
0
LTYPE
5
3C
330
5
100
AcDbSymbolTableRecord
100
AcDbLinetypeTableRecord
2
DIVIDE2
70
0
3
Divide (.5x) __..__..__..__..__..__..__..__.._
72
65
73
6
40
15.875
49
6.35
74
0
49
-3.175
74
0
49
0
74
0
49
-3.175
74
0
49
0
74
0
49
-3.175
74
0
0
LTYPE
5
3D
330
5
100
AcDbSymbolTableRecord
100
AcDbLinetypeTableRecord
2
DIVIDEX2
70
0
3
Divide (2x) ________  .  .  ________  .  .  _
72
65
73
6
40
63.5
49
25.4
74
0
49
-12.7
74
0
49
0
74
0
49
-12.7
74
0
49
0
74
0
49
-12.7
74
0
0
LTYPE
5
3E
330
5
100
AcDbSymbolTableRecord
100
AcDbLinetypeTableRecord
2
BORDER
70
0
3
Border __ __ . __ __ . __ __ . __ __ . __ __ .
72
65
73
6
40
44.45
49
12.7
74
0
49
-6.35
74
0
49
12.7
74
0
49
-6.35
74
0
49
0
74
0
49
-6.35
74
0
0
LTYPE
5
3F
330
5
100
AcDbSymbolTableRecord
100
AcDbLinetypeTableRecord
2
BORDER2
70
0
3
Border (.5x) __.__.__.__.__.__.__.__.__.__.__.
72
65
73
6
40
22.225
49
6.35
74
0
49
-3.175
74
0
49
6.35
74
0
49
-3.175
74
0
49
0
74
0
49
-3.175
74
0
0
LTYPE
5
40
330
5
100
AcDbSymbolTableRecord
100
AcDbLinetypeTableRecord
2
BORDERX2
70
0
3
Border (2x) ____  ____  .  ____  ____  .  ___
72
65
73
6
40
88.9
49
25.4
74
0
49
-12.7
74
0
49
25.4
74
0
49
-12.7
74
0
49
0
74
0
49
-12.7
74
0
0
LTYPE
5
41
330
5
100
AcDbSymbolTableRecord
100
AcDbLinetypeTableRecord
2
CENTER
70
0
3
Center ____ _ ____ _ ____ _ ____ _ ____ _ ____
72
65
73
4
40
50.8
49
31.75
74
0
49
-6.35
74
0
49
6.35
74
0
49
-6.35
74
0
0
LTYPE
5
42
330
5
100
AcDbSymbolTableRecord
100
AcDbLinetypeTableRecord
2
CENTER2
70
0
3
Center (.5x) ___ _ ___ _ ___ _ ___ _ ___ _ ___
72
65
73
4
40
28.575
49
19.05
74
0
49
-3.175
74
0
49
3.175
74
0
49
-3.175
74
0
0
LTYPE
5
43
330
5
100
AcDbSymbolTableRecord
100
AcDbLinetypeTableRecord
2
CENTERX2
70
0
3
Center (2x) ________  __  ________  __  _____
72
65
73
4
40
101.6
49
63.5
74
0
49
-12.7
74
0
49
12.7
74
0
49
-12.7
74
0
0
ENDTAB
0
TABLE
2
LAYER
5
2
330
0
100
AcDbSymbolTable
70
1
0
LAYER
5
10
330
2
100
AcDbSymbolTableRecord
100
AcDbLayerTableRecord
2
0
70
0
62
7
6
CONTINUOUS
370
0
390
F
0
LAYER
5
44
330
2
100
AcDbSymbolTableRecord
100
AcDbLayerTableRecord
2
Centers
70
0
62
7
6
CONTINUOUS
370
0
390
F
0
LAYER
5
45
330
2
100
AcDbSymbolTableRecord
100
AcDbLayerTableRecord
2
Dimensions
70
0
62
7
6
CONTINUOUS
370
0
390
F
0
LAYER
5
46
330
2
100
AcDbSymbolTableRecord
100
AcDbLayerTableRecord
2
Title Block
70
0
62
7
6
CONTINUOUS
370
-3
390
F
0
ENDTAB
0
TABLE
2
STYLE
5
3
330
0
100
AcDbSymbolTable
70
3
0
STYLE
5
47
330
2
100
AcDbSymbolTableRecord
100
AcDbTextStyleTableRecord
2
standard
70
0
40
0
41
1
50
0
71
0
42
1
3
standard
4

0
ENDTAB
0
TABLE
2
VIEW
5
6
330
0
100
AcDbSymbolTable
70
0
0
ENDTAB
0
TABLE
2
UCS
5
7
330
0
100
AcDbSymbolTable
70
0
0
ENDTAB
0
TABLE
2
APPID
5
9
330
0
100
AcDbSymbolTable
70
1
0
APPID
5
12
330
9
100
AcDbSymbolTableRecord
100
AcDbRegAppTableRecord
2
ACAD
70
0
0
ENDTAB
0
TABLE
2
DIMSTYLE
5
A
330
0
100
AcDbSymbolTable
70
1
100
AcDbDimStyleTable
71
1
0
DIMSTYLE
105
48
330
A
100
AcDbSymbolTableRecord
100
AcDbDimStyleTableRecord
2
Standard
70
0
40
1
41
2.5
42
2
43
0.38
44
1.25
45
0
46
0
47
0
48
0
140
10
141
0.09
142
0
143
25.4
144
1
145
0
146
1
147
2
148
0
71
0
72
0
73
0
74
1
75
0
76
0
77
0
78
0
79
0
170
0
171
2
172
0
173
0
174
0
175
0
176
0
177
0
178
0
179
0
271
4
272
4
273
2
274
2
275
0
276
0
277
2
278
46
279
0
280
0
281
0
282
0
283
1
284
0
285
0
286
0
288
0
289
3
340
Standard
341

371
-2
372
-2
0
ENDTAB
0
TABLE
2
BLOCK_RECORD
5
1
330
0
100
AcDbSymbolTable
70
2
0
BLOCK_RECORD
5
1F
330
1
100
AcDbSymbolTableRecord
100
AcDbBlockTableRecord
2
*Model_Space
70
0
280
1
281
0
0
BLOCK_RECORD
5
1E
330
1
100
AcDbSymbolTableRecord
100
AcDbBlockTableRecord
2
*Paper_Space
70
0
280
1
281
0
0
BLOCK_RECORD
5
49
330
1
100
AcDbSymbolTableRecord
100
AcDbBlockTableRecord
2
*D2
70
0
280
1
281
0
0
BLOCK_RECORD
5
4C
330
1
100
AcDbSymbolTableRecord
100
AcDbBlockTableRecord
2
*D1
70
0
280
1
281
0
0
BLOCK_RECORD
5
4F
330
1
100
AcDbSymbolTableRecord
100
AcDbBlockTableRecord
2
BottomVet
70
0
280
1
281
0
0
ENDTAB
0
ENDSEC
0
SECTION
2
BLOCKS
0
BLOCK
5
20
330
1F
100
AcDbEntity
8
0
100
AcDbBlockBegin
2
*Model_Space
70
0
10
0
20
0
30
0
3
*Model_Space
1

0
ENDBLK
5
21
330
1F
100
AcDbEntity
8
0
100
AcDbBlockEnd
0
BLOCK
5
1C
330
1B
100
AcDbEntity
8
0
100
AcDbBlockBegin
2
*Paper_Space
70
0
10
0
20
0
30
0
3
*Paper_Space
1

0
ENDBLK
5
1D
330
1F
100
AcDbEntity
8
0
100
AcDbBlockEnd
0
BLOCK
5
4A
330
49
100
AcDbEntity
8
0
100
AcDbBlockBegin
2
*D2
70
1
10
0
20
0
3
*D2
1

0
LINE
5
52
100
AcDbEntity
8
Dimensions
6
CONTINUOUS
62
7
370
0
100
AcDbLine
10
2905
20
1900
11
3206.25
21
1900
0
LINE
5
53
100
AcDbEntity
8
Dimensions
6
CONTINUOUS
62
7
370
0
100
AcDbLine
10
2905
20
-2.44921270764e-015
11
3206.25
21
-7.62317455254e-014
0
LINE
5
54
100
AcDbEntity
8
Dimensions
6
CONTINUOUS
62
7
370
0
100
AcDbLine
10
3200
20
1900
11
3200
21
-7.47009875832e-014
0
SOLID
5
55
100
AcDbEntity
8
Dimensions
6
CONTINUOUS
62
7
370
0
100
AcDbTrace
10
3200
20
1900
30
0
11
3202.08142329
21
1887.5
31
0
12
3197.91857671
22
1887.5
32
0
13
3197.91857671
23
1887.5
33
0
0
SOLID
5
56
100
AcDbEntity
8
Dimensions
6
CONTINUOUS
62
7
370
0
100
AcDbTrace
10
3200
20
-7.47009875832e-014
30
0
11
3197.91857671
21
12.5
31
0
12
3202.08142329
22
12.5
32
0
13
3202.08142329
23
12.5
33
0
0
MTEXT
5
57
100
AcDbEntity
8
Dimensions
6
CONTINUOUS
62
7
370
0
100
AcDbMText
10
3165
20
950
30
0
40
50
41
222.222222222
71
5
72
1
1
1900.00
7
standard
210
0
220
0
230
1
50
90
73
2
44
1
0
ENDBLK
5
4B
330
49
100
AcDbEntity
8
0
100
AcDbBlockEnd
0
BLOCK
5
4D
330
4C
100
AcDbEntity
8
0
100
AcDbBlockBegin
2
*D1
70
1
10
0
20
0
3
*D1
1

0
LINE
5
58
100
AcDbEntity
8
Dimensions
6
CONTINUOUS
62
7
370
0
100
AcDbLine
10
-1.83690953073e-015
20
-10
11
-5.62553543787e-014
21
-306.25
0
LINE
5
59
100
AcDbEntity
8
Dimensions
6
CONTINUOUS
62
7
370
0
100
AcDbLine
10
2895
20
-10
11
2895
21
-306.25
0
LINE
5
5A
100
AcDbEntity
8
Dimensions
6
CONTINUOUS
62
7
370
0
100
AcDbLine
10
-5.5107285922e-014
20
-300
11
2895
21
-300
0
SOLID
5
5B
100
AcDbEntity
8
Dimensions
6
CONTINUOUS
62
7
370
0
100
AcDbTrace
10
-5.5107285922e-014
20
-300
30
0
11
12.5
21
-297.918576711
31
0
12
12.5
22
-302.081423289
32
0
13
12.5
23
-302.081423289
33
0
0
SOLID
5
5C
100
AcDbEntity
8
Dimensions
6
CONTINUOUS
62
7
370
0
100
AcDbTrace
10
2895
20
-300
30
0
11
2882.5
21
-302.081423289
31
0
12
2882.5
22
-297.918576711
32
0
13
2882.5
23
-297.918576711
33
0
0
MTEXT
5
5D
100
AcDbEntity
8
Dimensions
6
CONTINUOUS
62
7
370
0
100
AcDbMText
10
1447.5
20
-265
30
0
40
50
41
233.333333333
71
5
72
1
1
2895.00
7
standard
210
0
220
0
230
1
50
0
73
2
44
1
0
ENDBLK
5
4E
330
4C
100
AcDbEntity
8
0
100
AcDbBlockEnd
0
BLOCK
5
50
330
4F
100
AcDbEntity
8
0
100
AcDbBlockBegin
2
BottomVet
70
0
10
0
20
0
3
BottomVet
1

0
LINE
5
5E
100
AcDbEntity
8
0
6
ByLayer
62
256
370
-1
100
AcDbLine
10
-675
20
-1.082
11
-60
21
-1.082
0
LINE
5
5F
100
AcDbEntity
8
0
6
ByLayer
62
256
370
-1
100
AcDbLine
10
0
20
-1.082
11
-69
21
-1.082
0
LINE
5
60
100
AcDbEntity
8
0
6
ByLayer
62
256
370
-1
100
AcDbLine
10
-50
20
48.918
11
-675
21
48.918
0
LINE
5
61
100
AcDbEntity
8
0
6
CONTINUOUS
62
256
370
-1
100
AcDbLine
10
0
20
0
11
0
21
680
0
LINE
5
62
100
AcDbEntity
8
0
6
CONTINUOUS
62
256
370
-1
100
AcDbLine
10
-50
20
680
11
-50
21
0
0
LINE
5
63
100
AcDbEntity
8
0
6
CONTINUOUS
62
256
370
-1
100
AcDbLine
10
-60
20
680
11
0
21
680
0
LINE
5
64
100
AcDbEntity
8
0
6
CONTINUOUS
62
256
370
-1
100
AcDbLine
10
-59
20
680
11
-669
21
680
0
LINE
5
65
100
AcDbEntity
8
0
6
CONTINUOUS
62
256
370
-1
100
AcDbLine
10
-669
20
630
11
-49
21
630
0
LINE
5
66
100
AcDbEntity
8
0
6
CONTINUOUS
62
256
370
-1
100
AcDbLine
10
-670
20
308.253135813
11
-50
21
308.253135813
0
LINE
5
67
100
AcDbEntity
8
0
6
CONTINUOUS
62
256
370
-1
100
AcDbLine
10
-50
20
358.253135813
11
-670
21
358.253135813
0
ENDBLK
5
51
330
4F
100
AcDbEntity
8
0
100
AcDbBlockEnd
0
ENDSEC
0
SECTION
2
ENTITIES
0
LINE
5
68
100
AcDbEntity
8
0
6
CONTINUOUS
62
256
370
-1
100
AcDbLine
10
155.063677234
20
99.9999950575
11
155.063677234
21
749.999995057
0
LINE
5
69
100
AcDbEntity
8
0
6
ByLayer
62
0
370
-3
100
AcDbLine
10
155.063677234
20
49.9999950575
11
155.063677234
21
1449.99999506
0
LINE
5
6A
100
AcDbEntity
8
0
6
CONTINUOUS
62
256
370
-1
100
AcDbLine
10
155.063677234
20
1449.99999506
11
105.063677234
21
1449.99999506
0
LINE
5
6B
100
AcDbEntity
8
0
6
CONTINUOUS
62
256
370
-1
100
AcDbLine
10
105.063677234
20
49.9999950575
11
155.063677234
21
49.9999950575
0
LINE
5
6C
100
AcDbEntity
8
0
6
CONTINUOUS
62
256
370
-1
100
AcDbLine
10
110.063677234
20
1899.99999506
11
150.063677234
21
1899.99999506
0
LINE
5
6D
100
AcDbEntity
8
0
6
ByLayer
62
256
370
-1
100
AcDbLine
10
155.063677234
20
779.999995057
11
105.063677234
21
780.637425245
0
LINE
5
6E
100
AcDbEntity
8
0
6
CONTINUOUS
62
256
370
-1
100
AcDbLine
10
155.063677234
20
1449.99999506
11
155.063677234
21
779.999995057
0
LINE
5
6F
100
AcDbEntity
8
0
6
CONTINUOUS
62
256
370
-1
100
AcDbLine
10
155.063677234
20
779.999995057
11
155.063677234
21
49.9999950575
0
LINE
5
70
100
AcDbEntity
8
0
6
CONTINUOUS
62
256
370
-1
100
AcDbLine
10
105.063677234
20
779.999995057
11
105.063677234
21
1449.99999506
0
LINE
5
71
100
AcDbEntity
8
0
6
CONTINUOUS
62
256
370
-1
100
AcDbLine
10
105.063677234
20
49.9999950575
11
105.063677234
21
779.999995057
0
LINE
5
72
100
AcDbEntity
8
0
6
CONTINUOUS
62
256
370
-3
100
AcDbLine
10
110.063677234
20
1449.99999506
11
110.063677234
21
49.9999950575
0
LINE
5
73
100
AcDbEntity
8
0
6
CONTINUOUS
62
256
370
-1
100
AcDbLine
10
115.298677234
20
49.9999950575
11
115.063677234
21
149.999995057
0
LINE
5
74
100
AcDbEntity
8
0
6
CONTINUOUS
62
256
370
-1
100
AcDbLine
10
115.063677234
20
149.999995057
11
145.063677234
21
149.999995057
0
LINE
5
75
100
AcDbEntity
8
0
6
CONTINUOUS
62
256
370
-1
100
AcDbLine
10
145.063677234
20
149.999995057
11
145.063677234
21
49.9999950575
0
LINE
5
76
100
AcDbEntity
8
0
6
CONTINUOUS
62
256
370
-1
100
AcDbLine
10
150.063677234
20
49.9999950575
11
150.063677234
21
1449.99999506
0
LINE
5
77
100
AcDbEntity
8
Centers
6
CONTINUOUS
62
4
370
-1
100
AcDbLine
10
25
20
2049
11
25
21
-151.000000003
0
LINE
5
78
100
AcDbEntity
8
0
6
ByLayer
62
0
370
-3
100
AcDbLine
10
50
20
49.9999999975
11
50
21
1850
0
LINE
5
79
100
AcDbEntity
8
0
6
ByLayer
62
256
370
-1
100
AcDbLine
10
0
20
1850
11
0
21
1900
0
LINE
5
7A
100
AcDbEntity
8
0
6
CONTINUOUS
62
256
370
-1
100
AcDbLine
10
1995
20
1900
11
2035
21
1900
0
LINE
5
7B
100
AcDbEntity
8
0
6
ByLayer
62
256
370
-1
100
AcDbLine
10
0
20
1900
11
2895
21
1900
0
LINE
5
7C
100
AcDbEntity
8
0
6
ByLayer
62
256
370
-1
100
AcDbLine
10
2895
20
50
11
0
21
50
0
LINE
5
7D
100
AcDbEntity
8
0
6
ByLayer
62
256
370
-1
100
AcDbLine
10
0
20
50
11
0
21
0
0
LINE
5
7E
100
AcDbEntity
8
0
6
ByLayer
62
0
370
-3
100
AcDbLine
10
0
20
1850
11
0
21
50
0
LINE
5
7F
100
AcDbEntity
8
0
6
CONTINUOUS
62
256
370
-1
100
AcDbLine
10
1805
20
1400
11
155
21
1400
0
LINE
5
80
100
AcDbEntity
8
0
6
CONTINUOUS
62
256
370
-1
100
AcDbLine
10
1805
20
1355
11
155
21
1355
0
LINE
5
81
100
AcDbEntity
8
0
6
CONTINUOUS
62
256
370
-1
100
AcDbLine
10
1805
20
1140
11
155.064
21
1140
0
LINE
5
82
100
AcDbEntity
8
0
6
CONTINUOUS
62
256
370
-1
100
AcDbLine
10
155
20
1090
11
1805
21
1090
0
LINE
5
83
100
AcDbEntity
8
0
6
ByLayer
62
256
370
-1
100
AcDbLine
10
1805
20
880
11
150.064
21
880
0
LINE
5
84
100
AcDbEntity
8
0
6
ByLayer
62
256
370
-1
100
AcDbLine
10
155
20
830
11
1805
21
830
0
LINE
5
85
100
AcDbEntity
8
0
6
CONTINUOUS
62
256
370
-1
100
AcDbLine
10
155.064
20
606.69
11
1805
21
606.69
0
LINE
5
86
100
AcDbEntity
8
0
6
CONTINUOUS
62
256
370
-1
100
AcDbLine
10
1805
20
680
11
155
21
680
0
LINE
5
87
100
AcDbEntity
8
0
6
CONTINUOUS
62
256
370
-1
100
AcDbLine
10
1805
20
556.69
11
155.064
21
556.69
0
LINE
5
88
100
AcDbEntity
8
0
6
CONTINUOUS
62
256
370
-1
100
AcDbLine
10
1805
20
153.747
11
155.064
21
153.747
0
LINE
5
89
100
AcDbEntity
8
0
6
CONTINUOUS
62
256
370
-1
100
AcDbLine
10
1854
20
1400
11
1854
21
830
0
LINE
5
8A
100
AcDbEntity
8
0
6
ByLayer
62
256
370
-1
100
AcDbLine
10
1804
20
830
11
1854
21
830
0
LINE
5
8B
100
AcDbEntity
8
0
6
ByLayer
62
256
370
-1
100
AcDbLine
10
1804
20
1401
11
1804
21
831
0
LINE
5
8C
100
AcDbEntity
8
0
6
ByLayer
62
256
370
-1
100
AcDbLine
10
1804
20
1401
11
1854
21
1401
0
LINE
5
8D
100
AcDbEntity
8
0
6
ByLayer
62
256
370
-1
100
AcDbLine
10
1804
20
733.747
11
1804
21
103.747
0
LINE
5
8E
100
AcDbEntity
8
0
6
ByLayer
62
256
370
-1
100
AcDbLine
10
1854
20
733.747
11
1804
21
733.747
0
LINE
5
8F
100
AcDbEntity
8
0
6
CONTINUOUS
62
256
370
-1
100
AcDbLine
10
155
20
100
11
1805
21
100
0
LINE
5
90
100
AcDbEntity
8
0
6
ByLayer
62
256
370
-1
100
AcDbLine
10
1800
20
100
11
1850
21
100
0
LINE
5
91
100
AcDbEntity
8
0
6
CONTINUOUS
62
256
370
-1
100
AcDbLine
10
1850
20
730
11
1850
21
100
0
LINE
5
92
100
AcDbEntity
8
Centers
6
CONTINUOUS
62
4
370
-1
100
AcDbLine
10
1900
20
2051
11
1900
21
-149
0
LINE
5
93
100
AcDbEntity
8
0
6
ByLayer
62
0
370
-3
100
AcDbLine
10
1877.560558
20
1850
11
1877.560558
21
50
0
LINE
5
94
100
AcDbEntity
8
0
6
ByLayer
62
0
370
-3
100
AcDbLine
10
1922.56967521
20
50
11
1922.56967521
21
1850
0
LINE
5
95
100
AcDbEntity
8
0
6
CONTINUOUS
62
256
370
-1
100
AcDbLine
10
1970.27328808
20
50
11
2020.27328808
21
50
0
LINE
5
96
100
AcDbEntity
8
0
6
CONTINUOUS
62
256
370
-1
100
AcDbLine
10
2020.27328808
20
1450
11
2020.27328808
21
780
0
LINE
5
97
100
AcDbEntity
8
0
6
CONTINUOUS
62
256
370
-1
100
AcDbLine
10
1975.27328808
20
1850
11
2015.27328808
21
1850
0
LINE
5
98
100
AcDbEntity
8
0
6
ByLayer
62
0
370
-3
100
AcDbLine
10
2028.9482502
20
50
11
2028.9482502
21
1450
0
LINE
5
99
100
AcDbEntity
8
0
6
ByLayer
62
256
370
-1
100
AcDbLine
10
2028.9482502
20
780
11
1978.9482502
21
780.637430188
0
LINE
5
9A
100
AcDbEntity
8
0
6
CONTINUOUS
62
256
370
-1
100
AcDbLine
10
2028.9482502
20
780
11
2028.9482502
21
50
0
LINE
5
9B
100
AcDbEntity
8
0
6
CONTINUOUS
62
256
370
-1
100
AcDbLine
10
1978.9482502
20
780
11
1978.9482502
21
1450
0
LINE
5
9C
100
AcDbEntity
8
0
6
CONTINUOUS
62
256
370
-1
100
AcDbLine
10
1978.9482502
20
50
11
1978.9482502
21
780
0
LINE
5
9D
100
AcDbEntity
8
0
6
CONTINUOUS
62
256
370
-3
100
AcDbLine
10
1983.9482502
20
1450
11
1983.9482502
21
50
0
LINE
5
9E
100
AcDbEntity
8
0
6
CONTINUOUS
62
256
370
-1
100
AcDbLine
10
1989.1832502
20
50
11
1988.9482502
21
150
0
LINE
5
9F
100
AcDbEntity
8
0
6
CONTINUOUS
62
256
370
-1
100
AcDbLine
10
1988.9482502
20
150
11
2018.9482502
21
150
0
LINE
5
A0
100
AcDbEntity
8
0
6
CONTINUOUS
62
256
370
-1
100
AcDbLine
10
2018.9482502
20
150
11
2018.9482502
21
50
0
LINE
5
A1
100
AcDbEntity
8
0
6
CONTINUOUS
62
256
370
-1
100
AcDbLine
10
2023.9482502
20
50
11
2023.9482502
21
1450
0
LINE
5
A2
100
AcDbEntity
8
0
6
CONTINUOUS
62
256
370
-1
100
AcDbLine
10
2028.9482502
20
1450
11
1978.9482502
21
1450
0
LINE
5
A3
100
AcDbEntity
8
Centers
6
CONTINUOUS
62
4
370
-1
100
AcDbLine
10
2735
20
2050
11
2735
21
-150
0
LINE
5
A4
100
AcDbEntity
8
Centers
6
CONTINUOUS
62
4
370
-1
100
AcDbLine
10
2870
20
2051
11
2870
21
-149
0
LINE
5
A5
100
AcDbEntity
8
0
6
ByLayer
62
0
370
-3
100
AcDbLine
10
2710.43923523
20
1850
11
2710.43923523
21
50
0
LINE
5
A6
100
AcDbEntity
8
0
6
ByLayer
62
0
370
-3
100
AcDbLine
10
2760.43923523
20
50
11
2760.43923523
21
1850
0
LINE
5
A7
100
AcDbEntity
8
0
6
ByLayer
62
0
370
-3
100
AcDbLine
10
2845.43923523
20
1850
11
2845.43923523
21
50
0
LINE
5
A8
100
AcDbEntity
8
0
6
ByLayer
62
256
370
-1
100
AcDbLine
10
2895
20
1850
11
0
21
1850
0
LINE
5
A9
100
AcDbEntity
8
0
6
CONTINUOUS
62
256
370
-1
100
AcDbLine
10
2640
20
730
11
2640
21
100
0
LINE
5
AA
100
AcDbEntity
8
0
6
CONTINUOUS
62
256
370
-1
100
AcDbLine
10
2690
20
100
11
2690
21
730
0
LINE
5
AB
100
AcDbEntity
8
0
6
ByLayer
62
256
370
-1
100
AcDbLine
10
2690
20
730
11
2640
21
730
0
LINE
5
AC
100
AcDbEntity
8
0
6
CONTINUOUS
62
256
370
-1
100
AcDbLine
10
2640
20
100
11
2690
21
100
0
LINE
5
AD
100
AcDbEntity
8
0
6
CONTINUOUS
62
256
370
-1
100
AcDbLine
10
155
20
730
11
1805
21
730
0
LINE
5
AE
100
AcDbEntity
8
0
6
ByLayer
62
256
370
-1
100
AcDbLine
10
2030
20
100
11
2640
21
100
0
LINE
5
AF
100
AcDbEntity
8
0
6
CONTINUOUS
62
256
370
-1
100
AcDbLine
10
2030
20
100
11
2030
21
750
0
LINE
5
B0
100
AcDbEntity
8
0
6
ByLayer
62
256
370
-1
100
AcDbLine
10
2030
20
384.23
11
2640
21
382.426
0
LINE
5
B1
100
AcDbEntity
8
0
6
ByLayer
62
256
370
-1
100
AcDbLine
10
2030
20
436.543
11
2640
21
436.543
0
LINE
5
B2
100
AcDbEntity
8
0
6
ByLayer
62
256
370
-1
100
AcDbLine
10
2030
20
730
11
2640
21
730
0
LINE
5
B3
100
AcDbEntity
8
0
6
ByLayer
62
256
370
-1
100
AcDbLine
10
2030
20
680
11
2640
21
680
0
LINE
5
B4
100
AcDbEntity
8
0
6
ByLayer
62
256
370
-1
100
AcDbLine
10
2030
20
150
11
2640
21
150
0
LINE
5
B5
100
AcDbEntity
8
0
6
ByLayer
62
256
370
-1
100
AcDbLine
10
2687.9482502
20
1400.40089829
11
2637.9482502
21
1400.40089829
0
LINE
5
B6
100
AcDbEntity
8
0
6
ByLayer
62
256
370
-1
100
AcDbLine
10
2027.9482502
20
1106.94389829
11
2637.9482502
21
1106.94389829
0
LINE
5
B7
100
AcDbEntity
8
0
6
CONTINUOUS
62
256
370
-1
100
AcDbLine
10
2637.9482502
20
827.988474234
11
2687.9482502
21
827.988474234
0
LINE
5
B8
100
AcDbEntity
8
0
6
CONTINUOUS
62
256
370
-1
100
AcDbLine
10
2637.9482502
20
1400.40089829
11
2637.9482502
21
827.988474234
0
LINE
5
B9
100
AcDbEntity
8
0
6
CONTINUOUS
62
256
370
-1
100
AcDbLine
10
2687.9482502
20
827.988474234
11
2687.9482502
21
1400.40089829
0
LINE
5
BA
100
AcDbEntity
8
0
6
ByLayer
62
256
370
-1
100
AcDbLine
10
2030
20
830
11
2640
21
830
0
LINE
5
BB
100
AcDbEntity
8
0
6
ByLayer
62
256
370
-1
100
AcDbLine
10
2030
20
880
11
2640
21
880
0
LINE
5
BC
100
AcDbEntity
8
0
6
ByLayer
62
256
370
-1
100
AcDbLine
10
2030
20
1055
11
2640
21
1055
0
LINE
5
BD
100
AcDbEntity
8
0
6
ByLayer
62
256
370
-1
100
AcDbLine
10
2030
20
1350
11
2640
21
1350
0
LINE
5
BE
100
AcDbEntity
8
0
6
ByLayer
62
256
370
-1
100
AcDbLine
10
2030
20
1400
11
2640
21
1400
0
DIMENSION
5
BF
100
AcDbEntity
8
Dimensions
6
ByLayer
62
2
370
-1
100
AcDbDimension
2
*D1
10
2895
20
-300
30
0
11
1447.5
21
-265
31
0
70
33
71
5
72
0
3
Standard
53
0
210
0
220
0
230
1
100
AcDbAlignedDimension
13
0
23
0
33
0
14
2895
24
0
34
0
0
LINE
5
C0
100
AcDbEntity
8
0
6
ByLayer
62
256
370
-1
100
AcDbLine
10
0
20
0
11
2895
21
0
0
LINE
5
C1
100
AcDbEntity
8
0
6
ByLayer
62
256
370
-1
100
AcDbLine
10
2895
20
50
11
2895
21
0
0
LINE
5
C2
100
AcDbEntity
8
0
6
ByLayer
62
0
370
-3
100
AcDbLine
10
2895
20
50
11
2895
21
1850
0
LINE
5
C3
100
AcDbEntity
8
0
6
ByLayer
62
256
370
-1
100
AcDbLine
10
2895
20
1900
11
2895
21
1850
0
DIMENSION
5
C4
100
AcDbEntity
8
Dimensions
6
ByLayer
62
2
370
-1
100
AcDbDimension
2
*D2
10
3200
20
-7.47009875832e-014
30
0
11
3165
21
950
31
0
70
33
71
5
72
0
3
Standard
53
0
210
0
220
0
230
1
100
AcDbAlignedDimension
13
2895
23
1900
33
0
14
2895
24
0
34
0
0
CIRCLE
5
C5
100
AcDbEntity
8
0
6
CONTINUOUS
62
256
370
-1
100
AcDbCircle
10
2004
20
1874.57
40
4
0
LINE
5
C6
100
AcDbEntity
8
Centers
6
CONTINUOUS
62
4
370
-1
100
AcDbLine
10
2004
20
2049.63
11
2004
21
-150.373
0
LINE
5
C7
100
AcDbEntity
8
0
6
CONTINUOUS
62
256
370
-1
100
AcDbLine
10
2029
20
1900
11
2029
21
1850
0
LINE
5
C8
100
AcDbEntity
8
0
6
CONTINUOUS
62
256
370
-1
100
AcDbLine
10
2029
20
1454.2
11
2029
21
1850.2
0
LINE
5
C9
100
AcDbEntity
8
0
6
CONTINUOUS
62
256
370
-3
100
AcDbLine
10
1979
20
1900
11
1979
21
1456
0
LINE
5
CA
100
AcDbEntity
8
0
6
CONTINUOUS
62
256
370
-1
100
AcDbLine
10
2029
20
1848.2
11
1979
21
1848.2
0
CIRCLE
5
CB
100
AcDbEntity
8
0
6
CONTINUOUS
62
256
370
-1
100
AcDbCircle
10
130
20
1875
40
4
0
LINE
5
CC
100
AcDbEntity
8
Centers
6
CONTINUOUS
62
4
370
-1
100
AcDbLine
10
130
20
2050
11
130
21
-150
0
LINE
5
CD
100
AcDbEntity
8
0
6
CONTINUOUS
62
256
370
-1
100
AcDbLine
10
105
20
1850
11
105
21
1900
0
LINE
5
CE
100
AcDbEntity
8
0
6
CONTINUOUS
62
256
370
-1
100
AcDbLine
10
105
20
1850
11
150
21
1850
0
LINE
5
CF
100
AcDbEntity
8
0
6
CONTINUOUS
62
256
370
-3
100
AcDbLine
10
105
20
1844
11
105
21
1450
0
LINE
5
D0
100
AcDbEntity
8
0
6
CONTINUOUS
62
256
370
-1
100
AcDbLine
10
105
20
1844
11
105
21
1850
0
LINE
5
D1
100
AcDbEntity
8
0
6
CONTINUOUS
62
256
370
-1
100
AcDbLine
10
155
20
1900
11
155
21
1850
0
LINE
5
D2
100
AcDbEntity
8
0
6
CONTINUOUS
62
256
370
-1
100
AcDbLine
10
155
20
1850
11
155
21
1844
0
LINE
5
D3
100
AcDbEntity
8
0
6
CONTINUOUS
62
256
370
-1
100
AcDbLine
10
155
20
1844
11
105
21
1844
0
LINE
5
D4
100
AcDbEntity
8
0
6
CONTINUOUS
62
256
370
-1
100
AcDbLine
10
155
20
1450
11
155
21
1844
0
LINE
5
D5
100
AcDbEntity
8
Title Block
6
ByLayer
62
256
370
-1
100
AcDbLine
10
322.322871767
20
-531.7816
11
1822.32287177
21
-531.7816
0
LINE
5
D6
100
AcDbEntity
8
Title Block
6
ByLayer
62
256
370
-1
100
AcDbLine
10
322.322871767
20
-691.4536
11
1822.32287177
21
-691.4536
0
LINE
5
D7
100
AcDbEntity
8
Title Block
6
ByLayer
62
256
370
-1
100
AcDbLine
10
1822.32287177
20
-879.3031
11
322.322871767
21
-876.1721
0
LINE
5
D8
100
AcDbEntity
8
Title Block
6
ByLayer
62
256
370
-1
100
AcDbLine
10
1822.32287177
20
-1031.7816
11
322.322871767
21
-1031.7816
0
LINE
5
D9
100
AcDbEntity
8
Title Block
6
ByLayer
62
256
370
-1
100
AcDbLine
10
322.322871767
20
-1031.7816
11
322.322871767
21
-531.7816
0
LINE
5
DA
100
AcDbEntity
8
Title Block
6
ByLayer
62
256
370
-1
100
AcDbLine
10
1822.32287177
20
-531.7816
11
1822.32287177
21
-1031.7816
0
TEXT
5
DB
100
AcDbEntity
8
Title Block
6
ByLayer
62
256
370
-1
100
AcDbText
10
543.850649542
20
-581.7816
30
0
40
25
1
Part Name
50
0
41
1
51
0
7
standard
71
0
72
2
11
543.850649542
21
-581.7816
31
0
210
0
220
0
230
1
100
AcDbText
73
3
0
MTEXT
5
DC
100
AcDbEntity
8
Title Block
6
ByLayer
62
256
370
-1
100
AcDbMText
10
1372.32287176
20
-731.7816
30
0
40
25
41
80.5555502555
71
3
72
1
1
Scale
7
standard
210
0
220
0
230
1
50
0
73
2
44
1
0
MTEXT
5
DD
100
AcDbEntity
8
Title Block
6
ByLayer
62
256
370
-1
100
AcDbMText
10
1572.32287177
20
-781.7816
30
0
40
50
41
105.555555556
71
3
72
1
1
Full
7
standard
210
0
220
0
230
1
50
0
73
2
44
1
0
MTEXT
5
DE
100
AcDbEntity
8
Title Block
6
ByLayer
62
256
370
-1
100
AcDbMText
10
822.322871765
20
-931.7816
30
0
40
50
41
309.722222222
71
3
72
1
1
Ty Tower
7
standard
210
0
220
0
230
1
50
0
73
2
44
1
0
LINE
5
DF
100
AcDbEntity
8
Title Block
6
ByLayer
62
256
370
-1
100
AcDbLine
10
1268.42787176
20
-691.4536
11
1266.78673983
21
-869.895500375
0
LINE
5
E0
100
AcDbEntity
8
Title Block
6
ByLayer
62
256
370
-1
100
AcDbLine
10
992.92593892
20
-877.571872135
11
992.91579026
21
-1031.7816
0
MTEXT
5
E1
100
AcDbEntity
8
Title Block
6
ByLayer
62
256
370
-1
100
AcDbMText
10
1072.32287176
20
-981.7816
30
0
40
25
41
69.4444444444
71
2
72
1
1
Date
7
standard
210
0
220
0
230
1
50
0
73
2
44
1
0
MTEXT
5
E2
100
AcDbEntity
8
Title Block
6
ByLayer
62
256
370
-1
100
AcDbMText
10
671.822871765
20
-581.7816
30
0
40
50
41
690.277792892
71
1
72
1
1
Crush Left Side Full
7
standard
210
0
220
0
230
1
50
0
73
2
44
1
0
MTEXT
5
E3
100
AcDbEntity
8
Title Block
6
ByLayer
62
256
370
-1
100
AcDbMText
10
1732.60338077
20
-926.745956073
30
0
40
50
41
575
71
3
72
1
1
9th January 2016
7
standard
210
0
220
0
230
1
50
0
73
2
44
1
0
ENDSEC
0
SECTION
2
OBJECTS
0
DICTIONARY
5
C
330
0
100
AcDbDictionary
281
1
3
ACAD_GROUP
350
D
0
DICTIONARY
5
D
330
C
100
AcDbDictionary
281
1
0
ENDSEC
0
EOF
