  0
SECTION
  2
HEADER
  9
$ACADVER
  1
AC1015
  9
$ACADMAINTVER
 70
    20
  9
$DWGCODEPAGE
  3
ANSI_1252
  9
$INSBASE
 10
0.0
 20
0.0
 30
0.0
  9
$EXTMIN
 10
0.4783538710740487
 20
0.5588484863021606
 30
-0.0000000349181948
  9
$EXTMAX
 10
16.64915215002005
 20
10.72962848398282
 30
0.0000000814935746
  9
$LIMMIN
 10
0.0
 20
0.0
  9
$LIMMAX
 10
12.0
 20
9.0
  9
$ORTHOMODE
 70
     0
  9
$REGENMODE
 70
     1
  9
$FILLMODE
 70
     1
  9
$QTEXTMODE
 70
     0
  9
$MIRRTEXT
 70
     0
  9
$LTSCALE
 40
1.0
  9
$ATTMODE
 70
     1
  9
$TEXTSIZE
 40
0.2
  9
$TRACEWID
 40
0.05
  9
$TEXTSTYLE
  7
Standard
  9
$CLAYER
  8
0
  9
$CELTYPE
  6
ByLayer
  9
$CECOLOR
 62
   256
  9
$CELTSCALE
 40
1.0
  9
$DISPSILH
 70
     0
  9
$DIMSCALE
 40
1.0
  9
$DIMASZ
 40
0.08
  9
$DIMEXO
 40
0.04
  9
$DIMDLI
 40
0.04
  9
$DIMRND
 40
0.0
  9
$DIMDLE
 40
0.0
  9
$DIMEXE
 40
0.04
  9
$DIMTP
 40
0.0
  9
$DIMTM
 40
0.0
  9
$DIMTXT
 40
0.08
  9
$DIMCEN
 40
0.04
  9
$DIMTSZ
 40
0.0
  9
$DIMTOL
 70
     0
  9
$DIMLIM
 70
     0
  9
$DIMTIH
 70
     0
  9
$DIMTOH
 70
     0
  9
$DIMSE1
 70
     0
  9
$DIMSE2
 70
     0
  9
$DIMTAD
 70
     1
  9
$DIMZIN
 70
     0
  9
$DIMBLK
  1

  9
$DIMASO
 70
     1
  9
$DIMSHO
 70
     1
  9
$DIMPOST
  1
"
  9
$DIMAPOST
  1
mm
  9
$DIMALT
 70
     1
  9
$DIMALTD
 70
     2
  9
$DIMALTF
 40
25.4
  9
$DIMLFAC
 40
1.0
  9
$DIMTOFL
 70
     0
  9
$DIMTVP
 40
0.0
  9
$DIMTIX
 70
     0
  9
$DIMSOXD
 70
     0
  9
$DIMSAH
 70
     1
  9
$DIMBLK1
  1
ARROW2
  9
$DIMBLK2
  1
ARROW2
  9
$DIMSTYLE
  2
BASIC-Inch [mm]
  9
$DIMCLRD
 70
   256
  9
$DIMCLRE
 70
   256
  9
$DIMCLRT
 70
   256
  9
$DIMTFAC
 40
1.0
  9
$DIMGAP
 40
0.04
  9
$DIMJUST
 70
     0
  9
$DIMSD1
 70
     0
  9
$DIMSD2
 70
     0
  9
$DIMTOLJ
 70
     1
  9
$DIMTZIN
 70
     0
  9
$DIMALTZ
 70
     0
  9
$DIMALTTZ
 70
     0
  9
$DIMUPT
 70
     0
  9
$DIMDEC
 70
     2
  9
$DIMTDEC
 70
     2
  9
$DIMALTU
 70
     2
  9
$DIMALTTD
 70
     2
  9
$DIMTXSTY
  7
ROMANS
  9
$DIMAUNIT
 70
     0
  9
$DIMADEC
 70
     0
  9
$DIMALTRND
 40
0.0
  9
$DIMAZIN
 70
     0
  9
$DIMDSEP
 70
    46
  9
$DIMATFIT
 70
     3
  9
$DIMFRAC
 70
     0
  9
$DIMLDRBLK
  1
ARROW2
  9
$DIMLUNIT
 70
     2
  9
$DIMLWD
 70
    -2
  9
$DIMLWE
 70
    -2
  9
$DIMTMOVE
 70
     0
  9
$LUNITS
 70
     2
  9
$LUPREC
 70
     4
  9
$SKETCHINC
 40
0.1
  9
$FILLETRAD
 40
0.0
  9
$AUNITS
 70
     0
  9
$AUPREC
 70
     0
  9
$MENU
  1
.
  9
$ELEVATION
 40
0.0
  9
$PELEVATION
 40
0.0
  9
$THICKNESS
 40
0.0
  9
$LIMCHECK
 70
     0
  9
$CHAMFERA
 40
0.0
  9
$CHAMFERB
 40
0.0
  9
$CHAMFERC
 40
0.0
  9
$CHAMFERD
 40
0.0
  9
$SKPOLY
 70
     0
  9
$TDCREATE
 40
2456251.348420232
  9
$TDUCREATE
 40
2456251.556753564
  9
$TDUPDATE
 40
2456252.711278577
  9
$TDUUPDATE
 40
2456252.919611910
  9
$TDINDWG
 40
0.4159224306
  9
$TDUSRTIMER
 40
0.4159203704
  9
$USRTIMER
 70
     1
  9
$ANGBASE
 50
0.0
  9
$ANGDIR
 70
     0
  9
$PDMODE
 70
     0
  9
$PDSIZE
 40
0.0
  9
$PLINEWID
 40
0.0
  9
$SPLFRAME
 70
     0
  9
$SPLINETYPE
 70
     6
  9
$SPLINESEGS
 70
     8
  9
$HANDSEED
  5
DBA
  9
$SURFTAB1
 70
     6
  9
$SURFTAB2
 70
     6
  9
$SURFTYPE
 70
     6
  9
$SURFU
 70
     6
  9
$SURFV
 70
     6
  9
$UCSBASE
  2

  9
$UCSNAME
  2

  9
$UCSORG
 10
0.0
 20
0.0
 30
0.0
  9
$UCSXDIR
 10
1.0
 20
0.0
 30
0.0
  9
$UCSYDIR
 10
0.0
 20
1.0
 30
0.0
  9
$UCSORTHOREF
  2

  9
$UCSORTHOVIEW
 70
     0
  9
$UCSORGTOP
 10
0.0
 20
0.0
 30
0.0
  9
$UCSORGBOTTOM
 10
0.0
 20
0.0
 30
0.0
  9
$UCSORGLEFT
 10
0.0
 20
0.0
 30
0.0
  9
$UCSORGRIGHT
 10
0.0
 20
0.0
 30
0.0
  9
$UCSORGFRONT
 10
0.0
 20
0.0
 30
0.0
  9
$UCSORGBACK
 10
0.0
 20
0.0
 30
0.0
  9
$PUCSBASE
  2

  9
$PUCSNAME
  2

  9
$PUCSORG
 10
0.0
 20
0.0
 30
0.0
  9
$PUCSXDIR
 10
1.0
 20
0.0
 30
0.0
  9
$PUCSYDIR
 10
0.0
 20
1.0
 30
0.0
  9
$PUCSORTHOREF
  2

  9
$PUCSORTHOVIEW
 70
     0
  9
$PUCSORGTOP
 10
0.0
 20
0.0
 30
0.0
  9
$PUCSORGBOTTOM
 10
0.0
 20
0.0
 30
0.0
  9
$PUCSORGLEFT
 10
0.0
 20
0.0
 30
0.0
  9
$PUCSORGRIGHT
 10
0.0
 20
0.0
 30
0.0
  9
$PUCSORGFRONT
 10
0.0
 20
0.0
 30
0.0
  9
$PUCSORGBACK
 10
0.0
 20
0.0
 30
0.0
  9
$USERI1
 70
     0
  9
$USERI2
 70
     0
  9
$USERI3
 70
     0
  9
$USERI4
 70
     0
  9
$USERI5
 70
     0
  9
$USERR1
 40
0.0
  9
$USERR2
 40
0.0
  9
$USERR3
 40
0.0
  9
$USERR4
 40
0.0
  9
$USERR5
 40
0.0
  9
$WORLDVIEW
 70
     1
  9
$SHADEDGE
 70
     3
  9
$SHADEDIF
 70
    70
  9
$TILEMODE
 70
     1
  9
$MAXACTVP
 70
    64
  9
$PINSBASE
 10
0.0
 20
0.0
 30
0.0
  9
$PLIMCHECK
 70
     0
  9
$PEXTMIN
 10
0.0
 20
0.0
 30
0.0
  9
$PEXTMAX
 10
0.0
 20
0.0
 30
0.0
  9
$PLIMMIN
 10
0.0
 20
0.0
  9
$PLIMMAX
 10
12.0
 20
9.0
  9
$UNITMODE
 70
     0
  9
$VISRETAIN
 70
     1
  9
$PLINEGEN
 70
     0
  9
$PSLTSCALE
 70
     1
  9
$TREEDEPTH
 70
  3020
  9
$CMLSTYLE
  2
Standard
  9
$CMLJUST
 70
     0
  9
$CMLSCALE
 40
1.0
  9
$PROXYGRAPHICS
 70
     1
  9
$MEASUREMENT
 70
     0
  9
$CELWEIGHT
370
    -1
  9
$ENDCAPS
280
     0
  9
$JOINSTYLE
280
     0
  9
$LWDISPLAY
290
     0
  9
$INSUNITS
 70
     1
  9
$HYPERLINKBASE
  1
http://www.instructables.com/id/Arrow-Quiver-Drop-Leg-Style/
  9
$STYLESHEET
  1

  9
$XEDIT
290
     1
  9
$CEPSNTYPE
380
     0
  9
$PSTYLEMODE
290
     1
  9
$FINGERPRINTGUID
  2
{A2E5AF62-4EDD-42B2-B424-0C7DD2E506D8}
  9
$VERSIONGUID
  2
{4DBB82A7-EBE0-4747-B383-6CDAF0DA583C}
  9
$EXTNAMES
290
     1
  9
$PSVPSCALE
 40
0.0
  9
$OLESTARTUP
290
     0
  0
ENDSEC
  0
SECTION
  2
CLASSES
  0
CLASS
  1
ACDBDICTIONARYWDFLT
  2
AcDbDictionaryWithDefault
  3
ObjectDBX Classes
 90
        0
280
     0
281
     0
  0
CLASS
  1
ACDBPLACEHOLDER
  2
AcDbPlaceHolder
  3
ObjectDBX Classes
 90
        0
280
     0
281
     0
  0
CLASS
  1
LAYOUT
  2
AcDbLayout
  3
ObjectDBX Classes
 90
        0
280
     0
281
     0
  0
CLASS
  1
DICTIONARYVAR
  2
AcDbDictionaryVar
  3
ObjectDBX Classes
 90
        0
280
     0
281
     0
  0
CLASS
  1
TABLESTYLE
  2
AcDbTableStyle
  3
ObjectDBX Classes
 90
     4095
280
     0
281
     0
  0
CLASS
  1
MATERIAL
  2
AcDbMaterial
  3
ObjectDBX Classes
 90
     1153
280
     0
281
     0
  0
CLASS
  1
VISUALSTYLE
  2
AcDbVisualStyle
  3
ObjectDBX Classes
 90
     4095
280
     0
281
     0
  0
CLASS
  1
SCALE
  2
AcDbScale
  3
ObjectDBX Classes
 90
     1153
280
     0
281
     0
  0
CLASS
  1
MLEADERSTYLE
  2
AcDbMLeaderStyle
  3
ACDB_MLEADERSTYLE_CLASS
 90
     4095
280
     0
281
     0
  0
CLASS
  1
CELLSTYLEMAP
  2
AcDbCellStyleMap
  3
ObjectDBX Classes
 90
     1152
280
     0
281
     0
  0
CLASS
  1
EXACXREFPANELOBJECT
  2
ExAcXREFPanelObject
  3
EXAC_ESW
 90
     1025
280
     0
281
     0
  0
CLASS
  1
NPOCOLLECTION
  2
AcDbImpNonPersistentObjectsCollection
  3
ObjectDBX Classes
 90
     1153
280
     0
281
     0
  0
CLASS
  1
LAYER_INDEX
  2
AcDbLayerIndex
  3
ObjectDBX Classes
 90
    32768
280
     0
281
     0
  0
CLASS
  1
SPATIAL_INDEX
  2
AcDbSpatialIndex
  3
ObjectDBX Classes
 90
    32768
280
     0
281
     0
  0
CLASS
  1
IDBUFFER
  2
AcDbIdBuffer
  3
ObjectDBX Classes
 90
    32768
280
     0
281
     0
  0
CLASS
  1
RASTERVARIABLES
  2
AcDbRasterVariables
  3
ISM
 90
        0
280
     0
281
     0
  0
CLASS
  1
IMAGEDEF
  2
AcDbRasterImageDef
  3
ISM
 90
        0
280
     0
281
     0
  0
CLASS
  1
IMAGEDEF_REACTOR
  2
AcDbRasterImageDefReactor
  3
ISM
 90
    32769
280
     0
281
     0
  0
CLASS
  1
IMAGE
  2
AcDbRasterImage
  3
ISM
 90
    34943
280
     0
281
     1
  0
CLASS
  1
SORTENTSTABLE
  2
AcDbSortentsTable
  3
ObjectDBX Classes
 90
        0
280
     0
281
     0
  0
CLASS
  1
PDFDEFINITION
  2
AcDbPdfDefinition
  3
ObjectDBX Classes
 90
     1153
280
     0
281
     0
  0
CLASS
  1
PDFUNDERLAY
  2
AcDbPdfReference
  3
ObjectDBX Classes
 90
    36863
280
     0
281
     1
  0
CLASS
  1
DIMASSOC
  2
AcDbDimAssoc
  3
"AcDbDimAssoc|Product Desc:     AcDim ARX App For Dimension|Company:          Autodesk, Inc.|WEB Address:      www.autodesk.com"
 90
        0
280
     0
281
     0
  0
CLASS
  1
MULTILEADER
  2
AcDbMLeader
  3
ACDB_MLEADER_CLASS
 90
     1025
280
     0
281
     1
  0
ENDSEC
  0
SECTION
  2
TABLES
  0
TABLE
  2
VPORT
  5
8
102
{ACAD_XDICTIONARY
360
7B5
102
}
330
0
100
AcDbSymbolTable
 70
     1
  0
VPORT
  5
94
330
8
100
AcDbSymbolTableRecord
100
AcDbViewportTableRecord
  2
*Active
 70
     0
 10
0.0
 20
0.0
 11
1.0
 21
1.0
 12
8.563753010547049
 22
5.64423848514249
 13
0.0
 23
0.0
 14
0.5
 24
0.5
 15
0.5
 25
0.5
 16
0.0
 26
0.0
 36
1.0
 17
0.0
 27
0.0
 37
0.0
 40
10.43331788450618
 41
2.748837209302325
 42
50.0
 43
0.0
 44
0.0
 50
0.0
 51
0.0
 71
     0
 72
  1000
 73
     1
 74
     3
 75
     0
 76
     0
 77
     0
 78
     0
281
     0
 65
     1
110
0.0
120
0.0
130
0.0
111
1.0
121
0.0
131
0.0
112
0.0
122
1.0
132
0.0
 79
     0
146
0.0
1001
ACAD_NAV_VCDISPLAY
1070
     3
  0
ENDTAB
  0
TABLE
  2
LTYPE
  5
5
330
0
100
AcDbSymbolTable
 70
     3
  0
LTYPE
  5
14
330
5
100
AcDbSymbolTableRecord
100
AcDbLinetypeTableRecord
  2
ByBlock
 70
     0
  3

 72
    65
 73
     0
 40
0.0
  0
LTYPE
  5
15
330
5
100
AcDbSymbolTableRecord
100
AcDbLinetypeTableRecord
  2
ByLayer
 70
     0
  3

 72
    65
 73
     0
 40
0.0
  0
LTYPE
  5
16
330
5
100
AcDbSymbolTableRecord
100
AcDbLinetypeTableRecord
  2
Continuous
 70
     0
  3
Solid line
 72
    65
 73
     0
 40
0.0
  0
ENDTAB
  0
TABLE
  2
LAYER
  5
2
102
{ACAD_XDICTIONARY
360
1E6
102
}
330
0
100
AcDbSymbolTable
 70
     2
  0
LAYER
  5
10
102
{ACAD_XDICTIONARY
360
E6
102
}
330
2
100
AcDbSymbolTableRecord
100
AcDbLayerTableRecord
  2
0
 70
     0
 62
     7
  6
Continuous
370
    -3
390
F
  0
LAYER
  5
358
330
2
100
AcDbSymbolTableRecord
100
AcDbLayerTableRecord
  2
Defpoints
 70
     0
 62
     7
  6
Continuous
290
     0
370
    -3
390
F
  0
ENDTAB
  0
TABLE
  2
STYLE
  5
3
330
0
100
AcDbSymbolTable
 70
     4
  0
STYLE
  5
11
330
3
100
AcDbSymbolTableRecord
100
AcDbTextStyleTableRecord
  2
Standard
 70
     0
 40
0.0
 41
1.0
 50
0.0
 71
     0
 42
0.2
  3
arial.ttf
  4

1001
ACAD
1000
Arial
1071
       34
  0
STYLE
  5
1E5
330
3
100
AcDbSymbolTableRecord
100
AcDbTextStyleTableRecord
  2
WD
 70
     0
 40
0.0
 41
1.0
 50
0.0
 71
     0
 42
0.125
  3
romans.shx
  4

  0
STYLE
  5
35A
330
3
100
AcDbSymbolTableRecord
100
AcDbTextStyleTableRecord
  2
ROMANS
 70
     0
 40
0.0
 41
1.0
 50
0.0
 71
     0
 42
5.0
  3
romans
  4

  0
ENDTAB
  0
TABLE
  2
VIEW
  5
6
330
0
100
AcDbSymbolTable
 70
     3
  0
ENDTAB
  0
TABLE
  2
UCS
  5
7
330
0
100
AcDbSymbolTable
 70
     0
  0
ENDTAB
  0
TABLE
  2
APPID
  5
9
330
0
100
AcDbSymbolTable
 70
    12
  0
APPID
  5
12
330
9
100
AcDbSymbolTableRecord
100
AcDbRegAppTableRecord
  2
ACAD
 70
     0
  0
APPID
  5
DD
330
9
100
AcDbSymbolTableRecord
100
AcDbRegAppTableRecord
  2
AcadAnnoPO
 70
     0
  0
APPID
  5
DE
330
9
100
AcDbSymbolTableRecord
100
AcDbRegAppTableRecord
  2
AcadAnnotative
 70
     0
  0
APPID
  5
DF
330
9
100
AcDbSymbolTableRecord
100
AcDbRegAppTableRecord
  2
ACAD_DSTYLE_DIMJAG
 70
     0
  0
APPID
  5
E0
330
9
100
AcDbSymbolTableRecord
100
AcDbRegAppTableRecord
  2
ACAD_DSTYLE_DIMTALN
 70
     0
  0
APPID
  5
107
330
9
100
AcDbSymbolTableRecord
100
AcDbRegAppTableRecord
  2
ACAD_MLEADERVER
 70
     0
  0
APPID
  5
1B2
330
9
100
AcDbSymbolTableRecord
100
AcDbRegAppTableRecord
  2
ACAD_EXEMPT_FROM_CAD_STANDARDS
 70
     0
  0
APPID
  5
2C4
330
9
100
AcDbSymbolTableRecord
100
AcDbRegAppTableRecord
  2
PalladioXData
 70
     0
  0
APPID
  5
2DE
330
9
100
AcDbSymbolTableRecord
100
AcDbRegAppTableRecord
  2
ACAD_NAV_VCDISPLAY
 70
     0
  0
APPID
  5
304
330
9
100
AcDbSymbolTableRecord
100
AcDbRegAppTableRecord
  2
AdeskUnderlayLayerOverrideData
 70
     0
  0
APPID
  5
320
330
9
100
AcDbSymbolTableRecord
100
AcDbRegAppTableRecord
  2
ACAD_SPLINE_DATA
 70
     0
  0
APPID
  5
765
330
9
100
AcDbSymbolTableRecord
100
AcDbRegAppTableRecord
  2
ACAD_PSEXT
 70
     0
  0
ENDTAB
  0
TABLE
  2
DIMSTYLE
  5
A
330
0
100
AcDbSymbolTable
 70
     3
100
AcDbDimStyleTable
 71
     1
340
35C
  0
DIMSTYLE
105
35C
102
{ACAD_REACTORS
330
363
330
395
330
3B2
330
3CA
330
3E2
330
3FA
330
412
330
42A
330
442
330
45A
330
472
330
48A
330
4A2
330
4BA
330
4DB
330
4F3
330
50D
330
54B
102
}
330
A
100
AcDbSymbolTableRecord
100
AcDbDimStyleTableRecord
  2
BASIC-Inch [mm]
 70
     0
  3
"
  4
mm
 41
0.08
 42
0.04
 43
0.04
 44
0.04
 73
     0
 74
     0
 77
     1
140
0.08
141
0.04
147
0.04
170
     1
173
     1
176
   256
177
   256
178
   256
271
     2
272
     2
340
35A
341
353
343
353
344
353
1001
ACAD_DSTYLE_DIMJAG
1070
   388
1040
1.5
1001
ACAD_DSTYLE_DIMTALN
1070
   392
1070
     0
  0
ENDTAB
  0
TABLE
  2
BLOCK_RECORD
  5
1
330
0
100
AcDbSymbolTable
 70
    27
  0
BLOCK_RECORD
  5
1F
102
{ACAD_XDICTIONARY
360
15D
102
}
330
1
100
AcDbSymbolTableRecord
100
AcDbBlockTableRecord
  2
*Model_Space
340
22
  0
BLOCK_RECORD
  5
58
330
1
100
AcDbSymbolTableRecord
100
AcDbBlockTableRecord
  2
*Paper_Space
340
59
  0
BLOCK_RECORD
  5
1E8
102
{ACAD_XDICTIONARY
360
236
102
}
330
1
100
AcDbSymbolTableRecord
100
AcDbBlockTableRecord
  2
WD_M
340
0
102
{BLKREFS
331
23B
102
}
  0
BLOCK_RECORD
  5
328
330
1
100
AcDbSymbolTableRecord
100
AcDbBlockTableRecord
  2
*X1
340
0
102
{BLKREFS
331
355
102
}
  0
BLOCK_RECORD
  5
353
330
1
100
AcDbSymbolTableRecord
100
AcDbBlockTableRecord
  2
ARROW2
340
0
102
{BLKREFS
331
5D7
331
5D8
331
5E0
331
5E1
331
5E9
331
5EA
331
5F2
331
5F3
331
701
331
702
331
708
331
709
331
BBA
331
BBB
331
BD5
331
BD6
331
BDE
331
BDF
331
BE7
331
BE8
331
BF0
331
BF1
331
BF9
331
BFA
331
C02
331
C03
331
C0B
331
C0C
331
C22
331
C23
331
C3A
331
C3B
331
C5D
331
C5E
331
C74
331
C75
331
CD1
331
CD2
331
CDA
331
CDB
331
CE4
331
CE5
331
CFB
331
CFC
102
}
  0
BLOCK_RECORD
  5
364
330
1
100
AcDbSymbolTableRecord
100
AcDbBlockTableRecord
  2
*D3
340
0
  0
BLOCK_RECORD
  5
396
330
1
100
AcDbSymbolTableRecord
100
AcDbBlockTableRecord
  2
*D4
340
0
  0
BLOCK_RECORD
  5
3B3
330
1
100
AcDbSymbolTableRecord
100
AcDbBlockTableRecord
  2
*D5
340
0
  0
BLOCK_RECORD
  5
3CB
330
1
100
AcDbSymbolTableRecord
100
AcDbBlockTableRecord
  2
*D6
340
0
  0
BLOCK_RECORD
  5
3E3
330
1
100
AcDbSymbolTableRecord
100
AcDbBlockTableRecord
  2
*D7
340
0
  0
BLOCK_RECORD
  5
3FB
330
1
100
AcDbSymbolTableRecord
100
AcDbBlockTableRecord
  2
*D8
340
0
  0
BLOCK_RECORD
  5
413
330
1
100
AcDbSymbolTableRecord
100
AcDbBlockTableRecord
  2
*D9
340
0
  0
BLOCK_RECORD
  5
42B
330
1
100
AcDbSymbolTableRecord
100
AcDbBlockTableRecord
  2
*D10
340
0
  0
BLOCK_RECORD
  5
443
330
1
100
AcDbSymbolTableRecord
100
AcDbBlockTableRecord
  2
*D11
340
0
  0
BLOCK_RECORD
  5
45B
330
1
100
AcDbSymbolTableRecord
100
AcDbBlockTableRecord
  2
*D12
340
0
  0
BLOCK_RECORD
  5
473
330
1
100
AcDbSymbolTableRecord
100
AcDbBlockTableRecord
  2
*D13
340
0
  0
BLOCK_RECORD
  5
48B
330
1
100
AcDbSymbolTableRecord
100
AcDbBlockTableRecord
  2
*D14
340
0
  0
BLOCK_RECORD
  5
4A3
330
1
100
AcDbSymbolTableRecord
100
AcDbBlockTableRecord
  2
*D15
340
0
  0
BLOCK_RECORD
  5
4BB
330
1
100
AcDbSymbolTableRecord
100
AcDbBlockTableRecord
  2
*D16
340
0
  0
BLOCK_RECORD
  5
4DC
330
1
100
AcDbSymbolTableRecord
100
AcDbBlockTableRecord
  2
*D17
340
0
  0
BLOCK_RECORD
  5
4F4
330
1
100
AcDbSymbolTableRecord
100
AcDbBlockTableRecord
  2
*D18
340
0
  0
BLOCK_RECORD
  5
50E
330
1
100
AcDbSymbolTableRecord
100
AcDbBlockTableRecord
  2
*D19
340
0
  0
BLOCK_RECORD
  5
54C
330
1
100
AcDbSymbolTableRecord
100
AcDbBlockTableRecord
  2
*D20
340
0
  0
BLOCK_RECORD
  5
C12
330
1
100
AcDbSymbolTableRecord
100
AcDbBlockTableRecord
  2
*D22
340
0
  0
BLOCK_RECORD
  5
C2A
330
1
100
AcDbSymbolTableRecord
100
AcDbBlockTableRecord
  2
*D23
340
0
  0
BLOCK_RECORD
  5
C43
330
1
100
AcDbSymbolTableRecord
100
AcDbBlockTableRecord
  2
*D24
340
0
  0
BLOCK_RECORD
  5
C64
330
1
100
AcDbSymbolTableRecord
100
AcDbBlockTableRecord
  2
*D25
340
0
  0
ENDTAB
  0
ENDSEC
  0
SECTION
  2
BLOCKS
  0
BLOCK
  5
20
330
1F
100
AcDbEntity
  8
0
100
AcDbBlockBegin
  2
*Model_Space
 70
     0
 10
0.0
 20
0.0
 30
0.0
  3
*Model_Space
  1

  0
ENDBLK
  5
21
330
1F
100
AcDbEntity
  8
0
100
AcDbBlockEnd
  0
BLOCK
  5
5A
330
58
100
AcDbEntity
 67
     1
  8
0
100
AcDbBlockBegin
  2
*Paper_Space
 70
     0
 10
0.0
 20
0.0
 30
0.0
  3
*Paper_Space
  1

  0
ENDBLK
  5
5B
330
58
100
AcDbEntity
 67
     1
  8
0
100
AcDbBlockEnd
  0
BLOCK
  5
238
330
1E8
100
AcDbEntity
  8
0
100
AcDbBlockBegin
  2
WD_M
 70
     2
 10
0.0
 20
0.0
 30
0.0
  3
WD_M
  1

  0
ATTDEF
  5
1E9
330
1E8
100
AcDbEntity
  8
0
100
AcDbText
 10
0.0026038635663365
 20
-0.7306614647325603
 30
0.0
 40
0.01
  1
0
  7
WD
100
AcDbAttributeDefinition
  3

  2
XREF_STYLE
 70
     1
  0
ATTDEF
  5
1EA
330
1E8
100
AcDbEntity
  8
0
100
AcDbText
 10
0.0026038635663365
 20
-0.7506614647325602
 30
0.0
 40
0.01
  1
0
  7
WD
100
AcDbAttributeDefinition
  3

  2
XREF_FLAGS
 70
     1
  0
ATTDEF
  5
1EB
330
1E8
100
AcDbEntity
  8
0
100
AcDbText
 10
0.0026038635663365
 20
-0.7706614647325603
 30
0.0
 40
0.01
  1
0
  7
WD
100
AcDbAttributeDefinition
  3

  2
XREF_UNUSEDSTYLE
 70
     1
  0
ATTDEF
  5
1EC
330
1E8
100
AcDbEntity
  8
0
100
AcDbText
 10
0.0026038635663365
 20
-0.7906614647325603
 30
0.0
 40
0.01
  1

  7
WD
100
AcDbAttributeDefinition
  3

  2
XREF_FILLWITH
 70
     1
  0
ATTDEF
  5
1ED
330
1E8
100
AcDbEntity
  8
0
100
AcDbText
 10
0.0026038635663365
 20
-0.8106614647325601
 30
0.0
 40
0.01
  1
0
  7
WD
100
AcDbAttributeDefinition
  3

  2
XREF_SORT
 70
     1
  0
ATTDEF
  5
1EE
330
1E8
100
AcDbEntity
  8
0
100
AcDbText
 10
0.0026038635663365
 20
-0.8306614647325602
 30
0.0
 40
0.01
  1
,
  7
WD
100
AcDbAttributeDefinition
  3

  2
XREF_TXTBTWN
 70
     1
  0
ATTDEF
  5
1EF
330
1E8
100
AcDbEntity
  8
0
100
AcDbText
 10
0.0026038635663365
 20
-0.8506614647325601
 30
0.0
 40
0.01
  1
0
  7
WD
100
AcDbAttributeDefinition
  3

  2
XREF_GRAPHIC
 70
     1
  0
ATTDEF
  5
1F0
330
1E8
100
AcDbEntity
  8
0
100
AcDbText
 10
0.0026038635663365
 20
-0.8706614647325602
 30
0.0
 40
0.01
  1
0
  7
WD
100
AcDbAttributeDefinition
  3

  2
XREF_GRAPHICSTYLE
 70
     1
  0
ATTDEF
  5
1F1
330
1E8
100
AcDbEntity
  8
0
100
AcDbText
 10
0.0026038635663365
 20
-0.8906614647325602
 30
0.0
 40
0.01
  1
NO,NC,NONC
  7
WD
100
AcDbAttributeDefinition
  3

  2
XREF_CONTACTMAP
 70
     1
  0
ATTDEF
  5
1F2
330
1E8
100
AcDbEntity
  8
0
100
AcDbText
 10
0.0026038635663365
 20
-0.9106614647325601
 30
0.0
 40
0.01
  1
Standard
  7
WD
100
AcDbAttributeDefinition
  3

  2
XREF_TBLSTYLE
 70
     1
  0
ATTDEF
  5
1F3
330
1E8
100
AcDbEntity
  8
0
100
AcDbText
 10
0.0026038635663365
 20
-0.9306614647325602
 30
0.0
 40
0.01
  1
%T
  7
WD
100
AcDbAttributeDefinition
  3

  2
XREF_TBLTITLE
 70
     1
  0
ATTDEF
  5
1F4
330
1E8
100
AcDbEntity
  8
0
100
AcDbText
 10
0.0026038635663365
 20
-0.9506614647325601
 30
0.0
 40
0.01
  1
1,2,3,5
  7
WD
100
AcDbAttributeDefinition
  3

  2
XREF_TBLINDEX
 70
     1
  0
ATTDEF
  5
1F5
330
1E8
100
AcDbEntity
  8
0
100
AcDbText
 10
0.0026038635663365
 20
-0.9706614647325601
 30
0.0
 40
0.01
  1
W1,T1,TYPE,T2,W2,REF,SH,SHDWGNAM,FILENAME,FULLFILENAME
  7
WD
100
AcDbAttributeDefinition
  3

  2
XREF_TBLFLDNAMS
 70
     1
  0
ATTDEF
  5
1F6
330
1E8
100
AcDbEntity
  8
0
100
AcDbText
 10
0.0026038635663365
 20
-0.9906614647325602
 30
0.0
 40
0.01
  1
L,L,L,L,L,L,L,L,L,L
  7
WD
100
AcDbAttributeDefinition
  3

  2
XREF_TBLCOLJUST
 70
     1
  0
ATTDEF
  5
1F7
330
1E8
100
AcDbEntity
  8
0
100
AcDbText
 10
0.0026038635663365
 20
-1.01066146473256
 30
0.0
 40
0.01
  1
0.0
  7
WD
100
AcDbAttributeDefinition
  3

  2
WNUM_OFFSET
 70
     1
  0
ATTDEF
  5
1F8
330
1E8
100
AcDbEntity
  8
0
100
AcDbText
 10
0.0026038635663365
 20
-1.03066146473256
 30
0.0
 40
0.01
  1
1
  7
WD
100
AcDbAttributeDefinition
  3

  2
WNUM_FLAGS
 70
     1
  0
ATTDEF
  5
1F9
330
1E8
100
AcDbEntity
  8
0
100
AcDbText
 10
0.0026038635663365
 20
-1.05066146473256
 30
0.0
 40
0.01
  1

  7
WD
100
AcDbAttributeDefinition
  3

  2
WNUM_GAP
 70
     1
  0
ATTDEF
  5
1FA
330
1E8
100
AcDbEntity
  8
0
100
AcDbText
 10
0.0026038635663365
 20
-0.7106614647325602
 30
0.0
 40
0.01
  1

  7
WD
100
AcDbAttributeDefinition
  3

  2
SORTMODE
 70
     1
  0
ATTDEF
  5
1FB
330
1E8
100
AcDbEntity
  8
0
100
AcDbText
 10
0.0026038635663365
 20
-0.6919263265183977
 30
0.0
 40
0.01
  1
LOCBOX
  7
WD
100
AcDbAttributeDefinition
  3

  2
LOCBOX_LAY
 70
     1
  0
ATTDEF
  5
1FC
330
1E8
100
AcDbEntity
  8
0
100
AcDbText
 10
0.0026038635663365
 20
-0.6531911883042352
 30
0.0
 40
0.01
  1
_MULTI_WIRE
  7
WD
100
AcDbAttributeDefinition
  3

  2
FAN_INOUT_LAYS
 70
     1
  0
ATTDEF
  5
1FD
330
1E8
100
AcDbEntity
  8
0
100
AcDbText
 10
0.0026038635663365
 20
-0.6731911883042353
 30
0.0
 40
0.01
  1
1
  7
WD
100
AcDbAttributeDefinition
  3

  2
FAN_INOUT_STYLE
 70
     1
  0
ATTDEF
  5
1FE
330
1E8
100
AcDbEntity
  8
0
100
AcDbText
 10
0.0026038635663365
 20
-0.6331911883042352
 30
0.0
 40
0.01
  1

  7
WD
100
AcDbAttributeDefinition
  3

  2
MISC_DATA
 70
     1
  0
ATTDEF
  5
1FF
330
1E8
100
AcDbEntity
  8
0
100
AcDbText
 10
0.0026038635663365
 20
-0.6131911883042351
 30
0.0
 40
0.01
  1
WIREREF
  7
WD
100
AcDbAttributeDefinition
  3

  2
WIREREF_LAY
 70
     1
  0
ATTDEF
  5
200
330
1E8
100
AcDbEntity
  8
0
100
AcDbText
 10
0.0026038635663365
 20
-0.5531911883042352
 30
0.0
 40
0.01
  1

  7
WD
100
AcDbAttributeDefinition
  3

  2
IEC_PROJ
 70
     1
  0
ATTDEF
  5
201
330
1E8
100
AcDbEntity
  8
0
100
AcDbText
 10
0.0026038635663365
 20
-0.5731911883042351
 30
0.0
 40
0.01
  1

  7
WD
100
AcDbAttributeDefinition
  3

  2
IEC_INST
 70
     1
  0
ATTDEF
  5
202
330
1E8
100
AcDbEntity
  8
0
100
AcDbText
 10
0.0026038635663365
 20
-0.5931911883042352
 30
0.0
 40
0.01
  1

  7
WD
100
AcDbAttributeDefinition
  3

  2
IEC_LOC
 70
     1
  0
ATTDEF
  5
203
330
1E8
100
AcDbEntity
  8
0
100
AcDbText
 10
0.0026038635663365
 20
-0.4931911883042352
 30
0.0
 40
0.01
  1
TAGFIXED
  7
WD
100
AcDbAttributeDefinition
  3

  2
TAGFIXED_LAY
 70
     1
  0
ATTDEF
  5
204
330
1E8
100
AcDbEntity
  8
0
100
AcDbText
 10
0.0026038635663365
 20
-0.5131911883042352
 30
0.0
 40
0.01
  1
1
  7
WD
100
AcDbAttributeDefinition
  3

  2
GAP_STYLE
 70
     1
  0
ATTDEF
  5
205
330
1E8
100
AcDbEntity
  8
0
100
AcDbText
 10
0.0026038635663365
 20
-0.5331911883042352
 30
0.0
 40
0.01
  1
0
  7
WD
100
AcDbAttributeDefinition
  3

  2
MISC_FLAGS
 70
     1
  0
ATTDEF
  5
206
330
1E8
100
AcDbEntity
  8
0
100
AcDbText
 10
0.0031695782522106
 20
-0.1798516883170345
 30
0.0
 40
0.01
  1
%N
  7
WD
100
AcDbAttributeDefinition
  3

  2
ALT_XREFFMT
 70
     1
  0
ATTDEF
  5
207
330
1E8
100
AcDbEntity
  8
0
100
AcDbText
 10
0.0022811979723698
 20
-0.3599568934194084
 30
0.0
 40
0.01
  1

  7
WD
100
AcDbAttributeDefinition
  3

  2
SHEETDWGNAME
 70
     1
  0
ATTDEF
  5
208
330
1E8
100
AcDbEntity
  8
0
100
AcDbText
 10
0.0026038635663365
 20
-0.4731911883042352
 30
0.0
 40
0.01
  1
SYMS
  7
WD
100
AcDbAttributeDefinition
  3

  2
COMP_LAY
 70
     1
  0
ATTDEF
  5
209
330
1E8
100
AcDbEntity
  8
0
100
AcDbText
 10
0.0026038635663365
 20
-0.4531911883042352
 30
0.0
 40
0.01
  1
LINK
  7
WD
100
AcDbAttributeDefinition
  3

  2
LINK_LAY
 70
     1
  0
ATTDEF
  5
20A
330
1E8
100
AcDbEntity
  8
0
100
AcDbText
 10
0.0026038635663365
 20
-0.4331911883042351
 30
0.0
 40
0.01
  1
1
  7
WD
100
AcDbAttributeDefinition
  3

  2
ARROW_STYLE
 70
     1
  0
ATTDEF
  5
20B
330
1E8
100
AcDbEntity
  8
0
100
AcDbText
 10
0.0026038635663365
 20
-0.4131911883042354
 30
0.0
 40
0.01
  1
1
  7
WD
100
AcDbAttributeDefinition
  3

  2
PLC_STYLE
 70
     1
  0
ATTDEF
  5
20C
330
1E8
100
AcDbEntity
  8
0
  6
Continuous
 62
     7
100
AcDbText
 10
0.002325584839307
 20
-0.0282473360996347
 30
0.0
 40
0.01
  1
MISC
  7
WD
100
AcDbAttributeDefinition
  3

  2
MISC_LAY
 70
     1
  0
ATTDEF
  5
20D
330
1E8
100
AcDbEntity
  8
0
  6
Continuous
 62
     7
100
AcDbText
 10
0.002325584839307
 20
-0.0682473360996347
 30
0.0
 40
0.01
  1
DESCCHILD
  7
WD
100
AcDbAttributeDefinition
  3

  2
CDESC_LAY
 70
     1
  0
ATTDEF
  5
20E
330
1E8
100
AcDbEntity
  8
0
  6
Continuous
 62
     7
100
AcDbText
 10
0.002325584839307
 20
-0.0502473360996347
 30
0.0
 40
0.01
  1
XREFCHILD
  7
WD
100
AcDbAttributeDefinition
  3

  2
CXREF_LAY
 70
     1
  0
ATTDEF
  5
20F
330
1E8
100
AcDbEntity
  8
0
  6
Continuous
 62
     7
100
AcDbText
 10
0.0006688317668168
 20
0.2346684256116991
 30
0.0
 40
0.01
  1
0
  7
WD
100
AcDbAttributeDefinition
  3

  2
WLEADERS
 70
     1
  0
ATTDEF
  5
210
330
1E8
100
AcDbEntity
  8
0
  6
Continuous
 62
     7
100
AcDbText
 10
0.002325584839307
 20
-0.0082473360996347
 30
0.0
 40
0.01
  1
POS
  7
WD
100
AcDbAttributeDefinition
  3

  2
POS_LAY
 70
     1
  0
ATTDEF
  5
211
330
1E8
100
AcDbEntity
  8
0
  6
Continuous
 62
     7
100
AcDbText
 10
0.002325584839307
 20
0.0097526639003653
 30
0.0
 40
0.01
  1
LOC
  7
WD
100
AcDbAttributeDefinition
  3

  2
LOC_LAY
 70
     1
  0
ATTDEF
  5
212
330
1E8
100
AcDbEntity
  8
0
  6
Continuous
 62
     7
100
AcDbText
 10
0.0006176935494855
 20
0.0779316228579843
 30
0.0
 40
0.01
  1
TAGS
  7
WD
100
AcDbAttributeDefinition
  3

  2
TAG_LAY
 70
     1
  0
ATTDEF
  5
213
330
1E8
100
AcDbEntity
  8
0
  6
Continuous
 62
     7
100
AcDbText
 10
-0.00079075874257
 20
0.0624455789562733
 30
0.0
 40
0.01
  1
XREF
  7
WD
100
AcDbAttributeDefinition
  3

  2
XREF_LAY
 70
     1
  0
ATTDEF
  5
214
330
1E8
100
AcDbEntity
  8
0
  6
Continuous
 62
     7
100
AcDbText
 10
0.0009171325472515
 20
0.0449482178040639
 30
0.0
 40
0.01
  1
DESC
  7
WD
100
AcDbAttributeDefinition
  3

  2
DESC_LAY
 70
     1
  0
ATTDEF
  5
215
330
1E8
100
AcDbEntity
  8
0
  6
Continuous
 62
     7
100
AcDbText
 10
0.0009171325472515
 20
0.0269482178040639
 30
0.0
 40
0.01
  1
TERMS
  7
WD
100
AcDbAttributeDefinition
  3

  2
TERM_LAY
 70
     1
  0
ATTDEF
  5
216
330
1E8
100
AcDbEntity
  8
0
  6
Continuous
 62
     7
100
AcDbText
 10
0.0006176969075007
 20
0.1342445072630663
 30
0.0
 40
0.01
  1
WIREFIXED
  7
WD
100
AcDbAttributeDefinition
  3

  2
WIREFIXED_LAY
 70
     1
  0
ATTDEF
  5
217
330
1E8
100
AcDbEntity
  8
0
100
AcDbText
 10
0.0026038635663365
 20
-0.3931911883042353
 30
0.0
 40
0.01
  1
1.0
  7
WD
100
AcDbAttributeDefinition
  3

  2
FEATURE_SCL
 70
     1
  0
ATTDEF
  5
218
330
1E8
100
AcDbEntity
  8
0
100
AcDbText
 10
0.0026038635663365
 20
-0.3751911883042353
 30
0.0
 40
0.01
  1
1.0
  7
WD
100
AcDbAttributeDefinition
  3

  2
UNIT_SCL
 70
     1
  0
ATTDEF
  5
219
330
1E8
100
AcDbEntity
  8
0
  6
Continuous
 62
     7
100
AcDbText
 10
0.0020261491995562
 20
0.1497305511647772
 30
0.0
 40
0.01
  1
WIRECOPY
  7
WD
100
AcDbAttributeDefinition
  3

  2
WIRECOPY_LAY
 70
     1
  0
ATTDEF
  5
21A
330
1E8
100
AcDbEntity
  8
0
  6
Continuous
 62
     7
100
AcDbText
 10
0.0020261491995562
 20
0.1683206901487232
 30
0.0
 40
0.01
  1
WIRENO
  7
WD
100
AcDbAttributeDefinition
  3

  2
WIRENO_LAY
 70
     1
  0
ATTDEF
  5
21B
330
1E8
100
AcDbEntity
  8
0
  6
Continuous
 62
     7
100
AcDbText
 10
0.0006976887187458
 20
0.1829272273637309
 30
0.0
 40
0.01
  1
WIRES
  7
WD
100
AcDbAttributeDefinition
  3

  2
WIRELAYS
 70
     1
  0
ATTDEF
  5
21C
330
1E8
100
AcDbEntity
  8
0
100
AcDbText
 10
0.0011954079162657
 20
0.2848200088992996
 30
0.0
 40
0.01
  1
0
  7
WD
100
AcDbAttributeDefinition
  3

  2
DRWRUNG
 70
     1
  0
ATTDEF
  5
21D
330
1E8
100
AcDbEntity
  8
0
100
AcDbText
 10
0.0011954079162657
 20
0.3028200088992996
 30
0.0
 40
0.01
  1
1
  7
WD
100
AcDbAttributeDefinition
  3

  2
RUNGINC
 70
     1
  0
ATTDEF
  5
21E
330
1E8
100
AcDbEntity
  8
0
100
AcDbText
 10
0.0128642317831905
 20
-0.3257769779216058
 30
0.0
 40
0.01
  1
-
  7
WD
100
AcDbAttributeDefinition
  3

  2
XY_DELIM
 70
     1
  0
ATTDEF
  5
21F
330
1E8
100
AcDbEntity
  8
0
100
AcDbText
 10
0.0022811979723698
 20
-0.3399568934194084
 30
0.0
 40
0.01
  1

  7
WD
100
AcDbAttributeDefinition
  3

  2
SHEET
 70
     1
  0
ATTDEF
  5
220
330
1E8
100
AcDbEntity
  8
0
100
AcDbText
 10
0.0128642317831905
 20
-0.3109773571665133
 30
0.0
 40
0.01
  1
1
  7
WD
100
AcDbAttributeDefinition
  3

  2
HORIZ_FIRST
 70
     1
  0
ATTDEF
  5
221
330
1E8
100
AcDbEntity
  8
0
100
AcDbText
 10
0.0128642317831905
 20
-0.2943106904998467
 30
0.0
 40
0.01
  1
1
  7
WD
100
AcDbAttributeDefinition
  3

  2
CHAR_V
 70
     1
  0
ATTDEF
  5
222
330
1E8
100
AcDbEntity
  8
0
100
AcDbText
 10
0.0128642317831905
 20
-0.2809773571665133
 30
0.0
 40
0.01
  1
A
  7
WD
100
AcDbAttributeDefinition
  3

  2
CHAR_H
 70
     1
  0
ATTDEF
  5
223
330
1E8
100
AcDbEntity
  8
0
100
AcDbText
 10
0.0128642317831905
 20
-0.2643106904998467
 30
0.0
 40
0.01
  1
2.0
  7
WD
100
AcDbAttributeDefinition
  3

  2
DISTV
 70
     1
  0
ATTDEF
  5
224
330
1E8
100
AcDbEntity
  8
0
100
AcDbText
 10
0.0128642317831905
 20
-0.24764402383318
 30
0.0
 40
0.01
  1
2.0
  7
WD
100
AcDbAttributeDefinition
  3

  2
DISTH
 70
     1
  0
ATTDEF
  5
225
330
1E8
100
AcDbEntity
  8
0
100
AcDbText
 10
0.0128642317831905
 20
-0.2309773571665134
 30
0.0
 40
0.01
  1

  7
WD
100
AcDbAttributeDefinition
  3

  2
DATUMY
 70
     1
  0
ATTDEF
  5
226
330
1E8
100
AcDbEntity
  8
0
100
AcDbText
 10
0.0128642317831905
 20
-0.2143106904998466
 30
0.0
 40
0.01
  1

  7
WD
100
AcDbAttributeDefinition
  3

  2
DATUMX
 70
     1
  0
ATTDEF
  5
227
330
1E8
100
AcDbEntity
  8
0
100
AcDbText
 10
0.0031695782522106
 20
-0.1978516883170346
 30
0.0
 40
0.01
  1
0.5
  7
WD
100
AcDbAttributeDefinition
  3

  2
PH3SPACE
 70
     1
  0
ATTDEF
  5
228
330
1E8
100
AcDbEntity
  8
0
100
AcDbText
 10
0.0031695782522106
 20
-0.1598516883170345
 30
0.0
 40
0.01
  1
%N
  7
WD
100
AcDbAttributeDefinition
  3

  2
XREFFMT
 70
     1
  0
ATTDEF
  5
229
330
1E8
100
AcDbEntity
  8
0
100
AcDbText
 10
0.0031695782522106
 20
-0.1418516883170345
 30
0.0
 40
0.01
  1
,A,B,C,D,E,F,G,H,J
  7
WD
100
AcDbAttributeDefinition
  3

  2
TAG-RSUF
 70
     1
  0
ATTDEF
  5
22A
330
1E8
100
AcDbEntity
  8
0
100
AcDbText
 10
0.0031695782522106
 20
-0.1238516883170346
 30
0.0
 40
0.01
  1
1
  7
WD
100
AcDbAttributeDefinition
  3

  2
TAG-START
 70
     1
  0
ATTDEF
  5
22B
330
1E8
100
AcDbEntity
  8
0
100
AcDbText
 10
0.0031695782522106
 20
-0.1058516883170346
 30
0.0
 40
0.01
  1
,A,B,C,D,E,F,G,H,J,K,L,M,N
  7
WD
100
AcDbAttributeDefinition
  3

  2
WIRE-RSUF
 70
     1
  0
ATTDEF
  5
22C
330
1E8
100
AcDbEntity
  8
0
100
AcDbText
 10
0.0031695782522106
 20
-0.0878516883170346
 30
0.0
 40
0.01
  1
1
  7
WD
100
AcDbAttributeDefinition
  3

  2
WIRE-START
 70
     1
  0
ATTDEF
  5
22D
330
1E8
100
AcDbEntity
  8
0
  6
Continuous
 62
     7
100
AcDbText
 10
0.0023255881973221
 20
0.0987471461108569
 30
0.0
 40
0.01
  1
%F%N
  7
WD
100
AcDbAttributeDefinition
  3

  2
TAGFMT
 70
     1
  0
ATTDEF
  5
22E
330
1E8
100
AcDbEntity
  8
0
  6
Continuous
 62
     7
100
AcDbText
 10
0.0023255881973221
 20
0.1167471461108569
 30
0.0
 40
0.01
  1
R
  7
WD
100
AcDbAttributeDefinition
  3

  2
TAGMODE
 70
     1
  0
ATTDEF
  5
22F
330
1E8
100
AcDbEntity
  8
0
  6
Continuous
 62
     7
100
AcDbText
 10
0.0
 20
0.197920617899091
 30
0.0
 40
0.01
  1
%N
  7
WD
100
AcDbAttributeDefinition
  3

  2
WIREFMT
 70
     1
  0
ATTDEF
  5
230
330
1E8
100
AcDbEntity
  8
0
  6
Continuous
 62
     7
100
AcDbText
 10
0.000668829401847
 20
0.2156385065192482
 30
0.0
 40
0.01
  1
R
  7
WD
100
AcDbAttributeDefinition
  3

  2
WIREMODE
 70
     1
  0
ATTDEF
  5
231
330
1E8
100
AcDbEntity
  8
0
  6
Continuous
 62
     7
100
AcDbText
 10
-0.0003231099018821
 20
0.2515238489618203
 30
0.0
 40
0.01
  1
1
  7
WD
100
AcDbAttributeDefinition
  3

  2
WINC
 70
     1
  0
ATTDEF
  5
232
330
1E8
100
AcDbEntity
  8
0
  6
Continuous
 62
     7
100
AcDbText
 10
-0.000323112266852
 20
0.2685663723638516
 30
0.0
 40
0.01
  1
4.5
  7
WD
100
AcDbAttributeDefinition
  3

  2
DLADW
 70
     1
  0
ATTDEF
  5
233
330
1E8
100
AcDbEntity
  8
0
  6
Continuous
 62
     7
100
AcDbText
 10
0.000668829401847
 20
0.3186344078624167
 30
0.0
 40
0.01
  1
0.75
  7
WD
100
AcDbAttributeDefinition
  3

  2
RUNGDIST
 70
     1
  0
ATTDEF
  5
234
330
1E8
100
AcDbEntity
  8
0
  6
Continuous
 62
     7
100
AcDbText
 10
0.000668829401847
 20
0.3331719760650057
 30
0.0
 40
0.01
  1
1
  7
WD
100
AcDbAttributeDefinition
  3

  2
REFNUMS
 70
     1
  0
ATTDEF
  5
235
330
1E8
100
AcDbEntity
  8
0
  6
Continuous
 62
     7
100
AcDbText
 10
0.000668829401847
 20
0.3511719760650057
 30
0.0
 40
0.01
  1
H
  7
WD
100
AcDbAttributeDefinition
  3

  2
RUNGHORV
 70
     1
  0
ENDBLK
  5
239
330
1E8
100
AcDbEntity
  8
0
100
AcDbBlockEnd
  0
BLOCK
  5
329
330
328
100
AcDbEntity
  8
0
100
AcDbBlockBegin
  2
*X1
 70
     1
 10
0.0
 20
0.0
 30
0.0
  3
*X1
  1

  0
LINE
  5
32A
330
328
100
AcDbEntity
  8
0
 62
     0
100
AcDbLine
 10
598.3930116466369
 20
39.0625
 30
0.0
 11
598.5544749539212
 21
39.0625
 31
0.0
  0
LINE
  5
32B
330
328
100
AcDbEntity
  8
0
 62
     0
100
AcDbLine
 10
598.3870581016812
 20
39.09375
 30
0.0
 11
598.5604284988768
 21
39.09375
 31
0.0
  0
LINE
  5
32C
330
328
100
AcDbEntity
  8
0
 62
     0
100
AcDbLine
 10
598.3809569411262
 20
39.125
 30
0.0
 11
598.566529659432
 21
39.125
 31
0.0
  0
LINE
  5
32D
330
328
100
AcDbEntity
  8
0
 62
     0
100
AcDbLine
 10
598.3747077705003
 20
39.15625
 30
0.0
 11
598.5727788300578
 21
39.15625
 31
0.0
  0
LINE
  5
32E
330
328
100
AcDbEntity
  8
0
 62
     0
100
AcDbLine
 10
598.3683101843045
 20
39.1875
 30
0.0
 11
598.5791764162537
 21
39.1875
 31
0.0
  0
LINE
  5
32F
330
328
100
AcDbEntity
  8
0
 62
     0
100
AcDbLine
 10
598.3617637658729
 20
39.21875
 30
0.0
 11
598.5857228346852
 21
39.21875
 31
0.0
  0
LINE
  5
330
330
328
100
AcDbEntity
  8
0
 62
     0
100
AcDbLine
 10
598.3550680872305
 20
39.25
 30
0.0
 11
598.5924185133276
 21
39.25
 31
0.0
  0
LINE
  5
331
330
328
100
AcDbEntity
  8
0
 62
     0
100
AcDbLine
 10
598.3482227089453
 20
39.28125
 30
0.0
 11
598.599263891613
 21
39.28125
 31
0.0
  0
LINE
  5
332
330
328
100
AcDbEntity
  8
0
 62
     0
100
AcDbLine
 10
598.341227179975
 20
39.3125
 30
0.0
 11
598.6062594205831
 21
39.3125
 31
0.0
  0
LINE
  5
333
330
328
100
AcDbEntity
  8
0
 62
     0
100
AcDbLine
 10
598.3340810375104
 20
39.34375
 30
0.0
 11
598.6134055630476
 21
39.34375
 31
0.0
  0
LINE
  5
334
330
328
100
AcDbEntity
  8
0
 62
     0
100
AcDbLine
 10
598.3267838068119
 20
39.375
 30
0.0
 11
598.6207027937462
 21
39.375
 31
0.0
  0
LINE
  5
335
330
328
100
AcDbEntity
  8
0
 62
     0
100
AcDbLine
 10
598.3193350010412
 20
39.40625
 30
0.0
 11
598.6281515995168
 21
39.40625
 31
0.0
  0
LINE
  5
336
330
328
100
AcDbEntity
  8
0
 62
     0
100
AcDbLine
 10
598.3117341210881
 20
39.4375
 30
0.0
 11
598.6357524794699
 21
39.4375
 31
0.0
  0
LINE
  5
337
330
328
100
AcDbEntity
  8
0
 62
     0
100
AcDbLine
 10
598.3039806553912
 20
39.46875
 30
0.0
 11
598.643505945167
 21
39.46875
 31
0.0
  0
LINE
  5
338
330
328
100
AcDbEntity
  8
0
 62
     0
100
AcDbLine
 10
598.2960740797525
 20
39.5
 30
0.0
 11
598.6514125208056
 21
39.5
 31
0.0
  0
LINE
  5
339
330
328
100
AcDbEntity
  8
0
 62
     0
100
AcDbLine
 10
598.2880138571472
 20
39.53125
 30
0.0
 11
598.4294831916392
 21
39.53125
 31
0.0
  0
LINE
  5
33A
330
328
100
AcDbEntity
  8
0
 62
     0
100
AcDbLine
 10
598.5180034089212
 20
39.53125
 30
0.0
 11
598.659472743411
 21
39.53125
 31
0.0
  0
LINE
  5
33B
330
328
100
AcDbEntity
  8
0
 62
     0
100
AcDbLine
 10
598.279799437526
 20
39.5625
 30
0.0
 11
598.344829502506
 21
39.5625
 31
0.0
  0
LINE
  5
33C
330
328
100
AcDbEntity
  8
0
 62
     0
100
AcDbLine
 10
598.6026570980544
 20
39.5625
 30
0.0
 11
598.6676871630321
 21
39.5625
 31
0.0
  0
LINE
  5
33D
330
328
100
AcDbEntity
  8
0
 62
     0
100
AcDbLine
 10
598.2714302576123
 20
39.59375
 30
0.0
 11
598.3024965417818
 21
39.59375
 31
0.0
  0
LINE
  5
33E
330
328
100
AcDbEntity
  8
0
 62
     0
100
AcDbLine
 10
598.6449900587786
 20
39.59375
 30
0.0
 11
598.6760563429458
 21
39.59375
 31
0.0
  0
LINE
  5
33F
330
328
100
AcDbEntity
  8
0
 62
     0
100
AcDbLine
 10
598.2629057406918
 20
39.625
 30
0.0
 11
598.2735458668903
 21
39.625
 31
0.0
  0
LINE
  5
340
330
328
100
AcDbEntity
  8
0
 62
     0
100
AcDbLine
 10
598.6739407336702
 20
39.625
 30
0.0
 11
598.6845808598664
 21
39.625
 31
0.0
  0
LINE
  5
341
330
328
100
AcDbEntity
  8
0
 62
     0
100
AcDbLine
 10
598.39881795957
 20
39.03125
 30
0.0
 11
598.5486686409881
 21
39.03125
 31
0.0
  0
LINE
  5
342
330
328
100
AcDbEntity
  8
0
 62
     0
100
AcDbLine
 10
598.4044774132926
 20
39.0
 30
0.0
 11
598.5430091872655
 21
39.0
 31
0.0
  0
LINE
  5
343
330
328
100
AcDbEntity
  8
0
 62
     0
100
AcDbLine
 10
598.4099903699767
 20
38.96875
 30
0.0
 11
598.5374962305813
 21
38.96875
 31
0.0
  0
LINE
  5
344
330
328
100
AcDbEntity
  8
0
 62
     0
100
AcDbLine
 10
598.4153571812752
 20
38.9375
 30
0.0
 11
598.5321294192829
 21
38.9375
 31
0.0
  0
LINE
  5
345
330
328
100
AcDbEntity
  8
0
 62
     0
100
AcDbLine
 10
598.4205781884387
 20
38.90625
 30
0.0
 11
598.5269084121194
 21
38.90625
 31
0.0
  0
LINE
  5
346
330
328
100
AcDbEntity
  8
0
 62
     0
100
AcDbLine
 10
598.4256537224279
 20
38.875
 30
0.0
 11
598.5218328781302
 21
38.875
 31
0.0
  0
LINE
  5
347
330
328
100
AcDbEntity
  8
0
 62
     0
100
AcDbLine
 10
598.4305841040224
 20
38.84375
 30
0.0
 11
598.5169024965357
 21
38.84375
 31
0.0
  0
LINE
  5
348
330
328
100
AcDbEntity
  8
0
 62
     0
100
AcDbLine
 10
598.4353696439255
 20
38.8125
 30
0.0
 11
598.5121169566326
 21
38.8125
 31
0.0
  0
LINE
  5
349
330
328
100
AcDbEntity
  8
0
 62
     0
100
AcDbLine
 10
598.4400106428654
 20
38.78125
 30
0.0
 11
598.5074759576926
 21
38.78125
 31
0.0
  0
LINE
  5
34A
330
328
100
AcDbEntity
  8
0
 62
     0
100
AcDbLine
 10
598.4445073916926
 20
38.75
 30
0.0
 11
598.5029792088654
 21
38.75
 31
0.0
  0
LINE
  5
34B
330
328
100
AcDbEntity
  8
0
 62
     0
100
AcDbLine
 10
598.4488601714737
 20
38.71875
 30
0.0
 11
598.4986264290844
 21
38.71875
 31
0.0
  0
LINE
  5
34C
330
328
100
AcDbEntity
  8
0
 62
     0
100
AcDbLine
 10
598.453069253581
 20
38.6875
 30
0.0
 11
598.4944173469771
 21
38.6875
 31
0.0
  0
LINE
  5
34D
330
328
100
AcDbEntity
  8
0
 62
     0
100
AcDbLine
 10
598.4571348997802
 20
38.65625
 30
0.0
 11
598.4903517007778
 21
38.65625
 31
0.0
  0
LINE
  5
34E
330
328
100
AcDbEntity
  8
0
 62
     0
100
AcDbLine
 10
598.4610573623134
 20
38.625
 30
0.0
 11
598.4864292382447
 21
38.625
 31
0.0
  0
LINE
  5
34F
330
328
100
AcDbEntity
  8
0
 62
     0
100
AcDbLine
 10
598.4648368839786
 20
38.59375
 30
0.0
 11
598.4826497165795
 21
38.59375
 31
0.0
  0
LINE
  5
350
330
328
100
AcDbEntity
  8
0
 62
     0
100
AcDbLine
 10
598.4684736982069
 20
38.5625
 30
0.0
 11
598.4790129023512
 21
38.5625
 31
0.0
  0
LINE
  5
351
330
328
100
AcDbEntity
  8
0
 62
     0
100
AcDbLine
 10
598.4719680291361
 20
38.53125
 30
0.0
 11
598.4755185714219
 21
38.53125
 31
0.0
  0
ENDBLK
  5
352
330
328
100
AcDbEntity
  8
0
100
AcDbBlockEnd
  0
BLOCK
  5
354
330
353
100
AcDbEntity
  8
0
100
AcDbBlockBegin
  2
ARROW2
 70
     0
 10
0.0
 20
0.0
 30
0.0
  3
ARROW2
  1

  0
INSERT
  5
355
330
353
100
AcDbEntity
  8
0
100
AcDbBlockReference
  2
*X1
 10
38.51486509817645
 20
-598.4737433002766
 30
0.0
 50
90.00000000000511
1001
ACAD
1000
HATCH
1002
{
1070
    16
1000
LINE
1040
0.25
1040
0.0
1002
}
  0
LWPOLYLINE
  5
356
330
353
100
AcDbEntity
  8
0
100
AcDbPolyline
 90
        3
 70
     1
 43
0.0
 10
0.0
 20
0.0
 42
0.041459865232499
 10
-1.136190970008854
 20
-0.2180644337819046
 42
0.5672221180856465
 10
-1.136190970008868
 20
0.2180644337819615
 42
0.041459865232499
  0
ENDBLK
  5
357
330
353
100
AcDbEntity
  8
0
100
AcDbBlockEnd
  0
BLOCK
  5
365
330
364
100
AcDbEntity
  8
0
100
AcDbBlockBegin
  2
*D3
 70
     1
 10
0.0
 20
0.0
 30
0.0
  3
*D3
  1

  0
LINE
  5
707
330
364
100
AcDbEntity
  8
0
370
    -2
100
AcDbLine
 10
0.7282740119498125
 20
10.55956456862095
 30
0.0
 11
16.56827401194981
 21
10.55956456862095
 31
0.0
  0
INSERT
  5
708
330
364
100
AcDbEntity
  8
0
370
    -2
100
AcDbBlockReference
  2
ARROW2
 10
0.6482740119498125
 20
10.55956456862095
 30
0.0
 41
0.08
 42
0.08
 43
0.08
 50
180.0
  0
INSERT
  5
709
330
364
100
AcDbEntity
  8
0
370
    -2
100
AcDbBlockReference
  2
ARROW2
 10
16.64827401194981
 20
10.55956456862095
 30
0.0
 41
0.08
 42
0.08
 43
0.08
  0
MTEXT
  5
70A
330
364
100
AcDbEntity
  8
0
100
AcDbMText
 10
8.648274011949812
 20
10.66051694957333
 30
0.0
 40
0.08
 41
0.0
 71
     5
 72
     1
  1
\A1;16.00" [406.40mm]
  7
ROMANS
 73
     1
 44
1.0
1001
ACAD
1000
MTEXTBEGIN
1070
    73
1070
     1
1070
    44
1040
1.0
1070
    74
1070
     0
1000
MTEXTEND
  0
POINT
  5
70B
330
364
100
AcDbEntity
  8
Defpoints
 62
     0
100
AcDbPoint
 10
0.6482740119498125
 20
10.55956456862095
 30
0.0
  0
POINT
  5
70C
330
364
100
AcDbEntity
  8
Defpoints
 62
     0
100
AcDbPoint
 10
16.64827401194981
 20
10.55956456862095
 30
0.0
  0
POINT
  5
70D
330
364
100
AcDbEntity
  8
Defpoints
 62
     0
100
AcDbPoint
 10
16.64827401194981
 20
10.55956456862095
 30
0.0
  0
ENDBLK
  5
366
330
364
100
AcDbEntity
  8
0
100
AcDbBlockEnd
  0
BLOCK
  5
397
330
396
100
AcDbEntity
  8
0
100
AcDbBlockBegin
  2
*D4
 70
     1
 10
0.0
 20
0.0
 30
0.0
  3
*D4
  1

  0
LINE
  5
BD2
330
396
100
AcDbEntity
  8
0
370
    -2
100
AcDbLine
 10
14.03023377248746
 20
7.92637052239102
 30
0.0
 11
14.03023377248746
 21
8.24795381463045
 31
0.0
  0
LINE
  5
BD3
330
396
100
AcDbEntity
  8
0
370
    -2
100
AcDbLine
 10
7.070901510355362
 20
7.926370522359145
 30
0.0
 11
7.070901510355362
 21
8.24795381463045
 31
0.0
  0
LINE
  5
BD4
330
396
100
AcDbEntity
  8
0
370
    -2
100
AcDbLine
 10
13.95023377248746
 20
8.207953814630451
 30
0.0
 11
7.150901510355362
 21
8.207953814630451
 31
0.0
  0
INSERT
  5
BD5
330
396
100
AcDbEntity
  8
0
370
    -2
100
AcDbBlockReference
  2
ARROW2
 10
14.03023377248746
 20
8.207953814630451
 30
0.0
 41
0.08
 42
0.08
 43
0.08
  0
INSERT
  5
BD6
330
396
100
AcDbEntity
  8
0
370
    -2
100
AcDbBlockReference
  2
ARROW2
 10
7.070901510355362
 20
8.207953814630451
 30
0.0
 41
0.08
 42
0.08
 43
0.08
 50
180.0
  0
MTEXT
  5
BD7
330
396
100
AcDbEntity
  8
0
100
AcDbMText
 10
11.07567189171403
 20
8.308906195582832
 30
0.0
 40
0.08
 41
0.0
 71
     5
 72
     1
  1
\A1;6.96" [176.77mm]
  7
ROMANS
 73
     1
 44
1.0
1001
ACAD
1000
MTEXTBEGIN
1070
    73
1070
     1
1070
    44
1040
1.0
1070
    74
1070
     0
1000
MTEXTEND
  0
POINT
  5
BD8
330
396
100
AcDbEntity
  8
Defpoints
 62
     0
100
AcDbPoint
 10
14.03023377248746
 20
7.88637052239102
 30
0.0
  0
POINT
  5
BD9
330
396
100
AcDbEntity
  8
Defpoints
 62
     0
100
AcDbPoint
 10
7.070901510355362
 20
7.886370522359145
 30
0.0
  0
POINT
  5
BDA
330
396
100
AcDbEntity
  8
Defpoints
 62
     0
100
AcDbPoint
 10
7.070901510355362
 20
8.207953814630451
 30
0.0
  0
ENDBLK
  5
398
330
396
100
AcDbEntity
  8
0
100
AcDbBlockEnd
  0
BLOCK
  5
3B4
330
3B3
100
AcDbEntity
  8
0
100
AcDbBlockBegin
  2
*D5
 70
     1
 10
0.0
 20
0.0
 30
0.0
  3
*D5
  1

  0
LINE
  5
BDB
330
3B3
100
AcDbEntity
  8
0
370
    -2
100
AcDbLine
 10
14.07023377248746
 20
7.88637052239102
 30
0.0
 11
14.37526577797795
 21
7.88637052239102
 31
0.0
  0
LINE
  5
BDC
330
3B3
100
AcDbEntity
  8
0
370
    -2
100
AcDbLine
 10
14.07023377249512
 20
6.465182066950882
 30
0.0
 11
14.37526577797795
 21
6.465182066950882
 31
0.0
  0
LINE
  5
BDD
330
3B3
100
AcDbEntity
  8
0
370
    -2
100
AcDbLine
 10
14.33526577797795
 20
7.80637052239102
 30
0.0
 11
14.33526577797795
 21
6.545182066950882
 31
0.0
  0
INSERT
  5
BDE
330
3B3
100
AcDbEntity
  8
0
370
    -2
100
AcDbBlockReference
  2
ARROW2
 10
14.33526577797795
 20
7.88637052239102
 30
0.0
 41
0.08
 42
0.08
 43
0.08
 50
90.0
  0
INSERT
  5
BDF
330
3B3
100
AcDbEntity
  8
0
370
    -2
100
AcDbBlockReference
  2
ARROW2
 10
14.33526577797795
 20
6.465182066950882
 30
0.0
 41
0.08
 42
0.08
 43
0.08
 50
270.0
  0
MTEXT
  5
BE0
330
3B3
100
AcDbEntity
  8
0
100
AcDbMText
 10
14.23431339702557
 20
7.175776294670951
 30
0.0
 40
0.08
 41
0.0
 71
     5
 72
     1
  1
\A1;1.42" [36.10mm]
  7
ROMANS
 11
0.0000000000000001
 21
1.0
 31
0.0
 73
     1
 44
1.0
1001
ACAD
1000
MTEXTBEGIN
1070
    73
1070
     1
1070
    44
1040
1.0
1070
    74
1070
     0
1000
MTEXTEND
  0
POINT
  5
BE1
330
3B3
100
AcDbEntity
  8
Defpoints
 62
     0
100
AcDbPoint
 10
14.03023377248746
 20
7.88637052239102
 30
0.0
  0
POINT
  5
BE2
330
3B3
100
AcDbEntity
  8
Defpoints
 62
     0
100
AcDbPoint
 10
14.03023377249512
 20
6.465182066950882
 30
0.0
  0
POINT
  5
BE3
330
3B3
100
AcDbEntity
  8
Defpoints
 62
     0
100
AcDbPoint
 10
14.33526577797795
 20
6.465182066950882
 30
0.0
  0
ENDBLK
  5
3B5
330
3B3
100
AcDbEntity
  8
0
100
AcDbBlockEnd
  0
BLOCK
  5
3CC
330
3CB
100
AcDbEntity
  8
0
100
AcDbBlockBegin
  2
*D6
 70
     1
 10
0.0
 20
0.0
 30
0.0
  3
*D6
  1

  0
LINE
  5
BE4
330
3CB
100
AcDbEntity
  8
0
370
    -2
100
AcDbLine
 10
14.07023377249512
 20
6.465182066950882
 30
0.0
 11
14.37512375628644
 21
6.465182066950882
 31
0.0
  0
LINE
  5
BE5
330
3CB
100
AcDbEntity
  8
0
370
    -2
100
AcDbLine
 10
14.07023377250233
 20
5.126941252717296
 30
0.0
 11
14.37512375628644
 21
5.126941252717296
 31
0.0
  0
LINE
  5
BE6
330
3CB
100
AcDbEntity
  8
0
370
    -2
100
AcDbLine
 10
14.33512375628644
 20
6.385182066950882
 30
0.0
 11
14.33512375628644
 21
5.206941252717296
 31
0.0
  0
INSERT
  5
BE7
330
3CB
100
AcDbEntity
  8
0
370
    -2
100
AcDbBlockReference
  2
ARROW2
 10
14.33512375628644
 20
6.465182066950882
 30
0.0
 41
0.08
 42
0.08
 43
0.08
 50
90.0
  0
INSERT
  5
BE8
330
3CB
100
AcDbEntity
  8
0
370
    -2
100
AcDbBlockReference
  2
ARROW2
 10
14.33512375628644
 20
5.126941252717296
 30
0.0
 41
0.08
 42
0.08
 43
0.08
 50
270.0
  0
MTEXT
  5
BE9
330
3CB
100
AcDbEntity
  8
0
100
AcDbMText
 10
14.23417137533406
 20
5.796061659834092
 30
0.0
 40
0.08
 41
0.0
 71
     5
 72
     1
  1
\A1;1.34" [33.99mm]
  7
ROMANS
 11
0.0000000000000001
 21
1.0
 31
0.0
 73
     1
 44
1.0
1001
ACAD
1000
MTEXTBEGIN
1070
    73
1070
     1
1070
    44
1040
1.0
1070
    74
1070
     0
1000
MTEXTEND
  0
POINT
  5
BEA
330
3CB
100
AcDbEntity
  8
Defpoints
 62
     0
100
AcDbPoint
 10
14.03023377249512
 20
6.465182066950882
 30
0.0
  0
POINT
  5
BEB
330
3CB
100
AcDbEntity
  8
Defpoints
 62
     0
100
AcDbPoint
 10
14.03023377250234
 20
5.126941252717296
 30
0.0
  0
POINT
  5
BEC
330
3CB
100
AcDbEntity
  8
Defpoints
 62
     0
100
AcDbPoint
 10
14.33512375628644
 20
5.126941252717296
 30
0.0
  0
ENDBLK
  5
3CD
330
3CB
100
AcDbEntity
  8
0
100
AcDbBlockEnd
  0
BLOCK
  5
3E4
330
3E3
100
AcDbEntity
  8
0
100
AcDbBlockBegin
  2
*D7
 70
     1
 10
0.0
 20
0.0
 30
0.0
  3
*D7
  1

  0
LINE
  5
BED
330
3E3
100
AcDbEntity
  8
0
370
    -2
100
AcDbLine
 10
14.07023377249512
 20
5.126941252717296
 30
0.0
 11
14.37512375627922
 21
5.126941252717296
 31
0.0
  0
LINE
  5
BEE
330
3E3
100
AcDbEntity
  8
0
370
    -2
100
AcDbLine
 10
14.07023377250255
 20
3.746542267086981
 30
0.0
 11
14.37512375627922
 21
3.746542267086981
 31
0.0
  0
LINE
  5
BEF
330
3E3
100
AcDbEntity
  8
0
370
    -2
100
AcDbLine
 10
14.33512375627923
 20
5.046941252717296
 30
0.0
 11
14.33512375627922
 21
3.826542267086981
 31
0.0
  0
INSERT
  5
BF0
330
3E3
100
AcDbEntity
  8
0
370
    -2
100
AcDbBlockReference
  2
ARROW2
 10
14.33512375627923
 20
5.126941252717296
 30
0.0
 41
0.08
 42
0.08
 43
0.08
 50
90.0
  0
INSERT
  5
BF1
330
3E3
100
AcDbEntity
  8
0
370
    -2
100
AcDbBlockReference
  2
ARROW2
 10
14.33512375627922
 20
3.746542267086981
 30
0.0
 41
0.08
 42
0.08
 43
0.08
 50
270.0
  0
MTEXT
  5
BF2
330
3E3
100
AcDbEntity
  8
0
100
AcDbMText
 10
14.23417137532684
 20
4.436741759902141
 30
0.0
 40
0.08
 41
0.0
 71
     5
 72
     1
  1
\A1;1.38" [35.06mm]
  7
ROMANS
 11
0.0000000000000001
 21
1.0
 31
0.0
 73
     1
 44
1.0
1001
ACAD
1000
MTEXTBEGIN
1070
    73
1070
     1
1070
    44
1040
1.0
1070
    74
1070
     0
1000
MTEXTEND
  0
POINT
  5
BF3
330
3E3
100
AcDbEntity
  8
Defpoints
 62
     0
100
AcDbPoint
 10
14.03023377249512
 20
5.126941252717296
 30
0.0
  0
POINT
  5
BF4
330
3E3
100
AcDbEntity
  8
Defpoints
 62
     0
100
AcDbPoint
 10
14.03023377250256
 20
3.746542267086981
 30
0.0
  0
POINT
  5
BF5
330
3E3
100
AcDbEntity
  8
Defpoints
 62
     0
100
AcDbPoint
 10
14.33512375627922
 20
3.746542267086981
 30
0.0
  0
ENDBLK
  5
3E5
330
3E3
100
AcDbEntity
  8
0
100
AcDbBlockEnd
  0
BLOCK
  5
3FC
330
3FB
100
AcDbEntity
  8
0
100
AcDbBlockBegin
  2
*D8
 70
     1
 10
0.0
 20
0.0
 30
0.0
  3
*D8
  1

  0
LINE
  5
BF6
330
3FB
100
AcDbEntity
  8
0
370
    -2
100
AcDbLine
 10
14.03023377250977
 20
3.706542267086981
 30
0.0
 11
14.03023377250977
 21
3.380857519790112
 31
0.0
  0
LINE
  5
BF7
330
3FB
100
AcDbEntity
  8
0
370
    -2
100
AcDbLine
 10
5.925779577111143
 20
3.697648105813901
 30
0.0
 11
5.925779577111143
 21
3.380857519790112
 31
0.0
  0
LINE
  5
BF8
330
3FB
100
AcDbEntity
  8
0
370
    -2
100
AcDbLine
 10
13.95023377250977
 20
3.420857519790112
 30
0.0
 11
6.005779577111143
 21
3.420857519790112
 31
0.0
  0
INSERT
  5
BF9
330
3FB
100
AcDbEntity
  8
0
370
    -2
100
AcDbBlockReference
  2
ARROW2
 10
14.03023377250977
 20
3.420857519790112
 30
0.0
 41
0.08
 42
0.08
 43
0.08
  0
INSERT
  5
BFA
330
3FB
100
AcDbEntity
  8
0
370
    -2
100
AcDbBlockReference
  2
ARROW2
 10
5.925779577111143
 20
3.420857519790112
 30
0.0
 41
0.08
 42
0.08
 43
0.08
 50
180.0
  0
MTEXT
  5
BFB
330
3FB
100
AcDbEntity
  8
0
100
AcDbMText
 10
9.978006674810458
 20
3.521809900742494
 30
0.0
 40
0.08
 41
0.0
 71
     5
 72
     1
  1
\A1;8.10" [205.85mm]
  7
ROMANS
 73
     1
 44
1.0
1001
ACAD
1000
MTEXTBEGIN
1070
    73
1070
     1
1070
    44
1040
1.0
1070
    74
1070
     0
1000
MTEXTEND
  0
POINT
  5
BFC
330
3FB
100
AcDbEntity
  8
Defpoints
 62
     0
100
AcDbPoint
 10
14.03023377250977
 20
3.746542267086981
 30
0.0
  0
POINT
  5
BFD
330
3FB
100
AcDbEntity
  8
Defpoints
 62
     0
100
AcDbPoint
 10
5.925779577111143
 20
3.737648105813901
 30
0.0
  0
POINT
  5
BFE
330
3FB
100
AcDbEntity
  8
Defpoints
 62
     0
100
AcDbPoint
 10
5.925779577111143
 20
3.420857519790112
 30
0.0
  0
ENDBLK
  5
3FD
330
3FB
100
AcDbEntity
  8
0
100
AcDbBlockEnd
  0
BLOCK
  5
414
330
413
100
AcDbEntity
  8
0
100
AcDbBlockBegin
  2
*D9
 70
     1
 10
0.0
 20
0.0
 30
0.0
  3
*D9
  1

  0
LINE
  5
BFF
330
413
100
AcDbEntity
  8
0
370
    -2
100
AcDbLine
 10
14.03023377250234
 20
6.505182066970361
 30
0.0
 11
14.03023377250234
 21
6.713642820575743
 31
0.0
  0
LINE
  5
C00
330
413
100
AcDbEntity
  8
0
370
    -2
100
AcDbLine
 10
8.536385119827734
 20
5.836061659841579
 30
0.0
 11
8.536385119827734
 21
6.713642820575743
 31
0.0
  0
LINE
  5
C01
330
413
100
AcDbEntity
  8
0
370
    -2
100
AcDbLine
 10
13.95023377250234
 20
6.673642820575743
 30
0.0
 11
8.616385119827734
 21
6.673642820575743
 31
0.0
  0
INSERT
  5
C02
330
413
100
AcDbEntity
  8
0
370
    -2
100
AcDbBlockReference
  2
ARROW2
 10
14.03023377250234
 20
6.673642820575743
 30
0.0
 41
0.08
 42
0.08
 43
0.08
  0
INSERT
  5
C03
330
413
100
AcDbEntity
  8
0
370
    -2
100
AcDbBlockReference
  2
ARROW2
 10
8.536385119827734
 20
6.673642820575743
 30
0.0
 41
0.08
 42
0.08
 43
0.08
 50
180.0
  0
MTEXT
  5
C04
330
413
100
AcDbEntity
  8
0
100
AcDbMText
 10
11.28330944616503
 20
6.774595201528124
 30
0.0
 40
0.08
 41
0.0
 71
     5
 72
     1
  1
\A1;5.49" [139.54mm]
  7
ROMANS
 73
     1
 44
1.0
1001
ACAD
1000
MTEXTBEGIN
1070
    73
1070
     1
1070
    44
1040
1.0
1070
    74
1070
     0
1000
MTEXTEND
  0
POINT
  5
C05
330
413
100
AcDbEntity
  8
Defpoints
 62
     0
100
AcDbPoint
 10
14.03023377250234
 20
6.465182066970361
 30
0.0
  0
POINT
  5
C06
330
413
100
AcDbEntity
  8
Defpoints
 62
     0
100
AcDbPoint
 10
8.536385119827734
 20
5.796061659841579
 30
0.0
  0
POINT
  5
C07
330
413
100
AcDbEntity
  8
Defpoints
 62
     0
100
AcDbPoint
 10
8.536385119827734
 20
6.673642820575743
 30
0.0
  0
ENDBLK
  5
415
330
413
100
AcDbEntity
  8
0
100
AcDbBlockEnd
  0
BLOCK
  5
42C
330
42B
100
AcDbEntity
  8
0
100
AcDbBlockBegin
  2
*D10
 70
     1
 10
0.0
 20
0.0
 30
0.0
  3
*D10
  1

  0
LINE
  5
5D4
330
42B
100
AcDbEntity
  8
0
370
    -2
100
AcDbLine
 10
3.249848364016557
 20
1.178255733027459
 30
0.0
 11
3.266276337510409
 21
0.8450289750320687
 31
0.0
  0
LINE
  5
5D5
330
42B
100
AcDbEntity
  8
0
370
    -2
100
AcDbLine
 10
13.07895131681796
 20
1.662827391523145
 30
0.0
 11
13.09537929031182
 21
1.329600633527754
 31
0.0
  0
LINE
  5
5D6
330
42B
100
AcDbEntity
  8
0
370
    -2
100
AcDbLine
 10
3.344209700759403
 20
0.8889196448002593
 30
0.0
 11
13.01350673654787
 21
1.365612922266035
 31
0.0
  0
INSERT
  5
5D7
330
42B
100
AcDbEntity
  8
0
370
    -2
100
AcDbBlockReference
  2
ARROW2
 10
3.264306742252931
 20
0.8849804542853043
 30
0.0
 41
0.08
 42
0.08
 43
0.08
 50
182.8223786817183
  0
INSERT
  5
5D8
330
42B
100
AcDbEntity
  8
0
370
    -2
100
AcDbBlockReference
  2
ARROW2
 10
13.09340969505434
 20
1.36955211278099
 30
0.0
 41
0.08
 42
0.08
 43
0.08
 50
2.822378681718325
  0
MTEXT
  5
5D9
330
42B
100
AcDbEntity
  8
0
100
AcDbMText
 10
8.173887335384764
 20
1.228096207362742
 30
0.0
 40
0.08
 41
0.0
 71
     5
 72
     1
  1
\A1;9.84" [249.96mm]
  7
ROMANS
 11
0.9987869813308922
 21
0.0492398814369392
 31
0.0
 73
     1
 44
1.0
1001
ACAD
1000
MTEXTBEGIN
1070
    73
1070
     1
1070
    44
1040
1.0
1070
    74
1070
     0
1000
MTEXTEND
  0
POINT
  5
5DA
330
42B
100
AcDbEntity
  8
Defpoints
 62
     0
100
AcDbPoint
 10
3.247878768759079
 20
1.218207212280695
 30
0.0
  0
POINT
  5
5DB
330
42B
100
AcDbEntity
  8
Defpoints
 62
     0
100
AcDbPoint
 10
13.07698172156049
 20
1.702778870776381
 30
0.0
  0
POINT
  5
5DC
330
42B
100
AcDbEntity
  8
Defpoints
 62
     0
100
AcDbPoint
 10
13.09340969505434
 20
1.36955211278099
 30
0.0
  0
ENDBLK
  5
42D
330
42B
100
AcDbEntity
  8
0
100
AcDbBlockEnd
  0
BLOCK
  5
444
330
443
100
AcDbEntity
  8
0
100
AcDbBlockBegin
  2
*D11
 70
     1
 10
0.0
 20
0.0
 30
0.0
  3
*D11
  1

  0
LINE
  5
5DD
330
443
100
AcDbEntity
  8
0
370
    -2
100
AcDbLine
 10
13.09020596225041
 20
1.665028116371005
 30
0.0
 11
13.19741397023122
 21
1.358985351839573
 31
0.0
  0
LINE
  5
5DE
330
443
100
AcDbEntity
  8
0
370
    -2
100
AcDbLine
 10
15.44906540805058
 20
2.491346041835227
 30
0.0
 11
15.55627341603139
 21
2.185303277303794
 31
0.0
  0
LINE
  5
5DF
330
443
100
AcDbEntity
  8
0
370
    -2
100
AcDbLine
 10
13.25969123835205
 20
1.423184587624794
 30
0.0
 11
15.46754766653072
 21
2.196605550329324
 31
0.0
  0
INSERT
  5
5E0
330
443
100
AcDbEntity
  8
0
370
    -2
100
AcDbBlockReference
  2
ARROW2
 10
13.1841897295413
 20
1.396736106244948
 30
0.0
 41
0.08
 42
0.08
 43
0.08
 50
199.3055623893854
  0
INSERT
  5
5E1
330
443
100
AcDbEntity
  8
0
370
    -2
100
AcDbBlockReference
  2
ARROW2
 10
15.54304917534147
 20
2.223054031709169
 30
0.0
 41
0.08
 42
0.08
 43
0.08
 50
19.30556238938539
  0
MTEXT
  5
5E2
330
443
100
AcDbEntity
  8
0
100
AcDbMText
 10
14.33024398784301
 20
1.905170782476342
 30
0.0
 40
0.08
 41
0.0
 71
     5
 72
     1
  1
\A1;2.50" [63.48mm]
  7
ROMANS
 11
0.9437688601343918
 21
0.3306060172480697
 31
0.0
 73
     1
 44
1.0
1001
ACAD
1000
MTEXTBEGIN
1070
    73
1070
     1
1070
    44
1040
1.0
1070
    74
1070
     0
1000
MTEXTEND
  0
POINT
  5
5E3
330
443
100
AcDbEntity
  8
Defpoints
 62
     0
100
AcDbPoint
 10
13.07698172156049
 20
1.702778870776381
 30
0.0
  0
POINT
  5
5E4
330
443
100
AcDbEntity
  8
Defpoints
 62
     0
100
AcDbPoint
 10
15.43584116736066
 20
2.529096796240603
 30
0.0
  0
POINT
  5
5E5
330
443
100
AcDbEntity
  8
Defpoints
 62
     0
100
AcDbPoint
 10
15.54304917534147
 20
2.223054031709169
 30
0.0
  0
ENDBLK
  5
445
330
443
100
AcDbEntity
  8
0
100
AcDbBlockEnd
  0
BLOCK
  5
45C
330
45B
100
AcDbEntity
  8
0
100
AcDbBlockBegin
  2
*D12
 70
     1
 10
0.0
 20
0.0
 30
0.0
  3
*D12
  1

  0
LINE
  5
5E6
330
45B
100
AcDbEntity
  8
0
370
    -2
100
AcDbLine
 10
15.39768730418906
 20
8.343774984810915
 30
0.0
 11
15.49995062290356
 21
8.610571804046356
 31
0.0
  0
LINE
  5
5E7
330
45B
100
AcDbEntity
  8
0
370
    -2
100
AcDbLine
 10
13.19402218813236
 20
9.188440632434168
 30
0.0
 11
13.29628550684686
 21
9.455237451669608
 31
0.0
  0
LINE
  5
5E8
330
45B
100
AcDbEntity
  8
0
370
    -2
100
AcDbLine
 10
15.41093374358599
 20
8.601854281659743
 30
0.0
 11
13.35666965234669
 21
9.389254461647521
 31
0.0
  0
INSERT
  5
5E9
330
45B
100
AcDbEntity
  8
0
370
    -2
100
AcDbBlockReference
  2
ARROW2
 10
15.48563425599469
 20
8.573221547842006
 30
0.0
 41
0.08
 42
0.08
 43
0.08
 50
339.0281534372974
  0
INSERT
  5
5EA
330
45B
100
AcDbEntity
  8
0
370
    -2
100
AcDbBlockReference
  2
ARROW2
 10
13.28196913993799
 20
9.417887195465258
 30
0.0
 41
0.08
 42
0.08
 43
0.08
 50
159.0281534372974
  0
MTEXT
  5
5EB
330
45B
100
AcDbEntity
  8
0
100
AcDbMText
 10
14.41993348111729
 20
9.089819303978897
 30
0.0
 40
0.08
 41
0.0
 71
     5
 72
     1
  1
\A1;2.36" [59.94mm]
  7
ROMANS
 11
0.9337564051087715
 21
-0.3579091727217168
 31
0.0
 73
     1
 44
1.0
1001
ACAD
1000
MTEXTBEGIN
1070
    73
1070
     1
1070
    44
1040
1.0
1070
    74
1070
     0
1000
MTEXTEND
  0
POINT
  5
5EC
330
45B
100
AcDbEntity
  8
Defpoints
 62
     0
100
AcDbPoint
 10
15.3833709372802
 20
8.306424728606565
 30
0.0
  0
POINT
  5
5ED
330
45B
100
AcDbEntity
  8
Defpoints
 62
     0
100
AcDbPoint
 10
13.1797058212235
 20
9.151090376229818
 30
0.0
  0
POINT
  5
5EE
330
45B
100
AcDbEntity
  8
Defpoints
 62
     0
100
AcDbPoint
 10
13.28196913993799
 20
9.417887195465258
 30
0.0
  0
ENDBLK
  5
45D
330
45B
100
AcDbEntity
  8
0
100
AcDbBlockEnd
  0
BLOCK
  5
474
330
473
100
AcDbEntity
  8
0
100
AcDbBlockBegin
  2
*D13
 70
     1
 10
0.0
 20
0.0
 30
0.0
  3
*D13
  1

  0
LINE
  5
5EF
330
473
100
AcDbEntity
  8
0
370
    -2
100
AcDbLine
 10
13.18324216006122
 20
9.19093374842175
 30
0.0
 11
13.2095896495402
 21
9.487786758782188
 31
0.0
  0
LINE
  5
5F0
330
473
100
AcDbEntity
  8
0
370
    -2
100
AcDbLine
 10
4.490983421976942
 20
9.962423973069249
 30
0.0
 11
4.517330911455923
 21
10.25927698342969
 31
0.0
  0
LINE
  5
5F1
330
473
100
AcDbEntity
  8
0
370
    -2
100
AcDbLine
 10
13.12636656631861
 20
9.455016064265713
 30
0.0
 11
4.593481317002058
 21
10.2123609335623
 31
0.0
  0
INSERT
  5
5F2
330
473
100
AcDbEntity
  8
0
370
    -2
100
AcDbBlockReference
  2
ARROW2
 10
13.20605331070248
 20
9.447943386590258
 30
0.0
 41
0.08
 42
0.08
 43
0.08
 50
354.9279458058658
  0
INSERT
  5
5F3
330
473
100
AcDbEntity
  8
0
370
    -2
100
AcDbBlockReference
  2
ARROW2
 10
4.513794572618195
 20
10.21943361123776
 30
0.0
 41
0.08
 42
0.08
 43
0.08
 50
174.9279458058658
  0
MTEXT
  5
5F4
330
473
100
AcDbEntity
  8
0
100
AcDbMText
 10
8.868848987298411
 20
9.934245581112692
 30
0.0
 40
0.08
 41
0.0
 71
     5
 72
     1
  1
\A1;8.73" [221.65mm]
  7
ROMANS
 11
0.9960843047982866
 21
-0.0884084709431976
 31
0.0
 73
     1
 44
1.0
1001
ACAD
1000
MTEXTBEGIN
1070
    73
1070
     1
1070
    44
1040
1.0
1070
    74
1070
     0
1000
MTEXTEND
  0
POINT
  5
5F5
330
473
100
AcDbEntity
  8
Defpoints
 62
     0
100
AcDbPoint
 10
13.17970582122349
 20
9.15109037622982
 30
0.0
  0
POINT
  5
5F6
330
473
100
AcDbEntity
  8
Defpoints
 62
     0
100
AcDbPoint
 10
4.487447083139214
 20
9.922580600877319
 30
0.0
  0
POINT
  5
5F7
330
473
100
AcDbEntity
  8
Defpoints
 62
     0
100
AcDbPoint
 10
4.513794572618195
 20
10.21943361123776
 30
0.0
  0
ENDBLK
  5
475
330
473
100
AcDbEntity
  8
0
100
AcDbBlockEnd
  0
BLOCK
  5
48C
330
48B
100
AcDbEntity
  8
0
100
AcDbBlockBegin
  2
*D14
 70
     1
 10
0.0
 20
0.0
 30
0.0
  3
*D14
  1

  0
LINE
  5
BB7
330
48B
100
AcDbEntity
  8
0
370
    -2
100
AcDbLine
 10
7.05830207731021
 20
7.924334377365463
 30
0.0
 11
6.955834801065025
 21
8.233082620585951
 31
0.0
  0
LINE
  5
BB8
330
48B
100
AcDbEntity
  8
0
370
    -2
100
AcDbLine
 10
2.889671142058245
 20
6.54085036737987
 30
0.0
 11
2.78720386581306
 21
6.849598610600358
 31
0.0
  0
LINE
  5
BB9
330
48B
100
AcDbEntity
  8
0
370
    -2
100
AcDbLine
 10
6.892506524097539
 20
8.169919899489329
 30
0.0
 11
2.875731008870848
 21
6.836833621684341
 31
0.0
  0
INSERT
  5
BBA
330
48B
100
AcDbEntity
  8
0
370
    -2
100
AcDbBlockReference
  2
ARROW2
 10
6.968434234110176
 20
8.195118765579632
 30
0.0
 41
0.08
 42
0.08
 43
0.08
 50
18.35995813265247
  0
INSERT
  5
BBB
330
48B
100
AcDbEntity
  8
0
370
    -2
100
AcDbBlockReference
  2
ARROW2
 10
2.799803298858211
 20
6.811634755594039
 30
0.0
 41
0.08
 42
0.08
 43
0.08
 50
198.3599581326524
  0
MTEXT
  5
BBC
330
48B
100
AcDbEntity
  8
0
100
AcDbMText
 10
4.85232019737024
 20
7.599190299412306
 30
0.0
 40
0.08
 41
0.0
 71
     5
 72
     1
  1
\A1;4.39" [111.56mm]
  7
ROMANS
 11
0.949096375157956
 21
0.3149858261287779
 31
0.0
 73
     1
 44
1.0
1001
ACAD
1000
MTEXTBEGIN
1070
    73
1070
     1
1070
    44
1040
1.0
1070
    74
1070
     0
1000
MTEXTEND
  0
POINT
  5
BBD
330
48B
100
AcDbEntity
  8
Defpoints
 62
     0
100
AcDbPoint
 10
7.070901510355361
 20
7.886370522359145
 30
0.0
  0
POINT
  5
BBE
330
48B
100
AcDbEntity
  8
Defpoints
 62
     0
100
AcDbPoint
 10
2.902270575103396
 20
6.502886512373551
 30
0.0
  0
POINT
  5
BBF
330
48B
100
AcDbEntity
  8
Defpoints
 62
     0
100
AcDbPoint
 10
2.799803298858211
 20
6.811634755594039
 30
0.0
  0
ENDBLK
  5
48D
330
48B
100
AcDbEntity
  8
0
100
AcDbBlockEnd
  0
BLOCK
  5
4A4
330
4A3
100
AcDbEntity
  8
0
100
AcDbBlockBegin
  2
*D15
 70
     1
 10
0.0
 20
0.0
 30
0.0
  3
*D15
  1

  0
LINE
  5
C08
330
4A3
100
AcDbEntity
  8
0
370
    -2
100
AcDbLine
 10
2.862270575103397
 20
6.502886512373551
 30
0.0
 11
2.773125879889619
 21
6.502886512373551
 31
0.0
  0
LINE
  5
C09
330
4A3
100
AcDbEntity
  8
0
370
    -2
100
AcDbLine
 10
2.862270575123768
 20
2.723361747998531
 30
0.0
 11
2.773125879889618
 21
2.723361747998531
 31
0.0
  0
LINE
  5
C0A
330
4A3
100
AcDbEntity
  8
0
370
    -2
100
AcDbLine
 10
2.813125879889619
 20
6.422886512373551
 30
0.0
 11
2.813125879889618
 21
2.803361747998531
 31
0.0
  0
INSERT
  5
C0B
330
4A3
100
AcDbEntity
  8
0
370
    -2
100
AcDbBlockReference
  2
ARROW2
 10
2.813125879889619
 20
6.502886512373551
 30
0.0
 41
0.08
 42
0.08
 43
0.08
 50
90.0
  0
INSERT
  5
C0C
330
4A3
100
AcDbEntity
  8
0
370
    -2
100
AcDbBlockReference
  2
ARROW2
 10
2.813125879889618
 20
2.723361747998531
 30
0.0
 41
0.08
 42
0.08
 43
0.08
 50
270.0
  0
MTEXT
  5
C0D
330
4A3
100
AcDbEntity
  8
0
100
AcDbMText
 10
2.712173498937237
 20
4.613124130186042
 30
0.0
 40
0.08
 41
0.0
 71
     5
 72
     1
  1
\A1;3.78" [96.00mm]
  7
ROMANS
 11
0.0000000000000001
 21
1.0
 31
0.0
 73
     1
 44
1.0
1001
ACAD
1000
MTEXTBEGIN
1070
    73
1070
     1
1070
    44
1040
1.0
1070
    74
1070
     0
1000
MTEXTEND
  0
POINT
  5
C0E
330
4A3
100
AcDbEntity
  8
Defpoints
 62
     0
100
AcDbPoint
 10
2.902270575103397
 20
6.502886512373551
 30
0.0
  0
POINT
  5
C0F
330
4A3
100
AcDbEntity
  8
Defpoints
 62
     0
100
AcDbPoint
 10
2.902270575123768
 20
2.723361747998531
 30
0.0
  0
POINT
  5
C10
330
4A3
100
AcDbEntity
  8
Defpoints
 62
     0
100
AcDbPoint
 10
2.813125879889618
 20
2.723361747998531
 30
0.0
  0
ENDBLK
  5
4A5
330
4A3
100
AcDbEntity
  8
0
100
AcDbBlockEnd
  0
BLOCK
  5
4BC
330
4BB
100
AcDbEntity
  8
0
100
AcDbBlockBegin
  2
*D16
 70
     1
 10
0.0
 20
0.0
 30
0.0
  3
*D16
  1

  0
LINE
  5
CCE
330
4BB
100
AcDbEntity
  8
0
370
    -2
100
AcDbLine
 10
8.315669003039261
 20
4.044102279197295
 30
0.0
 11
8.081111974258249
 21
4.044102279197295
 31
0.0
  0
LINE
  5
CCF
330
4BB
100
AcDbEntity
  8
0
370
    -2
100
AcDbLine
 10
8.315669003039253
 20
6.874102279197296
 30
0.0
 11
8.081111974258249
 21
6.874102279197296
 31
0.0
  0
LINE
  5
CD0
330
4BB
100
AcDbEntity
  8
0
370
    -2
100
AcDbLine
 10
8.121111974258248
 20
4.124102279197295
 30
0.0
 11
8.121111974258248
 21
6.794102279197296
 31
0.0
  0
INSERT
  5
CD1
330
4BB
100
AcDbEntity
  8
0
370
    -2
100
AcDbBlockReference
  2
ARROW2
 10
8.121111974258248
 20
4.044102279197295
 30
0.0
 41
0.08
 42
0.08
 43
0.08
 50
270.0
  0
INSERT
  5
CD2
330
4BB
100
AcDbEntity
  8
0
370
    -2
100
AcDbBlockReference
  2
ARROW2
 10
8.121111974258248
 20
6.874102279197296
 30
0.0
 41
0.08
 42
0.08
 43
0.08
 50
90.0
  0
MTEXT
  5
CD3
330
4BB
100
AcDbEntity
  8
0
100
AcDbMText
 10
8.020159593305866
 20
5.459102279197296
 30
0.0
 40
0.08
 41
0.0
 71
     5
 72
     1
  1
\A1;2.83" [71.88mm]
  7
ROMANS
 11
0.0000000000000001
 21
1.0
 31
0.0
 73
     1
 44
1.0
1001
ACAD
1000
MTEXTBEGIN
1070
    73
1070
     1
1070
    44
1040
1.0
1070
    74
1070
     0
1000
MTEXTEND
  0
POINT
  5
CD4
330
4BB
100
AcDbEntity
  8
Defpoints
 62
     0
100
AcDbPoint
 10
8.35566900303926
 20
4.044102279197295
 30
0.0
  0
POINT
  5
CD5
330
4BB
100
AcDbEntity
  8
Defpoints
 62
     0
100
AcDbPoint
 10
8.355669003039253
 20
6.874102279197296
 30
0.0
  0
POINT
  5
CD6
330
4BB
100
AcDbEntity
  8
Defpoints
 62
     0
100
AcDbPoint
 10
8.121111974258248
 20
6.874102279197296
 30
0.0
  0
ENDBLK
  5
4BD
330
4BB
100
AcDbEntity
  8
0
100
AcDbBlockEnd
  0
BLOCK
  5
4DD
330
4DC
100
AcDbEntity
  8
0
100
AcDbBlockBegin
  2
*D17
 70
     1
 10
0.0
 20
0.0
 30
0.0
  3
*D17
  1

  0
LINE
  5
CD7
330
4DC
100
AcDbEntity
  8
0
370
    -2
100
AcDbLine
 10
4.233376760603754
 20
4.004102279197291
 30
0.0
 11
4.233376760603754
 21
3.811020835544977
 31
0.0
  0
LINE
  5
CD8
330
4DC
100
AcDbEntity
  8
0
370
    -2
100
AcDbLine
 10
8.35566900303926
 20
4.004102279197295
 30
0.0
 11
8.35566900303926
 21
3.811020835544977
 31
0.0
  0
LINE
  5
CD9
330
4DC
100
AcDbEntity
  8
0
370
    -2
100
AcDbLine
 10
4.313376760603754
 20
3.851020835544977
 30
0.0
 11
8.27566900303926
 21
3.851020835544977
 31
0.0
  0
INSERT
  5
CDA
330
4DC
100
AcDbEntity
  8
0
370
    -2
100
AcDbBlockReference
  2
ARROW2
 10
4.233376760603754
 20
3.851020835544977
 30
0.0
 41
0.08
 42
0.08
 43
0.08
 50
180.0
  0
INSERT
  5
CDB
330
4DC
100
AcDbEntity
  8
0
370
    -2
100
AcDbBlockReference
  2
ARROW2
 10
8.35566900303926
 20
3.851020835544977
 30
0.0
 41
0.08
 42
0.08
 43
0.08
  0
MTEXT
  5
CDC
330
4DC
100
AcDbEntity
  8
0
100
AcDbMText
 10
6.294522881821507
 20
3.951973216497358
 30
0.0
 40
0.08
 41
0.0
 71
     5
 72
     1
  1
\A1;4.12" [104.71mm]
  7
ROMANS
 73
     1
 44
1.0
1001
ACAD
1000
MTEXTBEGIN
1070
    73
1070
     1
1070
    44
1040
1.0
1070
    74
1070
     0
1000
MTEXTEND
  0
POINT
  5
CDD
330
4DC
100
AcDbEntity
  8
Defpoints
 62
     0
100
AcDbPoint
 10
4.233376760603754
 20
4.044102279197291
 30
0.0
  0
POINT
  5
CDE
330
4DC
100
AcDbEntity
  8
Defpoints
 62
     0
100
AcDbPoint
 10
8.35566900303926
 20
4.044102279197295
 30
0.0
  0
POINT
  5
CDF
330
4DC
100
AcDbEntity
  8
Defpoints
 62
     0
100
AcDbPoint
 10
8.35566900303926
 20
3.851020835544977
 30
0.0
  0
ENDBLK
  5
4DE
330
4DC
100
AcDbEntity
  8
0
100
AcDbBlockEnd
  0
BLOCK
  5
4F5
330
4F4
100
AcDbEntity
  8
0
100
AcDbBlockBegin
  2
*D18
 70
     1
 10
0.0
 20
0.0
 30
0.0
  3
*D18
  1

  0
LINE
  5
CE0
330
4F4
100
AcDbEntity
  8
0
370
    -2
100
AcDbLine
 10
4.23337676060375
 20
6.834102279197286
 30
0.0
 11
4.23337676060375
 21
5.419102279197288
 31
0.0
  0
LINE
  5
CE1
330
4F4
100
AcDbEntity
  8
0
370
    -2
100
AcDbLine
 10
5.111335840419947
 20
6.834102279197289
 30
0.0
 11
5.111335840419947
 21
5.419102279197288
 31
0.0
  0
LINE
  5
CE2
330
4F4
100
AcDbEntity
  8
0
370
    -2
100
AcDbLine
 10
5.031335840419947
 20
5.459102279197288
 30
0.0
 11
4.31337676060375
 21
5.459102279197288
 31
0.0
  0
LINE
  5
CE3
330
4F4
100
AcDbEntity
  8
0
370
    -2
100
AcDbLine
 10
4.23337676060375
 20
5.459102279197288
 30
0.0
 11
2.926968298550713
 21
5.459102279197288
 31
0.0
  0
INSERT
  5
CE4
330
4F4
100
AcDbEntity
  8
0
370
    -2
100
AcDbBlockReference
  2
ARROW2
 10
5.111335840419947
 20
5.459102279197288
 30
0.0
 41
0.08
 42
0.08
 43
0.08
  0
INSERT
  5
CE5
330
4F4
100
AcDbEntity
  8
0
370
    -2
100
AcDbBlockReference
  2
ARROW2
 10
4.23337676060375
 20
5.459102279197288
 30
0.0
 41
0.08
 42
0.08
 43
0.08
 50
180.0
  0
MTEXT
  5
CE6
330
4F4
100
AcDbEntity
  8
0
100
AcDbMText
 10
3.490777822360238
 20
5.56005466014967
 30
0.0
 40
0.08
 41
0.0
 71
     5
 72
     1
  1
\A1;0.88" [22.30mm]
  7
ROMANS
 73
     1
 44
1.0
1001
ACAD
1000
MTEXTBEGIN
1070
    73
1070
     1
1070
    44
1040
1.0
1070
    74
1070
     0
1000
MTEXTEND
  0
POINT
  5
CE7
330
4F4
100
AcDbEntity
  8
Defpoints
 62
     0
100
AcDbPoint
 10
4.23337676060375
 20
6.874102279197286
 30
0.0
  0
POINT
  5
CE8
330
4F4
100
AcDbEntity
  8
Defpoints
 62
     0
100
AcDbPoint
 10
5.111335840419947
 20
6.874102279197289
 30
0.0
  0
POINT
  5
CE9
330
4F4
100
AcDbEntity
  8
Defpoints
 62
     0
100
AcDbPoint
 10
5.111335840419947
 20
5.459102279197288
 30
0.0
  0
ENDBLK
  5
4F6
330
4F4
100
AcDbEntity
  8
0
100
AcDbBlockEnd
  0
BLOCK
  5
50F
330
50E
100
AcDbEntity
  8
0
100
AcDbBlockBegin
  2
*D19
 70
     1
 10
0.0
 20
0.0
 30
0.0
  3
*D19
  1

  0
LINE
  5
CF5
330
50E
100
AcDbEntity
  8
0
370
    -2
100
AcDbLine
 10
5.111335840419947
 20
6.914102279197289
 30
0.0
 11
5.111335840419947
 21
7.095655213449591
 31
0.0
  0
LINE
  5
CF6
330
50E
100
AcDbEntity
  8
0
370
    -2
100
AcDbLine
 10
5.591469676227866
 20
6.914102279197289
 30
0.0
 11
5.591469676227866
 21
7.095655213449591
 31
0.0
  0
LINE
  5
CF7
330
50E
100
AcDbEntity
  8
0
370
    -2
100
AcDbLine
 10
5.191335840419947
 20
7.055655213449591
 30
0.0
 11
5.511469676227866
 21
7.055655213449591
 31
0.0
  0
LINE
  5
CF8
330
50E
100
AcDbEntity
  8
0
370
    -2
100
AcDbLine
 10
5.351402758323906
 20
7.055655213449591
 30
0.0
 11
5.923497996419144
 21
7.216607594401971
 31
0.0
  0
LINE
  5
CF9
330
50E
100
AcDbEntity
  8
0
370
    -2
100
AcDbLine
 10
5.923497996419144
 20
7.216607594401971
 30
0.0
 11
7.051117044038193
 21
7.216607594401971
 31
0.0
  0
MTEXT
  5
CFA
330
50E
100
AcDbEntity
  8
0
100
AcDbMText
 10
6.487307520228668
 20
7.317559975354352
 30
0.0
 40
0.08
 41
0.0
 71
     5
 72
     1
  1
\A1;0.48" [12.20mm]
  7
ROMANS
 73
     1
 44
1.0
1001
ACAD
1000
MTEXTBEGIN
1070
    73
1070
     1
1070
    44
1040
1.0
1070
    74
1070
     0
1000
MTEXTEND
  0
INSERT
  5
CFB
330
50E
100
AcDbEntity
  8
0
370
    -2
100
AcDbBlockReference
  2
ARROW2
 10
5.111335840419947
 20
7.055655213449591
 30
0.0
 41
0.08
 42
0.08
 43
0.08
 50
180.0
  0
INSERT
  5
CFC
330
50E
100
AcDbEntity
  8
0
370
    -2
100
AcDbBlockReference
  2
ARROW2
 10
5.591469676227866
 20
7.055655213449591
 30
0.0
 41
0.08
 42
0.08
 43
0.08
  0
POINT
  5
CFD
330
50E
100
AcDbEntity
  8
Defpoints
 62
     0
100
AcDbPoint
 10
5.111335840419947
 20
6.874102279197289
 30
0.0
  0
POINT
  5
CFE
330
50E
100
AcDbEntity
  8
Defpoints
 62
     0
100
AcDbPoint
 10
5.591469676227866
 20
6.874102279197289
 30
0.0
  0
POINT
  5
CFF
330
50E
100
AcDbEntity
  8
Defpoints
 62
     0
100
AcDbPoint
 10
5.591469676227866
 20
7.055655213449591
 30
0.0
  0
ENDBLK
  5
510
330
50E
100
AcDbEntity
  8
0
100
AcDbBlockEnd
  0
BLOCK
  5
54D
330
54C
100
AcDbEntity
  8
0
100
AcDbBlockBegin
  2
*D20
 70
     1
 10
0.0
 20
0.0
 30
0.0
  3
*D20
  1

  0
LINE
  5
700
330
54C
100
AcDbEntity
  8
0
370
    -2
100
AcDbLine
 10
0.6482740119498145
 20
10.47956456862095
 30
0.0
 11
0.6482740119498124
 21
0.6395645686209547
 31
0.0
  0
INSERT
  5
701
330
54C
100
AcDbEntity
  8
0
370
    -2
100
AcDbBlockReference
  2
ARROW2
 10
0.6482740119498145
 20
10.55956456862095
 30
0.0
 41
0.08
 42
0.08
 43
0.08
 50
90.0
  0
INSERT
  5
702
330
54C
100
AcDbEntity
  8
0
370
    -2
100
AcDbBlockReference
  2
ARROW2
 10
0.6482740119498124
 20
0.5595645686209548
 30
0.0
 41
0.08
 42
0.08
 43
0.08
 50
270.0
  0
MTEXT
  5
703
330
54C
100
AcDbEntity
  8
0
100
AcDbMText
 10
0.5473216309974315
 20
5.559564568620954
 30
0.0
 40
0.08
 41
0.0
 71
     5
 72
     1
  1
\A1;10.00" [254.00mm]
  7
ROMANS
 11
0.0000000000000001
 21
1.0
 31
0.0
 73
     1
 44
1.0
1001
ACAD
1000
MTEXTBEGIN
1070
    73
1070
     1
1070
    44
1040
1.0
1070
    74
1070
     0
1000
MTEXTEND
  0
POINT
  5
704
330
54C
100
AcDbEntity
  8
Defpoints
 62
     0
100
AcDbPoint
 10
0.6482740119498125
 20
10.55956456862095
 30
0.0
  0
POINT
  5
705
330
54C
100
AcDbEntity
  8
Defpoints
 62
     0
100
AcDbPoint
 10
0.6482740119498125
 20
0.5595645686209548
 30
0.0
  0
POINT
  5
706
330
54C
100
AcDbEntity
  8
Defpoints
 62
     0
100
AcDbPoint
 10
0.6482740119498124
 20
0.5595645686209548
 30
0.0
  0
ENDBLK
  5
54E
330
54C
100
AcDbEntity
  8
0
100
AcDbBlockEnd
  0
BLOCK
  5
C13
330
C12
100
AcDbEntity
  8
0
100
AcDbBlockBegin
  2
*D22
 70
     1
 10
0.0
 20
0.0
 30
0.0
  3
*D22
  1

  0
LINE
  5
C1F
330
C12
100
AcDbEntity
  8
0
370
    -2
100
AcDbLine
 10
7.110901510355362
 20
7.886370522359145
 30
0.0
 11
7.263813615191084
 21
7.886370522359145
 31
0.0
  0
LINE
  5
C20
330
C12
100
AcDbEntity
  8
0
370
    -2
100
AcDbLine
 10
6.074515143827397
 20
3.746542267049514
 30
0.0
 11
7.263813615191083
 21
3.746542267049514
 31
0.0
  0
LINE
  5
C21
330
C12
100
AcDbEntity
  8
0
370
    -2
100
AcDbLine
 10
7.223813615191084
 20
7.806370522359145
 30
0.0
 11
7.223813615191083
 21
3.826542267049514
 31
0.0
  0
INSERT
  5
C22
330
C12
100
AcDbEntity
  8
0
370
    -2
100
AcDbBlockReference
  2
ARROW2
 10
7.223813615191084
 20
7.886370522359145
 30
0.0
 41
0.08
 42
0.08
 43
0.08
 50
90.0
  0
INSERT
  5
C23
330
C12
100
AcDbEntity
  8
0
370
    -2
100
AcDbBlockReference
  2
ARROW2
 10
7.223813615191083
 20
3.746542267049514
 30
0.0
 41
0.08
 42
0.08
 43
0.08
 50
270.0
  0
MTEXT
  5
C24
330
C12
100
AcDbEntity
  8
0
100
AcDbMText
 10
7.122861234238701
 20
5.816456394704331
 30
0.0
 40
0.08
 41
0.0
 71
     5
 72
     1
  1
\A1;4.14" [105.15mm]
  7
ROMANS
 11
0.0000000000000001
 21
1.0
 31
0.0
 73
     1
 44
1.0
1001
ACAD
1000
MTEXTBEGIN
1070
    73
1070
     1
1070
    44
1040
1.0
1070
    74
1070
     0
1000
MTEXTEND
  0
POINT
  5
C25
330
C12
100
AcDbEntity
  8
Defpoints
 62
     0
100
AcDbPoint
 10
7.070901510355362
 20
7.886370522359145
 30
0.0
  0
POINT
  5
C26
330
C12
100
AcDbEntity
  8
Defpoints
 62
     0
100
AcDbPoint
 10
6.034515143827397
 20
3.746542267049514
 30
0.0
  0
POINT
  5
C27
330
C12
100
AcDbEntity
  8
Defpoints
 62
     0
100
AcDbPoint
 10
7.223813615191083
 20
3.746542267049514
 30
0.0
  0
ENDBLK
  5
C14
330
C12
100
AcDbEntity
  8
0
100
AcDbBlockEnd
  0
BLOCK
  5
C2B
330
C2A
100
AcDbEntity
  8
0
100
AcDbBlockBegin
  2
*D23
 70
     1
 10
0.0
 20
0.0
 30
0.0
  3
*D23
  1

  0
LINE
  5
C37
330
C2A
100
AcDbEntity
  8
0
370
    -2
100
AcDbLine
 10
3.209341694251019
 20
1.207488355608449
 30
0.0
 11
2.156858047302724
 21
0.9147463271713252
 31
0.0
  0
LINE
  5
C38
330
C2A
100
AcDbEntity
  8
0
370
    -2
100
AcDbLine
 10
1.91437621048097
 20
5.863225703288945
 30
0.0
 11
0.861892563532675
 21
5.57048367485182
 31
0.0
  0
LINE
  5
C39
330
C2A
100
AcDbEntity
  8
0
370
    -2
100
AcDbLine
 10
2.173957408466292
 20
1.002539332859693
 30
0.0
 11
0.9218673513852293
 21
5.504128382507946
 31
0.0
  0
INSERT
  5
C3A
330
C2A
100
AcDbEntity
  8
0
370
    -2
100
AcDbBlockReference
  2
ARROW2
 10
2.195395121810785
 20
0.9254651838435719
 30
0.0
 41
0.08
 42
0.08
 43
0.08
 50
285.5435899208061
  0
INSERT
  5
C3B
330
C2A
100
AcDbEntity
  8
0
370
    -2
100
AcDbBlockReference
  2
ARROW2
 10
0.9004296380407359
 20
5.581202531524068
 30
0.0
 41
0.08
 42
0.08
 43
0.08
 50
105.5435899208061
  0
MTEXT
  5
C3C
330
C2A
100
AcDbEntity
  8
0
100
AcDbMText
 10
1.645172615588961
 20
3.280386210237585
 30
0.0
 40
0.08
 41
0.0
 71
     5
 72
     1
  1
\A1;4.83" [122.74mm]
  7
ROMANS
 11
0.2679714168061686
 21
-0.9634268627015206
 31
0.0
 73
     1
 44
1.0
1001
ACAD
1000
MTEXTBEGIN
1070
    73
1070
     1
1070
    44
1040
1.0
1070
    74
1070
     0
1000
MTEXTEND
  0
POINT
  5
C3D
330
C2A
100
AcDbEntity
  8
Defpoints
 62
     0
100
AcDbPoint
 10
3.247878768759079
 20
1.218207212280695
 30
0.0
  0
POINT
  5
C3E
330
C2A
100
AcDbEntity
  8
Defpoints
 62
     0
100
AcDbPoint
 10
1.952913284989031
 20
5.873944559961191
 30
0.0
  0
POINT
  5
C3F
330
C2A
100
AcDbEntity
  8
Defpoints
 62
     0
100
AcDbPoint
 10
0.9004296380407359
 20
5.581202531524068
 30
0.0
  0
ENDBLK
  5
C2C
330
C2A
100
AcDbEntity
  8
0
100
AcDbBlockEnd
  0
BLOCK
  5
C44
330
C43
100
AcDbEntity
  8
0
100
AcDbBlockBegin
  2
*D24
 70
     1
 10
0.0
 20
0.0
 30
0.0
  3
*D24
  1

  0
LINE
  5
C5A
330
C43
100
AcDbEntity
  8
0
370
    -2
100
AcDbLine
 10
3.210883394529399
 20
1.202997271925587
 30
0.0
 11
2.742706969896462
 21
1.010515491632578
 31
0.0
  0
LINE
  5
C5B
330
C43
100
AcDbEntity
  8
0
370
    -2
100
AcDbLine
 10
1.796737559427596
 20
4.642646157028751
 30
0.0
 11
1.328561134794657
 21
4.450164376735742
 31
0.0
  0
LINE
  5
C5C
330
C43
100
AcDbEntity
  8
0
370
    -2
100
AcDbLine
 10
2.749282463415925
 20
1.099716180447045
 30
0.0
 11
1.395976389734554
 21
4.391383568631491
 31
0.0
  0
INSERT
  5
C5D
330
C43
100
AcDbEntity
  8
0
370
    -2
100
AcDbBlockReference
  2
ARROW2
 10
2.779702344126142
 20
1.025725431987686
 30
0.0
 41
0.08
 42
0.08
 43
0.08
 50
292.3490767160869
  0
INSERT
  5
C5E
330
C43
100
AcDbEntity
  8
0
370
    -2
100
AcDbBlockReference
  2
ARROW2
 10
1.365556509024337
 20
4.46537431709085
 30
0.0
 41
0.08
 42
0.08
 43
0.08
 50
112.3490767160869
  0
MTEXT
  5
C5F
330
C43
100
AcDbEntity
  8
0
100
AcDbMText
 10
2.165998704393003
 20
2.783936866864065
 30
0.0
 40
0.08
 41
0.0
 71
     5
 72
     1
  1
\A1;3.72" [94.46mm]
  7
ROMANS
 11
0.380248508877709
 21
-0.9248843557419915
 31
0.0
 73
     1
 44
1.0
1001
ACAD
1000
MTEXTBEGIN
1070
    73
1070
     1
1070
    44
1040
1.0
1070
    74
1070
     0
1000
MTEXTEND
  0
POINT
  5
C60
330
C43
100
AcDbEntity
  8
Defpoints
 62
     0
100
AcDbPoint
 10
3.247878768759079
 20
1.218207212280695
 30
0.0
  0
POINT
  5
C61
330
C43
100
AcDbEntity
  8
Defpoints
 62
     0
100
AcDbPoint
 10
1.833732933657275
 20
4.657856097383859
 30
0.0
  0
POINT
  5
C62
330
C43
100
AcDbEntity
  8
Defpoints
 62
     0
100
AcDbPoint
 10
1.365556509024337
 20
4.46537431709085
 30
0.0
  0
ENDBLK
  5
C45
330
C43
100
AcDbEntity
  8
0
100
AcDbBlockEnd
  0
BLOCK
  5
C65
330
C64
100
AcDbEntity
  8
0
100
AcDbBlockBegin
  2
*D25
 70
     1
 10
0.0
 20
0.0
 30
0.0
  3
*D25
  1

  0
LINE
  5
C71
330
C64
100
AcDbEntity
  8
0
370
    -2
100
AcDbLine
 10
8.536385119827734
 20
5.796061659841579
 30
0.0
 11
8.536385119827734
 21
4.666869090210009
 31
0.0
  0
LINE
  5
C72
330
C64
100
AcDbEntity
  8
0
370
    -2
100
AcDbLine
 10
2.902270575106992
 20
5.796061659841579
 30
0.0
 11
2.902270575106992
 21
4.666869090210009
 31
0.0
  0
LINE
  5
C73
330
C64
100
AcDbEntity
  8
0
370
    -2
100
AcDbLine
 10
8.456385119827734
 20
4.706869090210009
 30
0.0
 11
2.982270575106992
 21
4.706869090210009
 31
0.0
  0
INSERT
  5
C74
330
C64
100
AcDbEntity
  8
0
370
    -2
100
AcDbBlockReference
  2
ARROW2
 10
8.536385119827734
 20
4.706869090210009
 30
0.0
 41
0.08
 42
0.08
 43
0.08
  0
INSERT
  5
C75
330
C64
100
AcDbEntity
  8
0
370
    -2
100
AcDbBlockReference
  2
ARROW2
 10
2.902270575106992
 20
4.706869090210009
 30
0.0
 41
0.08
 42
0.08
 43
0.08
 50
180.0
  0
MTEXT
  5
C76
330
C64
100
AcDbEntity
  8
0
100
AcDbMText
 10
5.719327847467363
 20
4.80782147116239
 30
0.0
 40
0.08
 41
0.0
 71
     5
 72
     1
  1
\A1;5.63" [143.11mm]
  7
ROMANS
 73
     1
 44
1.0
1001
ACAD
1000
MTEXTBEGIN
1070
    73
1070
     1
1070
    44
1040
1.0
1070
    74
1070
     0
1000
MTEXTEND
  0
POINT
  5
C77
330
C64
100
AcDbEntity
  8
Defpoints
 62
     0
100
AcDbPoint
 10
8.536385119827734
 20
5.836061659841579
 30
0.0
  0
POINT
  5
C78
330
C64
100
AcDbEntity
  8
Defpoints
 62
     0
100
AcDbPoint
 10
2.902270575106992
 20
5.836061659841579
 30
0.0
  0
POINT
  5
C79
330
C64
100
AcDbEntity
  8
Defpoints
 62
     0
100
AcDbPoint
 10
2.902270575106992
 20
4.706869090210009
 30
0.0
  0
ENDBLK
  5
C66
330
C64
100
AcDbEntity
  8
0
100
AcDbBlockEnd
  0
ENDSEC
  0
SECTION
  2
ENTITIES
  0
INSERT
  5
23B
330
1F
100
AcDbEntity
  8
0
100
AcDbBlockReference
 66
     1
  2
WD_M
 10
17.20911461338436
 20
-13.15705875836798
 30
0.0
  0
ATTRIB
  5
23C
330
23B
100
AcDbEntity
  8
0
100
AcDbText
 10
17.21171847695069
 20
-13.88772022310054
 30
0.0
 40
0.01
  1
0
  7
WD
100
AcDbAttribute
  2
XREF_STYLE
 70
     1
  0
ATTRIB
  5
23D
330
23B
100
AcDbEntity
  8
0
100
AcDbText
 10
17.21171847695069
 20
-13.90772022310055
 30
0.0
 40
0.01
  1
0
  7
WD
100
AcDbAttribute
  2
XREF_FLAGS
 70
     1
  0
ATTRIB
  5
23E
330
23B
100
AcDbEntity
  8
0
100
AcDbText
 10
17.21171847695069
 20
-13.92772022310055
 30
0.0
 40
0.01
  1
0
  7
WD
100
AcDbAttribute
  2
XREF_UNUSEDSTYLE
 70
     1
  0
ATTRIB
  5
23F
330
23B
100
AcDbEntity
  8
0
100
AcDbText
 10
17.21171847695069
 20
-13.94772022310055
 30
0.0
 40
0.01
  1

  7
WD
100
AcDbAttribute
  2
XREF_FILLWITH
 70
     1
  0
ATTRIB
  5
240
330
23B
100
AcDbEntity
  8
0
100
AcDbText
 10
17.21171847695069
 20
-13.96772022310054
 30
0.0
 40
0.01
  1
0
  7
WD
100
AcDbAttribute
  2
XREF_SORT
 70
     1
  0
ATTRIB
  5
241
330
23B
100
AcDbEntity
  8
0
100
AcDbText
 10
17.21171847695069
 20
-13.98772022310055
 30
0.0
 40
0.01
  1
,
  7
WD
100
AcDbAttribute
  2
XREF_TXTBTWN
 70
     1
  0
ATTRIB
  5
242
330
23B
100
AcDbEntity
  8
0
100
AcDbText
 10
17.21171847695069
 20
-14.00772022310055
 30
0.0
 40
0.01
  1
1
  7
WD
100
AcDbAttribute
  2
XREF_GRAPHIC
 70
     1
  0
ATTRIB
  5
243
330
23B
100
AcDbEntity
  8
0
100
AcDbText
 10
17.21171847695069
 20
-14.02772022310055
 30
0.0
 40
0.01
  1
0
  7
WD
100
AcDbAttribute
  2
XREF_GRAPHICSTYLE
 70
     1
  0
ATTRIB
  5
244
330
23B
100
AcDbEntity
  8
0
100
AcDbText
 10
17.21171847695069
 20
-14.04772022310054
 30
0.0
 40
0.01
  1
NO,NC,NONC
  7
WD
100
AcDbAttribute
  2
XREF_CONTACTMAP
 70
     1
  0
ATTRIB
  5
245
330
23B
100
AcDbEntity
  8
0
100
AcDbText
 10
17.21171847695069
 20
-14.06772022310055
 30
0.0
 40
0.01
  1
Standard
  7
WD
100
AcDbAttribute
  2
XREF_TBLSTYLE
 70
     1
  0
ATTRIB
  5
246
330
23B
100
AcDbEntity
  8
0
100
AcDbText
 10
17.21171847695069
 20
-14.08772022310055
 30
0.0
 40
0.01
  1
%T
  7
WD
100
AcDbAttribute
  2
XREF_TBLTITLE
 70
     1
  0
ATTRIB
  5
247
330
23B
100
AcDbEntity
  8
0
100
AcDbText
 10
17.21171847695069
 20
-14.10772022310055
 30
0.0
 40
0.01
  1
1,2,3,5
  7
WD
100
AcDbAttribute
  2
XREF_TBLINDEX
 70
     1
  0
ATTRIB
  5
248
330
23B
100
AcDbEntity
  8
0
100
AcDbText
 10
17.21171847695069
 20
-14.12772022310054
 30
0.0
 40
0.01
  1
W1,T1,TYPE,T2,W2,REF,SH,SHDWGNAM,FILENAME,FULLFILENAME
  7
WD
100
AcDbAttribute
  2
XREF_TBLFLDNAMS
 70
     1
  0
ATTRIB
  5
249
330
23B
100
AcDbEntity
  8
0
100
AcDbText
 10
17.21171847695069
 20
-14.14772022310054
 30
0.0
 40
0.01
  1
L,L,L,L,L,L,L,L,L,L
  7
WD
100
AcDbAttribute
  2
XREF_TBLCOLJUST
 70
     1
  0
ATTRIB
  5
24A
330
23B
100
AcDbEntity
  8
0
100
AcDbText
 10
17.21171847695069
 20
-14.16772022310055
 30
0.0
 40
0.01
  1
0.0
  7
WD
100
AcDbAttribute
  2
WNUM_OFFSET
 70
     1
  0
ATTRIB
  5
24B
330
23B
100
AcDbEntity
  8
0
100
AcDbText
 10
17.21171847695069
 20
-14.18772022310055
 30
0.0
 40
0.01
  1
1
  7
WD
100
AcDbAttribute
  2
WNUM_FLAGS
 70
     1
  0
ATTRIB
  5
24C
330
23B
100
AcDbEntity
  8
0
100
AcDbText
 10
17.21171847695069
 20
-14.20772022310054
 30
0.0
 40
0.01
  1

  7
WD
100
AcDbAttribute
  2
WNUM_GAP
 70
     1
  0
ATTRIB
  5
24D
330
23B
100
AcDbEntity
  8
0
100
AcDbText
 10
17.21171847695069
 20
-13.86772022310055
 30
0.0
 40
0.01
  1

  7
WD
100
AcDbAttribute
  2
SORTMODE
 70
     1
  0
ATTRIB
  5
24E
330
23B
100
AcDbEntity
  8
0
100
AcDbText
 10
17.21171847695069
 20
-13.84898508488638
 30
0.0
 40
0.01
  1
LOCBOX
  7
WD
100
AcDbAttribute
  2
LOCBOX_LAY
 70
     1
  0
ATTRIB
  5
24F
330
23B
100
AcDbEntity
  8
0
100
AcDbText
 10
17.21171847695069
 20
-13.81024994667222
 30
0.0
 40
0.01
  1
_MULTI_WIRE
  7
WD
100
AcDbAttribute
  2
FAN_INOUT_LAYS
 70
     1
  0
ATTRIB
  5
250
330
23B
100
AcDbEntity
  8
0
100
AcDbText
 10
17.21171847695069
 20
-13.83024994667222
 30
0.0
 40
0.01
  1
1
  7
WD
100
AcDbAttribute
  2
FAN_INOUT_STYLE
 70
     1
  0
ATTRIB
  5
251
330
23B
100
AcDbEntity
  8
0
100
AcDbText
 10
17.21171847695069
 20
-13.79024994667222
 30
0.0
 40
0.01
  1

  7
WD
100
AcDbAttribute
  2
MISC_DATA
 70
     1
  0
ATTRIB
  5
252
330
23B
100
AcDbEntity
  8
0
100
AcDbText
 10
17.21171847695069
 20
-13.77024994667222
 30
0.0
 40
0.01
  1
WIREREF
  7
WD
100
AcDbAttribute
  2
WIREREF_LAY
 70
     1
  0
ATTRIB
  5
253
330
23B
100
AcDbEntity
  8
0
100
AcDbText
 10
17.21171847695069
 20
-13.71024994667222
 30
0.0
 40
0.01
  1

  7
WD
100
AcDbAttribute
  2
IEC_PROJ
 70
     1
  0
ATTRIB
  5
254
330
23B
100
AcDbEntity
  8
0
100
AcDbText
 10
17.21171847695069
 20
-13.73024994667222
 30
0.0
 40
0.01
  1

  7
WD
100
AcDbAttribute
  2
IEC_INST
 70
     1
  0
ATTRIB
  5
255
330
23B
100
AcDbEntity
  8
0
100
AcDbText
 10
17.21171847695069
 20
-13.75024994667222
 30
0.0
 40
0.01
  1

  7
WD
100
AcDbAttribute
  2
IEC_LOC
 70
     1
  0
ATTRIB
  5
256
330
23B
100
AcDbEntity
  8
0
100
AcDbText
 10
17.21171847695069
 20
-13.65024994667222
 30
0.0
 40
0.01
  1
TAGFIXED
  7
WD
100
AcDbAttribute
  2
TAGFIXED_LAY
 70
     1
  0
ATTRIB
  5
257
330
23B
100
AcDbEntity
  8
0
100
AcDbText
 10
17.21171847695069
 20
-13.67024994667222
 30
0.0
 40
0.01
  1
1
  7
WD
100
AcDbAttribute
  2
GAP_STYLE
 70
     1
  0
ATTRIB
  5
258
330
23B
100
AcDbEntity
  8
0
100
AcDbText
 10
17.21171847695069
 20
-13.69024994667222
 30
0.0
 40
0.01
  1
0
  7
WD
100
AcDbAttribute
  2
MISC_FLAGS
 70
     1
  0
ATTRIB
  5
259
330
23B
100
AcDbEntity
  8
0
100
AcDbText
 10
17.21228419163657
 20
-13.33691044668502
 30
0.0
 40
0.01
  1
%N
  7
WD
100
AcDbAttribute
  2
ALT_XREFFMT
 70
     1
  0
ATTRIB
  5
25A
330
23B
100
AcDbEntity
  8
0
100
AcDbText
 10
17.21139581135673
 20
-13.51701565178739
 30
0.0
 40
0.01
  1

  7
WD
100
AcDbAttribute
  2
SHEETDWGNAME
 70
     1
  0
ATTRIB
  5
25B
330
23B
100
AcDbEntity
  8
0
100
AcDbText
 10
17.21171847695069
 20
-13.63024994667222
 30
0.0
 40
0.01
  1
SYMS
  7
WD
100
AcDbAttribute
  2
COMP_LAY
 70
     1
  0
ATTRIB
  5
25C
330
23B
100
AcDbEntity
  8
0
100
AcDbText
 10
17.21171847695069
 20
-13.61024994667222
 30
0.0
 40
0.01
  1
LINK
  7
WD
100
AcDbAttribute
  2
LINK_LAY
 70
     1
  0
ATTRIB
  5
25D
330
23B
100
AcDbEntity
  8
0
100
AcDbText
 10
17.21171847695069
 20
-13.59024994667222
 30
0.0
 40
0.01
  1
1
  7
WD
100
AcDbAttribute
  2
ARROW_STYLE
 70
     1
  0
ATTRIB
  5
25E
330
23B
100
AcDbEntity
  8
0
100
AcDbText
 10
17.21171847695069
 20
-13.57024994667222
 30
0.0
 40
0.01
  1
1
  7
WD
100
AcDbAttribute
  2
PLC_STYLE
 70
     1
  0
ATTRIB
  5
25F
330
23B
100
AcDbEntity
  8
0
  6
Continuous
 62
     7
100
AcDbText
 10
17.21144019822367
 20
-13.18530609446762
 30
0.0
 40
0.01
  1
MISC
  7
WD
100
AcDbAttribute
  2
MISC_LAY
 70
     1
  0
ATTRIB
  5
260
330
23B
100
AcDbEntity
  8
0
  6
Continuous
 62
     7
100
AcDbText
 10
17.21144019822367
 20
-13.22530609446762
 30
0.0
 40
0.01
  1
DESCCHILD
  7
WD
100
AcDbAttribute
  2
CDESC_LAY
 70
     1
  0
ATTRIB
  5
261
330
23B
100
AcDbEntity
  8
0
  6
Continuous
 62
     7
100
AcDbText
 10
17.21144019822367
 20
-13.20730609446762
 30
0.0
 40
0.01
  1
XREFCHILD
  7
WD
100
AcDbAttribute
  2
CXREF_LAY
 70
     1
  0
ATTRIB
  5
262
330
23B
100
AcDbEntity
  8
0
  6
Continuous
 62
     7
100
AcDbText
 10
17.20978344515118
 20
-12.92239033275629
 30
0.0
 40
0.01
  1
0
  7
WD
100
AcDbAttribute
  2
WLEADERS
 70
     1
  0
ATTRIB
  5
263
330
23B
100
AcDbEntity
  8
0
  6
Continuous
 62
     7
100
AcDbText
 10
17.21144019822367
 20
-13.16530609446762
 30
0.0
 40
0.01
  1
POS
  7
WD
100
AcDbAttribute
  2
POS_LAY
 70
     1
  0
ATTRIB
  5
264
330
23B
100
AcDbEntity
  8
0
  6
Continuous
 62
     7
100
AcDbText
 10
17.21144019822367
 20
-13.14730609446762
 30
0.0
 40
0.01
  1
LOC
  7
WD
100
AcDbAttribute
  2
LOC_LAY
 70
     1
  0
ATTRIB
  5
265
330
23B
100
AcDbEntity
  8
0
  6
Continuous
 62
     7
100
AcDbText
 10
17.20973230693385
 20
-13.07912713551
 30
0.0
 40
0.01
  1
TAGS
  7
WD
100
AcDbAttribute
  2
TAG_LAY
 70
     1
  0
ATTRIB
  5
266
330
23B
100
AcDbEntity
  8
0
  6
Continuous
 62
     7
100
AcDbText
 10
17.20832385464179
 20
-13.09461317941171
 30
0.0
 40
0.01
  1
XREF
  7
WD
100
AcDbAttribute
  2
XREF_LAY
 70
     1
  0
ATTRIB
  5
267
330
23B
100
AcDbEntity
  8
0
  6
Continuous
 62
     7
100
AcDbText
 10
17.21003174593161
 20
-13.11211054056392
 30
0.0
 40
0.01
  1
DESC
  7
WD
100
AcDbAttribute
  2
DESC_LAY
 70
     1
  0
ATTRIB
  5
268
330
23B
100
AcDbEntity
  8
0
  6
Continuous
 62
     7
100
AcDbText
 10
17.21003174593161
 20
-13.13011054056392
 30
0.0
 40
0.01
  1
TERMS
  7
WD
100
AcDbAttribute
  2
TERM_LAY
 70
     1
  0
ATTRIB
  5
269
330
23B
100
AcDbEntity
  8
0
  6
Continuous
 62
     7
100
AcDbText
 10
17.20973231029186
 20
-13.02281425110492
 30
0.0
 40
0.01
  1
WIREFIXED
  7
WD
100
AcDbAttribute
  2
WIREFIXED_LAY
 70
     1
  0
ATTRIB
  5
26A
330
23B
100
AcDbEntity
  8
0
100
AcDbText
 10
17.21171847695069
 20
-13.55024994667222
 30
0.0
 40
0.01
  1
1.0
  7
WD
100
AcDbAttribute
  2
FEATURE_SCL
 70
     1
  0
ATTRIB
  5
26B
330
23B
100
AcDbEntity
  8
0
100
AcDbText
 10
17.21171847695069
 20
-13.53224994667222
 30
0.0
 40
0.01
  1
1.0
  7
WD
100
AcDbAttribute
  2
UNIT_SCL
 70
     1
  0
ATTRIB
  5
26C
330
23B
100
AcDbEntity
  8
0
  6
Continuous
 62
     7
100
AcDbText
 10
17.21114076258391
 20
-13.00732820720321
 30
0.0
 40
0.01
  1
WIRECOPY
  7
WD
100
AcDbAttribute
  2
WIRECOPY_LAY
 70
     1
  0
ATTRIB
  5
26D
330
23B
100
AcDbEntity
  8
0
  6
Continuous
 62
     7
100
AcDbText
 10
17.21114076258391
 20
-12.98873806821926
 30
0.0
 40
0.01
  1
WIRENO
  7
WD
100
AcDbAttribute
  2
WIRENO_LAY
 70
     1
  0
ATTRIB
  5
26E
330
23B
100
AcDbEntity
  8
0
  6
Continuous
 62
     7
100
AcDbText
 10
17.2098123021031
 20
-12.97413153100425
 30
0.0
 40
0.01
  1
WIRES
  7
WD
100
AcDbAttribute
  2
WIRELAYS
 70
     1
  0
ATTRIB
  5
26F
330
23B
100
AcDbEntity
  8
0
100
AcDbText
 10
17.21031002130063
 20
-12.87223874946868
 30
0.0
 40
0.01
  1
0
  7
WD
100
AcDbAttribute
  2
DRWRUNG
 70
     1
  0
ATTRIB
  5
270
330
23B
100
AcDbEntity
  8
0
100
AcDbText
 10
17.21031002130063
 20
-12.85423874946868
 30
0.0
 40
0.01
  1
1
  7
WD
100
AcDbAttribute
  2
RUNGINC
 70
     1
  0
ATTRIB
  5
271
330
23B
100
AcDbEntity
  8
0
100
AcDbText
 10
17.22197884516755
 20
-13.48283573628959
 30
0.0
 40
0.01
  1
-
  7
WD
100
AcDbAttribute
  2
XY_DELIM
 70
     1
  0
ATTRIB
  5
272
330
23B
100
AcDbEntity
  8
0
100
AcDbText
 10
17.21139581135673
 20
-13.49701565178739
 30
0.0
 40
0.01
  1

  7
WD
100
AcDbAttribute
  2
SHEET
 70
     1
  0
ATTRIB
  5
273
330
23B
100
AcDbEntity
  8
0
100
AcDbText
 10
17.22197884516755
 20
-13.4680361155345
 30
0.0
 40
0.01
  1
1
  7
WD
100
AcDbAttribute
  2
HORIZ_FIRST
 70
     1
  0
ATTRIB
  5
274
330
23B
100
AcDbEntity
  8
0
100
AcDbText
 10
17.22197884516755
 20
-13.45136944886783
 30
0.0
 40
0.01
  1
1
  7
WD
100
AcDbAttribute
  2
CHAR_V
 70
     1
  0
ATTRIB
  5
275
330
23B
100
AcDbEntity
  8
0
100
AcDbText
 10
17.22197884516755
 20
-13.4380361155345
 30
0.0
 40
0.01
  1
A
  7
WD
100
AcDbAttribute
  2
CHAR_H
 70
     1
  0
ATTRIB
  5
276
330
23B
100
AcDbEntity
  8
0
100
AcDbText
 10
17.22197884516755
 20
-13.42136944886783
 30
0.0
 40
0.01
  1
2.0
  7
WD
100
AcDbAttribute
  2
DISTV
 70
     1
  0
ATTRIB
  5
277
330
23B
100
AcDbEntity
  8
0
100
AcDbText
 10
17.22197884516755
 20
-13.40470278220116
 30
0.0
 40
0.01
  1
2.0
  7
WD
100
AcDbAttribute
  2
DISTH
 70
     1
  0
ATTRIB
  5
278
330
23B
100
AcDbEntity
  8
0
100
AcDbText
 10
17.22197884516755
 20
-13.3880361155345
 30
0.0
 40
0.01
  1

  7
WD
100
AcDbAttribute
  2
DATUMY
 70
     1
  0
ATTRIB
  5
279
330
23B
100
AcDbEntity
  8
0
100
AcDbText
 10
17.22197884516755
 20
-13.37136944886783
 30
0.0
 40
0.01
  1

  7
WD
100
AcDbAttribute
  2
DATUMX
 70
     1
  0
ATTRIB
  5
27A
330
23B
100
AcDbEntity
  8
0
100
AcDbText
 10
17.21228419163657
 20
-13.35491044668502
 30
0.0
 40
0.01
  1
0.5
  7
WD
100
AcDbAttribute
  2
PH3SPACE
 70
     1
  0
ATTRIB
  5
27B
330
23B
100
AcDbEntity
  8
0
100
AcDbText
 10
17.21228419163657
 20
-13.31691044668502
 30
0.0
 40
0.01
  1
%N
  7
WD
100
AcDbAttribute
  2
XREFFMT
 70
     1
  0
ATTRIB
  5
27C
330
23B
100
AcDbEntity
  8
0
100
AcDbText
 10
17.21228419163657
 20
-13.29891044668502
 30
0.0
 40
0.01
  1
,A,B,C,D,E,F,G,H,J
  7
WD
100
AcDbAttribute
  2
TAG-RSUF
 70
     1
  0
ATTRIB
  5
27D
330
23B
100
AcDbEntity
  8
0
100
AcDbText
 10
17.21228419163657
 20
-13.28091044668502
 30
0.0
 40
0.01
  1
1
  7
WD
100
AcDbAttribute
  2
TAG-START
 70
     1
  0
ATTRIB
  5
27E
330
23B
100
AcDbEntity
  8
0
100
AcDbText
 10
17.21228419163657
 20
-13.26291044668502
 30
0.0
 40
0.01
  1
,A,B,C,D,E,F,G,H,J,K,L,M,N
  7
WD
100
AcDbAttribute
  2
WIRE-RSUF
 70
     1
  0
ATTRIB
  5
27F
330
23B
100
AcDbEntity
  8
0
100
AcDbText
 10
17.21228419163657
 20
-13.24491044668502
 30
0.0
 40
0.01
  1
1
  7
WD
100
AcDbAttribute
  2
WIRE-START
 70
     1
  0
ATTRIB
  5
280
330
23B
100
AcDbEntity
  8
0
  6
Continuous
 62
     7
100
AcDbText
 10
17.21144020158168
 20
-13.05831161225713
 30
0.0
 40
0.01
  1
%F%N
  7
WD
100
AcDbAttribute
  2
TAGFMT
 70
     1
  0
ATTRIB
  5
281
330
23B
100
AcDbEntity
  8
0
  6
Continuous
 62
     7
100
AcDbText
 10
17.21144020158168
 20
-13.04031161225713
 30
0.0
 40
0.01
  1
R
  7
WD
100
AcDbAttribute
  2
TAGMODE
 70
     1
  0
ATTRIB
  5
282
330
23B
100
AcDbEntity
  8
0
  6
Continuous
 62
     7
100
AcDbText
 10
17.20911461338436
 20
-12.95913814046889
 30
0.0
 40
0.01
  1
%N
  7
WD
100
AcDbAttribute
  2
WIREFMT
 70
     1
  0
ATTRIB
  5
283
330
23B
100
AcDbEntity
  8
0
  6
Continuous
 62
     7
100
AcDbText
 10
17.20978344278621
 20
-12.94142025184874
 30
0.0
 40
0.01
  1
R
  7
WD
100
AcDbAttribute
  2
WIREMODE
 70
     1
  0
ATTRIB
  5
284
330
23B
100
AcDbEntity
  8
0
  6
Continuous
 62
     7
100
AcDbText
 10
17.20879150348248
 20
-12.90553490940616
 30
0.0
 40
0.01
  1
1
  7
WD
100
AcDbAttribute
  2
WINC
 70
     1
  0
ATTRIB
  5
285
330
23B
100
AcDbEntity
  8
0
  6
Continuous
 62
     7
100
AcDbText
 10
17.20879150111751
 20
-12.88849238600413
 30
0.0
 40
0.01
  1
4.5
  7
WD
100
AcDbAttribute
  2
DLADW
 70
     1
  0
ATTRIB
  5
286
330
23B
100
AcDbEntity
  8
0
  6
Continuous
 62
     7
100
AcDbText
 10
17.20978344278621
 20
-12.83842435050557
 30
0.0
 40
0.01
  1
0.75
  7
WD
100
AcDbAttribute
  2
RUNGDIST
 70
     1
  0
ATTRIB
  5
287
330
23B
100
AcDbEntity
  8
0
  6
Continuous
 62
     7
100
AcDbText
 10
17.20978344278621
 20
-12.82388678230298
 30
0.0
 40
0.01
  1
1
  7
WD
100
AcDbAttribute
  2
REFNUMS
 70
     1
  0
ATTRIB
  5
288
330
23B
100
AcDbEntity
  8
0
  6
Continuous
 62
     7
100
AcDbText
 10
17.20978344278621
 20
-12.80588678230298
 30
0.0
 40
0.01
  1
H
  7
WD
100
AcDbAttribute
  2
RUNGHORV
 70
     1
  0
SEQEND
  5
289
330
23B
100
AcDbEntity
  8
0
  0
LWPOLYLINE
  5
31E
102
{ACAD_REACTORS
330
441
330
459
330
471
102
}
330
1F
100
AcDbEntity
  8
0
100
AcDbPolyline
 90
        8
 70
     0
 43
0.0
 10
3.247878768759079
 20
1.218207212280695
 10
13.07698172156049
 20
1.702778870776381
 10
15.43584116736066
 20
2.529096796240603
 10
14.51476174650223
 20
5.113114782689534
 42
-0.1724681883830006
 10
14.51414204714344
 20
5.854926428687905
 10
15.3833709372802
 20
8.306424728606566
 10
13.17970582122349
 20
9.151090376229818
 10
4.487447083139214
 20
9.922580600877322
  0
SPLINE
  5
31F
102
{ACAD_REACTORS
330
441
330
489
102
}
330
1F
100
AcDbEntity
  8
0
100
AcDbSpline
210
0.0
220
0.0
230
1.0
 70
     8
 71
     3
 72
    15
 73
    11
 74
     0
 42
0.0000000001
 43
0.0000000001
 40
0.0
 40
0.0
 40
0.0
 40
0.0
 40
2.630465852259814
 40
3.904420332832224
 40
5.42226829247126
 40
6.102092006303776
 40
7.436828731885931
 40
8.17622250928618
 40
9.042296825023388
 40
10.20286581959848
 40
10.20286581959848
 40
10.20286581959848
 40
10.20286581959848
 10
3.247878768759079
 20
1.218207212280695
 30
0.0
 10
2.957273854427311
 20
2.006265635692608
 30
0.0
 10
2.525926785099972
 20
3.175986705892333
 30
0.0
 10
1.693630108054202
 20
4.766524006277672
 30
0.0
 10
1.93089381465317
 20
5.925470068218286
 30
0.0
 10
2.358010156167551
 20
6.98891168257961
 30
0.0
 10
3.089790328405449
 20
7.543579104306489
 30
0.0
 10
3.887265283557015
 20
8.081434115186011
 30
0.0
 10
4.230069167320792
 20
8.938288068124533
 30
0.0
 10
4.414921914650273
 20
9.559914030525023
 30
0.0
 10
4.487447083139214
 20
9.922580600877322
 30
0.0
1001
ACAD_SPLINE_DATA
1070
   100
1070
     1
1070
   101
1070
     0
1070
   102
1070
    15
  0
LWPOLYLINE
  5
324
102
{ACAD_REACTORS
330
4D1
330
4F2
330
50C
102
}
330
1F
100
AcDbEntity
  8
0
100
AcDbPolyline
 90
        4
 70
     1
 43
0.0
 10
4.23337676060375
 20
6.874102279197286
 10
8.355669003039253
 20
6.874102279197296
 10
8.35566900303926
 20
4.044102279197295
 10
4.233376760603754
 20
4.044102279197291
  0
LWPOLYLINE
  5
325
102
{ACAD_REACTORS
330
50C
330
528
102
}
330
1F
100
AcDbEntity
  8
0
100
AcDbPolyline
 90
        4
 70
     1
 43
0.0
 10
5.111335840419947
 20
6.874102279197289
 10
5.591469676227866
 20
6.874102279197289
 10
5.591469676227873
 20
4.044102279197291
 10
5.111335840419954
 20
4.044102279197288
  0
LWPOLYLINE
  5
326
102
{ACAD_REACTORS
330
37C
330
55E
102
}
330
1F
100
AcDbEntity
  8
0
100
AcDbPolyline
 90
        4
 70
     1
 43
0.0
 10
0.6482740119498125
 20
0.5595645686209548
 10
16.64827401194981
 20
0.5595645686209548
 10
16.64827401194981
 20
10.55956456862095
 10
0.6482740119498125
 20
10.55956456862095
  0
DIMENSION
  5
363
102
{ACAD_XDICTIONARY
360
371
102
}
102
{ACAD_REACTORS
330
37C
102
}
330
1F
100
AcDbEntity
  8
0
100
AcDbDimension
  2
*D3
 10
16.64827401194981
 20
10.55956456862095
 30
0.0
 11
8.648274011949812
 21
10.55956456862095
 31
0.0
 70
   160
 71
     5
 42
16.0
  3
BASIC-Inch [mm]
100
AcDbAlignedDimension
 13
0.6482740119498125
 23
10.55956456862095
 33
0.0
 14
16.64827401194981
 24
10.55956456862095
 34
0.0
100
AcDbRotatedDimension
  0
DIMENSION
  5
395
330
1F
100
AcDbEntity
  8
0
100
AcDbDimension
  2
*D4
 10
7.070901510355362
 20
8.207953814630451
 30
0.0
 11
11.07567189171403
 21
8.207953814630451
 31
0.0
 70
   160
 71
     5
 42
6.959332262132098
  3
BASIC-Inch [mm]
100
AcDbAlignedDimension
 13
14.03023377248746
 23
7.88637052239102
 33
0.0
 14
7.070901510355362
 24
7.886370522359145
 34
0.0
 50
180.0
100
AcDbRotatedDimension
  0
DIMENSION
  5
3B2
330
1F
100
AcDbEntity
  8
0
100
AcDbDimension
  2
*D5
 10
14.33526577797795
 20
6.465182066950882
 30
0.0
 11
14.33526577797795
 21
7.175776294670951
 31
0.0
 70
   160
 71
     5
 42
1.421188455440137
  3
BASIC-Inch [mm]
100
AcDbAlignedDimension
 13
14.03023377248746
 23
7.88637052239102
 33
0.0
 14
14.03023377249512
 24
6.465182066950882
 34
0.0
 50
90.0
100
AcDbRotatedDimension
  0
DIMENSION
  5
3CA
330
1F
100
AcDbEntity
  8
0
100
AcDbDimension
  2
*D6
 10
14.33512375628644
 20
5.126941252717296
 30
0.0
 11
14.23417137533406
 21
5.796061659834092
 31
0.0
 70
    32
 71
     5
 42
1.338240814233586
  3
BASIC-Inch [mm]
100
AcDbAlignedDimension
 13
14.03023377249512
 23
6.465182066950882
 33
0.0
 14
14.03023377250234
 24
5.126941252717296
 34
0.0
 50
90.0
100
AcDbRotatedDimension
1001
ACAD
1000
DSTYLE
1002
{
1070
   279
1070
     1
1002
}
  0
DIMENSION
  5
3E2
330
1F
100
AcDbEntity
  8
0
100
AcDbDimension
  2
*D7
 10
14.33512375627922
 20
3.746542267086981
 30
0.0
 11
14.23417137532684
 21
4.436741759902141
 31
0.0
 70
    32
 71
     5
 42
1.380398985630315
  3
BASIC-Inch [mm]
100
AcDbAlignedDimension
 13
14.03023377249512
 23
5.126941252717296
 33
0.0
 14
14.03023377250256
 24
3.746542267086981
 34
0.0
 50
90.0
100
AcDbRotatedDimension
1001
ACAD
1000
DSTYLE
1002
{
1070
   279
1070
     1
1002
}
  0
DIMENSION
  5
3FA
330
1F
100
AcDbEntity
  8
0
100
AcDbDimension
  2
*D8
 10
5.925779577111143
 20
3.420857519790112
 30
0.0
 11
9.978006674810458
 21
3.521809900742494
 31
0.0
 70
    32
 71
     5
 42
8.104454195398629
  3
BASIC-Inch [mm]
100
AcDbAlignedDimension
 13
14.03023377250977
 23
3.746542267086981
 33
0.0
 14
5.925779577111143
 24
3.737648105813901
 34
0.0
 50
180.0
100
AcDbRotatedDimension
  0
DIMENSION
  5
412
330
1F
100
AcDbEntity
  8
0
100
AcDbDimension
  2
*D9
 10
8.536385119827734
 20
6.673642820575743
 30
0.0
 11
11.28330944616503
 21
6.774595201528124
 31
0.0
 70
    32
 71
     5
 42
5.493848652674602
  3
BASIC-Inch [mm]
100
AcDbAlignedDimension
 13
14.03023377250234
 23
6.465182066970361
 33
0.0
 14
8.536385119827734
 24
5.796061659841579
 34
0.0
 50
180.0
100
AcDbRotatedDimension
  0
DIMENSION
  5
42A
102
{ACAD_XDICTIONARY
360
437
102
}
102
{ACAD_REACTORS
330
441
102
}
330
1F
100
AcDbEntity
  8
0
100
AcDbDimension
  2
*D10
 10
13.09340969505434
 20
1.36955211278099
 30
0.0
 11
8.173887335384764
 21
1.228096207362742
 31
0.0
 70
    33
 71
     5
 42
9.841040318431108
  3
BASIC-Inch [mm]
100
AcDbAlignedDimension
 13
3.247878768759079
 23
1.218207212280695
 33
0.0
 14
13.07698172156049
 24
1.702778870776381
 34
0.0
  0
DIMENSION
  5
442
102
{ACAD_XDICTIONARY
360
44F
102
}
102
{ACAD_REACTORS
330
459
102
}
330
1F
100
AcDbEntity
  8
0
100
AcDbDimension
  2
*D11
 10
15.54304917534147
 20
2.223054031709169
 30
0.0
 11
14.33024398784301
 21
1.905170782476342
 31
0.0
 70
    33
 71
     5
 42
2.499403768698485
  3
BASIC-Inch [mm]
100
AcDbAlignedDimension
 13
13.07698172156049
 23
1.702778870776381
 33
0.0
 14
15.43584116736066
 24
2.529096796240603
 34
0.0
  0
DIMENSION
  5
45A
102
{ACAD_XDICTIONARY
360
467
102
}
102
{ACAD_REACTORS
330
471
102
}
330
1F
100
AcDbEntity
  8
0
100
AcDbDimension
  2
*D12
 10
13.28196913993799
 20
9.417887195465258
 30
0.0
 11
14.41993348111729
 21
9.089819303978897
 31
0.0
 70
    33
 71
     5
 42
2.359999999999999
  3
BASIC-Inch [mm]
100
AcDbAlignedDimension
 13
15.3833709372802
 23
8.306424728606566
 33
0.0
 14
13.17970582122349
 24
9.151090376229818
 34
0.0
  0
DIMENSION
  5
472
102
{ACAD_XDICTIONARY
360
47F
102
}
102
{ACAD_REACTORS
330
489
102
}
330
1F
100
AcDbEntity
  8
0
100
AcDbDimension
  2
*D13
 10
4.513794572618195
 20
10.21943361123776
 30
0.0
 11
8.868848987298411
 21
9.934245581112692
 31
0.0
 70
    33
 71
     5
 42
8.726428773360224
  3
BASIC-Inch [mm]
100
AcDbAlignedDimension
 13
13.17970582122349
 23
9.151090376229818
 33
0.0
 14
4.487447083139214
 24
9.922580600877319
 34
0.0
  0
DIMENSION
  5
48A
330
1F
100
AcDbEntity
  8
0
100
AcDbDimension
  2
*D14
 10
2.799803298858211
 20
6.811634755594039
 30
0.0
 11
4.85232019737024
 21
7.599190299412306
 31
0.0
 70
    33
 71
     5
 42
4.392210363840225
  3
BASIC-Inch [mm]
100
AcDbAlignedDimension
 13
7.070901510355362
 23
7.886370522359145
 33
0.0
 14
2.902270575103397
 24
6.502886512373551
 34
0.0
  0
DIMENSION
  5
4A2
330
1F
100
AcDbEntity
  8
0
100
AcDbDimension
  2
*D15
 10
2.813125879889618
 20
2.723361747998531
 30
0.0
 11
2.813125879889618
 21
4.613124130186042
 31
0.0
 70
   161
 71
     5
 42
3.77952476437502
  3
BASIC-Inch [mm]
100
AcDbAlignedDimension
 13
2.902270575103397
 23
6.502886512373551
 33
0.0
 14
2.902270575123768
 24
2.723361747998531
 34
0.0
  0
DIMENSION
  5
4BA
102
{ACAD_XDICTIONARY
360
4C7
102
}
102
{ACAD_REACTORS
330
4D1
102
}
330
1F
100
AcDbEntity
  8
0
100
AcDbDimension
  2
*D16
 10
8.121111974258248
 20
6.874102279197296
 30
0.0
 11
8.020159593305866
 21
5.459102279197296
 31
0.0
 70
    33
 71
     5
 42
2.830000000000001
  3
BASIC-Inch [mm]
100
AcDbAlignedDimension
 13
8.35566900303926
 23
4.044102279197295
 33
0.0
 14
8.355669003039253
 24
6.874102279197296
 34
0.0
  0
DIMENSION
  5
4DB
102
{ACAD_XDICTIONARY
360
4E8
102
}
102
{ACAD_REACTORS
330
4F2
102
}
330
1F
100
AcDbEntity
  8
0
100
AcDbDimension
  2
*D17
 10
8.35566900303926
 20
3.851020835544977
 30
0.0
 11
6.294522881821507
 21
3.951973216497358
 31
0.0
 70
    32
 71
     5
 42
4.122292242435506
  3
BASIC-Inch [mm]
100
AcDbAlignedDimension
 13
4.233376760603754
 23
4.044102279197291
 33
0.0
 14
8.35566900303926
 24
4.044102279197295
 34
0.0
100
AcDbRotatedDimension
  0
DIMENSION
  5
4F3
102
{ACAD_XDICTIONARY
360
501
102
}
102
{ACAD_REACTORS
330
50C
102
}
330
1F
100
AcDbEntity
  8
0
100
AcDbDimension
  2
*D18
 10
5.111335840419947
 20
5.459102279197288
 30
0.0
 11
3.490777822360238
 21
5.459102279197288
 31
0.0
 70
   160
 71
     5
 42
0.8779590798161969
  3
BASIC-Inch [mm]
100
AcDbAlignedDimension
 13
4.23337676060375
 23
6.874102279197286
 33
0.0
 14
5.111335840419947
 24
6.874102279197289
 34
0.0
100
AcDbRotatedDimension
  0
DIMENSION
  5
50D
102
{ACAD_XDICTIONARY
360
51C
102
}
102
{ACAD_REACTORS
330
528
102
}
330
1F
100
AcDbEntity
  8
0
100
AcDbDimension
  2
*D19
 10
5.591469676227866
 20
7.055655213449591
 30
0.0
 11
5.963497996419144
 21
7.216607594401971
 31
0.0
 70
   160
 71
     5
 42
0.4801338358079193
  3
BASIC-Inch [mm]
100
AcDbAlignedDimension
 13
5.111335840419947
 23
6.874102279197289
 33
0.0
 14
5.591469676227866
 24
6.874102279197289
 34
0.0
100
AcDbRotatedDimension
1001
ACAD
1000
DSTYLE
1002
{
1070
   279
1070
     1
1002
}
  0
DIMENSION
  5
54B
102
{ACAD_XDICTIONARY
360
556
102
}
102
{ACAD_REACTORS
330
55E
102
}
330
1F
100
AcDbEntity
  8
0
100
AcDbDimension
  2
*D20
 10
0.6482740119498124
 20
0.5595645686209548
 30
0.0
 11
0.6482740119498125
 21
5.559564568620954
 31
0.0
 70
   160
 71
     5
 42
10.0
  3
BASIC-Inch [mm]
100
AcDbAlignedDimension
 13
0.6482740119498125
 23
10.55956456862095
 33
0.0
 14
0.6482740119498125
 24
0.5595645686209548
 34
0.0
 50
90.0
100
AcDbRotatedDimension
  0
LINE
  5
575
330
1F
100
AcDbEntity
  8
0
100
AcDbLine
 10
5.591469676227866
 20
6.874102279197289
 30
0.0
 11
5.111335840419947
 21
6.45797213374645
 31
0.0
  0
LINE
  5
576
330
1F
100
AcDbEntity
  8
0
100
AcDbLine
 10
5.591469676227866
 20
6.63652139572706
 30
0.0
 11
5.111335840419947
 21
6.22039125027622
 31
0.0
  0
LINE
  5
577
330
1F
100
AcDbEntity
  8
0
100
AcDbLine
 10
5.591469676227866
 20
6.39894051225683
 30
0.0
 11
5.111335840419947
 21
5.98281036680599
 31
0.0
  0
LINE
  5
578
330
1F
100
AcDbEntity
  8
0
100
AcDbLine
 10
5.591469676227866
 20
6.1613596287866
 30
0.0
 11
5.111335840419947
 21
5.74522948333576
 31
0.0
  0
LINE
  5
579
330
1F
100
AcDbEntity
  8
0
100
AcDbLine
 10
5.591469676227866
 20
5.92377874531637
 30
0.0
 11
5.111335840419947
 21
5.507648599865531
 31
0.0
  0
LINE
  5
57A
330
1F
100
AcDbEntity
  8
0
100
AcDbLine
 10
5.591469676227866
 20
5.686197861846141
 30
0.0
 11
5.111335840419947
 21
5.270067716395301
 31
0.0
  0
LINE
  5
57B
330
1F
100
AcDbEntity
  8
0
100
AcDbLine
 10
5.591469676227866
 20
5.448616978375911
 30
0.0
 11
5.111335840419947
 21
5.032486832925071
 31
0.0
  0
LINE
  5
57C
330
1F
100
AcDbEntity
  8
0
100
AcDbLine
 10
5.591469676227866
 20
5.211036094905681
 30
0.0
 11
5.111335840419947
 21
4.794905949454841
 31
0.0
  0
LINE
  5
57D
330
1F
100
AcDbEntity
  8
0
100
AcDbLine
 10
5.591469676227866
 20
4.973455211435451
 30
0.0
 11
5.111335840419947
 21
4.557325065984612
 31
0.0
  0
LINE
  5
57E
330
1F
100
AcDbEntity
  8
0
100
AcDbLine
 10
5.591469676227866
 20
4.735874327965222
 30
0.0
 11
5.111335840419947
 21
4.319744182514382
 31
0.0
  0
LINE
  5
57F
330
1F
100
AcDbEntity
  8
0
100
AcDbLine
 10
5.591469676227866
 20
4.498293444494992
 30
0.0
 11
5.111335840419947
 21
4.082163299044152
 31
0.0
  0
MULTILEADER
  5
58A
102
{ACAD_XDICTIONARY
360
D79
102
}
330
1F
100
AcDbEntity
  8
0
 92
      600
310
58020000170000000C00000016000000000000C00C00000033000000000000000C00000013000000993A0000A00000000B000000B16C833BCDCA1940C41F3348DB651740000000000000000000000000000000000000000000000000000000000000F03F000000000000F03F00000000000000000000000000000000464F4C
310
4400003C0004000000010000000AD7A3703D0AC73F000000000000F03F0000000000000000000000000000F03F0000000000000000000000000000000000000000417269616C001900000000000C00000033000000000000000C00000010000000000000000C00000016000000000000C00C00000012000000FF7F00000C00
310
000013000000010000000C000000140000000100000054000000070000000300000089897F1F9D1E16407E9201DFAEEC15400000000000000000A8BD2DA3D77E1540BEBBA511C78B154000000000000000000E7E4F758CF61540DF296A41431B164000000000000000000C00000013000000891300003C0000000600000002
310
000000CB8367CA940A16402EDE3510F903164000000000000000006852B2D21F1318409E56B5C3B6C3174000000000000000000C00000013000000112700003C00000006000000020000006852B2D21F1318409E56B5C3B6C317400000000000000000D98FBCA9C38319409E56B5C3B6C3174000000000000000000C000000
310
16000000000000C00C00000012000000FF7F00000C00000017000000000000000C000000130000009A3A00000C00000016000000000000C00C00000012000000FF7F00000C00000017000000FFFFFFFF0C0000003300000000000000
100
AcDbMLeader
300
CONTEXT_DATA{
 40
1.0
 10
6.378676082738786
 20
5.941126878684057
 30
0.0
 41
0.18
140
0.18
145
0.09
174
     1
175
     1
176
     0
177
     0
290
     1
304
FOLD
 11
0.0
 21
0.0
 31
1.0
340
11
 12
6.468676082738781
 22
6.032661667224301
 32
0.0
 13
1.0
 23
0.0
 33
0.0
 42
0.0
 43
0.0
 44
0.0
 45
1.0
170
     1
 90
-1073741824
171
     1
172
     5
 91
-1073741824
141
0.0
 92
        0
291
     0
292
     0
173
     0
293
     0
142
0.0
143
0.0
294
     0
295
     0
296
     0
110
5.591469676227873
120
5.45910227919729
130
0.0
111
1.0
121
0.0
131
0.0
112
0.0
122
1.0
132
0.0
297
     0
302
LEADER{
290
     1
291
     1
 10
6.018676082738785
 20
5.941126878684057
 30
0.0
 11
1.0
 21
0.0
 31
0.0
 90
        0
 40
0.36
304
LEADER_LINE{
 10
5.373869466463851
 20
5.386501575222551
 30
0.0
 91
        0
305
}
303
}
301
}
340
D8
 90
   279552
170
     1
 91
-1056964608
341
14
171
    -2
290
     1
291
     1
 41
0.36
 42
0.18
172
     2
343
11
173
     1
 95
        1
174
     1
175
     0
 92
-1056964608
292
     0
 93
-1056964608
 10
1.0
 20
1.0
 30
1.0
 43
0.0
176
     0
293
     0
294
     0
178
     0
179
     1
 45
1.0
1001
ACAD_MLEADERVER
1070
     2
  0
MTEXT
  5
766
330
1F
100
AcDbEntity
  8
0
100
AcDbMText
 10
5.246394843496545
 20
9.387831127303826
 30
0.0
 40
0.2
 41
3.086185571179896
 71
     1
 72
     5
  1
Designed by DTEXTOR
 73
     1
 44
1.0
1001
ACAD
1000
ACAD_MTEXT_COLUMN_INFO_BEGIN
1070
    75
1070
     2
1070
    79
1070
     0
1070
    76
1070
     1
1070
    78
1070
     0
1070
    48
1040
3.086185571179896
1070
    49
1040
1.0
1070
    50
1070
     1
1040
0.0
1000
ACAD_MTEXT_COLUMN_INFO_END
1000
MTEXTBEGIN
1070
    73
1070
     1
1070
    44
1040
1.0
1070
    74
1070
     0
1000
MTEXTEND
  0
MTEXT
  5
767
330
1F
100
AcDbEntity
  8
0
100
AcDbMText
 10
5.246394843496545
 20
9.025772114970436
 30
0.0
 40
0.15
 41
3.30890008225981
 71
     1
 72
     5
  1
Traced and redrawn by Lazy Glen
 73
     1
 44
1.0
1001
ACAD
1000
ACAD_MTEXT_COLUMN_INFO_BEGIN
1070
    75
1070
     2
1070
    79
1070
     0
1070
    76
1070
     1
1070
    78
1070
     0
1070
    48
1040
3.30890008225981
1070
    49
1040
1.0
1070
    50
1070
     1
1040
0.0
1000
ACAD_MTEXT_COLUMN_INFO_END
1000
MTEXTBEGIN
1070
    73
1070
     1
1070
    44
1040
1.0
1070
    74
1070
     0
1000
MTEXTEND
  0
LWPOLYLINE
  5
AF1
330
1F
100
AcDbEntity
  8
0
100
AcDbPolyline
 90
       14
 70
     1
 43
0.0
 10
14.03023377249512
 20
5.126941252717296
 10
14.03023377250977
 20
3.746542267086981
 10
6.034515143826926
 20
3.746542267049514
 42
0.0817962466528655
 10
5.819934705857935
 20
3.711202070147296
 10
2.902270575123768
 20
2.723361747998531
 10
2.902270575103397
 20
6.502886512373551
 10
7.070901510355362
 20
7.886370522359145
 10
14.03023377248746
 20
7.88637052239102
 10
14.03023377249512
 20
6.465182066950882
 10
14.03023377249512
 20
6.465182066970361
 10
9.048507707949696
 20
6.465182066970361
 42
0.4142135623730951
 10
8.536385119827734
 20
5.953059478848398
 10
8.536385119827734
 20
5.63906384083476
 42
0.4142135623730951
 10
9.048507707949696
 20
5.126941252712797
  0
TEXT
  5
D01
330
1F
100
AcDbEntity
  8
0
100
AcDbText
 10
7.564610569795417
 20
7.324870442132068
 30
0.0
 40
0.2
  1
SMOOTH SIDE OF LEATHER
 72
     1
 11
9.458539628458446
 21
7.424870442132068
 31
0.0
100
AcDbText
 73
     2
  0
TEXT
  5
D02
330
1F
100
AcDbEntity
  8
0
100
AcDbText
 10
7.564610569795415
 20
2.449969885210835
 30
0.0
 40
0.2
  1
SMOOTH SIDE OF LEATHER
 72
     1
 11
9.458539628458444
 21
2.549969885210835
 31
0.0
100
AcDbText
 73
     2
  0
ENDSEC
  0
SECTION
  2
OBJECTS
  0
DICTIONARY
  5
C
330
0
100
AcDbDictionary
281
     1
  3
ACAD_CIP_PREVIOUS_PRODUCT_INFO
350
2C1
  3
ACAD_COLOR
350
73
  3
ACAD_GROUP
350
D
  3
ACAD_IMAGE_DICT
350
181
  3
ACAD_IMAGE_VARS
350
182
  3
ACAD_LAYOUT
350
1A
  3
ACAD_MATERIAL
350
72
  3
ACAD_MLEADERSTYLE
350
D7
  3
ACAD_MLINESTYLE
350
17
  3
ACAD_PDFDEFINITIONS
350
2F9
  3
ACAD_PLOTSETTINGS
350
19
  3
ACAD_PLOTSTYLENAME
350
E
  3
ACAD_SCALELIST
350
B6
  3
ACAD_TABLESTYLE
350
86
  3
ACAD_VISUALSTYLE
350
99
  3
ACADE_WIRETYPE
350
296
  3
ACDB_RECOMPOSE_DATA
350
D7B
  3
AcDbVariableDictionary
350
66
  3
DWGPROPS
350
D7C
  0
DICTIONARY
  5
7B5
330
8
100
AcDbDictionary
280
     1
281
     1
  0
DICTIONARY
  5
1E6
330
2
100
AcDbDictionary
280
     1
281
     1
  3
ACAD_LAYERSTATES
360
1E7
  0
DICTIONARY
  5
E6
330
10
100
AcDbDictionary
280
     1
281
     1
  0
DICTIONARY
  5
15D
330
1F
100
AcDbDictionary
280
     1
281
     1
  3
ACAD_SORTENTS
360
30E
  0
DICTIONARY
  5
236
330
1E8
100
AcDbDictionary
280
     1
281
     1
  3
ACAD_SORTENTS
360
237
  0
DICTIONARY
  5
371
330
363
100
AcDbDictionary
280
     1
281
     1
  3
ACAD_DIMASSOC
360
37C
  0
DICTIONARY
  5
437
330
42A
100
AcDbDictionary
280
     1
281
     1
  3
ACAD_DIMASSOC
360
441
  0
DICTIONARY
  5
44F
330
442
100
AcDbDictionary
280
     1
281
     1
  3
ACAD_DIMASSOC
360
459
  0
DICTIONARY
  5
467
330
45A
100
AcDbDictionary
280
     1
281
     1
  3
ACAD_DIMASSOC
360
471
  0
DICTIONARY
  5
47F
330
472
100
AcDbDictionary
280
     1
281
     1
  3
ACAD_DIMASSOC
360
489
  0
DICTIONARY
  5
4C7
330
4BA
100
AcDbDictionary
280
     1
281
     1
  3
ACAD_DIMASSOC
360
4D1
  0
DICTIONARY
  5
4E8
330
4DB
100
AcDbDictionary
280
     1
281
     1
  3
ACAD_DIMASSOC
360
4F2
  0
DICTIONARY
  5
501
330
4F3
100
AcDbDictionary
280
     1
281
     1
  3
ACAD_DIMASSOC
360
50C
  0
DICTIONARY
  5
51C
330
50D
100
AcDbDictionary
280
     1
281
     1
  3
ACAD_DIMASSOC
360
528
  0
DICTIONARY
  5
556
330
54B
100
AcDbDictionary
280
     1
281
     1
  3
ACAD_DIMASSOC
360
55E
  0
DICTIONARY
  5
D79
330
58A
100
AcDbDictionary
280
     1
281
     1
  3
ACAD_XREC_ROUNDTRIP
360
D7A
  0
XRECORD
  5
2C1
102
{ACAD_REACTORS
330
C
102
}
330
C
100
AcDbXrecord
280
     1
300
ACAD_E
300
2012
300
ACAD_E_F_S
  0
DICTIONARY
  5
73
102
{ACAD_REACTORS
330
C
102
}
330
C
100
AcDbDictionary
281
     1
  0
DICTIONARY
  5
D
102
{ACAD_REACTORS
330
C
102
}
330
C
100
AcDbDictionary
281
     1
  0
DICTIONARY
  5
181
102
{ACAD_REACTORS
330
C
102
}
330
C
100
AcDbDictionary
281
     1
  3
p12058ta101209_5
350
194
  0
RASTERVARIABLES
  5
182
102
{ACAD_REACTORS
330
C
102
}
330
C
100
AcDbRasterVariables
 90
        0
 70
     0
 71
     1
 72
     5
  0
DICTIONARY
  5
1A
102
{ACAD_REACTORS
330
C
102
}
330
C
100
AcDbDictionary
281
     1
  3
Layout1
350
59
  3
Model
350
22
  0
DICTIONARY
  5
72
102
{ACAD_REACTORS
330
C
102
}
330
C
100
AcDbDictionary
281
     1
  3
ByBlock
350
97
  3
ByLayer
350
96
  3
Global
350
98
  0
DICTIONARY
  5
D7
102
{ACAD_REACTORS
330
C
102
}
330
C
100
AcDbDictionary
281
     1
  3
Standard
350
D8
  0
DICTIONARY
  5
17
102
{ACAD_REACTORS
330
C
102
}
330
C
100
AcDbDictionary
281
     1
  3
Standard
350
18
  0
DICTIONARY
  5
2F9
102
{ACAD_REACTORS
330
C
102
}
330
C
100
AcDbDictionary
281
     1
  3
leg quiver - 1
350
2FB
  3
leg quiver - 2
350
2FC
  3
leg quiver - 3
350
2FD
  0
DICTIONARY
  5
19
102
{ACAD_REACTORS
330
C
102
}
330
C
100
AcDbDictionary
281
     1
  0
ACDBDICTIONARYWDFLT
  5
E
102
{ACAD_REACTORS
330
C
102
}
330
C
100
AcDbDictionary
281
     1
  3
Normal
350
F
100
AcDbDictionaryWithDefault
340
F
  0
DICTIONARY
  5
B6
102
{ACAD_REACTORS
330
C
102
}
330
C
100
AcDbDictionary
281
     1
  3
A0
350
B7
  3
A1
350
7F9
  3
A2
350
7FA
  3
A3
350
7FB
  3
A4
350
7FC
  3
A5
350
7FD
  3
A6
350
7FE
  3
A7
350
7FF
  3
A8
350
800
  3
A9
350
801
  3
B0
350
802
  3
B1
350
803
  3
B2
350
804
  3
B3
350
805
  3
B4
350
806
  3
B5
350
807
  3
B6
350
808
  0
DICTIONARY
  5
86
102
{ACAD_REACTORS
330
C
102
}
330
C
100
AcDbDictionary
281
     1
  3
Standard
350
87
  0
DICTIONARY
  5
99
102
{ACAD_REACTORS
330
C
102
}
330
C
100
AcDbDictionary
281
     1
  3
2dWireframe
350
9F
  3
3D Hidden
350
A1
  3
3dWireframe
350
A0
  3
Basic
350
9E
  3
Brighten
350
A5
  3
ColorChange
350
A9
  3
Conceptual
350
A2
  3
Dim
350
A4
  3
EdgeColorOff
350
175
  3
Facepattern
350
A8
  3
Flat
350
9A
  3
FlatWithEdges
350
9B
  3
Gouraud
350
9C
  3
GouraudWithEdges
350
9D
  3
Hidden
350
2B7
  3
JitterOff
350
173
  3
Linepattern
350
A7
  3
OverhangOff
350
174
  3
Realistic
350
A3
  3
Shaded
350
2BC
  3
Shaded with edges
350
2BB
  3
Shades of Gray
350
2B8
  3
Sketchy
350
2B9
  3
Thicken
350
A6
  3
Wireframe
350
2B6
  3
X-Ray
350
2BA
  0
DICTIONARY
  5
296
102
{ACAD_REACTORS
330
C
102
}
330
C
100
AcDbDictionary
281
     1
  3
CURRENT_WIRELAY
350
297
  0
XRECORD
  5
D7B
102
{ACAD_REACTORS
330
C
102
}
330
C
100
AcDbXrecord
280
     1
 90
        1
330
87
330
766
330
767
  0
DICTIONARY
  5
66
102
{ACAD_REACTORS
330
C
102
}
330
C
100
AcDbDictionary
281
     1
  3
CANNOSCALE
350
F0
  3
CMLEADERSTYLE
350
EF
  3
CTABLESTYLE
350
89
  3
DIMASSOC
350
67
  3
HIDETEXT
350
6B
  3
INDEXCTL
350
643
  3
LAYEREVAL
350
14D
  3
LAYERNOTIFY
350
14E
  3
LIGHTINGUNITS
350
28D
  3
MSLTSCALE
350
641
  3
SOLIDHIST
350
644
  3
SORTENTS
350
642
  3
XCLIPFRAME
350
D1E
  0
XRECORD
  5
D7C
102
{ACAD_REACTORS
330
C
102
}
330
C
100
AcDbXrecord
280
     1
  1
DWGPROPS COOKIE
  2
Leg Quiver
  3

  4
DWG by Glen Smith, design by DTEXTOR
  6
Traced from a PDF provided by DTEXTOR.^M^JMinor scaling changes made to make all^M^J3 parts work together.^M^JNested parts to print on (1) 11x17
  7

  8
gsmith
  9

300
=
301
=
302
=
303
=
304
=
305
=
306
=
307
=
308
=
309
=
 40
0.4159211342592593
 41
2456251.348420232
 42
2456252.711278577
  1
http://www.instructables.com/id/Arrow-Quiver-Drop-Leg-Style/
 90
        0
  0
DICTIONARY
  5
1E7
102
{ACAD_REACTORS
330
1E6
102
}
330
1E6
100
AcDbDictionary
281
     1
  0
SORTENTSTABLE
  5
30E
102
{ACAD_REACTORS
330
15D
102
}
330
15D
100
AcDbSortentsTable
330
1F
331
576
  5
579
331
3B2
  5
3FA
331
45A
  5
4A2
331
766
  5
AF0
331
577
  5
57A
331
442
  5
48A
331
767
  5
AF1
331
578
  5
57B
331
579
  5
57C
331
57A
  5
57D
331
4DB
  5
54B
331
57B
  5
57E
331
395
  5
3E2
331
31E
  5
325
331
363
  5
3CA
331
57C
  5
57F
331
31F
  5
326
331
AF1
  5
B14
331
57D
  5
58A
331
54B
  5
577
331
57E
  5
766
331
23B
  5
23B
331
57F
  5
767
331
4F3
  5
575
331
50D
  5
576
331
324
  5
363
331
58A
  5
90F
331
42A
  5
472
331
325
  5
395
331
412
  5
45A
331
4BA
  5
50D
331
326
  5
3B2
331
4A2
  5
4F3
331
3FA
  5
442
331
48A
  5
4DB
331
3E2
  5
42A
331
575
  5
578
331
3CA
  5
412
331
472
  5
4BA
  0
SORTENTSTABLE
  5
237
102
{ACAD_REACTORS
330
236
102
}
330
236
100
AcDbSortentsTable
330
1E8
331
22A
  5
1F4
331
1FC
  5
222
331
1F3
  5
22B
331
221
  5
1FD
331
1FE
  5
220
331
223
  5
1FB
331
1F5
  5
229
331
22C
  5
1F2
331
209
  5
215
331
22E
  5
1F0
331
200
  5
21E
331
1F7
  5
227
331
225
  5
1F9
331
202
  5
21C
331
227
  5
1F7
331
230
  5
1EE
331
20B
  5
213
331
232
  5
1EC
331
204
  5
21A
331
20D
  5
211
331
218
  5
206
331
234
  5
1EA
331
206
  5
218
331
1EA
  5
234
331
211
  5
20D
331
1EC
  5
232
331
21A
  5
204
331
21C
  5
202
331
213
  5
20B
331
1EE
  5
230
331
21E
  5
200
331
1F0
  5
22E
331
215
  5
209
331
1F9
  5
225
331
229
  5
1F5
331
1FB
  5
223
331
1F2
  5
22C
331
217
  5
207
331
220
  5
1FE
331
22B
  5
1F3
331
1FD
  5
221
331
1F4
  5
22A
331
222
  5
1FC
331
22D
  5
1F1
331
1FF
  5
21F
331
1F6
  5
228
331
224
  5
1FA
331
208
  5
216
331
20A
  5
214
331
22F
  5
1EF
331
201
  5
21D
331
226
  5
1F8
331
20C
  5
212
331
231
  5
1ED
331
203
  5
21B
331
1E9
  5
235
331
20E
  5
210
331
205
  5
219
331
233
  5
1EB
331
219
  5
205
331
1EB
  5
233
331
210
  5
20E
331
235
  5
1E9
331
207
  5
217
331
21B
  5
203
331
1ED
  5
231
331
212
  5
20C
331
1F8
  5
226
331
21D
  5
201
331
1EF
  5
22F
331
214
  5
20A
331
1FA
  5
224
331
21F
  5
1FF
331
1F1
  5
22D
331
216
  5
208
331
228
  5
1F6
  0
DIMASSOC
  5
37C
102
{ACAD_REACTORS
330
371
102
}
330
371
100
AcDbDimAssoc
330
363
 90
        3
 70
     0
 71
     0
  1
AcDbOsnapPointRef
 72
     1
331
326
 73
     2
 91
        3
 40
1.0
 10
0.0
 20
0.0
 30
2.000000000000000E+50
 75
     0
  1
AcDbOsnapPointRef
 72
     1
331
326
 73
     2
 91
        2
 40
1.0
 10
0.0
 20
0.0
 30
2.000000000000000E+50
 75
     0
  0
DIMASSOC
  5
441
102
{ACAD_REACTORS
330
437
102
}
330
437
100
AcDbDimAssoc
330
42A
 90
        3
 70
     0
 71
     0
  1
AcDbOsnapPointRef
 72
    13
331
31F
 73
     2
 91
        0
 40
0.0
 10
0.0
 20
0.0
 30
2.000000000000000E+50
 75
     0
  1
AcDbOsnapPointRef
 72
     1
331
31E
 73
     2
 91
        1
 40
1.0
 10
0.0
 20
0.0
 30
2.000000000000000E+50
 75
     0
  0
DIMASSOC
  5
459
102
{ACAD_REACTORS
330
44F
102
}
330
44F
100
AcDbDimAssoc
330
442
 90
        2
 70
     0
 71
     0
  1
AcDbOsnapPointRef
 72
     1
331
31E
 73
     2
 91
        2
 40
1.0
 10
0.0
 20
0.0
 30
2.000000000000000E+50
 75
     0
  0
DIMASSOC
  5
471
102
{ACAD_REACTORS
330
467
102
}
330
467
100
AcDbDimAssoc
330
45A
 90
        3
 70
     0
 71
     0
  1
AcDbOsnapPointRef
 72
     1
331
31E
 73
     2
 91
        5
 40
1.0
 10
0.0
 20
0.0
 30
2.000000000000000E+50
 75
     0
  1
AcDbOsnapPointRef
 72
     1
331
31E
 73
     2
 91
        6
 40
1.0
 10
0.0
 20
0.0
 30
2.000000000000000E+50
 75
     0
  0
DIMASSOC
  5
489
102
{ACAD_REACTORS
330
47F
102
}
330
47F
100
AcDbDimAssoc
330
472
 90
        2
 70
     0
 71
     0
  1
AcDbOsnapPointRef
 72
     1
331
31F
 73
     2
 91
        0
 40
10.20286581959847
 10
0.0
 20
0.0
 30
2.000000000000000E+50
 75
     0
  0
DIMASSOC
  5
4D1
102
{ACAD_REACTORS
330
4C7
102
}
330
4C7
100
AcDbDimAssoc
330
4BA
 90
        3
 70
     0
 71
     0
  1
AcDbOsnapPointRef
 72
     1
331
324
 73
     2
 91
        2
 40
1.0
 10
0.0
 20
0.0
 30
2.000000000000000E+50
 75
     0
  1
AcDbOsnapPointRef
 72
     1
331
324
 73
     2
 91
        1
 40
1.0
 10
0.0
 20
0.0
 30
2.000000000000000E+50
 75
     0
  0
DIMASSOC
  5
4F2
102
{ACAD_REACTORS
330
4E8
102
}
330
4E8
100
AcDbDimAssoc
330
4DB
 90
        1
 70
     0
 71
     0
  1
AcDbOsnapPointRef
 72
     1
331
324
 73
     2
 91
        3
 40
1.0
 10
0.0
 20
0.0
 30
2.000000000000000E+50
 75
     0
  0
DIMASSOC
  5
50C
102
{ACAD_REACTORS
330
501
102
}
330
501
100
AcDbDimAssoc
330
4F3
 90
        3
 70
     0
 71
     0
  1
AcDbOsnapPointRef
 72
    13
331
324
 73
     2
 91
        1
 40
0.0
 10
0.0
 20
0.0
 30
2.000000000000000E+50
 75
     0
  1
AcDbOsnapPointRef
 72
    13
331
325
 73
     2
 91
        1
 40
0.0
 10
0.0
 20
0.0
 30
2.000000000000000E+50
 75
     0
  0
DIMASSOC
  5
528
102
{ACAD_REACTORS
330
51C
102
}
330
51C
100
AcDbDimAssoc
330
50D
 90
        3
 70
     0
 71
     0
  1
AcDbOsnapPointRef
 72
    13
331
325
 73
     2
 91
        1
 40
0.0
 10
0.0
 20
0.0
 30
2.000000000000000E+50
 75
     0
  1
AcDbOsnapPointRef
 72
     1
331
325
 73
     2
 91
        1
 40
1.0
 10
0.0
 20
0.0
 30
2.000000000000000E+50
 75
     0
  0
DIMASSOC
  5
55E
102
{ACAD_REACTORS
330
556
102
}
330
556
100
AcDbDimAssoc
330
54B
 90
        2
 70
     0
 71
     0
  1
AcDbOsnapPointRef
 72
    13
331
326
 73
     2
 91
        1
 40
0.0
 10
0.0
 20
0.0
 30
2.000000000000000E+50
 75
     0
  0
XRECORD
  5
D7A
102
{ACAD_REACTORS
330
D79
102
}
330
D79
100
AcDbXrecord
280
     1
102
ACAD_ROUNDTRIP_2012_MLEADER
295
     1
  0
IMAGEDEF
  5
194
102
{ACAD_REACTORS
330
181
102
}
330
181
100
AcDbRasterImageDef
 90
        0
  1
C:\Documents and Settings\gsmith\My Documents\My Pictures\p12058ta101209_5.jpg
 10
3888.0
 20
2592.0
 11
0.0002572016460905
 21
0.0002572016460905
280
     1
281
     0
  0
LAYOUT
  5
59
102
{ACAD_XDICTIONARY
360
D7E
102
}
102
{ACAD_REACTORS
330
1A
102
}
330
1A
100
AcDbPlotSettings
  1

  2
None
  4

  6

 40
0.0
 41
0.0
 42
0.0
 43
0.0
 44
0.0
 45
0.0
 46
0.0
 47
0.0
 48
0.0
 49
0.0
140
0.0
141
0.0
142
1.0
143
1.0
 70
   688
 72
     0
 73
     0
 74
     5
  7

 75
    16
147
1.0
148
0.0
149
0.0
100
AcDbLayout
  1
Layout1
 70
     1
 71
     1
 10
0.0
 20
0.0
 11
12.0
 21
9.0
 12
0.0
 22
0.0
 32
0.0
 14
0.0
 24
0.0
 34
0.0
 15
0.0
 25
0.0
 35
0.0
146
0.0
 13
0.0
 23
0.0
 33
0.0
 16
1.0
 26
0.0
 36
0.0
 17
0.0
 27
1.0
 37
0.0
 76
     0
330
58
  0
LAYOUT
  5
22
102
{ACAD_XDICTIONARY
360
2DC
102
}
102
{ACAD_REACTORS
330
1A
102
}
330
1A
100
AcDbPlotSettings
  1

  2
Adobe PDF
  4
Tabloid
  6

 40
3.174999952316284
 41
3.174999952316284
 42
3.17498779296875
 43
3.17498779296875
 44
279.3999938964844
 45
431.7999877929687
 46
7.345870718376688
 47
7.355965346000498
 48
0.0
 49
0.0
140
0.0
141
0.0
142
1.0
143
1.0
 70
 11940
 72
     0
 73
     1
 74
     1
  7

 75
     0
147
0.5883887491526575
148
-12.13748913233443
149
-14.20757034080164
100
AcDbLayout
  1
Model
 70
     1
 71
     0
 10
0.0
 20
0.0
 11
12.0
 21
9.0
 12
0.0
 22
0.0
 32
0.0
 14
0.0
 24
0.0
 34
0.0
 15
0.0
 25
0.0
 35
0.0
146
0.0
 13
0.0
 23
0.0
 33
0.0
 16
1.0
 26
0.0
 36
0.0
 17
0.0
 27
1.0
 37
0.0
 76
     0
330
1F
331
94
1001
ACAD_PSEXT
1000
Adobe PDF
1000
Adobe PDF Converter
1000
Documents\*.pdf
1000

1070
     0
  0
MATERIAL
  5
97
102
{ACAD_XDICTIONARY
360
D83
102
}
102
{ACAD_REACTORS
330
72
102
}
330
72
100
AcDbMaterial
  1
ByBlock
  0
MATERIAL
  5
96
102
{ACAD_XDICTIONARY
360
D81
102
}
102
{ACAD_REACTORS
330
72
102
}
330
72
100
AcDbMaterial
  1
ByLayer
  0
MATERIAL
  5
98
102
{ACAD_XDICTIONARY
360
110
102
}
102
{ACAD_REACTORS
330
72
102
}
330
72
100
AcDbMaterial
  1
Global
 43
0.0208000000566244
 43
0.0
 43
0.0
 43
0.0
 43
0.0
 43
0.0208000000566244
 43
0.0
 43
0.0
 43
0.0
 43
0.0
 43
1.0
 43
0.0
 43
0.0
 43
0.0
 43
0.0
 43
1.0
 49
0.0208000000566244
 49
0.0
 49
0.0
 49
0.0
 49
0.0
 49
0.0208000000566244
 49
0.0
 49
0.0
 49
0.0
 49
0.0
 49
1.0
 49
0.0
 49
0.0
 49
0.0
 49
0.0
 49
1.0
142
0.0208000000566244
142
0.0
142
0.0
142
0.0
142
0.0
142
0.0208000000566244
142
0.0
142
0.0
142
0.0
142
0.0
142
1.0
142
0.0
142
0.0
142
0.0
142
0.0
142
1.0
144
0.0208000000566244
144
0.0
144
0.0
144
0.0
144
0.0
144
0.0208000000566244
144
0.0
144
0.0
144
0.0
144
0.0
144
1.0
144
0.0
144
0.0
144
0.0
144
0.0
144
1.0
1001
ACAD
1070
    -1
1070
     3
1070
     0
1000

1071
        0
1070
     0
  0
MLEADERSTYLE
  5
D8
102
{ACAD_XDICTIONARY
360
D77
102
}
102
{ACAD_REACTORS
330
D7
330
58A
102
}
330
D7
100
AcDbMLeaderStyle
170
     2
171
     1
172
     0
 90
        2
 40
0.0
 41
0.0
173
     1
 91
-1056964608
340
14
 92
       -2
290
     1
 42
0.09
291
     1
 43
0.36
  3
Standard
 44
0.18
300

342
11
174
     1
178
     1
175
     1
176
     0
 93
-1056964608
 45
0.18
292
     0
297
     0
 46
0.18
 94
-1056964608
 47
1.0
 49
1.0
140
1.0
293
     1
141
0.0
294
     1
177
     0
142
1.0
295
     0
296
     0
143
0.125
1001
ACAD_MLEADERVER
1070
     2
  0
MLINESTYLE
  5
18
102
{ACAD_REACTORS
330
17
102
}
330
17
100
AcDbMlineStyle
  2
STANDARD
 70
     0
  3

 62
   256
 51
90.0
 52
90.0
 71
     2
 49
0.5
 62
   256
  6
BYLAYER
 49
-0.5
 62
   256
  6
BYLAYER
  0
PDFDEFINITION
  5
2FB
102
{ACAD_REACTORS
330
2F9
102
}
330
2F9
100
AcDbUnderlayDefinition
  1
C:\Users\gsmith\Dropbox\leg quiver.pdf
  2
1
  0
PDFDEFINITION
  5
2FC
102
{ACAD_REACTORS
330
2F9
102
}
330
2F9
100
AcDbUnderlayDefinition
  1
C:\Users\gsmith\Dropbox\leg quiver.pdf
  2
2
  0
PDFDEFINITION
  5
2FD
102
{ACAD_REACTORS
330
2F9
102
}
330
2F9
100
AcDbUnderlayDefinition
  1
C:\Users\gsmith\Dropbox\leg quiver.pdf
  2
3
  0
ACDBPLACEHOLDER
  5
F
102
{ACAD_REACTORS
330
E
102
}
330
E
  0
SCALE
  5
B7
102
{ACAD_REACTORS
330
B6
102
}
330
B6
100
AcDbScale
 70
     0
300
1:1
140
1.0
141
1.0
290
     1
  0
SCALE
  5
7F9
102
{ACAD_REACTORS
330
B6
102
}
330
B6
100
AcDbScale
 70
     0
300
1/128" = 1'-0"
140
0.0078125
141
12.0
290
     0
  0
SCALE
  5
7FA
102
{ACAD_REACTORS
330
B6
102
}
330
B6
100
AcDbScale
 70
     0
300
1/64" = 1'-0"
140
0.015625
141
12.0
290
     0
  0
SCALE
  5
7FB
102
{ACAD_REACTORS
330
B6
102
}
330
B6
100
AcDbScale
 70
     0
300
1/32" = 1'-0"
140
0.03125
141
12.0
290
     0
  0
SCALE
  5
7FC
102
{ACAD_REACTORS
330
B6
102
}
330
B6
100
AcDbScale
 70
     0
300
1/16" = 1'-0"
140
0.0625
141
12.0
290
     0
  0
SCALE
  5
7FD
102
{ACAD_REACTORS
330
B6
102
}
330
B6
100
AcDbScale
 70
     0
300
3/32" = 1'-0"
140
0.09375
141
12.0
290
     0
  0
SCALE
  5
7FE
102
{ACAD_REACTORS
330
B6
102
}
330
B6
100
AcDbScale
 70
     0
300
1/8" = 1'-0"
140
0.125
141
12.0
290
     0
  0
SCALE
  5
7FF
102
{ACAD_REACTORS
330
B6
102
}
330
B6
100
AcDbScale
 70
     0
300
3/16" = 1'-0"
140
0.1875
141
12.0
290
     0
  0
SCALE
  5
800
102
{ACAD_REACTORS
330
B6
102
}
330
B6
100
AcDbScale
 70
     0
300
1/4" = 1'-0"
140
0.25
141
12.0
290
     0
  0
SCALE
  5
801
102
{ACAD_REACTORS
330
B6
102
}
330
B6
100
AcDbScale
 70
     0
300
3/8" = 1'-0"
140
0.375
141
12.0
290
     0
  0
SCALE
  5
802
102
{ACAD_REACTORS
330
B6
102
}
330
B6
100
AcDbScale
 70
     0
300
1/2" = 1'-0"
140
0.5
141
12.0
290
     0
  0
SCALE
  5
803
102
{ACAD_REACTORS
330
B6
102
}
330
B6
100
AcDbScale
 70
     0
300
3/4" = 1'-0"
140
0.75
141
12.0
290
     0
  0
SCALE
  5
804
102
{ACAD_REACTORS
330
B6
102
}
330
B6
100
AcDbScale
 70
     0
300
1" = 1'-0"
140
1.0
141
12.0
290
     0
  0
SCALE
  5
805
102
{ACAD_REACTORS
330
B6
102
}
330
B6
100
AcDbScale
 70
     0
300
1-1/2" = 1'-0"
140
1.5
141
12.0
290
     0
  0
SCALE
  5
806
102
{ACAD_REACTORS
330
B6
102
}
330
B6
100
AcDbScale
 70
     0
300
3" = 1'-0"
140
3.0
141
12.0
290
     0
  0
SCALE
  5
807
102
{ACAD_REACTORS
330
B6
102
}
330
B6
100
AcDbScale
 70
     0
300
6" = 1'-0"
140
6.0
141
12.0
290
     0
  0
SCALE
  5
808
102
{ACAD_REACTORS
330
B6
102
}
330
B6
100
AcDbScale
 70
     0
300
1'-0" = 1'-0"
140
12.0
141
12.0
290
     0
  0
TABLESTYLE
  5
87
102
{ACAD_XDICTIONARY
360
104
102
}
102
{ACAD_REACTORS
330
86
102
}
330
86
100
AcDbTableStyle
  3
Standard
 70
     0
 71
     0
 40
0.06
 41
0.06
280
     0
281
     0
  7
Standard
140
0.18
170
     2
 62
     0
 63
     7
283
     0
274
    -2
284
     1
 64
     0
275
    -2
285
     1
 65
     0
276
    -2
286
     1
 66
     0
277
    -2
287
     1
 67
     0
278
    -2
288
     1
 68
     0
279
    -2
289
     1
 69
     0
  7
Standard
140
0.25
170
     5
 62
     0
 63
     7
283
     0
274
    -2
284
     1
 64
     0
275
    -2
285
     1
 65
     0
276
    -2
286
     1
 66
     0
277
    -2
287
     1
 67
     0
278
    -2
288
     1
 68
     0
279
    -2
289
     1
 69
     0
  7
Standard
140
0.18
170
     5
 62
     0
 63
     7
283
     0
274
    -2
284
     1
 64
     0
275
    -2
285
     1
 65
     0
276
    -2
286
     1
 66
     0
277
    -2
287
     1
 67
     0
278
    -2
288
     1
 68
     0
279
    -2
289
     1
 69
     0
  0
VISUALSTYLE
  5
9F
102
{ACAD_XDICTIONARY
360
D90
102
}
102
{ACAD_REACTORS
330
99
102
}
330
99
100
AcDbVisualStyle
  2
2dWireframe
 70
     4
 71
     0
 72
     2
 73
     1
 90
        0
 40
-0.6
 41
-30.0
 62
     5
 63
     7
 74
     1
 91
        4
 64
     7
 65
   257
 75
     1
175
     1
 42
1.0
 92
        0
 66
   257
 43
1.0
 76
     1
 77
     6
 78
     2
 67
     7
 79
     5
170
     0
171
     0
290
     0
174
     0
 93
        1
 44
0.0
173
     0
291
     0
 45
0.0
1001
ACAD
1000
AcDbSavedByObjectVersion
1070
     0
  0
VISUALSTYLE
  5
A1
102
{ACAD_XDICTIONARY
360
D94
102
}
102
{ACAD_REACTORS
330
99
102
}
330
99
100
AcDbVisualStyle
  2
3D Hidden
 70
     6
 71
     1
 72
     2
 73
     2
 90
        0
 40
-0.6
 41
-30.0
 62
     5
 63
     7
 74
     2
 91
        2
 64
     7
 65
   257
 75
     2
175
     1
 42
40.0
 92
        0
 66
   257
 43
1.0
 76
     1
 77
     6
 78
     2
 67
     7
 79
     3
170
     0
171
     0
290
     0
174
     0
 93
        1
 44
0.0
173
     0
291
     0
 45
0.0
1001
ACAD
1000
AcDbSavedByObjectVersion
1070
     0
  0
VISUALSTYLE
  5
A0
102
{ACAD_XDICTIONARY
360
D92
102
}
102
{ACAD_REACTORS
330
99
102
}
330
99
100
AcDbVisualStyle
  2
3dWireframe
 70
     5
 71
     0
 72
     2
 73
     1
 90
        0
 40
-0.6
 41
-30.0
 62
     5
 63
     7
 74
     1
 91
        4
 64
     7
 65
   257
 75
     1
175
     1
 42
1.0
 92
        0
 66
   257
 43
1.0
 76
     1
 77
     6
 78
     2
 67
     7
 79
     5
170
     0
171
     0
290
     0
174
     0
 93
        1
 44
0.0
173
     0
291
     0
 45
0.0
1001
ACAD
1000
AcDbSavedByObjectVersion
1070
     0
  0
VISUALSTYLE
  5
9E
102
{ACAD_XDICTIONARY
360
D8E
102
}
102
{ACAD_REACTORS
330
99
102
}
330
99
100
AcDbVisualStyle
  2
Basic
 70
     7
 71
     1
 72
     0
 73
     1
 90
        0
 40
-0.6
 41
-30.0
 62
     5
 63
     7
 74
     0
 91
        4
 64
     7
 65
   257
 75
     1
175
     1
 42
1.0
 92
        8
 66
     7
 43
1.0
 76
     1
 77
     6
 78
     2
 67
     7
 79
     5
170
     0
171
     0
290
     0
174
     0
 93
        1
 44
0.0
173
     0
291
     1
 45
0.0
1001
ACAD
1000
AcDbSavedByObjectVersion
1070
     0
  0
VISUALSTYLE
  5
A5
102
{ACAD_XDICTIONARY
360
D9C
102
}
102
{ACAD_REACTORS
330
99
102
}
330
99
100
AcDbVisualStyle
  2
Brighten
 70
    12
 71
     2
 72
     2
 73
     1
 90
        0
 40
-0.6
 41
-30.0
 62
     5
 63
     7
 74
     1
 91
        4
 64
     7
 65
   257
 75
     1
175
     1
 42
1.0
 92
        8
 66
     7
 43
1.0
 76
     1
 77
     6
 78
     2
 67
     7
 79
     5
170
     0
171
     0
290
     0
174
     0
 93
        1
 44
50.0
173
     0
291
     1
 45
0.0
1001
ACAD
1000
AcDbSavedByObjectVersion
1070
     0
  0
VISUALSTYLE
  5
A9
102
{ACAD_XDICTIONARY
360
DA4
102
}
102
{ACAD_REACTORS
330
99
102
}
330
99
100
AcDbVisualStyle
  2
ColorChange
 70
    16
 71
     2
 72
     2
 73
     3
 90
        0
 40
-0.6
 41
-30.0
 62
     5
 63
     8
 74
     1
 91
        4
 64
     7
 65
   257
 75
     1
175
     1
 42
1.0
 92
        8
 66
     8
 43
1.0
 76
     1
 77
     6
 78
     2
 67
     7
 79
     5
170
     0
171
     0
290
     0
174
     0
 93
        1
 44
0.0
173
     0
291
     1
 45
0.0
1001
ACAD
1000
AcDbSavedByObjectVersion
1070
     0
  0
VISUALSTYLE
  5
A2
102
{ACAD_XDICTIONARY
360
D96
102
}
102
{ACAD_REACTORS
330
99
102
}
330
99
100
AcDbVisualStyle
  2
Conceptual
 70
     9
 71
     3
 72
     2
 73
     1
 90
        0
 40
-0.6
 41
-30.0
 62
     5
 63
     7
 74
     2
 91
        2
 64
     7
 65
   257
 75
     1
175
     1
 42
40.0
 92
        8
 66
     7
 43
1.0
 76
     1
 77
     6
 78
     2
 67
     7
 79
     3
170
     0
171
     0
290
     0
174
     0
 93
        1
 44
0.0
173
     0
291
     0
 45
0.0
1001
ACAD
1000
AcDbSavedByObjectVersion
1070
     0
  0
VISUALSTYLE
  5
A4
102
{ACAD_XDICTIONARY
360
D9A
102
}
102
{ACAD_REACTORS
330
99
102
}
330
99
100
AcDbVisualStyle
  2
Dim
 70
    11
 71
     2
 72
     2
 73
     1
 90
        0
 40
-0.6
 41
-30.0
 62
     5
 63
     7
 74
     1
 91
        4
 64
     7
 65
   257
 75
     1
175
     1
 42
1.0
 92
        8
 66
     7
 43
1.0
 76
     1
 77
     6
 78
     2
 67
     7
 79
     5
170
     0
171
     0
290
     0
174
     0
 93
        1
 44
-50.0
173
     0
291
     1
 45
0.0
1001
ACAD
1000
AcDbSavedByObjectVersion
1070
     0
  0
VISUALSTYLE
  5
175
102
{ACAD_XDICTIONARY
360
DAA
102
}
102
{ACAD_REACTORS
330
99
102
}
330
99
100
AcDbVisualStyle
  2
EdgeColorOff
 70
    22
 71
     2
 72
     2
 73
     0
 90
        0
 40
-0.6
 41
-30.0
 62
     5
 63
     7
 74
     1
 91
        4
 64
     7
 65
   257
 75
     1
175
     1
 42
1.0
 92
        8
 66
     7
 43
1.0
 76
     1
 77
     6
 78
     2
 67
     7
 79
     5
170
     0
171
     0
290
     0
174
     0
 93
        1
 44
0.0
173
     0
291
     1
 45
0.0
1001
ACAD
1000
AcDbSavedByObjectVersion
1070
     0
  0
VISUALSTYLE
  5
A8
102
{ACAD_XDICTIONARY
360
DA2
102
}
102
{ACAD_REACTORS
330
99
102
}
330
99
100
AcDbVisualStyle
  2
Facepattern
 70
    15
 71
     2
 72
     2
 73
     1
 90
        0
 40
-0.6
 41
-30.0
 62
     5
 63
     7
 74
     1
 91
        4
 64
     7
 65
   257
 75
     1
175
     1
 42
1.0
 92
        8
 66
     7
 43
1.0
 76
     1
 77
     6
 78
     2
 67
     7
 79
     5
170
     0
171
     0
290
     0
174
     0
 93
        1
 44
0.0
173
     0
291
     1
 45
0.0
1001
ACAD
1000
AcDbSavedByObjectVersion
1070
     0
  0
VISUALSTYLE
  5
9A
102
{ACAD_XDICTIONARY
360
D86
102
}
102
{ACAD_REACTORS
330
99
102
}
330
99
100
AcDbVisualStyle
  2
Flat
 70
     0
 71
     2
 72
     1
 73
     1
 90
        2
 40
-0.6
 41
30.0
 62
     5
 63
     7
 74
     0
 91
        4
 64
     7
 65
   257
 75
     1
175
     1
 42
1.0
 92
        8
 66
     7
 43
1.0
 76
     1
 77
     6
 78
     2
 67
     7
 79
     5
170
     0
171
     0
290
     0
174
     0
 93
        1
 44
0.0
173
     0
291
     1
 45
0.0
1001
ACAD
1000
AcDbSavedByObjectVersion
1070
     0
  0
VISUALSTYLE
  5
9B
102
{ACAD_XDICTIONARY
360
D88
102
}
102
{ACAD_REACTORS
330
99
102
}
330
99
100
AcDbVisualStyle
  2
FlatWithEdges
 70
     1
 71
     2
 72
     1
 73
     1
 90
        2
 40
-0.6
 41
30.0
 62
     5
 63
     7
 74
     1
 91
        4
 64
     7
 65
   257
 75
     1
175
     1
 42
1.0
 92
        0
 66
   257
 43
1.0
 76
     1
 77
     6
 78
     2
 67
     7
 79
     5
170
     0
171
     0
290
     0
174
     0
 93
        1
 44
0.0
173
     0
291
     1
 45
0.0
1001
ACAD
1000
AcDbSavedByObjectVersion
1070
     0
  0
VISUALSTYLE
  5
9C
102
{ACAD_XDICTIONARY
360
D8A
102
}
102
{ACAD_REACTORS
330
99
102
}
330
99
100
AcDbVisualStyle
  2
Gouraud
 70
     2
 71
     2
 72
     2
 73
     1
 90
        2
 40
-0.6
 41
30.0
 62
     5
 63
     7
 74
     0
 91
        4
 64
     7
 65
   257
 75
     1
175
     1
 42
1.0
 92
        0
 66
     7
 43
1.0
 76
     1
 77
     6
 78
     2
 67
     7
 79
     5
170
     0
171
     0
290
     0
174
     0
 93
        1
 44
0.0
173
     0
291
     1
 45
0.0
1001
ACAD
1000
AcDbSavedByObjectVersion
1070
     0
  0
VISUALSTYLE
  5
9D
102
{ACAD_XDICTIONARY
360
D8C
102
}
102
{ACAD_REACTORS
330
99
102
}
330
99
100
AcDbVisualStyle
  2
GouraudWithEdges
 70
     3
 71
     2
 72
     2
 73
     1
 90
        2
 40
-0.6
 41
30.0
 62
     5
 63
     7
 74
     1
 91
        4
 64
     7
 65
   257
 75
     1
175
     1
 42
1.0
 92
        0
 66
   257
 43
1.0
 76
     1
 77
     6
 78
     2
 67
     7
 79
     5
170
     0
171
     0
290
     0
174
     0
 93
        1
 44
0.0
173
     0
291
     1
 45
0.0
1001
ACAD
1000
AcDbSavedByObjectVersion
1070
     0
  0
VISUALSTYLE
  5
2B7
102
{ACAD_XDICTIONARY
360
DAE
102
}
102
{ACAD_REACTORS
330
99
102
}
330
99
100
AcDbVisualStyle
  2
Hidden
 70
     6
 71
     1
 72
     2
 73
     2
 90
        0
 40
-0.6
 41
-30.0
 62
     5
 63
     7
 74
     2
 91
        2
 64
     7
 65
   257
 75
     2
175
     1
 42
40.0
 92
        0
 66
   257
 43
1.0
 76
     1
 77
     6
 78
     2
 67
     7
 79
     3
170
     0
171
     0
290
     0
174
     0
 93
        1
 44
0.0
173
     0
291
     0
 45
0.0
1001
ACAD
1000
AcDbSavedByObjectVersion
1070
     0
  0
VISUALSTYLE
  5
173
102
{ACAD_XDICTIONARY
360
DA6
102
}
102
{ACAD_REACTORS
330
99
102
}
330
99
100
AcDbVisualStyle
  2
JitterOff
 70
    20
 71
     2
 72
     2
 73
     0
 90
        0
 40
-0.6
 41
-30.0
 62
     5
 63
     7
 74
     1
 91
        4
 64
     7
 65
   257
 75
     1
175
     1
 42
1.0
 92
       10
 66
     7
 43
1.0
 76
     1
 77
     6
 78
     2
 67
     7
 79
     5
170
     0
171
     0
290
     0
174
     0
 93
        1
 44
0.0
173
     0
291
     1
 45
0.0
1001
ACAD
1000
AcDbSavedByObjectVersion
1070
     0
  0
VISUALSTYLE
  5
A7
102
{ACAD_XDICTIONARY
360
DA0
102
}
102
{ACAD_REACTORS
330
99
102
}
330
99
100
AcDbVisualStyle
  2
Linepattern
 70
    14
 71
     2
 72
     2
 73
     1
 90
        0
 40
-0.6
 41
-30.0
 62
     5
 63
     7
 74
     1
 91
        4
 64
     7
 65
   257
 75
     7
175
     7
 42
1.0
 92
        8
 66
     7
 43
1.0
 76
     1
 77
     6
 78
     2
 67
     7
 79
     5
170
     0
171
     0
290
     0
174
     0
 93
        1
 44
0.0
173
     0
291
     1
 45
0.0
1001
ACAD
1000
AcDbSavedByObjectVersion
1070
     0
  0
VISUALSTYLE
  5
174
102
{ACAD_XDICTIONARY
360
DA8
102
}
102
{ACAD_REACTORS
330
99
102
}
330
99
100
AcDbVisualStyle
  2
OverhangOff
 70
    21
 71
     2
 72
     2
 73
     0
 90
        0
 40
-0.6
 41
-30.0
 62
     5
 63
     7
 74
     1
 91
        4
 64
     7
 65
   257
 75
     1
175
     1
 42
1.0
 92
        9
 66
     7
 43
1.0
 76
     1
 77
     6
 78
     2
 67
     7
 79
     5
170
     0
171
     0
290
     0
174
     0
 93
        1
 44
0.0
173
     0
291
     1
 45
0.0
1001
ACAD
1000
AcDbSavedByObjectVersion
1070
     0
  0
VISUALSTYLE
  5
A3
102
{ACAD_XDICTIONARY
360
D98
102
}
102
{ACAD_REACTORS
330
99
102
}
330
99
100
AcDbVisualStyle
  2
Realistic
 70
     8
 71
     2
 72
     2
 73
     1
 90
        0
 40
-0.6
 41
-30.0
 62
     5
 63
     7
 74
     1
 91
        0
 64
     7
 65
   257
 75
     1
175
     1
 42
1.0
 92
        8
 66
     8
 43
1.0
 76
     1
 77
     6
 78
     2
 67
     7
 79
     5
170
     0
171
     0
290
     0
174
     0
 93
       13
 44
0.0
173
     0
291
     0
 45
0.0
1001
ACAD
1000
AcDbSavedByObjectVersion
1070
     0
  0
VISUALSTYLE
  5
2BC
102
{ACAD_XDICTIONARY
360
DB8
102
}
102
{ACAD_REACTORS
330
99
102
}
330
99
100
AcDbVisualStyle
  2
Shaded
 70
    27
 71
     2
 72
     2
 73
     1
 90
        2
 40
-0.6
 41
30.0
 62
     5
 63
     7
 74
     0
 91
        4
 64
     7
 65
   257
 75
     1
175
     1
 42
1.0
 92
        8
 66
   257
 43
1.0
 76
     1
 77
     6
 78
     2
 67
     8
 79
     3
170
     0
171
     0
290
     0
174
     0
 93
        5
 44
0.0
173
     0
291
     0
 45
0.0
1001
ACAD
1000
AcDbSavedByObjectVersion
1070
     0
  0
VISUALSTYLE
  5
2BB
102
{ACAD_XDICTIONARY
360
DB6
102
}
102
{ACAD_REACTORS
330
99
102
}
330
99
100
AcDbVisualStyle
  2
Shaded with edges
 70
    26
 71
     2
 72
     2
 73
     1
 90
        2
 40
-0.6
 41
30.0
 62
     5
 63
     7
 74
     1
 91
       10
 64
     7
 65
   257
 75
     2
175
     1
 42
1.0
 92
        8
 66
   257
 43
1.0
 76
     1
 77
     6
 78
     2
 67
     7
 79
     3
170
     0
171
     0
290
     0
174
     0
 93
        5
 44
0.0
173
     0
291
     0
 45
0.0
1001
ACAD
1000
AcDbSavedByObjectVersion
1070
     0
  0
VISUALSTYLE
  5
2B8
102
{ACAD_XDICTIONARY
360
DB0
102
}
102
{ACAD_REACTORS
330
99
102
}
330
99
100
AcDbVisualStyle
  2
Shades of Gray
 70
    23
 71
     2
 72
     2
 73
     3
 90
        0
 40
-0.6
 41
-30.0
 62
     5
 63
     7
 74
     2
 91
        2
 64
     7
 65
     7
 75
     1
175
     1
 42
40.0
 92
        8
 66
     7
 43
1.0
 76
     1
 77
     6
 78
     2
 67
     7
 79
     3
170
     0
171
     0
290
     0
174
     0
 93
        1
 44
0.0
173
     0
291
     0
 45
0.0
1001
ACAD
1000
AcDbSavedByObjectVersion
1070
     0
  0
VISUALSTYLE
  5
2B9
102
{ACAD_XDICTIONARY
360
DB2
102
}
102
{ACAD_REACTORS
330
99
102
}
330
99
100
AcDbVisualStyle
  2
Sketchy
 70
    24
 71
     1
 72
     2
 73
     2
 90
        0
 40
-0.6
 41
-30.0
 62
     5
 63
     7
 74
     2
 91
        2
 64
     7
 65
     7
 75
     1
175
     1
 42
40.0
 92
       11
 66
     7
 43
1.0
 76
     1
 77
     6
 78
     2
 67
     7
 79
     6
170
     0
171
     0
290
     0
174
     0
 93
        1
 44
0.0
173
     0
291
     0
 45
0.0
1001
ACAD
1000
AcDbSavedByObjectVersion
1070
     0
  0
VISUALSTYLE
  5
A6
102
{ACAD_XDICTIONARY
360
D9E
102
}
102
{ACAD_REACTORS
330
99
102
}
330
99
100
AcDbVisualStyle
  2
Thicken
 70
    13
 71
     2
 72
     2
 73
     1
 90
        0
 40
-0.6
 41
-30.0
 62
     5
 63
     7
 74
     1
 91
        4
 64
     7
 65
   257
 75
     1
175
     1
 42
1.0
 92
       12
 66
     7
 43
1.0
 76
     1
 77
     6
 78
     2
 67
     7
 79
     5
170
     0
171
     0
290
     0
174
     0
 93
        1
 44
0.0
173
     0
291
     1
 45
0.0
1001
ACAD
1000
AcDbSavedByObjectVersion
1070
     0
  0
VISUALSTYLE
  5
2B6
102
{ACAD_XDICTIONARY
360
DAC
102
}
102
{ACAD_REACTORS
330
99
102
}
330
99
100
AcDbVisualStyle
  2
Wireframe
 70
     5
 71
     0
 72
     2
 73
     0
 90
        0
 40
-0.6
 41
-30.0
 62
     5
 63
     7
 74
     1
 91
        4
 64
     7
 65
   257
 75
     1
175
     1
 42
1.0
 92
        0
 66
   257
 43
1.0
 76
     1
 77
     6
 78
     2
 67
     7
 79
     3
170
     0
171
     0
290
     0
174
     0
 93
        1
 44
0.0
173
     0
291
     0
 45
0.0
1001
ACAD
1000
AcDbSavedByObjectVersion
1070
     0
  0
VISUALSTYLE
  5
2BA
102
{ACAD_XDICTIONARY
360
DB4
102
}
102
{ACAD_REACTORS
330
99
102
}
330
99
100
AcDbVisualStyle
  2
X-Ray
 70
    25
 71
     2
 72
     2
 73
     1
 90
        1
 40
0.5
 41
-30.0
 62
     5
 63
     7
 74
     1
 91
        0
 64
     7
 65
   257
 75
     1
175
     1
 42
1.0
 92
        8
 66
     7
 43
1.0
 76
     1
 77
     6
 78
     2
 67
     7
 79
     3
170
     0
171
     0
290
     0
174
     0
 93
       13
 44
0.0
173
     0
291
     0
 45
0.0
1001
ACAD
1000
AcDbSavedByObjectVersion
1070
     0
  0
XRECORD
  5
297
102
{ACAD_REACTORS
330
296
102
}
330
296
100
AcDbXrecord
280
     1
  1
WIRES
  1
WIRES
  1

290
     0
  0
DICTIONARYVAR
  5
F0
102
{ACAD_REACTORS
330
66
102
}
330
66
100
DictionaryVariables
280
     0
  1
1:1
  0
DICTIONARYVAR
  5
EF
102
{ACAD_REACTORS
330
66
102
}
330
66
100
DictionaryVariables
280
     0
  1
STANDARD
  0
DICTIONARYVAR
  5
89
102
{ACAD_REACTORS
330
66
102
}
330
66
100
DictionaryVariables
280
     0
  1
STANDARD
  0
DICTIONARYVAR
  5
67
102
{ACAD_REACTORS
330
66
102
}
330
66
100
DictionaryVariables
280
     0
  1
2
  0
DICTIONARYVAR
  5
6B
102
{ACAD_REACTORS
330
66
102
}
330
66
100
DictionaryVariables
280
     0
  1
1
  0
DICTIONARYVAR
  5
643
102
{ACAD_REACTORS
330
66
102
}
330
66
100
DictionaryVariables
280
     0
  1
0
  0
DICTIONARYVAR
  5
14D
102
{ACAD_REACTORS
330
66
102
}
330
66
100
DictionaryVariables
280
     0
  1
0
  0
DICTIONARYVAR
  5
14E
102
{ACAD_REACTORS
330
66
102
}
330
66
100
DictionaryVariables
280
     0
  1
0
  0
DICTIONARYVAR
  5
28D
102
{ACAD_REACTORS
330
66
102
}
330
66
100
DictionaryVariables
280
     0
  1
0
  0
DICTIONARYVAR
  5
641
102
{ACAD_REACTORS
330
66
102
}
330
66
100
DictionaryVariables
280
     0
  1
1
  0
DICTIONARYVAR
  5
644
102
{ACAD_REACTORS
330
66
102
}
330
66
100
DictionaryVariables
280
     0
  1
1
  0
DICTIONARYVAR
  5
642
102
{ACAD_REACTORS
330
66
102
}
330
66
100
DictionaryVariables
280
     0
  1
127
  0
DICTIONARYVAR
  5
D1E
102
{ACAD_REACTORS
330
66
102
}
330
66
100
DictionaryVariables
280
     0
  1
2
  0
DICTIONARY
  5
D7E
330
59
100
AcDbDictionary
280
     1
281
     1
  3
ACAD_XREC_ROUNDTRIP
360
D7F
  0
DICTIONARY
  5
2DC
330
22
100
AcDbDictionary
280
     1
281
     1
  3
ACAD_XREC_ROUNDTRIP
360
D7D
  3
ADSK_XREC_LAYOUTTHUMBNAIL
360
2DD
  0
DICTIONARY
  5
D83
330
97
100
AcDbDictionary
280
     1
281
     1
  3
ACAD_XREC_ROUNDTRIP
360
D84
  0
DICTIONARY
  5
D81
330
96
100
AcDbDictionary
280
     1
281
     1
  3
ACAD_XREC_ROUNDTRIP
360
D82
  0
DICTIONARY
  5
110
330
98
100
AcDbDictionary
280
     1
281
     1
  3
ACAD_XREC_ROUNDTRIP
360
D85
  3
BUMPTILE
360
112
  3
DIFFUSETILE
360
111
  3
OPACITYTILE
360
113
  3
REFLECTIONTILE
360
114
  0
DICTIONARY
  5
D77
330
D8
100
AcDbDictionary
280
     1
281
     1
  3
ACAD_XREC_ROUNDTRIP
360
D78
  0
DICTIONARY
  5
104
330
87
100
AcDbDictionary
280
     1
281
     1
  3
ACAD_ROUNDTRIP_2008_TABLESTYLE_CELLSTYLEMAP
360
D76
  3
ACAD_XREC_ROUNDTRIP
360
D80
  0
DICTIONARY
  5
D90
330
9F
100
AcDbDictionary
280
     1
281
     1
  3
ACAD_XREC_ROUNDTRIP
360
D91
  0
DICTIONARY
  5
D94
330
A1
100
AcDbDictionary
280
     1
281
     1
  3
ACAD_XREC_ROUNDTRIP
360
D95
  0
DICTIONARY
  5
D92
330
A0
100
AcDbDictionary
280
     1
281
     1
  3
ACAD_XREC_ROUNDTRIP
360
D93
  0
DICTIONARY
  5
D8E
330
9E
100
AcDbDictionary
280
     1
281
     1
  3
ACAD_XREC_ROUNDTRIP
360
D8F
  0
DICTIONARY
  5
D9C
330
A5
100
AcDbDictionary
280
     1
281
     1
  3
ACAD_XREC_ROUNDTRIP
360
D9D
  0
DICTIONARY
  5
DA4
330
A9
100
AcDbDictionary
280
     1
281
     1
  3
ACAD_XREC_ROUNDTRIP
360
DA5
  0
DICTIONARY
  5
D96
330
A2
100
AcDbDictionary
280
     1
281
     1
  3
ACAD_XREC_ROUNDTRIP
360
D97
  0
DICTIONARY
  5
D9A
330
A4
100
AcDbDictionary
280
     1
281
     1
  3
ACAD_XREC_ROUNDTRIP
360
D9B
  0
DICTIONARY
  5
DAA
330
175
100
AcDbDictionary
280
     1
281
     1
  3
ACAD_XREC_ROUNDTRIP
360
DAB
  0
DICTIONARY
  5
DA2
330
A8
100
AcDbDictionary
280
     1
281
     1
  3
ACAD_XREC_ROUNDTRIP
360
DA3
  0
DICTIONARY
  5
D86
330
9A
100
AcDbDictionary
280
     1
281
     1
  3
ACAD_XREC_ROUNDTRIP
360
D87
  0
DICTIONARY
  5
D88
330
9B
100
AcDbDictionary
280
     1
281
     1
  3
ACAD_XREC_ROUNDTRIP
360
D89
  0
DICTIONARY
  5
D8A
330
9C
100
AcDbDictionary
280
     1
281
     1
  3
ACAD_XREC_ROUNDTRIP
360
D8B
  0
DICTIONARY
  5
D8C
330
9D
100
AcDbDictionary
280
     1
281
     1
  3
ACAD_XREC_ROUNDTRIP
360
D8D
  0
DICTIONARY
  5
DAE
330
2B7
100
AcDbDictionary
280
     1
281
     1
  3
ACAD_XREC_ROUNDTRIP
360
DAF
  0
DICTIONARY
  5
DA6
330
173
100
AcDbDictionary
280
     1
281
     1
  3
ACAD_XREC_ROUNDTRIP
360
DA7
  0
DICTIONARY
  5
DA0
330
A7
100
AcDbDictionary
280
     1
281
     1
  3
ACAD_XREC_ROUNDTRIP
360
DA1
  0
DICTIONARY
  5
DA8
330
174
100
AcDbDictionary
280
     1
281
     1
  3
ACAD_XREC_ROUNDTRIP
360
DA9
  0
DICTIONARY
  5
D98
330
A3
100
AcDbDictionary
280
     1
281
     1
  3
ACAD_XREC_ROUNDTRIP
360
D99
  0
DICTIONARY
  5
DB8
330
2BC
100
AcDbDictionary
280
     1
281
     1
  3
ACAD_XREC_ROUNDTRIP
360
DB9
  0
DICTIONARY
  5
DB6
330
2BB
100
AcDbDictionary
280
     1
281
     1
  3
ACAD_XREC_ROUNDTRIP
360
DB7
  0
DICTIONARY
  5
DB0
330
2B8
100
AcDbDictionary
280
     1
281
     1
  3
ACAD_XREC_ROUNDTRIP
360
DB1
  0
DICTIONARY
  5
DB2
330
2B9
100
AcDbDictionary
280
     1
281
     1
  3
ACAD_XREC_ROUNDTRIP
360
DB3
  0
DICTIONARY
  5
D9E
330
A6
100
AcDbDictionary
280
     1
281
     1
  3
ACAD_XREC_ROUNDTRIP
360
D9F
  0
DICTIONARY
  5
DAC
330
2B6
100
AcDbDictionary
280
     1
281
     1
  3
ACAD_XREC_ROUNDTRIP
360
DAD
  0
DICTIONARY
  5
DB4
330
2BA
100
AcDbDictionary
280
     1
281
     1
  3
ACAD_XREC_ROUNDTRIP
360
DB5
  0
XRECORD
  5
D7F
102
{ACAD_REACTORS
330
D7E
102
}
330
D7E
100
AcDbXrecord
280
     1
102
SHADEPLOT
 70
     0
102
SHADEPLOTRESLEVEL
 70
     2
102
SHADEPLOTCUSTOMDPI
 70
   300
  0
XRECORD
  5
D7D
102
{ACAD_REACTORS
330
2DC
102
}
330
2DC
100
AcDbXrecord
280
     1
102
SHADEPLOT
 70
     0
102
SHADEPLOTRESLEVEL
 70
     2
102
SHADEPLOTCUSTOMDPI
 70
   300
  0
XRECORD
  5
2DD
102
{ACAD_REACTORS
330
2DC
102
}
330
2DC
100
AcDbXrecord
280
     1
310
28000000000100005D0000000100080000000000005D0000000000000000000000010000000000003028210000000000C8C8C8000000000000000000000000000000000000000000000000000000000000000000330000006600000099000000CC000000FF00000000330000333300006633000099330000CC330000FF3300
310
0000660000336600006666000099660000CC660000FF66000000990000339900006699000099990000CC990000FF99000000CC000033CC000066CC000099CC0000CCCC0000FFCC000000FF000033FF000066FF000099FF0000CCFF0000FFFF000000003300330033006600330099003300CC003300FF003300003333003333
310
33006633330099333300CC333300FF33330000663300336633006666330099663300CC663300FF66330000993300339933006699330099993300CC993300FF99330000CC330033CC330066CC330099CC3300CCCC3300FFCC330000FF330033FF330066FF330099FF3300CCFF3300FFFF330000006600330066006600660099
310
006600CC006600FF00660000336600333366006633660099336600CC336600FF33660000666600336666006666660099666600CC666600FF66660000996600339966006699660099996600CC996600FF99660000CC660033CC660066CC660099CC6600CCCC6600FFCC660000FF660033FF660066FF660099FF6600CCFF6600
310
FFFF660000009900330099006600990099009900CC009900FF00990000339900333399006633990099339900CC339900FF33990000669900336699006666990099669900CC669900FF66990000999900339999006699990099999900CC999900FF99990000CC990033CC990066CC990099CC9900CCCC9900FFCC990000FF99
310
0033FF990066FF990099FF9900CCFF9900FFFF99000000CC003300CC006600CC009900CC00CC00CC00FF00CC000033CC003333CC006633CC009933CC00CC33CC00FF33CC000066CC003366CC006666CC009966CC00CC66CC00FF66CC000099CC003399CC006699CC009999CC00CC99CC00FF99CC0000CCCC0033CCCC0066CC
310
CC0099CCCC00CCCCCC00FFCCCC0000FFCC0033FFCC0066FFCC0099FFCC00CCFFCC00FFFFCC000000FF003300FF006600FF009900FF00CC00FF00FF00FF000033FF003333FF006633FF009933FF00CC33FF00FF33FF000066FF003366FF006666FF009966FF00CC66FF00FF66FF000099FF003399FF006699FF009999FF00CC
310
99FF00FF99FF0000CCFF0033CCFF0066CCFF0099CCFF00CCCCFF00FFCCFF0000FFFF0033FFFF0066FFFF0099FFFF00CCFFFF00FFFFFF00000000000D0D0D001A1A1A00282828003535350043434300505050005D5D5D006B6B6B00787878008686860093939300A1A1A100AEAEAE00BBBBBB00C9C9C900D6D6D600E4E4E400
310
F1F1F100FFFFFF000000000000000000000000000000000000000000000000000000000000000000000000000000000000000000000000000000000000000000000000000000000000000000000000000000000000000000000000000000000000000000000000000000000000000000000000000000000000000000000000
310
00000000000000000000000000000000000000000000000000000000000000000000000000000000000000000000000000000000000000000000000000000000000000000000000000000000000000000000000000000000000000000000000000000000000000000000000000000000000000000000000000000000000000
310
0000000000000000000000000000000000000000000000000000000000000000000000000000000000000000000000000000000000000000000000000000000000000000000000000000000000000000000000000000000000000000000000000000000000000000000000F5F5F5F5F5F5F5F5F5F5F5F5F5F5F5F5F5F5F5F5
310
F5F5F5F5F5F5F5F5F5F5F5F5F5F5F5F5F5F5F5F5F5F5F5F5F5F5F5F5F5F5F5F5F5F5F5F5F5F5F5F5F5F5F5F5F5F5F5F5F5F5F5F5F5F5F5F5F5F5F5F5F5F5F5F5F5F5F5F5F5F5F5F5F5F5F5F5F5F5F5F5F5F5F5F5F5F5F5F5F5F5F5F5F5F5F5F5F5F5F5F5F5F5F5F5F5F5F5F5F5F5F5F5F5F5F5F5F5F5F5F5F5F5F500000000
310
00000000000000000000000000000000000000000000000000000000000000000000000000000000000000000000000000000000000000000000000000000000000000000000000000000000000000000000000000000000000000000000000000000000000000000000000000F50000000000000000000000000000000000
310
00000000000000000000000000000000000000000000000000000000000000000000000000000000000000000000000000000000000000000000000000000000000000000000000000000000000000000000000000000000000000000000000000000000000000000000000000000000000000000000000000000000F50000
310
000000000000000000000000000000000000000000000000000000000000000000000000000000000000000000000000000000000000000000000000000000000000000000000000000000000000000000000000000000000000000000000000000000000000000000000000000000F5000000000000000000000000000000
310
000000000000000000000000000000000000000000000000000000000000000000000000000000000000000000000000000000000000000000000000000000000000000000000000000000000000000000000000000000000000000000000000000000000000000000000000000000000000000000000000000000000000F5
310
0000000000000000000000000000000000000000000000000000000000000000000000000000000000000000000000000000000000000000000000000000000000000000000000000000000000000000000000000000000000000000000000000000000000000000000000000000000000F500000000000000000000000000
310
000000000000000000F5F5F5F5F5F5F5F5F5F5F5F500000000000000000000000000000000000000000000000000000000000000000000000000000000000000000000000000000000000000000000000000000000000000000000000000000000000000000000000000000000000000000000000000000000000000000000
310
00F50000000000000000000000000000000000000000000000000000000000000000000000000000000000000000000000000000000000000000000000000000000000000000000000000000000000000000000000000000000000000000000000000000000000000000000000000000000000F50000000000000000000000
310
0000000000000000000000F50000000000000000000000F5F5F5F5F5F5F5F5F5F5F5F5F5F5F5F5F5F5F5F5F5F500000000000000000000000000000000000000000000000000000000000000000000000000000000000000000000000000000000000000000000000000000000000000000000000000000000000000000000
310
000000F50000000000000000000000000000000000000000000000000000000000000000000000000000000000000000000000000000000000000000000000000000000000000000000000000000000000000000000000000000000000000000000000000000000000000000000000000000000000F5000000000000000000
310
00000000000000000000000000F5000000000000000000000000000000000000000000000000000000000000000000F5F5F5F5F5F5F5F5F5F5F5F5F5F5F5F5F5F5F5F5F50000000000000000000000000000000000000000000000000000000000000000000000000000000000000000000000000000000000000000000000
310
0000000000F50000000000000000000000000000000000000000000000000000000000000000000000000000000000000000000000000000000000000000000000000000000000000000000000000000000000000000000000000000000000000000000000000000000000000000000000000000000000F500000000000000
310
000000000000000000000000000000F5F5F5F5F5F5F5F5F5F5F500000000000000000000000000000000000000000000000000000000F5F5F5F5F5F5F5F5F5F5F50000000000F5F5F5F5F5F5F5F5F5F5F5F5F5F5F5F5F5F5F5F5F5F50000000000000000000000000000000000000000000000000000000000000000000000
310
00000000000000F50000000000000000000000000000000000000000000000000000000000000000000000000000000000000000000000000000000000000000000000000000000000000000000000000000000000000000000000000000000000000000000000000000000000000000000000000000000000F50000000000
310
0000000000000000000000000000000000F500000000000000000000F5F5F5F5F5F5F5F5F5F5F5F5F5F5F5F5F5F5F5F5F5F50000000000000000F5F5F5F5F5F5F5F5F5000000000000000000000000000000000000000000000000000000F5F5F5F5F5F5F5F5F5F5F5F5F50000000000000000000000000000000000000000
310
000000000000000000F50000000000000000000000000000000000000000000000000000000000000000000000000000000000000000000000000000000000000000000000000000000000000000000000000000000000000000000000000000000000000000000000000000000000000000000000000000000000F5000000
310
000000000000000000000000000000000000F5000000000000000000000000000000000000000000000000000000000000000000F5F5F5F5F5F5F5F5F5F5F5F5F5F5F5F5F5F5F5F5F5F5000000000000000000000000000000000000000000000000000000000000000000F5F5F50000000000000000000000000000000000
310
0000000000000000000000F50000000000000000000000000000000000000000000000000000000000000000000000000000000000000000000000000000000000000000000000000000000000000000000000000000000000000000000000000000000000000000000000000000000000000000000000000000000000F500
310
0000000000000000000000000000000000000000F500000000000000000000000000000000000000000000000000000000000000000000000000000000000000000000000000000000000000F5F5F5F5F5F5F5F5F5F5F5F5F5F5F5F5F5F5F5F5F5F50000000000000000000000F50000F5F5F5000000000000000000000000
310
00000000000000000000000000F50000000000000000000000000000000000000000000000000000000000000000000000000000000000000000000000000000000000000000000000000000000000000000000000000000000000000000000000000000000000000000000000000000000000000000000000000000000000
310
F50000000000000000000000000000000000000000F5000000000000000000000000000000000000000000000000000000000000000000000000000000000000000000000000000000000000000000000000000000000000000000000000000000000000F5F5F5F5F5F5F5F5F5F5F5F5F500000000F5F5F500000000000000
310
000000000000000000000000000000F5000000000000000000000000000000000000000000000000000000000000000000000000000000000000000000000000000000000000000000000000000000000000000000000000000000000000000000000000000000000000000000000000000000000000000000000000000000
310
0000F50000000000000000000000000000000000000000F500000000000000000000000000000000000000000000000000000000000000000000000000000000000000000000000000000000000000000000000000000000000000000000000000000000000000000000000000000000000000F5F50000F5F5F5F5F5000000
310
0000000000000000000000000000000000F500000000000000000000000000000000000000000000000000000000000000000000000000000000000000000000000000000000000000000000000000000000000000000000000000000000000000000000000000000000000000000000000000000000000000000000000000
310
00000000F50000000000000000000000000000000000000000F5000000000000000000000000000000000000000000000000000000000000000000000000000000000000000000000000000000000000000000000000000000000000000000000000000000000000000000000000000000000000000000F5F5F500F5F5F5F5
310
F5F50000000000000000000000000000000000F50000000000000000000000000000000000000000000000000000000000000000000000000000000000000000000000000000000000000000000000000000000000000000000000000000000000000000000000000000000000000000000000000000000000000000000000
310
000000000000F500000000000000000000000000000000000000F500000000000000000000000000000000000000000000000000000000000000000000000000000000000000000000000000000000000000000000000000000000000000000000000000000000000000000000000000000000000000000000000000F5F5F5
310
00F5F5F5F5F5F50000000000000000000000000000F5000000000000000000000000000000000000000000000000000000000000000000000000000000000000000000000000000000000000000000000000000000000000000000000000000000000000000000000000000000000000000000000000000000000000000000
310
0000000000000000F500000000000000000000000000000000000000F50000000000000000000000000000000000000000000000000000000000000000000000000000000000000000000000000000000000000000000000000000000000000000000000000000000000000000000000000000000000000000000000000000
310
0000F5F50000F5F500F5F5F500F5F50000000000000000F500000000000000000000000000000000000000000000000000000000000000000000000000000000000000000000000000000000000000000000000000000000000000000000000000000000000000000000000000000000000000000000000000000000000000
310
00000000000000000000F500000000000000000000000000000000000000F5000000000000000000000000000000000000000000000000000000000000000000000000000000000000000000000000000000000000000000000000000000000000000000000000000000000000000000000000000000000000000000000000
310
000000000000F5F5F50000000000F5F5F50000000000000000F50000000000000000000000000000000000000000000000000000000000000000000000000000000000000000000000000000000000000000000000000000000000000000000000000000000000000000000000000000000000000000000000000000000000
310
000000000000000000000000F5000000000000000000000000000000000000F5000000000000000000000000000000000000000000000000000000000000000000000000000000000000F5F5F5F5F5F5F5F5F5F5F5F5F5F5F5F5F5F5F5F5F5F5F5F5F5F5F5F5F5F5F5F5F50000000000000000000000000000000000000000
310
0000000000000000000000F5F5F5000000F5000000000000000000F5000000000000000000000000000000000000000000000000000000000000000000000000000000000000000000000000000000000000000000000000000000000000000000000000000000000000000000000000000000000000000000000000000000
310
0000000000000000000000000000F5000000000000000000000000000000000000F5000000000000000000000000000000000000000000000000000000000000000000000000000000000000F5F5F5F5F5F5F5F5F5F5F5F5F5F5F5F5F5F5F5F5F5F5F5F5F5F5F5F5F5F5F5F5F5000000000000000000000000000000000000
310
00000000000000000000000000000000F5F500F5000000000000000000F500000000000000000000000000000000000000000000000000000000000000000000000000000000000000000000000000000000000000000000000000000000000000000000000000000000000000000000000000000000000000000000000000
310
00000000000000000000000000000000F50000000000000000000000000000000000F500000000000000000000000000000000000000000000000000000000000000000000000000000000000000F5F5F5F5F5F5F5F5F5F5F5F5F5F5F5F5F5F5F5F5F5F5F5F5F5F5F5F5F5F5F5F5F500000000000000000000000000000000
310
0000000000000000000000000000000000000000F5F5000000000000000000F50000000000000000000000000000000000000000000000000000000000000000000000000000000000000000000000000000000000000000000000000000000000000000000000000000000000000000000000000000000000000000000000
310
000000000000000000000000000000000000F50000000000000000000000000000000000F5F5F5F5000000000000000000000000000000000000000000000000000000000000000000000000000000000000000000000000000000000000000000000000000000000000000000000000000000000000000000000000000000
310
0000000000000000000000000000000000000000000000F5000000000000000000F5000000000000000000000000000000000000000000000000000000000000000000000000000000000000000000000000000000000000000000000000000000000000000000000000000000000000000000000000000000000000000000
310
0000000000000000000000000000000000000000F50000000000000000000000000000000000F5F5F500F5F5F500000000000000000000000000000000000000000000000000000000000000000000000000000000000000000000000000000000000000000000000000000000000000000000000000000000000000000000
310
000000000000000000000000000000000000000000000000F500000000000000000000F500000000000000000000000000000000000000000000000000000000000000000000000000000000000000000000000000000000000000000000000000000000000000000000000000000000000000000000000000000000000000
310
00000000000000000000000000000000000000000000F500000000000000000000000000000000F500F5F500000000F5F5F50000000000000000000000000000000000000000000000000000000000000000000000000000000000000000000000000000000000000000000000000000000000000000000000000000000000
310
0000000000000000000000000000000000000000000000000000F500000000000000000000F50000000000000000000000000000000000000000000000000000000000000000000000000000000000000000000000000000000000000000000000000000000000000000000000000000000000000000000000000000000000
310
000000000000000000000000000000000000000000000000F500000000000000000000000000000000F500F5F500000000000000F5F5F5000000000000000000000000000000000000000000000000000000000000000000000000000000000000000000000000000000000000000000000000000000000000000000000000
310
000000000000000000000000000000000000000000000000000000F50000000000000000000000F5000000000000000000000000000000000000000000000000000000000000000000000000000000000000000000000000000000000000000000000000000000000000000000000000000000000000000000000000000000
310
0000000000000000000000000000000000000000000000000000F5000000000000000000000000000000F50000F5F500000000000000000000F5F5F500000000000000000000000000000000000000000000000000000000000000000000000000000000000000000000000000000000000000000000000000000000000000
310
0000000000000000000000000000000000000000000000000000000000F50000000000000000000000F500000000000000000000000000000000000000000000000000000000000000000000000000000000000000000000000000000000000000000000000000000000000000000000000000000000000000000000000000
310
00000000000000000000000000000000000000000000000000000000F5000000000000000000000000000000F50000F5F500000000000000000000000000F5F5000000000000000000000000000000000000000000000000000000000000000000000000000000000000000000000000000000000000000000000000000000
310
00000000000000000000000000000000000000000000000000000000000000F50000000000000000000000F50000000000000000000000000000000000000000000000000000000000000000000000000000000000000000000000000000000000000000000000000000000000000000000000000000000000000000000000
310
000000000000000000000000000000000000000000000000000000000000F5000000000000000000000000000000F50000F5F5000000000000000000000000000000F5F5F50000000000000000F5F5F5F5F5F5F5F5F5F5F5F5F5F5F5F5F5F5F5F5F5F5F5F5F5F5F5F5F5F5F5F5F5F5F5F5F5F5F5F5F5F5F5F5F5F5F5F5F5F5
310
F5F5F5F5F5F5F5F5F5F5F5F5F5F5F5F5F5F5F5F5F5F5F5000000000000000000F5000000000000000000000000F5000000000000000000000000000000000000000000000000000000000000000000000000000000000000000000000000000000000000000000000000000000000000000000000000000000000000000000
310
0000000000000000000000000000000000000000000000000000000000000000F50000000000000000000000000000F5000000F5F5000000000000000000000000000000000000F5F5F50000000000F5F50000000000000000000000000000000000000000000000000000000000F5F5F500F5F5F5F5F5F5F5000000000000
310
0000000000000000000000000000000000000000000000F5F5000000000000000000F5000000000000000000000000F500000000000000000000000000000000000000000000000000000000000000000000000000000000000000000000000000000000000000000000000000000000000000000000000000000000000000
310
00000000000000000000000000000000000000000000000000000000000000000000F50000000000000000000000000000F5000000F5F5000000000000000000000000000000000000000000F5F5F50000F5000000000000000000000000000000000000000000000000000000000000F5F5F5F5F5F5F5F5F5F5F500000000
310
0000000000000000000000000000000000000000000000000000F50000000000000000F500000000000000000000000000F50000000000000000000000000000000000000000000000000000000000000000000000000000000000000000000000000000000000000000000000000000000000000000000000000000000000
310
000000000000000000000000000000000000000000000000000000000000000000000000F500000000000000000000000000F500000000F5F5000000000000000000000000000000000000000000000000F5F5F5F5F5F5F5F5F5F5F5F5F5F5F5F5F5F5F5F5F5F5F5F5F5F5F5F5F5F5F5F5F5F5F5F5F5F5F5F5F5F5F5F5F5F5
310
F5F5F5F5F5F5F5F5F5F5F5F5F5F5F5F5F5F5F5F5F5F5F5F5F5F5F5F5F5F5F5F50000000000F500000000000000000000000000F5000000000000000000000000000000000000000000000000000000000000000000000000000000000000000000000000000000000000000000000000000000000000000000000000000000
310
0000000000000000000000000000000000000000000000000000000000000000000000000000F500000000000000000000000000F500000000F5F50000000000000000000000F5F5F5F5F5F5F5F5F5F5F5F5F5F5F5F5F5F5F5F5F5F5F5F5F5F5F5F5F5F5F5F5F5F5F5F5F5F500000000000000000000000000000000000000
310
000000000000000000000000000000000000000000000000000000000000F50000F50000000000F500000000000000000000000000F500000000000000000000000000000000000000000000000000000000000000000000000000000000000000000000000000000000000000000000000000000000000000000000000000
310
00000000000000000000000000000000000000000000000000000000000000000000000000000000F5000000000000000000000000F50000000000F5F50000000000000000000000F5000000000000000000000000F5F5F5F5F5F5F5F5F5F5F500000000000000000000000000F50000000000000000000000000000000000
310
0000000000000000000000000000000000000000000000000000000000000000F5F5F5F500000000F50000000000000000000000000000F50000000000000000000000000000000000000000000000000000000000000000000000000000000000000000000000000000000000000000000000000000000000000000000000
310
000000000000000000000000000000000000000000000000000000000000000000000000000000000000F5000000000000000000000000F500000000F5F5F50000000000000000000000F5F5F5F5F5F5F5F5F5F5F5F5F5F5F5F5F5F5F5F5F5F5F5F5F5F5F5F5F5F5F5F5F5F5F5F5F5F5000000000000000000000000000000
310
00000000000000000000000000000000000000000000000000000000000000000000F5F5F5F500000000F50000000000000000000000000000F5000000000000000000000000000000000000000000000000000000000000000000000000000000000000000000000000000000000000000000000000000000000000000000
310
0000000000000000000000000000000000000000000000000000000000000000000000000000000000000000F50000000000000000000000F50000000000F5F5F50000000000000000000000F500000000000000F5F50000F5000000000000000000000000000000000000000000F5F500F500000000000000000000000000
310
000000000000000000000000000000000000000000000000000000000000000000000000F5F5F5F5000000F5000000000000000000000000000000F500000000000000000000000000000000000000000000000000000000000000000000000000000000000000000000000000000000000000000000000000000000000000
310
00000000000000000000000000000000000000000000000000000000000000000000000000000000000000000000F50000000000000000000000F50000000000F5F5F50000000000000000000000F500000000000000F500F500F500000000000000000000000000000000000000000000F500F50000000000000000000000
310
0000000000000000000000000000000000000000000000000000000000000000000000000000F5F5F5F5000000F5000000000000000000000000000000F50000000000000000000000000000000000000000000000000000000000000000000000000000000000000000000000000000000000000000000000000000000000
310
000000000000000000000000000000000000000000000000000000000000000000000000000000000000000000000000F50000000000000000000000F50000000000F5F5F50000000000000000000000F500000000000000F5F500F5F500000000000000000000000000000000000000000000F500F5000000000000000000
310
00000000000000000000000000000000000000000000000000000000000000000000000000000000F5F5F5F50000F500000000000000000000000000000000F5000000000000000000000000000000000000000000000000000000000000000000000000000000000000000000000000000000000000000000000000000000
310
0000000000000000000000000000000000000000000000000000000000000000000000000000000000000000000000000000F500000000000000000000F5000000000000F5F5F50000000000000000000000F500000000000000F500F500F500000000000000000000000000000000000000000000F500F500000000000000
310
000000000000000000000000000000000000000000000000000000000000000000000000000000000000F5F5F5F50000F500000000000000000000000000000000F500000000000000000000000000000000000000000000000000000000000000000000000000000000000000000000000000000000000000000000000000
310
00000000000000000000000000000000000000000000000000000000000000000000000000000000000000000000000000000000F500000000000000000000F5000000000000F5F5F50000000000000000000000F500000000000000F5F500F5F500000000000000000000000000000000000000000000F500F50000000000
310
0000000000000000000000000000000000000000000000000000000000000000000000000000000000000000F5F5F5F50000F500000000000000000000000000000000F50000000000000000000000000000000000000000000000000000000000000000000000000000000000000000000000000000000000000000000000
310
000000000000000000000000000000000000000000000000000000000000000000000000000000000000000000000000000000000000F500000000000000000000F5000000000000F5F5F50000000000000000000000F500000000000000F500F500F500000000000000000000000000000000000000000000F500F5000000
310
00000000000000000000000000000000000000000000000000000000000000000000000000000000000000000000F500F5F500F50000000000000000000000000000000000F5000000000000000000000000000000000000000000000000000000000000000000000000000000000000000000000000000000000000000000
310
0000000000000000000000000000000000000000000000000000000000000000000000000000000000000000000000000000000000000000F500000000000000000000F5000000000000F5F5F50000000000000000000000F500000000000000F50000F5F500000000000000000000000000000000000000000000F500F500
310
000000000000000000000000000000000000000000000000000000000000000000000000000000000000000000000000F500F5F500F50000000000000000000000000000000000F500000000000000000000000000000000000000000000000000000000000000000000000000000000000000000000000000000000000000
310
000000000000000000000000000000000000000000000000000000000000000000000000000000000000000000000000000000000000000000F5F500000000000000000000F5000000000000F5F5F50000000000000000000000F500000000000000F5F5F500F50000000000000000000000000000000000000000F5F5F500
310
F500000000000000000000000000000000000000000000000000000000000000000000000000000000000000000000000000F5F5F5F5F5000000000000000000000000000000000000F50000000000000000000000000000000000000000000000000000000000000000000000000000000000000000000000000000000000
310
0000000000000000000000000000000000000000000000000000000000000000000000000000000000000000000000000000000000000000000000F5F500000000000000000000F5000000000000F5F5F50000000000000000000000F500000000000000F50000F5F50000000000000000000000000000000000000000F5F5
310
F500F500000000F5F5F5F5F5F5F5F5F5F5F5F5F5F5F5F5F5F5F5F5F5F5F5F5F5F5F5F5F5F5F5F5F5F5F5F5F5F5F5F5F5F5F5F5F5F5F5F5F5F5000000000000000000000000000000000000F5000000000000000000000000000000000000000000000000000000000000000000000000000000000000000000000000000000
310
00000000000000000000000000000000000000000000000000000000000000000000000000000000000000000000000000000000000000000000000000F5F500000000000000000000F5000000000000F5F5F50000000000000000000000F500000000000000F5F5F500F50000000000000000000000000000000000000000
310
F5F5F500F50000F5F5F50000000000000000000000000000000000000000000000000000000000000000000000000000000000000000000000F5F5000000000000000000000000000000000000F500000000000000000000000000000000000000000000000000000000000000000000000000000000000000000000000000
310
000000000000000000000000000000000000000000000000000000000000000000000000000000000000000000000000000000000000000000000000000000F5F500000000000000000000F500000000000000F5F50000000000000000000000F500000000000000F50000F5F5000000000000000000000000000000000000
310
0000F5F5F500F500F5F50000000000000000000000000000000000000000000000000000000000000000000000000000000000000000000000F5F5F5F5000000000000000000000000000000000000F50000000000000000000000000000000000000000000000000000000000000000000000000000000000000000000000
310
0000000000000000000000000000000000000000000000000000000000000000000000000000000000000000000000000000000000000000000000000000000000F5F500000000000000000000F500000000000000F5F5F5F5F5F5F5F5F5F5F5F5F5F5F5F5F5F5F5F5F5F5F5F500F500000000000000000000000000000000
310
00000000F5F5F500F500F5000000000000000000000000000000000000000000000000000000000000000000000000000000000000000000000000F5F5F5F5000000000000000000000000000000000000F5000000000000000000000000000000000000000000000000000000000000000000000000000000000000000000
310
00000000000000000000000000000000000000000000000000000000000000000000000000000000000000000000000000000000000000000000000000000000000000F5F500000000000000000000F500000000000000F5F5F5F5F5F5F5F5F5F5F5F500F5F50000000000F5F50000F5F50000000000000000000000000000
310
000000000000F5F5F500F5F500000000000000000000000000000000000000000000000000000000000000000000000000000000000000000000000000F5F5F5F5000000000000000000000000000000000000F500000000000000000000000000000000000000000000000000000000000000000000000000000000000000
310
000000000000000000000000000000000000000000000000000000000000000000000000000000000000000000000000000000000000000000000000000000000000000000F5F500000000000000000000F500000000000000F5F5F5F5F5F5F5F5F5F500F500F500000000000000F5F5F500F5000000000000000000000000
310
0000000000000000F5F5F500F5F500000000000000000000000000000000000000000000000000000000000000000000000000000000000000000000000000F5F5F5F5000000000000000000000000000000000000F50000000000000000000000000000000000000000000000000000000000000000000000000000000000
310
0000000000000000000000000000000000000000000000000000000000000000000000000000000000000000000000000000000000000000000000000000000000000000000000F5F500000000000000000000F500000000000000F5F50000000000000000000000F500000000000000F50000F5F5F5F50000000000F5F5F5
310
F5F5F500000000000000F5F5F500F5F500000000000000000000000000000000000000000000000000000000000000000000000000000000000000000000000000F5F5F5F5000000000000000000000000000000000000F5000000000000000000000000000000000000000000000000000000000000000000000000000000
310
00000000000000000000000000000000000000000000000000000000000000000000000000000000000000000000000000000000000000000000000000000000000000000000000000F5F50000000000000000000000F5000000000000F5F50000000000000000000000F500000000000000F5F50000F50000F500000000F5
310
F5F5F5F5F500000000000000F5F5F500F5F500000000000000000000000000000000000000000000000000000000000000000000000000000000000000000000000000F5F5F5F5000000000000000000000000000000000000F500000000000000000000000000000000000000000000000000000000000000000000000000
310
000000000000000000000000000000000000000000000000000000000000000000000000000000000000000000000000000000000000000000000000000000000000000000000000000000F5F50000000000000000000000F5000000000000F5F50000000000000000000000F500000000000000F500F500F5000000F5F5F5
310
F5F5F5F5F5F5F500000000000000F5F5F500F5F500000000000000000000000000000000000000000000000000000000000000000000000000000000000000000000000000F5F5F5F5000000000000000000000000000000000000F50000000000000000000000000000000000000000000000000000000000000000000000
310
0000000000000000000000000000000000000000000000000000000000000000000000000000000000000000000000000000000000000000000000000000000000000000000000000000000000F5F5000000000000000000000000F50000000000F5F50000000000000000000000F500000000000000F5F500F5F500000000
310
000000000000000000000000000000000000F500F5F5F500000000000000000000000000000000000000000000000000000000000000000000000000000000000000000000000000F5F500F50000000000000000000000000000000000F5000000000000000000000000000000000000000000000000000000000000000000
310
0000000000000000000000000000000000000000000000000000000000000000000000000000000000000000000000000000000000000000000000000000000000000000000000000000000000000000F5000000000000000000000000F50000000000F5F50000000000000000000000F500000000000000F500F500F50000
310
0000000000000000000000000000000000000000F500F5F5F500000000000000000000000000000000000000000000000000000000000000000000000000000000000000000000000000F5F500F50000000000000000000000000000000000F500000000000000000000000000000000000000000000000000000000000000
310
00000000000000000000000000000000000000000000000000000000000000000000000000000000000000000000000000000000000000000000000000000000000000000000000000000000000000000000F5000000000000000000000000F50000000000F5F50000000000000000000000F500000000000000F5F500F5F5
310
00000000000000000000000000000000000000000000F500F5F5F5F50000000000000000000000000000000000000000000000000000000000000000000000000000000000000000000000F5F5F50000F500000000000000000000000000000000F50000000000000000000000000000000000000000000000000000000000
310
000000000000000000000000000000000000000000000000000000000000000000000000000000000000000000000000000000000000000000000000000000000000000000000000000000000000000000000000F5000000000000000000000000F50000000000F5F50000000000000000000000F500000000000000F500F5
310
00F500000000000000000000000000000000000000000000F500F5F50000F5F5F5F5F5F5F5F5F5F5F5F5F5F5F5F5F5F5F5F5F5F5F5F5F5F5F5F5F5F5F5F5F5F5F5F5F5F5F5F5F5F5F5F5F5F5F5F5F5F50000F500000000000000000000000000000000F5000000000000000000000000000000000000000000000000000000
310
0000000000000000000000000000000000000000000000000000000000000000000000000000000000000000000000000000000000000000000000000000000000000000000000000000000000000000000000000000F500000000000000000000000000F500000000F5F5F500000000000000000000F500000000000000F5
310
F500F5F500000000000000000000000000000000000000000000F500F5F5000000000000000000000000000000000000000000000000000000000000000000000000000000000000000000000000F50000F50000F500000000000000000000000000000000F500000000000000000000000000000000000000000000000000
310
00000000000000000000000000000000000000000000000000000000000000000000000000000000000000000000000000000000000000000000000000000000000000000000000000000000000000000000000000000000F500000000000000000000000000F50000000000F500F5F5F500000000000000F5000000000000
310
00F500F500F500000000000000000000000000000000000000000000F500F5F5F5F5F5F5F5F5F5F5F5F5F5F5F5F5F5F5F5F5F5F5F5F5F5F5F5F5F5F5F5F5F5F5F5F5F5F5F5F5F5F5F5F5F5F5F5F5F5F5F5F5F5F5000000F5000000000000000000000000000000F50000000000000000000000000000000000000000000000
310
000000000000000000000000000000000000000000000000000000000000000000000000000000000000000000000000000000000000000000000000000000000000000000000000000000000000000000000000000000000000F50000000000000000000000000000F5000000F5F500000000F5F5F500000000F500000000
310
000000F50000F5F5000000000000000000000000000000000000000000F5F500F50000000000000000000000000000000000000000F5F5F5F5F5F5F5F5F5F5F5000000000000000000000000000000000000F5F5F5F5000000F5000000000000000000000000000000F5000000000000000000000000000000000000000000
310
0000000000000000000000000000000000000000000000000000000000000000000000000000000000000000000000000000000000000000000000000000000000000000000000000000000000000000000000000000000000000000F50000000000000000000000000000F5F50000F5F5F5000000000000F5F5F500F5F5F5
310
F5F5F5F5F5F5F5F5F5F5F5F5F5F5F5F5F5F5F5F5F5F5F5F5F5F5F5F5F5F5F5F5F5F5F500000000000000000000000000000000000000000000F5F5F500000000F5F5000000000000000000000000000000000000F5F5F5F5000000F5000000000000000000000000000000F500000000000000000000000000000000000000
310
00000000000000000000000000000000000000000000000000000000000000000000000000000000000000000000000000000000000000000000000000000000000000000000000000000000000000000000000000000000000000000000F5000000000000000000000000000000F5F500000000F5F5F5000000000000F5F5
310
F5000000000000F5F5F5F5F50000000000000000000000000000000000000000000000000000000000000000000000000000000000000000000000000000000000000000000000000000000000000000000000000000F5F5F5F500000000F50000000000000000000000000000F50000000000000000000000000000000000
310
000000000000000000000000000000000000000000000000000000000000000000000000000000000000000000000000000000000000000000000000000000000000000000000000000000000000000000000000000000000000000000000000F500000000000000000000000000000000F5F5000000000000F5F5F5F50000
310
000000F5F5F5000000F5F500F5F5F500000000000000000000000000000000000000000000000000000000000000000000000000000000000000000000000000000000000000000000000000000000000000000000000000F5F5F5F500000000F50000000000000000000000000000F5000000000000000000000000000000
310
0000000000000000000000000000000000000000000000000000000000000000000000000000000000000000000000000000000000000000000000000000000000000000000000000000000000000000000000000000000000000000000000000000F50000000000000000000000000000000000F5F5000000000000000000
310
F5F5F50000000000F5F5F5F50000000000F5F5F5F5F5F5F5F5F5F5F5F500000000F5F5F5F5F5F5F5F5F5F5F5F5F5F5F5F5F5F5F5F5F5F5F5F5F5F5F5F5F5F5F5F5F5000000000000000000000000000000000000000000000000F5F5F5F50000000000F500000000000000000000000000F500000000000000000000000000
310
00000000000000000000000000000000000000000000000000000000000000000000000000000000000000000000000000000000000000000000000000000000000000000000000000000000000000000000000000000000000000000000000000000000F5000000000000000000000000000000000000F5F5000000000000
310
0000000000F5F5F5000000000000F5F5F5000000F5F5F5F5F5F5F5F5F5F5F500000000F5F5F5F5F5F5F5F5F5F5F5F5F5F5F5F5F5F5F5F5F5F5F5F5F5F5F5F5F5F5F5F5F5000000000000000000000000000000000000000000000000F5F5F5F50000000000F500000000000000000000000000F50000000000000000000000
310
000000000000000000000000000000000000000000000000000000000000000000000000000000000000000000000000000000000000000000000000000000000000000000000000000000000000000000000000000000000000000000000000000000000000F50000000000000000000000000000000000000000F5000000
310
0000000000000000F5F5F5F5F5F50000000000F5F5F5000000000000000000000000000000F5F5F5F5F5F5F5F5F5F5F5F5F5F5F5F5F5F5F5F5F5F5F5F5F5F5F5F5F5F5F5F5F5000000000000000000000000000000000000000000000000F5F5F5F50000000000F500000000000000000000000000F5000000000000000000
310
0000000000000000000000000000000000000000000000000000000000000000000000000000000000000000000000000000000000000000000000000000000000000000000000000000000000000000000000000000000000000000000000000000000000000000F5000000000000000000000000000000000000000000F5
310
F500000000000000000000F5F5F5F5F5F5F5F50000000000F5F5F5000000000000000000000000000000000000000000000000000000000000000000000000000000000000000000000000000000000000000000000000000000000000000000F500F5F5000000000000F5000000000000000000000000F500000000000000
310
00000000000000000000000000000000000000000000000000000000000000000000000000000000000000000000000000000000000000000000000000000000000000000000000000000000000000000000000000000000000000000000000000000000000000000000F50000000000000000000000000000000000000000
310
000000F5000000000000000000000000F5F5F5F5F5F5F5F50000000000F5F5F5000000000000000000000000000000000000000000000000000000000000000000000000000000000000000000000000000000000000000000000000000000000000F5F5F5F5000000000000F5000000000000000000000000F50000000000
310
000000000000000000000000000000000000000000000000000000000000000000000000000000000000000000000000000000000000000000000000000000000000000000000000000000000000000000000000000000000000000000000000000000000000000000000000F5000000000000000000000000000000000000
310
000000000000F5000000000000000000000000000000F5F50000F5F5F50000000000F5F5F5000000000000000000000000000000000000000000000000000000000000000000000000000000000000000000000000000000000000000000000000000000F50000F5000000000000F5000000000000000000000000F5000000
310
0000000000000000000000000000000000000000000000000000000000000000000000000000000000000000000000000000000000000000000000000000000000000000000000000000000000000000000000000000000000000000000000000000000000000000000000000000F500000000000000000000000000000000
310
000000000000000000F5F50000000000000000000000000000000000000000F5F5F5F500000000F5F5F5F5F5F5F5F5F5F5F5F5F5F5F5F5F5F5F5F5F5F5F5F5F5F5F5F5F5F5F5F5F5F5F5F5F5F5F5F5F5F5F5F5F5F5F5F5F5F5F5F5F5F5F5F5F5F5F5F5F5F5F5F5F5F5F500000000000000F50000000000000000000000F500
310
00000000000000000000000000000000000000000000000000000000000000000000000000000000000000000000000000000000000000000000000000000000000000000000000000000000000000000000000000000000000000000000000000000000000000000000000000000000F50000000000000000000000000000
310
000000000000000000000000F5F50000000000000000000000000000000000000000000000F5F5F50000F500000000000000000000000000000000000000000000000000000000000000000000000000000000000000000000000000000000000000000000000000F500000000000000000000F50000000000000000000000
310
F50000000000000000000000000000000000000000000000000000000000000000000000000000000000000000000000000000000000000000000000000000000000000000000000000000000000000000000000000000000000000000000000000000000000000000000000000000000000F5000000000000000000000000
310
000000000000000000000000000000F5F500000000000000000000000000000000000000000000000000F5F5F5F50000000000000000000000000000000000000000000000000000000000000000000000000000000000000000000000000000000000000000000000F5F50000000000000000000000F50000000000000000
310
0000F50000000000000000000000000000000000000000000000000000000000000000000000000000000000000000000000000000000000000000000000000000000000000000000000000000000000000000000000000000000000000000000000000000000000000000000000000000000000F500000000000000000000
310
000000000000000000000000000000000000F50000000000000000000000000000000000000000000000000000F5F5F5F5F5F5F5F5F5F5F5F5F5F5F5F5F5F5F5F5F5F5F5F5F5F5F5F5F5F5F5F5F5F5F5F5F5F5F5F5F5F5F5F5F5F5F5F5F5F5F5F5F5F5F5F5F5F5F5F5F5F5F5F500000000000000000000F5F5000000000000
310
00000000F50000000000000000000000000000000000000000000000000000000000000000000000000000000000000000000000000000000000000000000000000000000000000000000000000000000000000000000000000000000000000000000000000000000000000000000000000000000000F50000000000000000
310
0000000000000000000000000000000000000000F5F5000000000000000000000000000000000000000000000000000000000000000000000000000000000000000000000000000000000000000000F5F5F5F5F5F5F5F5F5F5F50000000000000000000000000000000000000000000000000000000000F5F500F500000000
310
000000000000F50000000000000000000000000000000000000000000000000000000000000000000000000000000000000000000000000000000000000000000000000000000000000000000000000000000000000000000000000000000000000000000000000000000000000000000000000000000000F5000000000000
310
0000000000000000000000000000000000000000000000F50000000000000000000000000000000000000000000000000000000000000000000000000000000000000000000000000000000000000000000000000000000000000000000000000000000000000000000000000000000000000000000000F5F500000000F500
310
0000000000000000F50000000000000000000000000000000000000000000000000000000000000000000000000000000000000000000000000000000000000000000000000000000000000000000000000000000000000000000000000000000000000000000000000000000000000000000000000000000000F500000000
310
0000000000000000000000000000000000000000000000000000F500000000000000000000000000000000000000000000000000000000000000000000000000000000000000000000000000000000000000000000000000000000000000000000000000000000000000000000000000000000000000F5F5F500000000F5F5
310
F5000000000000000000F50000000000000000000000000000000000000000000000000000000000000000000000000000000000000000000000000000000000000000000000000000000000000000000000000000000000000000000000000000000000000000000000000000000000000000000000000000000000F50000
310
00000000000000000000000000000000000000000000000000000000F50000000000000000000000000000000000000000000000000000000000000000000000000000000000000000000000000000000000000000000000000000000000000000000000000000000000000000000000000000000000F5F50000000000F5F5
310
000000000000000000000000F50000000000000000000000000000000000000000000000000000000000000000000000000000000000000000000000000000000000000000000000000000000000000000000000000000000000000000000000000000000000000000000000000000000000000000000000000000000000F5
310
00000000000000000000000000000000000000000000000000000000000000F50000000000000000F5F5F5F5F5F5F5F5F5F5F5F5F5F5F5F5F5F5F5F5F5F5F5F5F5F5F5F500000000000000000000000000000000000000000000000000000000000000000000000000000000000000000000000000F5F5F500000000F5F5F5
310
0000000000000000000000000000F500000000000000000000000000000000000000000000000000000000000000000000000000000000000000000000000000000000000000000000000000000000000000000000000000000000000000000000000000000000000000000000000000000000000000000000000000000000
310
00F500000000000000000000000000000000000000000000000000000000000000F50000000000000000F5F5F5F5F5F5F5F5F5F5F5F5F5F5F5F5F5F5F5F5F5F5F5F5F5F5F5F50000000000000000000000000000000000000000000000000000000000000000000000000000000000000000000000F5F50000000000F5F5F5
310
F5F50000000000000000000000000000F50000000000000000000000000000000000000000000000000000000000000000000000000000000000000000000000000000000000000000000000000000000000000000000000000000000000000000000000000000000000000000000000000000000000000000000000000000
310
000000F500000000000000000000000000000000000000000000000000000000000000F5000000000000000000000000000000000000000000000000000000000000000000000000000000000000000000000000000000000000000000000000000000000000000000000000000000000000000000F5F500000000F5F5F5F5
310
F5F5F5000000000000000000000000000000F5000000000000000000000000000000000000000000000000000000000000000000000000000000000000000000000000000000000000000000000000000000000000000000000000000000000000000000000000000000000000000000000000000000000000000000000000
310
0000000000F50000000000000000000000000000000000000000000000000000000000000000F500000000000000F5F5F5F5F5F5F5F5F5F5F5F5F5F5F5F5F5F5F5F5F5F5F5F5F5F500000000000000000000000000000000000000000000000000000000000000000000000000000000F5F5F5F5F5F5F5000000F5F5F5F5F5
310
F5F5000000000000000000000000000000000000F500000000000000000000000000000000000000000000000000000000000000000000000000000000000000000000000000000000000000000000000000000000000000000000000000000000000000000000000000000000000000000000000000000000000000000000
310
00000000000000F50000000000000000000000000000000000000000000000000000000000000000F500000000000000F5F5F5F5F5F5F5F5F5F5F5F5F5F5F5F5F5F5F5F5F5F5F5F5F5F50000000000000000000000000000000000000000000000000000000000F5F5F5F5F5F5F5F5F5F5F50000000000F50000F5F500F5F5
310
F5F50000000000000000000000000000000000000000F50000000000000000000000000000000000000000000000000000000000000000000000000000000000000000000000000000000000000000000000000000000000000000000000000000000000000000000000000000000000000000000000000000000000000000
310
000000000000000000F50000000000000000000000000000000000000000000000000000000000000000F5000000000000000000000000000000000000000000000000000000000000000000000000000000000000000000000000000000F5F5F5F5F5F5F5F5F5F5F5000000000000000000000000000000F5F5F5F5000000
310
000000000000000000000000000000000000000000000000F5000000000000000000000000000000000000000000000000000000000000000000000000000000000000000000000000000000000000000000000000000000000000000000000000000000000000000000000000000000000000000000000000000000000000
310
0000000000000000000000F50000000000000000000000000000000000000000000000000000000000000000F500000000000000000000000000000000000000000000000000000000000000000000000000000000F5F5F5F5F5F5F5F5F5F5F50000000000000000000000000000000000000000F5F5F5F5F5F5F5F5F50000
310
0000000000000000000000000000000000000000000000000000F500000000000000000000000000000000000000000000000000000000000000000000000000000000000000000000000000000000000000000000000000000000000000000000000000000000000000000000000000000000000000000000000000000000
310
00000000000000000000000000F5000000000000000000000000000000000000000000000000000000000000000000F5000000000000000000000000000000000000000000000000000000F5F5F5F5F5F5F5F5F5F5F5F500000000000000000000000000000000000000F5F5F5F5F5F5F5F5F5F5F5F5000000000000000000
310
00000000000000000000000000000000000000000000000000000000F50000000000000000000000000000000000000000000000000000000000000000000000000000000000000000000000000000000000000000000000000000000000000000000000000000000000000000000000000000000000000000000000000000
310
000000000000000000000000000000F5000000000000000000000000000000000000000000000000000000000000000000F500000000000000000000000000000000F5F5F5F5F5F5F5F5F5F5F5000000000000000000000000000000000000F5F5F5F5F5F5F5F5F5F5F5F5F500000000000000000000000000000000000000
310
000000000000000000000000000000000000000000000000000000000000F5000000000000000000000000000000000000000000000000000000000000000000000000000000000000000000000000000000000000000000000000000000000000000000000000000000000000000000000000000000000000000000000000
310
0000000000000000000000000000000000F5000000000000000000000000000000000000000000000000000000000000000000F50000000000F5F5F5F5F5F5F5F5F5F5F500000000000000000000000000000000F5F5F5F5F5F5F5F5F5F5F5F5F5000000000000000000000000000000000000000000000000000000000000
310
0000000000000000000000000000000000000000000000000000000000000000F500000000000000000000000000000000000000000000000000000000000000000000000000000000000000000000000000000000000000000000000000000000000000000000000000000000000000000000000000000000000000000000
310
00000000000000000000000000000000000000F5000000000000000000000000000000000000000000000000000000000000000000F5F5F5F5F5F5000000000000000000000000000000F5F5F5F5F5F5F5F5F5F5F5F500F5F5F5F5F5F5F5F5F5F5F50000000000000000000000000000000000000000000000000000000000
310
00000000000000000000000000000000000000000000000000000000000000000000F50000000000000000000000000000000000000000000000000000000000000000000000000000000000000000000000000000000000000000000000000000000000000000000000000000000000000000000000000000000000000000
310
000000000000000000000000000000000000000000F5000000000000000000000000000000000000000000000000000000000000000000F500000000000000F5F5F5F5F5F5F5F5F5F5F5F5F500000000000000000000000000F5F5F5F5F5000000000000000000000000000000000000000000000000000000000000000000
310
000000000000000000000000000000000000000000000000000000000000000000000000F5000000000000000000000000000000000000000000000000000000000000000000000000000000000000000000000000000000000000000000000000000000000000000000000000000000000000000000000000000000000000
310
0000000000000000000000000000000000000000000000F5000000000000000000000000000000000000000000000000000000000000000000F5F5F5F5F5F5F5F50000000000000000000000000000000000000000000000000000000000000000000000000000000000000000000000000000000000000000000000000000
310
0000000000000000000000000000000000000000000000000000000000000000000000000000F500000000000000000000000000000000000000000000000000000000000000000000000000000000000000000000000000000000000000000000000000000000000000000000000000000000000000000000000000000000
310
00000000000000000000000000000000000000000000000000F500000000000000000000000000000000000000000000000000000000000000000000F5000000000000000000000000000000000000000000000000000000000000000000000000000000000000000000000000000000000000000000000000000000000000
310
00000000000000000000000000000000000000000000000000000000000000000000000000000000F50000000000000000000000000000000000000000000000000000000000000000000000000000000000000000000000000000000000000000000000000000000000000000000000000000000000000000000000000000
310
000000000000000000000000000000000000000000000000000000F5000000000000000000000000000000000000000000000000000000000000000000000000000000000000000000000000000000000000000000000000000000000000000000000000000000000000000000000000000000000000000000000000000000
310
000000000000000000000000000000000000000000000000000000000000000000000000000000000000F5000000000000000000000000000000000000000000000000000000000000000000000000000000000000000000000000000000000000000000000000000000000000000000000000000000000000000000000000
310
0000000000000000000000000000000000000000000000000000000000F5F5F5F5F5F5F5F5F5F5F5F5F5F5F5F5F5F5F5F5F5F5F5F5F5F5F5F5F5F5F5F5F5F5F5F5F5F5F5F5F5F5F5F5F5F5F5F5F5F5F5F5F5F5F5F5F5F5F5F5F5F5F5F5F5F5F5F5F5F5F5F5F5F5F5F5F5F5F5F5F5F5F5F5F5F5F5F5F5F5F5F5F5F5F5F5F5F5
310
F5F5F5F5F5F5F5F5F5F5F5F5F5F5F5F5F5F5F5F5F5F5F5F5F5F5F5F5F5F5F5F5F5F5F5F5F5F5F5F5F5F5F5F5F500000000000000000000000000000000000000000000000000000000000000000000000000000000000000000000000000000000000000000000000000000000000000000000000000000000000000000000
310
0000000000000000000000000000000000000000000000000000000000000000F500000000000000000000000000000000000000000000000000000000000000000000000000000000000000000000000000000000000000000000000000000000F5F5F5F5F5F5F5F5F5F5F5F5000000000000000000000000000000000000
310
00000000000000000000000000000000000000000000000000000000000000000000000000000000000000000000F50000000000000000000000000000000000000000000000000000000000000000000000000000000000000000000000000000000000000000000000000000000000000000000000000000000000000000
310
000000000000000000000000000000000000000000000000000000000000000000000000000000000000000000000000000000000000000000000000000000000000000000000000000000000000000000000000000000000000000000000000000000F5F5F5F5F5F5F5F5F500F5F500000000000000000000000000000000
310
00000000000000000000000000000000000000000000000000000000000000000000000000000000000000000000000000000000000000000000000000000000000000000000000000000000000000000000000000000000000000000000000000000000000000000000000000000000000000000000000000000000000000
310
00000000000000000000000000000000000000000000000000000000000000000000000000000000000000000000000000000000000000000000000000000000000000000000000000000000000000000000000000000000000000000000000000000000000000000000000000000000000000000000000000000000000000
310
0000000000000000000000000000000000000000000000000000000000000000000000000000000000000000000000000000000000000000000000000000000000000000000000000000000000000000000000000000000000000000000000000000000000000000000000
  0
XRECORD
  5
D84
102
{ACAD_REACTORS
330
D83
102
}
330
D83
100
AcDbXrecord
280
     1
102
MATERIAL
148
0.0
149
0.0
149
0.0
 93
        0
 94
       63
282
     0
 72
     1
 77
     1
171
     1
175
     1
179
     1
273
     0
  0
XRECORD
  5
D82
102
{ACAD_REACTORS
330
D81
102
}
330
D81
100
AcDbXrecord
280
     1
102
MATERIAL
148
0.0
149
0.0
149
0.0
 93
        0
 94
       63
282
     0
 72
     1
 77
     1
171
     1
175
     1
179
     1
273
     0
  0
XRECORD
  5
D85
102
{ACAD_REACTORS
330
110
102
}
330
110
100
AcDbXrecord
280
     1
102
MATERIAL
148
0.0
149
0.0
149
0.0
 93
        0
 94
       63
282
     0
 72
     1
 77
     1
171
     1
175
     1
179
     1
273
     0
  0
XRECORD
  5
112
102
{ACAD_REACTORS
330
110
102
}
330
110
100
AcDbXrecord
280
     1
270
     1
271
     1
  0
XRECORD
  5
111
102
{ACAD_REACTORS
330
110
102
}
330
110
100
AcDbXrecord
280
     1
270
     1
271
     1
  0
XRECORD
  5
113
102
{ACAD_REACTORS
330
110
102
}
330
110
100
AcDbXrecord
280
     1
270
     1
271
     1
  0
XRECORD
  5
114
102
{ACAD_REACTORS
330
110
102
}
330
110
100
AcDbXrecord
280
     1
270
     1
271
     1
  0
XRECORD
  5
D78
102
{ACAD_REACTORS
330
D77
102
}
330
D77
100
AcDbXrecord
280
     1
102
ACAD_ROUNDTRIP_2012_MLEADER_STYLE
298
     1
  0
CELLSTYLEMAP
  5
D76
102
{ACAD_REACTORS
330
104
102
}
330
104
100
AcDbCellStyleMap
 90
        3
300
CELLSTYLE
  1
TABLEFORMAT_BEGIN
 90
        5
170
     1
 91
        0
 92
    32768
 62
   257
 93
        1
300
CONTENTFORMAT
  1
CONTENTFORMAT_BEGIN
 90
        0
 91
        0
 92
      512
 93
        0
300

 40
0.0
140
1.0
 94
        5
 62
     0
340
11
144
0.25
309
CONTENTFORMAT_END
171
     1
301
MARGIN
  1
CELLMARGIN_BEGIN
 40
0.06
 40
0.06
 40
0.06
 40
0.06
 40
0.18
 40
0.18
309
CELLMARGIN_END
 94
        6
 95
        1
302
GRIDFORMAT
  1
GRIDFORMAT_BEGIN
 90
        0
 91
        1
 62
     0
 92
       -2
340
0
 93
        0
 40
0.045
309
GRIDFORMAT_END
 95
        2
302
GRIDFORMAT
  1
GRIDFORMAT_BEGIN
 90
        0
 91
        1
 62
     0
 92
       -2
340
0
 93
        0
 40
0.045
309
GRIDFORMAT_END
 95
        4
302
GRIDFORMAT
  1
GRIDFORMAT_BEGIN
 90
        0
 91
        1
 62
     0
 92
       -2
340
0
 93
        0
 40
0.045
309
GRIDFORMAT_END
 95
        8
302
GRIDFORMAT
  1
GRIDFORMAT_BEGIN
 90
        0
 91
        1
 62
     0
 92
       -2
340
0
 93
        0
 40
0.045
309
GRIDFORMAT_END
 95
       16
302
GRIDFORMAT
  1
GRIDFORMAT_BEGIN
 90
        0
 91
        1
 62
     0
 92
       -2
340
0
 93
        0
 40
0.045
309
GRIDFORMAT_END
 95
       32
302
GRIDFORMAT
  1
GRIDFORMAT_BEGIN
 90
        0
 91
        1
 62
     0
 92
       -2
340
0
 93
        0
 40
0.045
309
GRIDFORMAT_END
309
TABLEFORMAT_END
  1
CELLSTYLE_BEGIN
 90
        1
 91
        1
300
_TITLE
309
CELLSTYLE_END
300
CELLSTYLE
  1
TABLEFORMAT_BEGIN
 90
        5
170
     1
 91
        0
 92
        0
 62
   257
 93
        1
300
CONTENTFORMAT
  1
CONTENTFORMAT_BEGIN
 90
        0
 91
        0
 92
      512
 93
        0
300

 40
0.0
140
1.0
 94
        5
 62
     0
340
11
144
0.18
309
CONTENTFORMAT_END
171
     1
301
MARGIN
  1
CELLMARGIN_BEGIN
 40
0.06
 40
0.06
 40
0.06
 40
0.06
 40
0.18
 40
0.18
309
CELLMARGIN_END
 94
        6
 95
        1
302
GRIDFORMAT
  1
GRIDFORMAT_BEGIN
 90
        0
 91
        1
 62
     0
 92
       -2
340
0
 93
        0
 40
0.045
309
GRIDFORMAT_END
 95
        2
302
GRIDFORMAT
  1
GRIDFORMAT_BEGIN
 90
        0
 91
        1
 62
     0
 92
       -2
340
0
 93
        0
 40
0.045
309
GRIDFORMAT_END
 95
        4
302
GRIDFORMAT
  1
GRIDFORMAT_BEGIN
 90
        0
 91
        1
 62
     0
 92
       -2
340
0
 93
        0
 40
0.045
309
GRIDFORMAT_END
 95
        8
302
GRIDFORMAT
  1
GRIDFORMAT_BEGIN
 90
        0
 91
        1
 62
     0
 92
       -2
340
0
 93
        0
 40
0.045
309
GRIDFORMAT_END
 95
       16
302
GRIDFORMAT
  1
GRIDFORMAT_BEGIN
 90
        0
 91
        1
 62
     0
 92
       -2
340
0
 93
        0
 40
0.045
309
GRIDFORMAT_END
 95
       32
302
GRIDFORMAT
  1
GRIDFORMAT_BEGIN
 90
        0
 91
        1
 62
     0
 92
       -2
340
0
 93
        0
 40
0.045
309
GRIDFORMAT_END
309
TABLEFORMAT_END
  1
CELLSTYLE_BEGIN
 90
        2
 91
        1
300
_HEADER
309
CELLSTYLE_END
300
CELLSTYLE
  1
TABLEFORMAT_BEGIN
 90
        5
170
     1
 91
        0
 92
        0
 62
   257
 93
        1
300
CONTENTFORMAT
  1
CONTENTFORMAT_BEGIN
 90
        0
 91
        0
 92
      512
 93
        0
300

 40
0.0
140
1.0
 94
        2
 62
     0
340
11
144
0.18
309
CONTENTFORMAT_END
171
     1
301
MARGIN
  1
CELLMARGIN_BEGIN
 40
0.06
 40
0.06
 40
0.06
 40
0.06
 40
0.18
 40
0.18
309
CELLMARGIN_END
 94
        6
 95
        1
302
GRIDFORMAT
  1
GRIDFORMAT_BEGIN
 90
        0
 91
        1
 62
     0
 92
       -2
340
0
 93
        0
 40
0.045
309
GRIDFORMAT_END
 95
        2
302
GRIDFORMAT
  1
GRIDFORMAT_BEGIN
 90
        0
 91
        1
 62
     0
 92
       -2
340
0
 93
        0
 40
0.045
309
GRIDFORMAT_END
 95
        4
302
GRIDFORMAT
  1
GRIDFORMAT_BEGIN
 90
        0
 91
        1
 62
     0
 92
       -2
340
0
 93
        0
 40
0.045
309
GRIDFORMAT_END
 95
        8
302
GRIDFORMAT
  1
GRIDFORMAT_BEGIN
 90
        0
 91
        1
 62
     0
 92
       -2
340
0
 93
        0
 40
0.045
309
GRIDFORMAT_END
 95
       16
302
GRIDFORMAT
  1
GRIDFORMAT_BEGIN
 90
        0
 91
        1
 62
     0
 92
       -2
340
0
 93
        0
 40
0.045
309
GRIDFORMAT_END
 95
       32
302
GRIDFORMAT
  1
GRIDFORMAT_BEGIN
 90
        0
 91
        1
 62
     0
 92
       -2
340
0
 93
        0
 40
0.045
309
GRIDFORMAT_END
309
TABLEFORMAT_END
  1
CELLSTYLE_BEGIN
 90
        3
 91
        2
300
_DATA
309
CELLSTYLE_END
  0
XRECORD
  5
D80
102
{ACAD_REACTORS
330
104
102
}
330
104
100
AcDbXrecord
280
     1
102
ACAD_ROUNDTRIP_PRE2007_TABLESTYLE
 90
      512
 91
        0
  1

 92
      512
 93
        0
  2

 94
      512
 95
        0
  3

  0
XRECORD
  5
D91
102
{ACAD_REACTORS
330
D90
102
}
330
D90
100
AcDbXrecord
280
     1
102
RTVSPropertyOp0
 70
     1
102
RTVSPropertyOp1
 70
     1
102
RTVSPropertyOp2
 70
     1
102
RTVSPropertyOp3
 70
     1
102
RTVSPropertyOp4
 70
     1
102
RTVSPropertyOp5
 70
     1
102
RTVSPropertyOp6
 70
     1
102
RTVSPropertyOp7
 70
     1
102
RTVSPropertyOp8
 70
     1
102
RTVSPropertyOp9
 70
     1
102
RTVSPropertyOp10
 70
     1
102
RTVSPropertyOp11
 70
     1
102
RTVSPropertyOp12
 70
     1
102
RTVSPropertyOp13
 70
     1
102
RTVSPropertyOp14
 70
     1
102
RTVSPropertyOp15
 70
     1
102
RTVSPropertyOp16
 70
     1
102
RTVSPropertyOp17
 70
     1
102
RTVSPropertyOp18
 70
     1
102
RTVSPropertyOp19
 70
     1
102
RTVSPropertyOp20
 70
     1
102
RTVSPropertyOp21
 70
     1
102
RTVSPropertyOp22
 70
     1
102
RTVSPropertyOp23
 70
     1
102
RTVSPropertyOp24
 70
     1
102
RTVSPropertyOp25
 70
     1
102
RTVSPropertyOp26
 70
     1
102
RTVSPropertyOp27
 70
     1
102
RTVSPropertyOp28
 70
     1
102
RTVSPropertyOp29
 70
     1
102
RTVSPropertyOp30
 70
     1
102
RTVSPropertyOp31
 70
     1
102
RTVSPropertyOp32
 70
     1
  0
XRECORD
  5
D95
102
{ACAD_REACTORS
330
D94
102
}
330
D94
100
AcDbXrecord
280
     1
102
RTVSPropertyOp0
 70
     1
102
RTVSPropertyOp1
 70
     1
102
RTVSPropertyOp2
 70
     1
102
RTVSPropertyOp3
 70
     1
102
RTVSPropertyOp4
 70
     1
102
RTVSPropertyOp5
 70
     1
102
RTVSPropertyOp6
 70
     1
102
RTVSPropertyOp7
 70
     1
102
RTVSPropertyOp8
 70
     1
102
RTVSPropertyOp9
 70
     1
102
RTVSPropertyOp10
 70
     1
102
RTVSPropertyOp11
 70
     1
102
RTVSPropertyOp12
 70
     1
102
RTVSPropertyOp13
 70
     1
102
RTVSPropertyOp14
 70
     1
102
RTVSPropertyOp15
 70
     1
102
RTVSPropertyOp16
 70
     1
102
RTVSPropertyOp17
 70
     1
102
RTVSPropertyOp18
 70
     1
102
RTVSPropertyOp19
 70
     1
102
RTVSPropertyOp20
 70
     1
102
RTVSPropertyOp21
 70
     1
102
RTVSPropertyOp22
 70
     1
102
RTVSPropertyOp23
 70
     1
102
RTVSPropertyOp24
 70
     1
102
RTVSPropertyOp25
 70
     1
102
RTVSPropertyOp26
 70
     1
102
RTVSPropertyOp27
 70
     1
102
RTVSPropertyOp28
 70
     1
102
RTVSPropertyOp29
 70
     1
102
RTVSPropertyOp30
 70
     1
102
RTVSPropertyOp31
 70
     1
102
RTVSPropertyOp32
 70
     1
  0
XRECORD
  5
D93
102
{ACAD_REACTORS
330
D92
102
}
330
D92
100
AcDbXrecord
280
     1
102
RTVSPropertyOp0
 70
     1
102
RTVSPropertyOp1
 70
     1
102
RTVSPropertyOp2
 70
     1
102
RTVSPropertyOp3
 70
     1
102
RTVSPropertyOp4
 70
     1
102
RTVSPropertyOp5
 70
     1
102
RTVSPropertyOp6
 70
     1
102
RTVSPropertyOp7
 70
     1
102
RTVSPropertyOp8
 70
     1
102
RTVSPropertyOp9
 70
     1
102
RTVSPropertyOp10
 70
     1
102
RTVSPropertyOp11
 70
     1
102
RTVSPropertyOp12
 70
     1
102
RTVSPropertyOp13
 70
     1
102
RTVSPropertyOp14
 70
     1
102
RTVSPropertyOp15
 70
     1
102
RTVSPropertyOp16
 70
     1
102
RTVSPropertyOp17
 70
     1
102
RTVSPropertyOp18
 70
     1
102
RTVSPropertyOp19
 70
     1
102
RTVSPropertyOp20
 70
     1
102
RTVSPropertyOp21
 70
     1
102
RTVSPropertyOp22
 70
     1
102
RTVSPropertyOp23
 70
     1
102
RTVSPropertyOp24
 70
     1
102
RTVSPropertyOp25
 70
     1
102
RTVSPropertyOp26
 70
     1
102
RTVSPropertyOp27
 70
     1
102
RTVSPropertyOp28
 70
     1
102
RTVSPropertyOp29
 70
     1
102
RTVSPropertyOp30
 70
     1
102
RTVSPropertyOp31
 70
     1
102
RTVSPropertyOp32
 70
     1
  0
XRECORD
  5
D8F
102
{ACAD_REACTORS
330
D8E
102
}
330
D8E
100
AcDbXrecord
280
     1
102
RTVSPropertyOp0
 70
     1
102
RTVSPropertyOp1
 70
     1
102
RTVSPropertyOp2
 70
     1
102
RTVSPropertyOp3
 70
     1
102
RTVSPropertyOp4
 70
     1
102
RTVSPropertyOp5
 70
     1
102
RTVSPropertyOp6
 70
     1
102
RTVSPropertyOp7
 70
     1
102
RTVSPropertyOp8
 70
     1
102
RTVSPropertyOp9
 70
     1
102
RTVSPropertyOp10
 70
     1
102
RTVSPropertyOp11
 70
     1
102
RTVSPropertyOp12
 70
     1
102
RTVSPropertyOp13
 70
     1
102
RTVSPropertyOp14
 70
     1
102
RTVSPropertyOp15
 70
     1
102
RTVSPropertyOp16
 70
     1
102
RTVSPropertyOp17
 70
     1
102
RTVSPropertyOp18
 70
     1
102
RTVSPropertyOp19
 70
     1
102
RTVSPropertyOp20
 70
     1
102
RTVSPropertyOp21
 70
     1
102
RTVSPropertyOp22
 70
     1
102
RTVSPropertyOp23
 70
     1
102
RTVSPropertyOp24
 70
     1
102
RTVSPropertyOp25
 70
     1
102
RTVSPropertyOp26
 70
     1
102
RTVSPropertyOp27
 70
     1
102
RTVSPropertyOp28
 70
     1
102
RTVSPropertyOp29
 70
     1
102
RTVSPropertyOp30
 70
     1
102
RTVSPropertyOp31
 70
     1
102
RTVSPropertyOp32
 70
     1
  0
XRECORD
  5
D9D
102
{ACAD_REACTORS
330
D9C
102
}
330
D9C
100
AcDbXrecord
280
     1
102
RTVSPropertyOp0
 70
     1
102
RTVSPropertyOp1
 70
     1
102
RTVSPropertyOp2
 70
     1
102
RTVSPropertyOp3
 70
     1
102
RTVSPropertyOp4
 70
     1
102
RTVSPropertyOp5
 70
     1
102
RTVSPropertyOp6
 70
     1
102
RTVSPropertyOp7
 70
     1
102
RTVSPropertyOp8
 70
     1
102
RTVSPropertyOp9
 70
     1
102
RTVSPropertyOp10
 70
     1
102
RTVSPropertyOp11
 70
     1
102
RTVSPropertyOp12
 70
     1
102
RTVSPropertyOp13
 70
     1
102
RTVSPropertyOp14
 70
     1
102
RTVSPropertyOp15
 70
     1
102
RTVSPropertyOp16
 70
     1
102
RTVSPropertyOp17
 70
     1
102
RTVSPropertyOp18
 70
     1
102
RTVSPropertyOp19
 70
     1
102
RTVSPropertyOp20
 70
     1
102
RTVSPropertyOp21
 70
     1
102
RTVSPropertyOp22
 70
     1
102
RTVSPropertyOp23
 70
     1
102
RTVSPropertyOp24
 70
     1
102
RTVSPropertyOp25
 70
     1
102
RTVSPropertyOp26
 70
     1
102
RTVSPropertyOp27
 70
     1
102
RTVSPropertyOp28
 70
     1
102
RTVSPropertyOp29
 70
     1
102
RTVSPropertyOp30
 70
     1
102
RTVSPropertyOp31
 70
     1
102
RTVSPropertyOp32
 70
     1
  0
XRECORD
  5
DA5
102
{ACAD_REACTORS
330
DA4
102
}
330
DA4
100
AcDbXrecord
280
     1
102
RTVSPropertyOp0
 70
     1
102
RTVSPropertyOp1
 70
     1
102
RTVSPropertyOp2
 70
     1
102
RTVSPropertyOp3
 70
     1
102
RTVSPropertyOp4
 70
     1
102
RTVSPropertyOp5
 70
     1
102
RTVSPropertyOp6
 70
     1
102
RTVSPropertyOp7
 70
     1
102
RTVSPropertyOp8
 70
     1
102
RTVSPropertyOp9
 70
     1
102
RTVSPropertyOp10
 70
     1
102
RTVSPropertyOp11
 70
     1
102
RTVSPropertyOp12
 70
     1
102
RTVSPropertyOp13
 70
     1
102
RTVSPropertyOp14
 70
     1
102
RTVSPropertyOp15
 70
     1
102
RTVSPropertyOp16
 70
     1
102
RTVSPropertyOp17
 70
     1
102
RTVSPropertyOp18
 70
     1
102
RTVSPropertyOp19
 70
     1
102
RTVSPropertyOp20
 70
     1
102
RTVSPropertyOp21
 70
     1
102
RTVSPropertyOp22
 70
     1
102
RTVSPropertyOp23
 70
     1
102
RTVSPropertyOp24
 70
     1
102
RTVSPropertyOp25
 70
     1
102
RTVSPropertyOp26
 70
     1
102
RTVSPropertyOp27
 70
     1
102
RTVSPropertyOp28
 70
     1
102
RTVSPropertyOp29
 70
     1
102
RTVSPropertyOp30
 70
     1
102
RTVSPropertyOp31
 70
     1
102
RTVSPropertyOp32
 70
     1
  0
XRECORD
  5
D97
102
{ACAD_REACTORS
330
D96
102
}
330
D96
100
AcDbXrecord
280
     1
102
RTVSPropertyOp0
 70
     1
102
RTVSPropertyOp1
 70
     1
102
RTVSPropertyOp2
 70
     1
102
RTVSPropertyOp3
 70
     1
102
RTVSPropertyOp4
 70
     1
102
RTVSPropertyOp5
 70
     1
102
RTVSPropertyOp6
 70
     1
102
RTVSPropertyOp7
 70
     1
102
RTVSPropertyOp8
 70
     1
102
RTVSPropertyOp9
 70
     1
102
RTVSPropertyOp10
 70
     1
102
RTVSPropertyOp11
 70
     1
102
RTVSPropertyOp12
 70
     1
102
RTVSPropertyOp13
 70
     1
102
RTVSPropertyOp14
 70
     1
102
RTVSPropertyOp15
 70
     1
102
RTVSPropertyOp16
 70
     1
102
RTVSPropertyOp17
 70
     1
102
RTVSPropertyOp18
 70
     1
102
RTVSPropertyOp19
 70
     1
102
RTVSPropertyOp20
 70
     1
102
RTVSPropertyOp21
 70
     1
102
RTVSPropertyOp22
 70
     1
102
RTVSPropertyOp23
 70
     1
102
RTVSPropertyOp24
 70
     1
102
RTVSPropertyOp25
 70
     1
102
RTVSPropertyOp26
 70
     1
102
RTVSPropertyOp27
 70
     1
102
RTVSPropertyOp28
 70
     1
102
RTVSPropertyOp29
 70
     1
102
RTVSPropertyOp30
 70
     1
102
RTVSPropertyOp31
 70
     1
102
RTVSPropertyOp32
 70
     1
  0
XRECORD
  5
D9B
102
{ACAD_REACTORS
330
D9A
102
}
330
D9A
100
AcDbXrecord
280
     1
102
RTVSPropertyOp0
 70
     1
102
RTVSPropertyOp1
 70
     1
102
RTVSPropertyOp2
 70
     1
102
RTVSPropertyOp3
 70
     1
102
RTVSPropertyOp4
 70
     1
102
RTVSPropertyOp5
 70
     1
102
RTVSPropertyOp6
 70
     1
102
RTVSPropertyOp7
 70
     1
102
RTVSPropertyOp8
 70
     1
102
RTVSPropertyOp9
 70
     1
102
RTVSPropertyOp10
 70
     1
102
RTVSPropertyOp11
 70
     1
102
RTVSPropertyOp12
 70
     1
102
RTVSPropertyOp13
 70
     1
102
RTVSPropertyOp14
 70
     1
102
RTVSPropertyOp15
 70
     1
102
RTVSPropertyOp16
 70
     1
102
RTVSPropertyOp17
 70
     1
102
RTVSPropertyOp18
 70
     1
102
RTVSPropertyOp19
 70
     1
102
RTVSPropertyOp20
 70
     1
102
RTVSPropertyOp21
 70
     1
102
RTVSPropertyOp22
 70
     1
102
RTVSPropertyOp23
 70
     1
102
RTVSPropertyOp24
 70
     1
102
RTVSPropertyOp25
 70
     1
102
RTVSPropertyOp26
 70
     1
102
RTVSPropertyOp27
 70
     1
102
RTVSPropertyOp28
 70
     1
102
RTVSPropertyOp29
 70
     1
102
RTVSPropertyOp30
 70
     1
102
RTVSPropertyOp31
 70
     1
102
RTVSPropertyOp32
 70
     1
  0
XRECORD
  5
DAB
102
{ACAD_REACTORS
330
DAA
102
}
330
DAA
100
AcDbXrecord
280
     1
102
RTVSPropertyOp0
 70
     0
102
RTVSPropertyOp1
 70
     0
102
RTVSPropertyOp2
 70
     0
102
RTVSPropertyOp3
 70
     0
102
RTVSPropertyOp4
 70
     0
102
RTVSPropertyOp5
 70
     0
102
RTVSPropertyOp6
 70
     0
102
RTVSPropertyOp7
 70
     0
102
RTVSPropertyOp8
 70
     0
102
RTVSPropertyOp9
 70
     0
102
RTVSPropertyOp10
 70
     0
102
RTVSPropertyOp11
 70
     0
102
RTVSPropertyOp12
 70
     0
102
RTVSPropertyOp13
 70
     0
102
RTVSPropertyOp14
 70
     2
102
RTVSPropertyOp15
 70
     0
102
RTVSPropertyOp16
 70
     0
102
RTVSPropertyOp17
 70
     0
102
RTVSPropertyOp18
 70
     0
102
RTVSPropertyOp19
 70
     0
102
RTVSPropertyOp20
 70
     0
102
RTVSPropertyOp21
 70
     0
102
RTVSPropertyOp22
 70
     0
102
RTVSPropertyOp23
 70
     0
102
RTVSPropertyOp24
 70
     0
102
RTVSPropertyOp25
 70
     0
102
RTVSPropertyOp26
 70
     0
102
RTVSPropertyOp27
 70
     0
102
RTVSPropertyOp28
 70
     1
102
RTVSPropertyOp29
 70
     1
102
RTVSPropertyOp30
 70
     1
102
RTVSPropertyOp31
 70
     1
102
RTVSPropertyOp32
 70
     1
  0
XRECORD
  5
DA3
102
{ACAD_REACTORS
330
DA2
102
}
330
DA2
100
AcDbXrecord
280
     1
102
RTVSPropertyOp0
 70
     1
102
RTVSPropertyOp1
 70
     1
102
RTVSPropertyOp2
 70
     1
102
RTVSPropertyOp3
 70
     1
102
RTVSPropertyOp4
 70
     1
102
RTVSPropertyOp5
 70
     1
102
RTVSPropertyOp6
 70
     1
102
RTVSPropertyOp7
 70
     1
102
RTVSPropertyOp8
 70
     1
102
RTVSPropertyOp9
 70
     1
102
RTVSPropertyOp10
 70
     1
102
RTVSPropertyOp11
 70
     1
102
RTVSPropertyOp12
 70
     1
102
RTVSPropertyOp13
 70
     1
102
RTVSPropertyOp14
 70
     1
102
RTVSPropertyOp15
 70
     1
102
RTVSPropertyOp16
 70
     1
102
RTVSPropertyOp17
 70
     1
102
RTVSPropertyOp18
 70
     1
102
RTVSPropertyOp19
 70
     1
102
RTVSPropertyOp20
 70
     1
102
RTVSPropertyOp21
 70
     1
102
RTVSPropertyOp22
 70
     1
102
RTVSPropertyOp23
 70
     1
102
RTVSPropertyOp24
 70
     1
102
RTVSPropertyOp25
 70
     1
102
RTVSPropertyOp26
 70
     1
102
RTVSPropertyOp27
 70
     1
102
RTVSPropertyOp28
 70
     1
102
RTVSPropertyOp29
 70
     1
102
RTVSPropertyOp30
 70
     1
102
RTVSPropertyOp31
 70
     1
102
RTVSPropertyOp32
 70
     1
  0
XRECORD
  5
D87
102
{ACAD_REACTORS
330
D86
102
}
330
D86
100
AcDbXrecord
280
     1
102
RTVSPropertyOp0
 70
     1
102
RTVSPropertyOp1
 70
     1
102
RTVSPropertyOp2
 70
     1
102
RTVSPropertyOp3
 70
     1
102
RTVSPropertyOp4
 70
     1
102
RTVSPropertyOp5
 70
     1
102
RTVSPropertyOp6
 70
     1
102
RTVSPropertyOp7
 70
     1
102
RTVSPropertyOp8
 70
     1
102
RTVSPropertyOp9
 70
     1
102
RTVSPropertyOp10
 70
     1
102
RTVSPropertyOp11
 70
     1
102
RTVSPropertyOp12
 70
     1
102
RTVSPropertyOp13
 70
     1
102
RTVSPropertyOp14
 70
     1
102
RTVSPropertyOp15
 70
     1
102
RTVSPropertyOp16
 70
     1
102
RTVSPropertyOp17
 70
     1
102
RTVSPropertyOp18
 70
     1
102
RTVSPropertyOp19
 70
     1
102
RTVSPropertyOp20
 70
     1
102
RTVSPropertyOp21
 70
     1
102
RTVSPropertyOp22
 70
     1
102
RTVSPropertyOp23
 70
     1
102
RTVSPropertyOp24
 70
     1
102
RTVSPropertyOp25
 70
     1
102
RTVSPropertyOp26
 70
     1
102
RTVSPropertyOp27
 70
     1
102
RTVSPropertyOp28
 70
     1
102
RTVSPropertyOp29
 70
     1
102
RTVSPropertyOp30
 70
     1
102
RTVSPropertyOp31
 70
     1
102
RTVSPropertyOp32
 70
     1
  0
XRECORD
  5
D89
102
{ACAD_REACTORS
330
D88
102
}
330
D88
100
AcDbXrecord
280
     1
102
RTVSPropertyOp0
 70
     1
102
RTVSPropertyOp1
 70
     1
102
RTVSPropertyOp2
 70
     1
102
RTVSPropertyOp3
 70
     1
102
RTVSPropertyOp4
 70
     1
102
RTVSPropertyOp5
 70
     1
102
RTVSPropertyOp6
 70
     1
102
RTVSPropertyOp7
 70
     1
102
RTVSPropertyOp8
 70
     1
102
RTVSPropertyOp9
 70
     1
102
RTVSPropertyOp10
 70
     1
102
RTVSPropertyOp11
 70
     1
102
RTVSPropertyOp12
 70
     1
102
RTVSPropertyOp13
 70
     1
102
RTVSPropertyOp14
 70
     1
102
RTVSPropertyOp15
 70
     1
102
RTVSPropertyOp16
 70
     1
102
RTVSPropertyOp17
 70
     1
102
RTVSPropertyOp18
 70
     1
102
RTVSPropertyOp19
 70
     1
102
RTVSPropertyOp20
 70
     1
102
RTVSPropertyOp21
 70
     1
102
RTVSPropertyOp22
 70
     1
102
RTVSPropertyOp23
 70
     1
102
RTVSPropertyOp24
 70
     1
102
RTVSPropertyOp25
 70
     1
102
RTVSPropertyOp26
 70
     1
102
RTVSPropertyOp27
 70
     1
102
RTVSPropertyOp28
 70
     1
102
RTVSPropertyOp29
 70
     1
102
RTVSPropertyOp30
 70
     1
102
RTVSPropertyOp31
 70
     1
102
RTVSPropertyOp32
 70
     1
  0
XRECORD
  5
D8B
102
{ACAD_REACTORS
330
D8A
102
}
330
D8A
100
AcDbXrecord
280
     1
102
RTVSPropertyOp0
 70
     1
102
RTVSPropertyOp1
 70
     1
102
RTVSPropertyOp2
 70
     1
102
RTVSPropertyOp3
 70
     1
102
RTVSPropertyOp4
 70
     1
102
RTVSPropertyOp5
 70
     1
102
RTVSPropertyOp6
 70
     1
102
RTVSPropertyOp7
 70
     1
102
RTVSPropertyOp8
 70
     1
102
RTVSPropertyOp9
 70
     1
102
RTVSPropertyOp10
 70
     1
102
RTVSPropertyOp11
 70
     1
102
RTVSPropertyOp12
 70
     1
102
RTVSPropertyOp13
 70
     1
102
RTVSPropertyOp14
 70
     1
102
RTVSPropertyOp15
 70
     1
102
RTVSPropertyOp16
 70
     1
102
RTVSPropertyOp17
 70
     1
102
RTVSPropertyOp18
 70
     1
102
RTVSPropertyOp19
 70
     1
102
RTVSPropertyOp20
 70
     1
102
RTVSPropertyOp21
 70
     1
102
RTVSPropertyOp22
 70
     1
102
RTVSPropertyOp23
 70
     1
102
RTVSPropertyOp24
 70
     1
102
RTVSPropertyOp25
 70
     1
102
RTVSPropertyOp26
 70
     1
102
RTVSPropertyOp27
 70
     1
102
RTVSPropertyOp28
 70
     1
102
RTVSPropertyOp29
 70
     1
102
RTVSPropertyOp30
 70
     1
102
RTVSPropertyOp31
 70
     1
102
RTVSPropertyOp32
 70
     1
  0
XRECORD
  5
D8D
102
{ACAD_REACTORS
330
D8C
102
}
330
D8C
100
AcDbXrecord
280
     1
102
RTVSPropertyOp0
 70
     1
102
RTVSPropertyOp1
 70
     1
102
RTVSPropertyOp2
 70
     1
102
RTVSPropertyOp3
 70
     1
102
RTVSPropertyOp4
 70
     1
102
RTVSPropertyOp5
 70
     1
102
RTVSPropertyOp6
 70
     1
102
RTVSPropertyOp7
 70
     1
102
RTVSPropertyOp8
 70
     1
102
RTVSPropertyOp9
 70
     1
102
RTVSPropertyOp10
 70
     1
102
RTVSPropertyOp11
 70
     1
102
RTVSPropertyOp12
 70
     1
102
RTVSPropertyOp13
 70
     1
102
RTVSPropertyOp14
 70
     1
102
RTVSPropertyOp15
 70
     1
102
RTVSPropertyOp16
 70
     1
102
RTVSPropertyOp17
 70
     1
102
RTVSPropertyOp18
 70
     1
102
RTVSPropertyOp19
 70
     1
102
RTVSPropertyOp20
 70
     1
102
RTVSPropertyOp21
 70
     1
102
RTVSPropertyOp22
 70
     1
102
RTVSPropertyOp23
 70
     1
102
RTVSPropertyOp24
 70
     1
102
RTVSPropertyOp25
 70
     1
102
RTVSPropertyOp26
 70
     1
102
RTVSPropertyOp27
 70
     1
102
RTVSPropertyOp28
 70
     1
102
RTVSPropertyOp29
 70
     1
102
RTVSPropertyOp30
 70
     1
102
RTVSPropertyOp31
 70
     1
102
RTVSPropertyOp32
 70
     1
  0
XRECORD
  5
DAF
102
{ACAD_REACTORS
330
DAE
102
}
330
DAE
100
AcDbXrecord
280
     1
102
RTVSPropertyOp0
 70
     1
102
RTVSPropertyOp1
 70
     1
102
RTVSPropertyOp2
 70
     1
102
RTVSPropertyOp3
 70
     1
102
RTVSPropertyOp4
 70
     1
102
RTVSPropertyOp5
 70
     1
102
RTVSPropertyOp6
 70
     1
102
RTVSPropertyOp7
 70
     1
102
RTVSPropertyOp8
 70
     1
102
RTVSPropertyOp9
 70
     1
102
RTVSPropertyOp10
 70
     1
102
RTVSPropertyOp11
 70
     1
102
RTVSPropertyOp12
 70
     1
102
RTVSPropertyOp13
 70
     1
102
RTVSPropertyOp14
 70
     1
102
RTVSPropertyOp15
 70
     1
102
RTVSPropertyOp16
 70
     1
102
RTVSPropertyOp17
 70
     1
102
RTVSPropertyOp18
 70
     1
102
RTVSPropertyOp19
 70
     1
102
RTVSPropertyOp20
 70
     1
102
RTVSPropertyOp21
 70
     1
102
RTVSPropertyOp22
 70
     1
102
RTVSPropertyOp23
 70
     1
102
RTVSPropertyOp24
 70
     1
102
RTVSPropertyOp25
 70
     1
102
RTVSPropertyOp26
 70
     1
102
RTVSPropertyOp27
 70
     1
102
RTVSPropertyOp28
 70
     1
102
RTVSPropertyOp29
 70
     1
102
RTVSPropertyOp30
 70
     1
102
RTVSPropertyOp31
 70
     1
102
RTVSPropertyOp32
 70
     1
  0
XRECORD
  5
DA7
102
{ACAD_REACTORS
330
DA6
102
}
330
DA6
100
AcDbXrecord
280
     1
102
RTVSPropertyOp0
 70
     0
102
RTVSPropertyOp1
 70
     0
102
RTVSPropertyOp2
 70
     0
102
RTVSPropertyOp3
 70
     0
102
RTVSPropertyOp4
 70
     0
102
RTVSPropertyOp5
 70
     0
102
RTVSPropertyOp6
 70
     0
102
RTVSPropertyOp7
 70
     0
102
RTVSPropertyOp8
 70
     0
102
RTVSPropertyOp9
 70
     0
102
RTVSPropertyOp10
 70
     0
102
RTVSPropertyOp11
 70
     0
102
RTVSPropertyOp12
 70
     0
102
RTVSPropertyOp13
 70
     0
102
RTVSPropertyOp14
 70
     2
102
RTVSPropertyOp15
 70
     0
102
RTVSPropertyOp16
 70
     0
102
RTVSPropertyOp17
 70
     0
102
RTVSPropertyOp18
 70
     0
102
RTVSPropertyOp19
 70
     0
102
RTVSPropertyOp20
 70
     0
102
RTVSPropertyOp21
 70
     0
102
RTVSPropertyOp22
 70
     0
102
RTVSPropertyOp23
 70
     0
102
RTVSPropertyOp24
 70
     0
102
RTVSPropertyOp25
 70
     0
102
RTVSPropertyOp26
 70
     0
102
RTVSPropertyOp27
 70
     0
102
RTVSPropertyOp28
 70
     1
102
RTVSPropertyOp29
 70
     1
102
RTVSPropertyOp30
 70
     1
102
RTVSPropertyOp31
 70
     1
102
RTVSPropertyOp32
 70
     1
  0
XRECORD
  5
DA1
102
{ACAD_REACTORS
330
DA0
102
}
330
DA0
100
AcDbXrecord
280
     1
102
RTVSPropertyOp0
 70
     1
102
RTVSPropertyOp1
 70
     1
102
RTVSPropertyOp2
 70
     1
102
RTVSPropertyOp3
 70
     1
102
RTVSPropertyOp4
 70
     1
102
RTVSPropertyOp5
 70
     1
102
RTVSPropertyOp6
 70
     1
102
RTVSPropertyOp7
 70
     1
102
RTVSPropertyOp8
 70
     1
102
RTVSPropertyOp9
 70
     1
102
RTVSPropertyOp10
 70
     1
102
RTVSPropertyOp11
 70
     1
102
RTVSPropertyOp12
 70
     1
102
RTVSPropertyOp13
 70
     1
102
RTVSPropertyOp14
 70
     1
102
RTVSPropertyOp15
 70
     1
102
RTVSPropertyOp16
 70
     1
102
RTVSPropertyOp17
 70
     1
102
RTVSPropertyOp18
 70
     1
102
RTVSPropertyOp19
 70
     1
102
RTVSPropertyOp20
 70
     1
102
RTVSPropertyOp21
 70
     1
102
RTVSPropertyOp22
 70
     1
102
RTVSPropertyOp23
 70
     1
102
RTVSPropertyOp24
 70
     1
102
RTVSPropertyOp25
 70
     1
102
RTVSPropertyOp26
 70
     1
102
RTVSPropertyOp27
 70
     1
102
RTVSPropertyOp28
 70
     1
102
RTVSPropertyOp29
 70
     1
102
RTVSPropertyOp30
 70
     1
102
RTVSPropertyOp31
 70
     1
102
RTVSPropertyOp32
 70
     1
  0
XRECORD
  5
DA9
102
{ACAD_REACTORS
330
DA8
102
}
330
DA8
100
AcDbXrecord
280
     1
102
RTVSPropertyOp0
 70
     0
102
RTVSPropertyOp1
 70
     0
102
RTVSPropertyOp2
 70
     0
102
RTVSPropertyOp3
 70
     0
102
RTVSPropertyOp4
 70
     0
102
RTVSPropertyOp5
 70
     0
102
RTVSPropertyOp6
 70
     0
102
RTVSPropertyOp7
 70
     0
102
RTVSPropertyOp8
 70
     0
102
RTVSPropertyOp9
 70
     0
102
RTVSPropertyOp10
 70
     0
102
RTVSPropertyOp11
 70
     0
102
RTVSPropertyOp12
 70
     0
102
RTVSPropertyOp13
 70
     0
102
RTVSPropertyOp14
 70
     2
102
RTVSPropertyOp15
 70
     0
102
RTVSPropertyOp16
 70
     0
102
RTVSPropertyOp17
 70
     0
102
RTVSPropertyOp18
 70
     0
102
RTVSPropertyOp19
 70
     0
102
RTVSPropertyOp20
 70
     0
102
RTVSPropertyOp21
 70
     0
102
RTVSPropertyOp22
 70
     0
102
RTVSPropertyOp23
 70
     0
102
RTVSPropertyOp24
 70
     0
102
RTVSPropertyOp25
 70
     0
102
RTVSPropertyOp26
 70
     0
102
RTVSPropertyOp27
 70
     0
102
RTVSPropertyOp28
 70
     1
102
RTVSPropertyOp29
 70
     1
102
RTVSPropertyOp30
 70
     1
102
RTVSPropertyOp31
 70
     1
102
RTVSPropertyOp32
 70
     1
  0
XRECORD
  5
D99
102
{ACAD_REACTORS
330
D98
102
}
330
D98
100
AcDbXrecord
280
     1
102
RTVSPropertyOp0
 70
     1
102
RTVSPropertyOp1
 70
     1
102
RTVSPropertyOp2
 70
     1
102
RTVSPropertyOp3
 70
     1
102
RTVSPropertyOp4
 70
     1
102
RTVSPropertyOp5
 70
     1
102
RTVSPropertyOp6
 70
     1
102
RTVSPropertyOp7
 70
     1
102
RTVSPropertyOp8
 70
     1
102
RTVSPropertyOp9
 70
     1
102
RTVSPropertyOp10
 70
     1
102
RTVSPropertyOp11
 70
     1
102
RTVSPropertyOp12
 70
     1
102
RTVSPropertyOp13
 70
     1
102
RTVSPropertyOp14
 70
     1
102
RTVSPropertyOp15
 70
     1
102
RTVSPropertyOp16
 70
     1
102
RTVSPropertyOp17
 70
     1
102
RTVSPropertyOp18
 70
     1
102
RTVSPropertyOp19
 70
     1
102
RTVSPropertyOp20
 70
     1
102
RTVSPropertyOp21
 70
     1
102
RTVSPropertyOp22
 70
     1
102
RTVSPropertyOp23
 70
     1
102
RTVSPropertyOp24
 70
     1
102
RTVSPropertyOp25
 70
     1
102
RTVSPropertyOp26
 70
     1
102
RTVSPropertyOp27
 70
     1
102
RTVSPropertyOp28
 70
     1
102
RTVSPropertyOp29
 70
     1
102
RTVSPropertyOp30
 70
     1
102
RTVSPropertyOp31
 70
     1
102
RTVSPropertyOp32
 70
     1
  0
XRECORD
  5
DB9
102
{ACAD_REACTORS
330
DB8
102
}
330
DB8
100
AcDbXrecord
280
     1
102
RTVSPropertyOp0
 70
     1
102
RTVSPropertyOp1
 70
     1
102
RTVSPropertyOp2
 70
     1
102
RTVSPropertyOp3
 70
     1
102
RTVSPropertyOp4
 70
     1
102
RTVSPropertyOp5
 70
     1
102
RTVSPropertyOp6
 70
     1
102
RTVSPropertyOp7
 70
     1
102
RTVSPropertyOp8
 70
     1
102
RTVSPropertyOp9
 70
     1
102
RTVSPropertyOp10
 70
     1
102
RTVSPropertyOp11
 70
     1
102
RTVSPropertyOp12
 70
     1
102
RTVSPropertyOp13
 70
     1
102
RTVSPropertyOp14
 70
     1
102
RTVSPropertyOp15
 70
     1
102
RTVSPropertyOp16
 70
     1
102
RTVSPropertyOp17
 70
     1
102
RTVSPropertyOp18
 70
     1
102
RTVSPropertyOp19
 70
     1
102
RTVSPropertyOp20
 70
     1
102
RTVSPropertyOp21
 70
     1
102
RTVSPropertyOp22
 70
     1
102
RTVSPropertyOp23
 70
     1
102
RTVSPropertyOp24
 70
     1
102
RTVSPropertyOp25
 70
     1
102
RTVSPropertyOp26
 70
     1
102
RTVSPropertyOp27
 70
     1
102
RTVSPropertyOp28
 70
     1
102
RTVSPropertyOp29
 70
     1
102
RTVSPropertyOp30
 70
     1
102
RTVSPropertyOp31
 70
     1
102
RTVSPropertyOp32
 70
     1
  0
XRECORD
  5
DB7
102
{ACAD_REACTORS
330
DB6
102
}
330
DB6
100
AcDbXrecord
280
     1
102
RTVSPropertyOp0
 70
     1
102
RTVSPropertyOp1
 70
     1
102
RTVSPropertyOp2
 70
     1
102
RTVSPropertyOp3
 70
     1
102
RTVSPropertyOp4
 70
     1
102
RTVSPropertyOp5
 70
     1
102
RTVSPropertyOp6
 70
     1
102
RTVSPropertyOp7
 70
     1
102
RTVSPropertyOp8
 70
     1
102
RTVSPropertyOp9
 70
     1
102
RTVSPropertyOp10
 70
     1
102
RTVSPropertyOp11
 70
     1
102
RTVSPropertyOp12
 70
     1
102
RTVSPropertyOp13
 70
     1
102
RTVSPropertyOp14
 70
     1
102
RTVSPropertyOp15
 70
     1
102
RTVSPropertyOp16
 70
     1
102
RTVSPropertyOp17
 70
     1
102
RTVSPropertyOp18
 70
     1
102
RTVSPropertyOp19
 70
     1
102
RTVSPropertyOp20
 70
     1
102
RTVSPropertyOp21
 70
     1
102
RTVSPropertyOp22
 70
     1
102
RTVSPropertyOp23
 70
     1
102
RTVSPropertyOp24
 70
     1
102
RTVSPropertyOp25
 70
     1
102
RTVSPropertyOp26
 70
     1
102
RTVSPropertyOp27
 70
     1
102
RTVSPropertyOp28
 70
     1
102
RTVSPropertyOp29
 70
     1
102
RTVSPropertyOp30
 70
     1
102
RTVSPropertyOp31
 70
     1
102
RTVSPropertyOp32
 70
     1
  0
XRECORD
  5
DB1
102
{ACAD_REACTORS
330
DB0
102
}
330
DB0
100
AcDbXrecord
280
     1
102
RTVSPropertyOp0
 70
     1
102
RTVSPropertyOp1
 70
     1
102
RTVSPropertyOp2
 70
     1
102
RTVSPropertyOp3
 70
     1
102
RTVSPropertyOp4
 70
     1
102
RTVSPropertyOp5
 70
     1
102
RTVSPropertyOp6
 70
     1
102
RTVSPropertyOp7
 70
     1
102
RTVSPropertyOp8
 70
     1
102
RTVSPropertyOp9
 70
     1
102
RTVSPropertyOp10
 70
     1
102
RTVSPropertyOp11
 70
     1
102
RTVSPropertyOp12
 70
     1
102
RTVSPropertyOp13
 70
     1
102
RTVSPropertyOp14
 70
     1
102
RTVSPropertyOp15
 70
     1
102
RTVSPropertyOp16
 70
     1
102
RTVSPropertyOp17
 70
     1
102
RTVSPropertyOp18
 70
     1
102
RTVSPropertyOp19
 70
     1
102
RTVSPropertyOp20
 70
     1
102
RTVSPropertyOp21
 70
     1
102
RTVSPropertyOp22
 70
     1
102
RTVSPropertyOp23
 70
     1
102
RTVSPropertyOp24
 70
     1
102
RTVSPropertyOp25
 70
     1
102
RTVSPropertyOp26
 70
     1
102
RTVSPropertyOp27
 70
     1
102
RTVSPropertyOp28
 70
     1
102
RTVSPropertyOp29
 70
     1
102
RTVSPropertyOp30
 70
     1
102
RTVSPropertyOp31
 70
     1
102
RTVSPropertyOp32
 70
     1
  0
XRECORD
  5
DB3
102
{ACAD_REACTORS
330
DB2
102
}
330
DB2
100
AcDbXrecord
280
     1
102
RTVSPropertyOp0
 70
     1
102
RTVSPropertyOp1
 70
     1
102
RTVSPropertyOp2
 70
     1
102
RTVSPropertyOp3
 70
     1
102
RTVSPropertyOp4
 70
     1
102
RTVSPropertyOp5
 70
     1
102
RTVSPropertyOp6
 70
     1
102
RTVSPropertyOp7
 70
     1
102
RTVSPropertyOp8
 70
     1
102
RTVSPropertyOp9
 70
     1
102
RTVSPropertyOp10
 70
     1
102
RTVSPropertyOp11
 70
     1
102
RTVSPropertyOp12
 70
     1
102
RTVSPropertyOp13
 70
     1
102
RTVSPropertyOp14
 70
     1
102
RTVSPropertyOp15
 70
     1
102
RTVSPropertyOp16
 70
     1
102
RTVSPropertyOp17
 70
     1
102
RTVSPropertyOp18
 70
     1
102
RTVSPropertyOp19
 70
     1
102
RTVSPropertyOp20
 70
     1
102
RTVSPropertyOp21
 70
     1
102
RTVSPropertyOp22
 70
     1
102
RTVSPropertyOp23
 70
     1
102
RTVSPropertyOp24
 70
     1
102
RTVSPropertyOp25
 70
     1
102
RTVSPropertyOp26
 70
     1
102
RTVSPropertyOp27
 70
     1
102
RTVSPropertyOp28
 70
     1
102
RTVSPropertyOp29
 70
     1
102
RTVSPropertyOp30
 70
     1
102
RTVSPropertyOp31
 70
     1
102
RTVSPropertyOp32
 70
     1
  0
XRECORD
  5
D9F
102
{ACAD_REACTORS
330
D9E
102
}
330
D9E
100
AcDbXrecord
280
     1
102
RTVSPropertyOp0
 70
     1
102
RTVSPropertyOp1
 70
     1
102
RTVSPropertyOp2
 70
     1
102
RTVSPropertyOp3
 70
     1
102
RTVSPropertyOp4
 70
     1
102
RTVSPropertyOp5
 70
     1
102
RTVSPropertyOp6
 70
     1
102
RTVSPropertyOp7
 70
     1
102
RTVSPropertyOp8
 70
     1
102
RTVSPropertyOp9
 70
     1
102
RTVSPropertyOp10
 70
     1
102
RTVSPropertyOp11
 70
     1
102
RTVSPropertyOp12
 70
     1
102
RTVSPropertyOp13
 70
     1
102
RTVSPropertyOp14
 70
     1
102
RTVSPropertyOp15
 70
     1
102
RTVSPropertyOp16
 70
     1
102
RTVSPropertyOp17
 70
     1
102
RTVSPropertyOp18
 70
     1
102
RTVSPropertyOp19
 70
     1
102
RTVSPropertyOp20
 70
     1
102
RTVSPropertyOp21
 70
     1
102
RTVSPropertyOp22
 70
     1
102
RTVSPropertyOp23
 70
     1
102
RTVSPropertyOp24
 70
     1
102
RTVSPropertyOp25
 70
     1
102
RTVSPropertyOp26
 70
     1
102
RTVSPropertyOp27
 70
     1
102
RTVSPropertyOp28
 70
     1
102
RTVSPropertyOp29
 70
     1
102
RTVSPropertyOp30
 70
     1
102
RTVSPropertyOp31
 70
     1
102
RTVSPropertyOp32
 70
     1
  0
XRECORD
  5
DAD
102
{ACAD_REACTORS
330
DAC
102
}
330
DAC
100
AcDbXrecord
280
     1
102
RTVSPropertyOp0
 70
     1
102
RTVSPropertyOp1
 70
     1
102
RTVSPropertyOp2
 70
     1
102
RTVSPropertyOp3
 70
     1
102
RTVSPropertyOp4
 70
     1
102
RTVSPropertyOp5
 70
     1
102
RTVSPropertyOp6
 70
     1
102
RTVSPropertyOp7
 70
     1
102
RTVSPropertyOp8
 70
     1
102
RTVSPropertyOp9
 70
     1
102
RTVSPropertyOp10
 70
     1
102
RTVSPropertyOp11
 70
     1
102
RTVSPropertyOp12
 70
     1
102
RTVSPropertyOp13
 70
     1
102
RTVSPropertyOp14
 70
     1
102
RTVSPropertyOp15
 70
     1
102
RTVSPropertyOp16
 70
     1
102
RTVSPropertyOp17
 70
     1
102
RTVSPropertyOp18
 70
     1
102
RTVSPropertyOp19
 70
     1
102
RTVSPropertyOp20
 70
     1
102
RTVSPropertyOp21
 70
     1
102
RTVSPropertyOp22
 70
     1
102
RTVSPropertyOp23
 70
     1
102
RTVSPropertyOp24
 70
     1
102
RTVSPropertyOp25
 70
     1
102
RTVSPropertyOp26
 70
     1
102
RTVSPropertyOp27
 70
     1
102
RTVSPropertyOp28
 70
     1
102
RTVSPropertyOp29
 70
     1
102
RTVSPropertyOp30
 70
     1
102
RTVSPropertyOp31
 70
     1
102
RTVSPropertyOp32
 70
     1
  0
XRECORD
  5
DB5
102
{ACAD_REACTORS
330
DB4
102
}
330
DB4
100
AcDbXrecord
280
     1
102
RTVSPropertyOp0
 70
     1
102
RTVSPropertyOp1
 70
     1
102
RTVSPropertyOp2
 70
     1
102
RTVSPropertyOp3
 70
     1
102
RTVSPropertyOp4
 70
     1
102
RTVSPropertyOp5
 70
     1
102
RTVSPropertyOp6
 70
     1
102
RTVSPropertyOp7
 70
     1
102
RTVSPropertyOp8
 70
     1
102
RTVSPropertyOp9
 70
     1
102
RTVSPropertyOp10
 70
     1
102
RTVSPropertyOp11
 70
     1
102
RTVSPropertyOp12
 70
     1
102
RTVSPropertyOp13
 70
     1
102
RTVSPropertyOp14
 70
     1
102
RTVSPropertyOp15
 70
     1
102
RTVSPropertyOp16
 70
     1
102
RTVSPropertyOp17
 70
     1
102
RTVSPropertyOp18
 70
     1
102
RTVSPropertyOp19
 70
     1
102
RTVSPropertyOp20
 70
     1
102
RTVSPropertyOp21
 70
     1
102
RTVSPropertyOp22
 70
     1
102
RTVSPropertyOp23
 70
     1
102
RTVSPropertyOp24
 70
     1
102
RTVSPropertyOp25
 70
     1
102
RTVSPropertyOp26
 70
     1
102
RTVSPropertyOp27
 70
     1
102
RTVSPropertyOp28
 70
     1
102
RTVSPropertyOp29
 70
     1
102
RTVSPropertyOp30
 70
     1
102
RTVSPropertyOp31
 70
     1
102
RTVSPropertyOp32
 70
     1
  0
ENDSEC
  0
EOF
