999
dxfrw 0.6.3
  0
SECTION
  2
HEADER
  9
$ACADVER
  1
AC1021
  9
$DWGCODEPAGE
  3
ANSI_1252
  9
$INSBASE
 10
0
 20
0
 30
0
  9
$EXTMIN
 10
0
 20
0
 30
0
  9
$EXTMAX
 10
297
 20
272.1316175373142
 30
0
  9
$LIMMIN
 10
0
 20
0
  9
$LIMMAX
 10
297
 20
210
  9
$ORTHOMODE
 70
    0
  9
$REGENMODE
 70
    1
  9
$FILLMODE
 70
    1
  9
$QTEXTMODE
 70
    0
  9
$MIRRTEXT
 70
    0
  9
$LTSCALE
 40
0.75
  9
$ATTMODE
 70
    1
  9
$TEXTSIZE
 40
3.5
  9
$TRACEWID
 40
1
  9
$TEXTSTYLE
  7
Standard
  9
$CLAYER
  8
0
  9
$CELTYPE
  6
ByLayer
  9
$CECOLOR
 62
  256
  9
$CELTSCALE
 40
1
  9
$DISPSILH
 70
    0
  9
$DIMSCALE
 40
1
  9
$DIMASZ
 40
3.5
  9
$DIMEXO
 40
2
  9
$DIMDLI
 40
9.899495
  9
$DIMRND
 40
0
  9
$DIMDLE
 40
0
  9
$DIMEXE
 40
2
  9
$DIMTP
 40
0.1
  9
$DIMTM
 40
0.1
  9
$DIMTXT
 40
3.5
  9
$DIMCEN
 40
0
  9
$DIMTSZ
 40
0
  9
$DIMTOL
 70
    0
  9
$DIMLIM
 70
    0
  9
$DIMTIH
 70
    0
  9
$DIMTOH
 70
    0
  9
$DIMSE1
 70
    0
  9
$DIMSE2
 70
    0
  9
$DIMTAD
 70
    1
  9
$DIMZIN
 70
   12
  9
$DIMBLK
  1

  9
$DIMASO
 70
    1
  9
$DIMSHO
 70
    1
  9
$DIMPOST
  1

  9
$DIMAPOST
  1
in
  9
$DIMALT
 70
    0
  9
$DIMALTD
 70
    4
  9
$DIMALTF
 40
0.03937
  9
$DIMLFAC
 40
1
  9
$DIMTOFL
 70
    1
  9
$DIMTVP
 40
0
  9
$DIMTIX
 70
    0
  9
$DIMSOXD
 70
    0
  9
$DIMSAH
 70
    0
  9
$DIMBLK1
  1

  9
$DIMBLK2
  1

  9
$DIMSTYLE
  2
ISO-25
  9
$DIMCLRD
 70
  256
  9
$DIMCLRE
 70
  256
  9
$DIMCLRT
 70
  256
  9
$DIMTFAC
 40
0.714
  9
$DIMGAP
 40
1.5
  9
$DIMJUST
 70
    0
  9
$DIMSD1
 70
    0
  9
$DIMSD2
 70
    0
  9
$DIMTOLJ
 70
    0
  9
$DIMTZIN
 70
   12
  9
$DIMALTZ
 70
   12
  9
$DIMALTTZ
 70
   12
  9
$DIMUPT
 70
    0
  9
$DIMDEC
 70
    2
  9
$DIMTDEC
 70
    2
  9
$DIMALTU
 70
    2
  9
$DIMALTTD
 70
    4
  9
$DIMTXSTY
  7
standard
  9
$DIMAUNIT
 70
    0
  9
$DIMADEC
 70
    2
  9
$DIMALTRND
 40
0
  9
$DIMAZIN
 70
    3
  9
$DIMDSEP
 70
    0
  9
$DIMATFIT
 70
    3
  9
$DIMFRAC
 70
    0
  9
$DIMLDRBLK
  1

  9
$DIMLUNIT
 70
    2
  9
$DIMLWD
 70
   -2
  9
$DIMLWE
 70
   -2
  9
$DIMTMOVE
 70
    0
  9
$DIMFXL
 40
1
  9
$DIMFXLON
 70
    0
  9
$DIMJOGANG
 40
0.785398
  9
$DIMTFILL
 70
    0
  9
$DIMTFILLCLR
 70
    0
  9
$DIMARCSYM
 70
    0
  9
$DIMLTYPE
  6

  9
$DIMLTEX1
  6

  9
$DIMLTEX2
  6

  9
$LUNITS
 70
    2
  9
$LUPREC
 70
    4
  9
$SKETCHINC
 40
1
  9
$FILLETRAD
 40
0
  9
$AUNITS
 70
    0
  9
$AUPREC
 70
    0
  9
$MENU
  1
.
  9
$ELEVATION
 40
0
  9
$PELEVATION
 40
0
  9
$THICKNESS
 40
0
  9
$LIMCHECK
 70
    0
  9
$CHAMFERA
 40
0
  9
$CHAMFERB
 40
0
  9
$CHAMFERC
 40
0
  9
$CHAMFERD
 40
0
  9
$SKPOLY
 70
    0
  9
$USRTIMER
 70
    1
  9
$ANGBASE
 50
0
  9
$ANGDIR
 70
    0
  9
$PDMODE
 70
    0
  9
$PDSIZE
 40
0
  9
$PLINEWID
 40
0
  9
$SPLFRAME
 70
    0
  9
$SPLINETYPE
 70
    6
  9
$SPLINESEGS
 70
    8
  9
$HANDSEED
  5
20000
  9
$SURFTAB1
 70
    6
  9
$SURFTAB2
 70
    6
  9
$SURFTYPE
 70
    6
  9
$SURFU
 70
    6
  9
$SURFV
 70
    6
  9
$UCSBASE
  2

  9
$UCSNAME
  2

  9
$UCSORG
 10
0
 20
0
 30
0
  9
$UCSXDIR
 10
1
 20
0
 30
0
  9
$UCSYDIR
 10
0
 20
1
 30
0
  9
$UCSORTHOREF
  2

  9
$UCSORTHOVIEW
 70
    0
  9
$UCSORGTOP
 10
0
 20
0
 30
0
  9
$UCSORGBOTTOM
 10
0
 20
0
 30
0
  9
$UCSORGLEFT
 10
0
 20
0
 30
0
  9
$UCSORGRIGHT
 10
0
 20
0
 30
0
  9
$UCSORGFRONT
 10
0
 20
0
 30
0
  9
$UCSORGBACK
 10
0
 20
0
 30
0
  9
$PUCSBASE
  2

  9
$PUCSNAME
  2

  9
$PUCSORG
 10
0
 20
0
 30
0
  9
$PUCSXDIR
 10
1
 20
0
 30
0
  9
$PUCSYDIR
 10
0
 20
1
 30
0
  9
$PUCSORTHOREF
  2

  9
$PUCSORTHOVIEW
 70
    0
  9
$PUCSORGTOP
 10
0
 20
0
 30
0
  9
$PUCSORGBOTTOM
 10
0
 20
0
 30
0
  9
$PUCSORGLEFT
 10
0
 20
0
 30
0
  9
$PUCSORGRIGHT
 10
0
 20
0
 30
0
  9
$PUCSORGFRONT
 10
0
 20
0
 30
0
  9
$PUCSORGBACK
 10
0
 20
0
 30
0
  9
$USERI1
 70
    0
  9
$USERI2
 70
    0
  9
$USERI3
 70
    0
  9
$USERI4
 70
    0
  9
$USERI5
 70
    0
  9
$USERR1
 40
0
  9
$USERR2
 40
0
  9
$USERR3
 40
0
  9
$USERR4
 40
0
  9
$USERR5
 40
0
  9
$WORLDVIEW
 70
    1
  9
$SHADEDGE
 70
    3
  9
$SHADEDIF
 70
   70
  9
$TILEMODE
 70
    1
  9
$MAXACTVP
 70
   64
  9
$PINSBASE
 10
43.06705045177144
 20
8.005287762549699
 30
0
  9
$PLIMCHECK
 70
    0
  9
$PEXTMIN
 10
1e+020
 20
1e+020
 30
1e+020
  9
$PEXTMAX
 10
-1e+020
 20
-1e+020
 30
-1e+020
  9
$GRIDMODE
 70
    0
  9
$SNAPSTYLE
 70
    0
  9
$GRIDUNIT
 10
0
 20
0
  9
$PLIMMIN
 10
0
 20
0
  9
$PLIMMAX
 10
210
 20
297
  9
$UNITMODE
 70
    0
  9
$VISRETAIN
 70
    1
  9
$PLINEGEN
 70
    0
  9
$PSLTSCALE
 70
    1
  9
$TREEDEPTH
 70
 3020
  9
$CMLSTYLE
  2
Standard
  9
$CMLJUST
 70
    0
  9
$CMLSCALE
 40
20
  9
$PROXYGRAPHICS
 70
    1
  9
$MEASUREMENT
 70
    1
  9
$CELWEIGHT
370
   -1
  9
$ENDCAPS
280
    0
  9
$JOINSTYLE
280
    0
  9
$LWDISPLAY
290
    0
  9
$INSUNITS
 70
    4
  9
$HYPERLINKBASE
  1

  9
$STYLESHEET
  1

  9
$XEDIT
290
    1
  9
$CEPSNTYPE
380
    0
  9
$PSTYLEMODE
290
    1
  9
$EXTNAMES
290
    1
  9
$PSVPSCALE
 40
1
  9
$OLESTARTUP
290
    0
  9
$SORTENTS
280
  127
  9
$INDEXCTL
280
    0
  9
$HIDETEXT
280
    1
  9
$XCLIPFRAME
290
    2
  9
$HALOGAP
280
    0
  9
$OBSCOLOR
 70
  257
  9
$OBSLTYPE
280
    0
  9
$INTERSECTIONDISPLAY
280
    0
  9
$INTERSECTIONCOLOR
 70
  257
  9
$DIMASSOC
280
    2
  9
$PROJECTNAME
  1

  9
$CAMERADISPLAY
290
    0
  9
$LENSLENGTH
 40
50
  9
$CAMERAHEIGHT
 40
0
  9
$STEPSPERSEC
 40
2
  9
$STEPSIZE
 40
6
  9
$3DDWFPREC
 40
2
  9
$PSOLWIDTH
 40
5
  9
$PSOLHEIGHT
 40
80
  9
$LOFTANG1
 40
1.570796
  9
$LOFTANG2
 40
1.570796
  9
$LOFTMAG1
 40
0
  9
$LOFTMAG2
 40
0
  9
$LOFTPARAM
 70
    7
  9
$LOFTNORMALS
280
    1
  9
$LATITUDE
 40
37.795
  9
$LONGITUDE
 40
-122.394
  9
$NORTHDIRECTION
 40
0
  9
$TIMEZONE
 70
-8000
  9
$LIGHTGLYPHDISPLAY
280
    1
  9
$TILEMODELIGHTSYNCH
280
    1
  9
$SOLIDHIST
280
    0
  9
$SHOWHIST
280
    1
  9
$DWFFRAME
280
    2
  9
$DGNFRAME
280
    0
  9
$REALWORLDSCALE
290
    1
  9
$INTERFERECOLOR
 62
    1
  9
$CSHADOW
280
    0
  9
$SHADOWPLANELOCATION
 40
0
  0
ENDSEC
  0
SECTION
  2
CLASSES
  0
ENDSEC
  0
SECTION
  2
TABLES
  0
TABLE
  2
VPORT
  5
8
330
0
100
AcDbSymbolTable
 70
    1
  0
VPORT
  5
31
330
2
100
AcDbSymbolTableRecord
100
AcDbViewportTableRecord
  2
*ACTIVE
 70
    0
 10
0
 20
0
 11
1
 21
1
 12
323.1190402538946
 22
174.7431604933896
 13
0
 23
0
 14
10
 24
10
 15
10
 25
10
 16
0
 26
0
 36
1
 17
0
 27
0
 37
0
 40
364.3478792180414
 41
2.027631578947368
 42
50
 43
0
 44
0
 50
0
 51
0
 71
    0
 72
  100
 73
    1
 74
    3
 75
    0
 76
    0
 77
    0
 78
    0
281
    0
 65
    1
110
0
120
0
130
0
111
1
121
0
131
0
112
0
122
1
132
0
 79
    0
146
0
348
10020
 60
    7
 61
    5
292
1
282
    1
141
0
142
0
 63
  250
421
3358443
  0
ENDTAB
  0
TABLE
  2
LTYPE
  5
5
330
0
100
AcDbSymbolTable
 70
    4
  0
LTYPE
  5
14
330
5
100
AcDbSymbolTableRecord
100
AcDbLinetypeTableRecord
  2
ByBlock
 70
    0
  3

 72
   65
 73
    0
 40
0
  0
LTYPE
  5
15
330
5
100
AcDbSymbolTableRecord
100
AcDbLinetypeTableRecord
  2
ByLayer
 70
    0
  3

 72
   65
 73
    0
 40
0
  0
LTYPE
  5
16
330
5
100
AcDbSymbolTableRecord
100
AcDbLinetypeTableRecord
  2
Continuous
 70
    0
  3
Solid line
 72
   65
 73
    0
 40
0
  0
LTYPE
  5
32
330
5
100
AcDbSymbolTableRecord
100
AcDbLinetypeTableRecord
  2
DOT
 70
    0
  3
Dot . . . . . . . . . . . . . . . . . . . . . .
 72
   65
 73
    2
 40
6.35
 49
0
 74
    0
 49
-6.35
 74
    0
  0
LTYPE
  5
33
330
5
100
AcDbSymbolTableRecord
100
AcDbLinetypeTableRecord
  2
DOTTINY
 70
    0
  3
Dot (.15x) .....................................
 72
   65
 73
    2
 40
0.9525
 49
0
 74
    0
 49
-0.9525
 74
    0
  0
LTYPE
  5
34
330
5
100
AcDbSymbolTableRecord
100
AcDbLinetypeTableRecord
  2
DOT2
 70
    0
  3
Dot (.5x) .....................................
 72
   65
 73
    2
 40
3.175
 49
0
 74
    0
 49
-3.175
 74
    0
  0
LTYPE
  5
35
330
5
100
AcDbSymbolTableRecord
100
AcDbLinetypeTableRecord
  2
DOTX2
 70
    0
  3
Dot (2x) .  .  .  .  .  .  .  .  .  .  .  .  .
 72
   65
 73
    2
 40
12.7
 49
0
 74
    0
 49
-12.7
 74
    0
  0
LTYPE
  5
36
330
5
100
AcDbSymbolTableRecord
100
AcDbLinetypeTableRecord
  2
DASHED
 70
    0
  3
Dashed _ _ _ _ _ _ _ _ _ _ _ _ _ _ _ _ _
 72
   65
 73
    2
 40
19.05
 49
12.7
 74
    0
 49
-6.35
 74
    0
  0
LTYPE
  5
37
330
5
100
AcDbSymbolTableRecord
100
AcDbLinetypeTableRecord
  2
DASHEDTINY
 70
    0
  3
Dashed (.15x) _ _ _ _ _ _ _ _ _ _ _ _ _ _ _ _ _
 72
   65
 73
    2
 40
2.8575
 49
1.905
 74
    0
 49
-0.9525
 74
    0
  0
LTYPE
  5
38
330
5
100
AcDbSymbolTableRecord
100
AcDbLinetypeTableRecord
  2
DASHED2
 70
    0
  3
Dashed (.5x) _ _ _ _ _ _ _ _ _ _ _ _ _ _ _ _ _
 72
   65
 73
    2
 40
9.524999999999999
 49
6.35
 74
    0
 49
-3.175
 74
    0
  0
LTYPE
  5
39
330
5
100
AcDbSymbolTableRecord
100
AcDbLinetypeTableRecord
  2
DASHEDX2
 70
    0
  3
Dashed (2x) ____  ____  ____  ____  ____  ___
 72
   65
 73
    2
 40
38.09999999999999
 49
25.4
 74
    0
 49
-12.7
 74
    0
  0
LTYPE
  5
3A
330
5
100
AcDbSymbolTableRecord
100
AcDbLinetypeTableRecord
  2
DASHDOT
 70
    0
  3
Dash dot __ . __ . __ . __ . __ . __ . __ . __
 72
   65
 73
    4
 40
25.4
 49
12.7
 74
    0
 49
-6.35
 74
    0
 49
0
 74
    0
 49
-6.35
 74
    0
  0
LTYPE
  5
3B
330
5
100
AcDbSymbolTableRecord
100
AcDbLinetypeTableRecord
  2
DASHDOTTINY
 70
    0
  3
Dash dot (.15x) _._._._._._._._._._._._._._._.
 72
   65
 73
    4
 40
3.81
 49
1.905
 74
    0
 49
-0.9525
 74
    0
 49
0
 74
    0
 49
-0.9525
 74
    0
  0
LTYPE
  5
3C
330
5
100
AcDbSymbolTableRecord
100
AcDbLinetypeTableRecord
  2
DASHDOT2
 70
    0
  3
Dash dot (.5x) _._._._._._._._._._._._._._._.
 72
   65
 73
    4
 40
12.7
 49
6.35
 74
    0
 49
-3.175
 74
    0
 49
0
 74
    0
 49
-3.175
 74
    0
  0
LTYPE
  5
3D
330
5
100
AcDbSymbolTableRecord
100
AcDbLinetypeTableRecord
  2
DASHDOTX2
 70
    0
  3
Dash dot (2x) ____  .  ____  .  ____  .  ___
 72
   65
 73
    4
 40
50.8
 49
25.4
 74
    0
 49
-12.7
 74
    0
 49
0
 74
    0
 49
-12.7
 74
    0
  0
LTYPE
  5
3E
330
5
100
AcDbSymbolTableRecord
100
AcDbLinetypeTableRecord
  2
DIVIDE
 70
    0
  3
Divide ____ . . ____ . . ____ . . ____ . . ____
 72
   65
 73
    6
 40
31.75
 49
12.7
 74
    0
 49
-6.35
 74
    0
 49
0
 74
    0
 49
-6.35
 74
    0
 49
0
 74
    0
 49
-6.35
 74
    0
  0
LTYPE
  5
3F
330
5
100
AcDbSymbolTableRecord
100
AcDbLinetypeTableRecord
  2
DIVIDETINY
 70
    0
  3
Divide (.15x) __..__..__..__..__..__..__..__.._
 72
   65
 73
    6
 40
4.7625
 49
1.905
 74
    0
 49
-0.9525
 74
    0
 49
0
 74
    0
 49
-0.9525
 74
    0
 49
0
 74
    0
 49
-0.9525
 74
    0
  0
LTYPE
  5
40
330
5
100
AcDbSymbolTableRecord
100
AcDbLinetypeTableRecord
  2
DIVIDE2
 70
    0
  3
Divide (.5x) __..__..__..__..__..__..__..__.._
 72
   65
 73
    6
 40
15.875
 49
6.35
 74
    0
 49
-3.175
 74
    0
 49
0
 74
    0
 49
-3.175
 74
    0
 49
0
 74
    0
 49
-3.175
 74
    0
  0
LTYPE
  5
41
330
5
100
AcDbSymbolTableRecord
100
AcDbLinetypeTableRecord
  2
DIVIDEX2
 70
    0
  3
Divide (2x) ________  .  .  ________  .  .  _
 72
   65
 73
    6
 40
63.5
 49
25.4
 74
    0
 49
-12.7
 74
    0
 49
0
 74
    0
 49
-12.7
 74
    0
 49
0
 74
    0
 49
-12.7
 74
    0
  0
LTYPE
  5
42
330
5
100
AcDbSymbolTableRecord
100
AcDbLinetypeTableRecord
  2
BORDER
 70
    0
  3
Border __ __ . __ __ . __ __ . __ __ . __ __ .
 72
   65
 73
    6
 40
44.45
 49
12.7
 74
    0
 49
-6.35
 74
    0
 49
12.7
 74
    0
 49
-6.35
 74
    0
 49
0
 74
    0
 49
-6.35
 74
    0
  0
LTYPE
  5
43
330
5
100
AcDbSymbolTableRecord
100
AcDbLinetypeTableRecord
  2
BORDERTINY
 70
    0
  3
Border (.15x) __.__.__.__.__.__.__.__.__.__.__.
 72
   65
 73
    6
 40
6.6675
 49
1.905
 74
    0
 49
-0.9525
 74
    0
 49
1.905
 74
    0
 49
-0.9525
 74
    0
 49
0
 74
    0
 49
-0.9525
 74
    0
  0
LTYPE
  5
44
330
5
100
AcDbSymbolTableRecord
100
AcDbLinetypeTableRecord
  2
BORDER2
 70
    0
  3
Border (.5x) __.__.__.__.__.__.__.__.__.__.__.
 72
   65
 73
    6
 40
22.225
 49
6.35
 74
    0
 49
-3.175
 74
    0
 49
6.35
 74
    0
 49
-3.175
 74
    0
 49
0
 74
    0
 49
-3.175
 74
    0
  0
LTYPE
  5
45
330
5
100
AcDbSymbolTableRecord
100
AcDbLinetypeTableRecord
  2
BORDERX2
 70
    0
  3
Border (2x) ____  ____  .  ____  ____  .  ___
 72
   65
 73
    6
 40
88.89999999999999
 49
25.4
 74
    0
 49
-12.7
 74
    0
 49
25.4
 74
    0
 49
-12.7
 74
    0
 49
0
 74
    0
 49
-12.7
 74
    0
  0
LTYPE
  5
46
330
5
100
AcDbSymbolTableRecord
100
AcDbLinetypeTableRecord
  2
CENTER
 70
    0
  3
Center ____ _ ____ _ ____ _ ____ _ ____ _ ____
 72
   65
 73
    4
 40
50.8
 49
31.75
 74
    0
 49
-6.35
 74
    0
 49
6.35
 74
    0
 49
-6.35
 74
    0
  0
LTYPE
  5
47
330
5
100
AcDbSymbolTableRecord
100
AcDbLinetypeTableRecord
  2
CENTERTINY
 70
    0
  3
Center (.15x) ___ _ ___ _ ___ _ ___ _ ___ _ ___
 72
   65
 73
    4
 40
7.62
 49
4.7625
 74
    0
 49
-0.9525
 74
    0
 49
0.9525
 74
    0
 49
-0.9525
 74
    0
  0
LTYPE
  5
48
330
5
100
AcDbSymbolTableRecord
100
AcDbLinetypeTableRecord
  2
CENTER2
 70
    0
  3
Center (.5x) ___ _ ___ _ ___ _ ___ _ ___ _ ___
 72
   65
 73
    4
 40
28.575
 49
19.05
 74
    0
 49
-3.175
 74
    0
 49
3.175
 74
    0
 49
-3.175
 74
    0
  0
LTYPE
  5
49
330
5
100
AcDbSymbolTableRecord
100
AcDbLinetypeTableRecord
  2
CENTERX2
 70
    0
  3
Center (2x) ________  __  ________  __  _____
 72
   65
 73
    4
 40
101.6
 49
63.5
 74
    0
 49
-12.7
 74
    0
 49
12.7
 74
    0
 49
-12.7
 74
    0
  0
ENDTAB
  0
TABLE
  2
LAYER
  5
2
330
0
100
AcDbSymbolTable
 70
    1
  0
LAYER
  5
10
330
2
100
AcDbSymbolTableRecord
100
AcDbLayerTableRecord
  2
0
 70
    0
 62
    7
  6
CONTINUOUS
370
   -3
390
F
  0
LAYER
  5
4A
330
2
100
AcDbSymbolTableRecord
100
AcDbLayerTableRecord
  2
Border
 70
    1
 62
    7
  6
CONTINUOUS
370
   25
390
F
  0
LAYER
  5
4B
330
2
100
AcDbSymbolTableRecord
100
AcDbLayerTableRecord
  2
Defpoints
 70
    0
 62
    7
  6
CONTINUOUS
290
0
370
   -3
390
F
1001
LibreCad
1070
    1
  0
LAYER
  5
4C
330
2
100
AcDbSymbolTableRecord
100
AcDbLayerTableRecord
  2
Dimensions
 70
    1
 62
    7
  6
CONTINUOUS
370
   18
390
F
  0
LAYER
  5
4D
330
2
100
AcDbSymbolTableRecord
100
AcDbLayerTableRecord
  2
Hidden
 70
    0
 62
    7
  6
DASHEDTINY
370
   18
390
F
  0
LAYER
  5
4E
330
2
100
AcDbSymbolTableRecord
100
AcDbLayerTableRecord
  2
TitleBlock
 70
    1
 62
    7
  6
CONTINUOUS
370
   35
390
F
  0
LAYER
  5
4F
330
2
100
AcDbSymbolTableRecord
100
AcDbLayerTableRecord
  2
Visible
 70
    0
 62
    7
  6
CONTINUOUS
370
   35
390
F
  0
ENDTAB
  0
TABLE
  2
STYLE
  5
3
330
0
100
AcDbSymbolTable
 70
    3
  0
STYLE
  5
50
330
2
100
AcDbSymbolTableRecord
100
AcDbTextStyleTableRecord
  2
fusiontitle
 70
    0
 40
0
 41
1
 50
0
 71
    0
 42
1
  3
fusiontitle
  4

  0
STYLE
  5
51
330
2
100
AcDbSymbolTableRecord
100
AcDbTextStyleTableRecord
  2
Standard
 70
    0
 40
0
 41
1
 50
0
 71
    0
 42
1
  3
txt
  4

  0
ENDTAB
  0
TABLE
  2
VIEW
  5
6
330
0
100
AcDbSymbolTable
 70
    0
  0
ENDTAB
  0
TABLE
  2
UCS
  5
7
330
0
100
AcDbSymbolTable
 70
    0
  0
ENDTAB
  0
TABLE
  2
APPID
  5
9
330
0
100
AcDbSymbolTable
 70
    1
  0
APPID
  5
12
330
9
100
AcDbSymbolTableRecord
100
AcDbRegAppTableRecord
  2
ACAD
 70
    0
  0
APPID
  5
52
330
9
100
AcDbSymbolTableRecord
100
AcDbRegAppTableRecord
  2
LibreCad
 70
    0
  0
ENDTAB
  0
TABLE
  2
DIMSTYLE
  5
A
330
0
100
AcDbSymbolTable
 70
    1
100
AcDbDimStyleTable
 71
    1
  0
DIMSTYLE
105
53
330
A
100
AcDbSymbolTableRecord
100
AcDbDimStyleTableRecord
  2
Standard
 70
    0
 40
1
 41
3.5
 42
2
 43
0.38
 44
2
 45
0
 46
0
 47
0
 48
0
 49
1
140
3.5
141
0.09
142
0
143
25.4
144
1
145
0
146
1
147
1.5
148
0
 71
    0
 72
    0
 73
    0
 74
    1
 75
    0
 76
    0
 77
    0
 78
   12
 79
    3
170
    0
171
    2
172
    0
173
    0
174
    0
175
    0
176
  256
177
  256
178
  256
179
    2
271
    2
272
    4
273
    2
274
    2
275
    0
276
    0
277
    2
278
    0
279
    0
280
    0
281
    0
282
    0
283
    1
284
    0
285
    0
286
    0
288
    0
289
    3
340
standard
341

371
   -2
372
   -2
  0
ENDTAB
  0
TABLE
  2
BLOCK_RECORD
  5
1
330
0
100
AcDbSymbolTable
 70
    2
  0
BLOCK_RECORD
  5
1F
330
1
100
AcDbSymbolTableRecord
100
AcDbBlockTableRecord
  2
*Model_Space
 70
    0
280
    1
281
    0
  0
BLOCK_RECORD
  5
1E
330
1
100
AcDbSymbolTableRecord
100
AcDbBlockTableRecord
  2
*Paper_Space
 70
    0
280
    1
281
    0
  0
BLOCK_RECORD
  5
54
330
1
100
AcDbSymbolTableRecord
100
AcDbBlockTableRecord
  2
*D14
 70
    0
280
    1
281
    0
  0
BLOCK_RECORD
  5
57
330
1
100
AcDbSymbolTableRecord
100
AcDbBlockTableRecord
  2
*D16
 70
    0
280
    1
281
    0
  0
BLOCK_RECORD
  5
5A
330
1
100
AcDbSymbolTableRecord
100
AcDbBlockTableRecord
  2
*D7
 70
    0
280
    1
281
    0
  0
BLOCK_RECORD
  5
5D
330
1
100
AcDbSymbolTableRecord
100
AcDbBlockTableRecord
  2
*D10
 70
    0
280
    1
281
    0
  0
BLOCK_RECORD
  5
60
330
1
100
AcDbSymbolTableRecord
100
AcDbBlockTableRecord
  2
*D12
 70
    0
280
    1
281
    0
  0
BLOCK_RECORD
  5
63
330
1
100
AcDbSymbolTableRecord
100
AcDbBlockTableRecord
  2
*D15
 70
    0
280
    1
281
    0
  0
BLOCK_RECORD
  5
66
330
1
100
AcDbSymbolTableRecord
100
AcDbBlockTableRecord
  2
*D3
 70
    0
280
    1
281
    0
  0
BLOCK_RECORD
  5
69
330
1
100
AcDbSymbolTableRecord
100
AcDbBlockTableRecord
  2
*D9
 70
    0
280
    1
281
    0
  0
BLOCK_RECORD
  5
6C
330
1
100
AcDbSymbolTableRecord
100
AcDbBlockTableRecord
  2
*D1
 70
    0
280
    1
281
    0
  0
BLOCK_RECORD
  5
6F
330
1
100
AcDbSymbolTableRecord
100
AcDbBlockTableRecord
  2
*D2
 70
    0
280
    1
281
    0
  0
BLOCK_RECORD
  5
72
330
1
100
AcDbSymbolTableRecord
100
AcDbBlockTableRecord
  2
*D11
 70
    0
280
    1
281
    0
  0
BLOCK_RECORD
  5
75
330
1
100
AcDbSymbolTableRecord
100
AcDbBlockTableRecord
  2
*D4
 70
    0
280
    1
281
    0
  0
BLOCK_RECORD
  5
78
330
1
100
AcDbSymbolTableRecord
100
AcDbBlockTableRecord
  2
*D8
 70
    0
280
    1
281
    0
  0
BLOCK_RECORD
  5
7B
330
1
100
AcDbSymbolTableRecord
100
AcDbBlockTableRecord
  2
*D5
 70
    0
280
    1
281
    0
  0
BLOCK_RECORD
  5
7E
330
1
100
AcDbSymbolTableRecord
100
AcDbBlockTableRecord
  2
*D6
 70
    0
280
    1
281
    0
  0
BLOCK_RECORD
  5
81
330
1
100
AcDbSymbolTableRecord
100
AcDbBlockTableRecord
  2
*D13
 70
    0
280
    1
281
    0
  0
BLOCK_RECORD
  5
84
330
1
100
AcDbSymbolTableRecord
100
AcDbBlockTableRecord
  2
ISO_A4(L)_SHEET
 70
    0
280
    1
281
    0
  0
BLOCK_RECORD
  5
87
330
1
100
AcDbSymbolTableRecord
100
AcDbBlockTableRecord
  2
ISO_TITLEBLOCK
 70
    0
280
    1
281
    0
  0
ENDTAB
  0
ENDSEC
  0
SECTION
  2
BLOCKS
  0
BLOCK
  5
20
330
1F
100
AcDbEntity
  8
0
100
AcDbBlockBegin
  2
*Model_Space
 70
    0
 10
0
 20
0
 30
0
  3
*Model_Space
  1

  0
ENDBLK
  5
21
330
1F
100
AcDbEntity
  8
0
100
AcDbBlockEnd
  0
BLOCK
  5
1C
330
1B
100
AcDbEntity
  8
0
100
AcDbBlockBegin
  2
*Paper_Space
 70
    0
 10
0
 20
0
 30
0
  3
*Paper_Space
  1

  0
ENDBLK
  5
1D
330
1F
100
AcDbEntity
  8
0
100
AcDbBlockEnd
  0
BLOCK
  5
55
330
54
100
AcDbEntity
  8
0
100
AcDbBlockBegin
  2
*D14
 70
    1
 10
0
 20
0
  3
*D14
  1

  0
LINE
  5
8A
100
AcDbEntity
  8
Dimensions
  6
ByBlock
 62
  256
370
   -2
100
AcDbLine
 10
218.428589
 20
89.258841
 11
208.51581
 21
89.258841
  0
LINE
  5
8B
100
AcDbEntity
  8
Dimensions
  6
ByBlock
 62
  256
370
   -2
100
AcDbLine
 10
218.428589
 20
81.758841
 11
208.51581
 21
81.758841
  0
LINE
  5
8C
100
AcDbEntity
  8
Dimensions
  6
ByBlock
 62
  256
370
   -2
100
AcDbLine
 10
210.51581
 20
96.258841
 11
210.51581
 21
74.758841
  0
SOLID
  5
8D
100
AcDbEntity
  8
Dimensions
  6
ByBlock
 62
  256
370
   -2
100
AcDbTrace
 10
210.51581
 20
89.258841
 30
0
 11
209.933011479118
 21
92.758841
 31
0
 12
211.098608520882
 22
92.758841
 32
0
 13
211.098608520882
 23
92.758841
 33
0
  0
SOLID
  5
8E
100
AcDbEntity
  8
Dimensions
  6
ByBlock
 62
  256
370
   -2
100
AcDbTrace
 10
210.51581
 20
81.758841
 30
0
 11
211.098608520882
 21
78.258841
 31
0
 12
209.933011479118
 22
78.258841
 32
0
 13
209.933011479118
 23
78.258841
 33
0
  0
MTEXT
  5
8F
100
AcDbEntity
  8
Dimensions
  6
CONTINUOUS
 62
  256
370
   -2
100
AcDbMText
 10
207.26581
 20
85.508841
 30
0
 40
3.5
 41
5.444444444444661
 71
    5
 72
    1
  1
7.5
  7
standard
210
0
220
0
230
1
 50
90
 73
    2
 44
1
  0
ENDBLK
  5
56
330
54
100
AcDbEntity
  8
0
100
AcDbBlockEnd
  0
BLOCK
  5
58
330
57
100
AcDbEntity
  8
0
100
AcDbBlockBegin
  2
*D16
 70
    1
 10
0
 20
0
  3
*D16
  1

  0
LINE
  5
90
100
AcDbEntity
  8
Dimensions
  6
ByBlock
 62
  256
370
   -2
100
AcDbLine
 10
162.070116
 20
170.532636
 11
178.320116
 21
170.532636
  0
SOLID
  5
91
100
AcDbEntity
  8
Dimensions
  6
ByBlock
 62
  256
370
   -2
100
AcDbTrace
 10
169.070116
 20
170.532636
 30
0
 11
165.570116
 21
169.949837479118
 31
0
 12
165.570116
 22
171.115434520882
 32
0
 13
165.570116
 23
171.115434520882
 33
0
  0
SOLID
  5
92
100
AcDbEntity
  8
Dimensions
  6
ByBlock
 62
  256
370
   -2
100
AcDbTrace
 10
171.320116
 20
170.532636
 30
0
 11
174.820116
 21
171.115434520882
 31
0
 12
174.820116
 22
169.949837479118
 32
0
 13
174.820116
 23
169.949837479118
 33
0
  0
MTEXT
  5
93
100
AcDbEntity
  8
Dimensions
  6
CONTINUOUS
 62
  256
370
   -2
100
AcDbMText
 10
176.9034493333335
 20
173.782636
 30
0
 40
3.5
 41
8.166666666666885
 71
    5
 72
    1
  1
2.25
  7
standard
210
0
220
0
230
1
 50
0
 73
    2
 44
1
  0
LINE
  5
94
100
AcDbEntity
  8
Dimensions
  6
ByBlock
 62
  256
370
   -2
100
AcDbLine
 10
169.070116
 20
161.758841
 11
169.070116
 21
172.532636
  0
LINE
  5
95
100
AcDbEntity
  8
Dimensions
  6
ByBlock
 62
  256
370
   -2
100
AcDbLine
 10
171.320116
 20
163.758841
 11
171.320116
 21
172.532636
  0
ENDBLK
  5
59
330
57
100
AcDbEntity
  8
0
100
AcDbBlockEnd
  0
BLOCK
  5
5B
330
5A
100
AcDbEntity
  8
0
100
AcDbBlockBegin
  2
*D7
 70
    1
 10
0
 20
0
  3
*D7
  1

  0
LINE
  5
96
100
AcDbEntity
  8
Dimensions
  6
ByBlock
 62
  256
370
   -2
100
AcDbLine
 10
51.95903900000001
 20
154.258841
 11
51.959039
 21
89.258841
  0
SOLID
  5
97
100
AcDbEntity
  8
Dimensions
  6
ByBlock
 62
  256
370
   -2
100
AcDbTrace
 10
51.95903900000001
 20
154.258841
 30
0
 11
52.54183752088198
 21
150.758841
 31
0
 12
51.37624047911803
 22
150.758841
 32
0
 13
51.37624047911803
 23
150.758841
 33
0
  0
SOLID
  5
98
100
AcDbEntity
  8
Dimensions
  6
ByBlock
 62
  256
370
   -2
100
AcDbTrace
 10
51.959039
 20
89.258841
 30
0
 11
51.37624047911802
 21
92.758841
 31
0
 12
52.54183752088198
 22
92.758841
 32
0
 13
52.54183752088198
 23
92.758841
 33
0
  0
MTEXT
  5
99
100
AcDbEntity
  8
Dimensions
  6
CONTINUOUS
 62
  256
370
   -2
100
AcDbMText
 10
48.709039
 20
121.758841
 30
0
 40
3.5
 41
4.277777777778212
 71
    5
 72
    1
  1
65
  7
standard
210
0
220
0
230
1
 50
90
 73
    2
 44
1
  0
LINE
  5
9A
100
AcDbEntity
  8
Dimensions
  6
ByBlock
 62
  256
370
   -2
100
AcDbLine
 10
71.820116
 20
154.258841
 11
49.95903900000001
 21
154.258841
  0
LINE
  5
9B
100
AcDbEntity
  8
Dimensions
  6
ByBlock
 62
  256
370
   -2
100
AcDbLine
 10
71.820116
 20
89.258841
 11
49.959039
 21
89.258841
  0
ENDBLK
  5
5C
330
5A
100
AcDbEntity
  8
0
100
AcDbBlockEnd
  0
BLOCK
  5
5E
330
5D
100
AcDbEntity
  8
0
100
AcDbBlockBegin
  2
*D10
 70
    1
 10
0
 20
0
  3
*D10
  1

  0
LINE
  5
9C
100
AcDbEntity
  8
Dimensions
  6
ByBlock
 62
  256
370
   -2
100
AcDbLine
 10
213.428589
 20
179.75447
 11
230.428589
 21
179.75447
  0
SOLID
  5
9D
100
AcDbEntity
  8
Dimensions
  6
ByBlock
 62
  256
370
   -2
100
AcDbTrace
 10
220.428589
 20
179.75447
 30
0
 11
216.928589
 21
179.171671479118
 31
0
 12
216.928589
 22
180.337268520882
 32
0
 13
216.928589
 23
180.337268520882
 33
0
  0
SOLID
  5
9E
100
AcDbEntity
  8
Dimensions
  6
ByBlock
 62
  256
370
   -2
100
AcDbTrace
 10
223.428589
 20
179.75447
 30
0
 11
226.928589
 21
180.337268520882
 31
0
 12
226.928589
 22
179.171671479118
 32
0
 13
226.928589
 23
179.171671479118
 33
0
  0
MTEXT
  5
9F
100
AcDbEntity
  8
Dimensions
  6
CONTINUOUS
 62
  256
370
   -2
100
AcDbMText
 10
221.928589
 20
183.00447
 30
0
 40
3.5
 41
1.555555555555773
 71
    5
 72
    1
  1
3
  7
standard
210
0
220
0
230
1
 50
0
 73
    2
 44
1
  0
LINE
  5
A0
100
AcDbEntity
  8
Dimensions
  6
ByBlock
 62
  256
370
   -2
100
AcDbLine
 10
220.428589
 20
163.758841
 11
220.428589
 21
181.75447
  0
LINE
  5
A1
100
AcDbEntity
  8
Dimensions
  6
ByBlock
 62
  256
370
   -2
100
AcDbLine
 10
223.428589
 20
161.758841
 11
223.428589
 21
181.75447
  0
ENDBLK
  5
5F
330
5D
100
AcDbEntity
  8
0
100
AcDbBlockEnd
  0
BLOCK
  5
61
330
60
100
AcDbEntity
  8
0
100
AcDbBlockBegin
  2
*D12
 70
    1
 10
0
 20
0
  3
*D12
  1

  0
LINE
  5
A2
100
AcDbEntity
  8
Dimensions
  6
ByBlock
 62
  256
370
   -2
100
AcDbLine
 10
218.428589
 20
161.758841
 11
208.415432
 21
161.758841
  0
LINE
  5
A3
100
AcDbEntity
  8
Dimensions
  6
ByBlock
 62
  256
370
   -2
100
AcDbLine
 10
218.428589
 20
154.258841
 11
208.415432
 21
154.258841
  0
LINE
  5
A4
100
AcDbEntity
  8
Dimensions
  6
ByBlock
 62
  256
370
   -2
100
AcDbLine
 10
210.415432
 20
168.758841
 11
210.415432
 21
147.258841
  0
SOLID
  5
A5
100
AcDbEntity
  8
Dimensions
  6
ByBlock
 62
  256
370
   -2
100
AcDbTrace
 10
210.415432
 20
161.758841
 30
0
 11
209.832633479118
 21
165.258841
 31
0
 12
210.998230520882
 22
165.258841
 32
0
 13
210.998230520882
 23
165.258841
 33
0
  0
SOLID
  5
A6
100
AcDbEntity
  8
Dimensions
  6
ByBlock
 62
  256
370
   -2
100
AcDbTrace
 10
210.415432
 20
154.258841
 30
0
 11
210.998230520882
 21
150.758841
 31
0
 12
209.832633479118
 22
150.758841
 32
0
 13
209.832633479118
 23
150.758841
 33
0
  0
MTEXT
  5
A7
100
AcDbEntity
  8
Dimensions
  6
CONTINUOUS
 62
  256
370
   -2
100
AcDbMText
 10
207.165432
 20
158.008841
 30
0
 40
3.5
 41
5.444444444444661
 71
    5
 72
    1
  1
7.5
  7
standard
210
0
220
0
230
1
 50
90
 73
    2
 44
1
  0
ENDBLK
  5
62
330
60
100
AcDbEntity
  8
0
100
AcDbBlockEnd
  0
BLOCK
  5
64
330
63
100
AcDbEntity
  8
0
100
AcDbBlockBegin
  2
*D15
 70
    1
 10
0
 20
0
  3
*D15
  1

  0
LINE
  5
A8
100
AcDbEntity
  8
Dimensions
  6
ByBlock
 62
  256
370
   -2
100
AcDbLine
 10
233.328084
 20
168.758841
 11
233.328084
 21
152.758841
  0
SOLID
  5
A9
100
AcDbEntity
  8
Dimensions
  6
ByBlock
 62
  256
370
   -2
100
AcDbTrace
 10
233.328084
 20
161.758841
 30
0
 11
232.745285479118
 21
165.258841
 31
0
 12
233.910882520882
 22
165.258841
 32
0
 13
233.910882520882
 23
165.258841
 33
0
  0
SOLID
  5
AA
100
AcDbEntity
  8
Dimensions
  6
ByBlock
 62
  256
370
   -2
100
AcDbTrace
 10
233.328084
 20
159.758841
 30
0
 11
233.910882520882
 21
156.258841
 31
0
 12
232.745285479118
 22
156.258841
 32
0
 13
232.745285479118
 23
156.258841
 33
0
  0
MTEXT
  5
AB
100
AcDbEntity
  8
Dimensions
  6
CONTINUOUS
 62
  256
370
   -2
100
AcDbMText
 10
230.078084
 20
160.758841
 30
0
 40
3.5
 41
1.555555555555556
 71
    5
 72
    1
  1
2
  7
standard
210
0
220
0
230
1
 50
90
 73
    2
 44
1
  0
LINE
  5
AC
100
AcDbEntity
  8
Dimensions
  6
ByBlock
 62
  256
370
   -2
100
AcDbLine
 10
225.428589
 20
161.758841
 11
235.328084
 21
161.758841
  0
LINE
  5
AD
100
AcDbEntity
  8
Dimensions
  6
ByBlock
 62
  256
370
   -2
100
AcDbLine
 10
225.428589
 20
159.758841
 11
235.328084
 21
159.758841
  0
ENDBLK
  5
65
330
63
100
AcDbEntity
  8
0
100
AcDbBlockEnd
  0
BLOCK
  5
67
330
66
100
AcDbEntity
  8
0
100
AcDbBlockBegin
  2
*D3
 70
    1
 10
0
 20
0
  3
*D3
  1

  0
LINE
  5
AE
100
AcDbEntity
  8
Dimensions
  6
ByBlock
 62
  256
370
   -2
100
AcDbLine
 10
80.820116
 20
72.712638
 11
59.320116
 21
72.712638
  0
SOLID
  5
AF
100
AcDbEntity
  8
Dimensions
  6
ByBlock
 62
  256
370
   -2
100
AcDbTrace
 10
73.820116
 20
72.712638
 30
0
 11
77.320116
 21
73.29543652088198
 31
0
 12
77.320116
 22
72.12983947911802
 32
0
 13
77.320116
 23
72.12983947911802
 33
0
  0
SOLID
  5
B0
100
AcDbEntity
  8
Dimensions
  6
ByBlock
 62
  256
370
   -2
100
AcDbTrace
 10
66.320116
 20
72.712638
 30
0
 11
62.820116
 21
72.12983947911802
 31
0
 12
62.820116
 22
73.29543652088198
 32
0
 13
62.820116
 23
73.29543652088198
 33
0
  0
MTEXT
  5
B1
100
AcDbEntity
  8
Dimensions
  6
CONTINUOUS
 62
  256
370
   -2
100
AcDbMText
 10
70.070116
 20
75.962638
 30
0
 40
3.5
 41
5.444444444444661
 71
    5
 72
    1
  1
7.5
  7
standard
210
0
220
0
230
1
 50
360
 73
    2
 44
1
  0
LINE
  5
B2
100
AcDbEntity
  8
Dimensions
  6
ByBlock
 62
  256
370
   -2
100
AcDbLine
 10
73.820116
 20
87.258841
 11
73.820116
 21
70.712638
  0
LINE
  5
B3
100
AcDbEntity
  8
Dimensions
  6
ByBlock
 62
  256
370
   -2
100
AcDbLine
 10
66.320116
 20
81.758841
 11
66.320116
 21
70.712638
  0
ENDBLK
  5
68
330
66
100
AcDbEntity
  8
0
100
AcDbBlockEnd
  0
BLOCK
  5
6A
330
69
100
AcDbEntity
  8
0
100
AcDbBlockBegin
  2
*D9
 70
    1
 10
0
 20
0
  3
*D9
  1

  0
LINE
  5
B4
100
AcDbEntity
  8
Dimensions
  6
ByBlock
 62
  256
370
   -2
100
AcDbLine
 10
181.219611
 20
168.758841
 11
181.219611
 21
152.758841
  0
SOLID
  5
B5
100
AcDbEntity
  8
Dimensions
  6
ByBlock
 62
  256
370
   -2
100
AcDbTrace
 10
181.219611
 20
161.758841
 30
0
 11
180.636812479118
 21
165.258841
 31
0
 12
181.802409520882
 22
165.258841
 32
0
 13
181.802409520882
 23
165.258841
 33
0
  0
SOLID
  5
B6
100
AcDbEntity
  8
Dimensions
  6
ByBlock
 62
  256
370
   -2
100
AcDbTrace
 10
181.219611
 20
159.758841
 30
0
 11
181.802409520882
 21
156.258841
 31
0
 12
180.636812479118
 22
156.258841
 32
0
 13
180.636812479118
 23
156.258841
 33
0
  0
MTEXT
  5
B7
100
AcDbEntity
  8
Dimensions
  6
CONTINUOUS
 62
  256
370
   -2
100
AcDbMText
 10
177.969611
 20
160.758841
 30
0
 40
3.5
 41
1.555555555555556
 71
    5
 72
    1
  1
2
  7
standard
210
0
220
0
230
1
 50
90
 73
    2
 44
1
  0
LINE
  5
B8
100
AcDbEntity
  8
Dimensions
  6
ByBlock
 62
  256
370
   -2
100
AcDbLine
 10
173.320116
 20
161.758841
 11
183.219611
 21
161.758841
  0
LINE
  5
B9
100
AcDbEntity
  8
Dimensions
  6
ByBlock
 62
  256
370
   -2
100
AcDbLine
 10
171.070116
 20
159.758841
 11
183.219611
 21
159.758841
  0
ENDBLK
  5
6B
330
69
100
AcDbEntity
  8
0
100
AcDbBlockEnd
  0
BLOCK
  5
6D
330
6C
100
AcDbEntity
  8
0
100
AcDbBlockBegin
  2
*D1
 70
    1
 10
0
 20
0
  3
*D1
  1

  0
LINE
  5
BA
100
AcDbEntity
  8
Dimensions
  6
ByBlock
 62
  256
370
   -2
100
AcDbLine
 10
66.32011599999998
 20
180.432131
 11
171.320116
 21
180.432131
  0
SOLID
  5
BB
100
AcDbEntity
  8
Dimensions
  6
ByBlock
 62
  256
370
   -2
100
AcDbTrace
 10
66.32011599999998
 20
180.432131
 30
0
 11
69.82011599999998
 21
181.014929520882
 31
0
 12
69.82011599999998
 22
179.849332479118
 32
0
 13
69.82011599999998
 23
179.849332479118
 33
0
  0
SOLID
  5
BC
100
AcDbEntity
  8
Dimensions
  6
ByBlock
 62
  256
370
   -2
100
AcDbTrace
 10
171.320116
 20
180.432131
 30
0
 11
167.820116
 21
179.849332479118
 31
0
 12
167.820116
 22
181.014929520882
 32
0
 13
167.820116
 23
181.014929520882
 33
0
  0
MTEXT
  5
BD
100
AcDbEntity
  8
Dimensions
  6
CONTINUOUS
 62
  256
370
   -2
100
AcDbMText
 10
118.820116
 20
183.682131
 30
0
 40
3.5
 41
6.22222222222244
 71
    5
 72
    1
  1
105
  7
standard
210
0
220
0
230
1
 50
0
 73
    2
 44
1
  0
LINE
  5
BE
100
AcDbEntity
  8
Dimensions
  6
ByBlock
 62
  256
370
   -2
100
AcDbLine
 10
66.320116
 20
161.758841
 11
66.32011599999998
 21
182.432131
  0
LINE
  5
BF
100
AcDbEntity
  8
Dimensions
  6
ByBlock
 62
  256
370
   -2
100
AcDbLine
 10
171.320116
 20
163.758841
 11
171.320116
 21
182.432131
  0
ENDBLK
  5
6E
330
6C
100
AcDbEntity
  8
0
100
AcDbBlockEnd
  0
BLOCK
  5
70
330
6F
100
AcDbEntity
  8
0
100
AcDbBlockBegin
  2
*D2
 70
    1
 10
0
 20
0
  3
*D2
  1

  0
LINE
  5
C0
100
AcDbEntity
  8
Dimensions
  6
ByBlock
 62
  256
370
   -2
100
AcDbLine
 10
189.067355
 20
161.758841
 11
189.067355
 21
81.758841
  0
SOLID
  5
C1
100
AcDbEntity
  8
Dimensions
  6
ByBlock
 62
  256
370
   -2
100
AcDbTrace
 10
189.067355
 20
161.758841
 30
0
 11
189.650153520882
 21
158.258841
 31
0
 12
188.4845564791181
 22
158.258841
 32
0
 13
188.4845564791181
 23
158.258841
 33
0
  0
SOLID
  5
C2
100
AcDbEntity
  8
Dimensions
  6
ByBlock
 62
  256
370
   -2
100
AcDbTrace
 10
189.067355
 20
81.758841
 30
0
 11
188.484556479118
 21
85.258841
 31
0
 12
189.650153520882
 22
85.258841
 32
0
 13
189.650153520882
 23
85.258841
 33
0
  0
MTEXT
  5
C3
100
AcDbEntity
  8
Dimensions
  6
CONTINUOUS
 62
  256
370
   -2
100
AcDbMText
 10
185.817355
 20
121.758841
 30
0
 40
3.5
 41
4.277777777777779
 71
    5
 72
    1
  1
80
  7
standard
210
0
220
0
230
1
 50
90
 73
    2
 44
1
  0
LINE
  5
C4
100
AcDbEntity
  8
Dimensions
  6
ByBlock
 62
  256
370
   -2
100
AcDbLine
 10
173.320116
 20
161.758841
 11
191.067355
 21
161.758841
  0
LINE
  5
C5
100
AcDbEntity
  8
Dimensions
  6
ByBlock
 62
  256
370
   -2
100
AcDbLine
 10
173.320116
 20
81.758841
 11
191.067355
 21
81.758841
  0
ENDBLK
  5
71
330
6F
100
AcDbEntity
  8
0
100
AcDbBlockEnd
  0
BLOCK
  5
73
330
72
100
AcDbEntity
  8
0
100
AcDbBlockBegin
  2
*D11
 70
    1
 10
0
 20
0
  3
*D11
  1

  0
LINE
  5
C6
100
AcDbEntity
  8
Dimensions
  6
ByBlock
 62
  256
370
   -2
100
AcDbLine
 10
215.928589
 20
171.734169
 11
230.428589
 21
171.734169
  0
SOLID
  5
C7
100
AcDbEntity
  8
Dimensions
  6
ByBlock
 62
  256
370
   -2
100
AcDbTrace
 10
222.928589
 20
171.734169
 30
0
 11
219.428589
 21
171.151370479118
 31
0
 12
219.428589
 22
172.316967520882
 32
0
 13
219.428589
 23
172.316967520882
 33
0
  0
SOLID
  5
C8
100
AcDbEntity
  8
Dimensions
  6
ByBlock
 62
  256
370
   -2
100
AcDbTrace
 10
223.428589
 20
171.734169
 30
0
 11
226.928589
 21
172.316967520882
 31
0
 12
226.928589
 22
171.151370479118
 32
0
 13
226.928589
 23
171.151370479118
 33
0
  0
MTEXT
  5
C9
100
AcDbEntity
  8
Dimensions
  6
CONTINUOUS
 62
  256
370
   -2
100
AcDbMText
 10
226.2897001111112
 20
174.984169
 30
0
 40
3.5
 41
2.722222222222439
 71
    5
 72
    1
  1
.5
  7
standard
210
0
220
0
230
1
 50
0
 73
    2
 44
1
  0
LINE
  5
CA
100
AcDbEntity
  8
Dimensions
  6
ByBlock
 62
  256
370
   -2
100
AcDbLine
 10
222.928589
 20
161.758841
 11
222.928589
 21
173.734169
  0
LINE
  5
CB
100
AcDbEntity
  8
Dimensions
  6
ByBlock
 62
  256
370
   -2
100
AcDbLine
 10
223.428589
 20
161.758841
 11
223.428589
 21
173.734169
  0
ENDBLK
  5
74
330
72
100
AcDbEntity
  8
0
100
AcDbBlockEnd
  0
BLOCK
  5
76
330
75
100
AcDbEntity
  8
0
100
AcDbBlockBegin
  2
*D4
 70
    1
 10
0
 20
0
  3
*D4
  1

  0
LINE
  5
CC
100
AcDbEntity
  8
Dimensions
  6
ByBlock
 62
  256
370
   -2
100
AcDbLine
 10
156.820116
 20
72.566035
 11
178.320116
 21
72.566035
  0
SOLID
  5
CD
100
AcDbEntity
  8
Dimensions
  6
ByBlock
 62
  256
370
   -2
100
AcDbTrace
 10
163.820116
 20
72.566035
 30
0
 11
160.320116
 21
71.98323647911802
 31
0
 12
160.320116
 22
73.14883352088198
 32
0
 13
160.320116
 23
73.14883352088198
 33
0
  0
SOLID
  5
CE
100
AcDbEntity
  8
Dimensions
  6
ByBlock
 62
  256
370
   -2
100
AcDbTrace
 10
171.320116
 20
72.566035
 30
0
 11
174.820116
 21
73.14883352088198
 31
0
 12
174.820116
 22
71.98323647911802
 32
0
 13
174.820116
 23
71.98323647911802
 33
0
  0
MTEXT
  5
CF
100
AcDbEntity
  8
Dimensions
  6
CONTINUOUS
 62
  256
370
   -2
100
AcDbMText
 10
167.570116
 20
75.816035
 30
0
 40
3.5
 41
5.444444444444661
 71
    5
 72
    1
  1
7.5
  7
standard
210
0
220
0
230
1
 50
0
 73
    2
 44
1
  0
LINE
  5
D0
100
AcDbEntity
  8
Dimensions
  6
ByBlock
 62
  256
370
   -2
100
AcDbLine
 10
163.820116
 20
87.258841
 11
163.820116
 21
70.566035
  0
LINE
  5
D1
100
AcDbEntity
  8
Dimensions
  6
ByBlock
 62
  256
370
   -2
100
AcDbLine
 10
171.320116
 20
79.758841
 11
171.320116
 21
70.566035
  0
ENDBLK
  5
77
330
75
100
AcDbEntity
  8
0
100
AcDbBlockEnd
  0
BLOCK
  5
79
330
78
100
AcDbEntity
  8
0
100
AcDbBlockBegin
  2
*D8
 70
    1
 10
0
 20
0
  3
*D8
  1

  0
LINE
  5
D2
100
AcDbEntity
  8
Dimensions
  6
ByBlock
 62
  256
370
   -2
100
AcDbLine
 10
73.82011600000001
 20
72.687504
 11
163.820116
 21
72.687504
  0
SOLID
  5
D3
100
AcDbEntity
  8
Dimensions
  6
ByBlock
 62
  256
370
   -2
100
AcDbTrace
 10
73.82011600000001
 20
72.687504
 30
0
 11
77.32011600000001
 21
73.27030252088198
 31
0
 12
77.32011600000001
 22
72.10470547911802
 32
0
 13
77.32011600000001
 23
72.10470547911802
 33
0
  0
SOLID
  5
D4
100
AcDbEntity
  8
Dimensions
  6
ByBlock
 62
  256
370
   -2
100
AcDbTrace
 10
163.820116
 20
72.687504
 30
0
 11
160.320116
 21
72.10470547911802
 31
0
 12
160.320116
 22
73.27030252088198
 32
0
 13
160.320116
 23
73.27030252088198
 33
0
  0
MTEXT
  5
D5
100
AcDbEntity
  8
Dimensions
  6
CONTINUOUS
 62
  256
370
   -2
100
AcDbMText
 10
118.820116
 20
75.937504
 30
0
 40
3.5
 41
4.277777777777995
 71
    5
 72
    1
  1
90
  7
standard
210
0
220
0
230
1
 50
0
 73
    2
 44
1
  0
LINE
  5
D6
100
AcDbEntity
  8
Dimensions
  6
ByBlock
 62
  256
370
   -2
100
AcDbLine
 10
73.820116
 20
87.258841
 11
73.82011600000001
 21
70.687504
  0
LINE
  5
D7
100
AcDbEntity
  8
Dimensions
  6
ByBlock
 62
  256
370
   -2
100
AcDbLine
 10
163.820116
 20
87.258841
 11
163.820116
 21
70.687504
  0
ENDBLK
  5
7A
330
78
100
AcDbEntity
  8
0
100
AcDbBlockEnd
  0
BLOCK
  5
7C
330
7B
100
AcDbEntity
  8
0
100
AcDbBlockBegin
  2
*D5
 70
    1
 10
0
 20
0
  3
*D5
  1

  0
LINE
  5
D8
100
AcDbEntity
  8
Dimensions
  6
ByBlock
 62
  256
370
   -2
100
AcDbLine
 10
51.806903
 20
168.758841
 11
51.806903
 21
147.258841
  0
SOLID
  5
D9
100
AcDbEntity
  8
Dimensions
  6
ByBlock
 62
  256
370
   -2
100
AcDbTrace
 10
51.806903
 20
161.758841
 30
0
 11
51.22410447911803
 21
165.258841
 31
0
 12
52.38970152088198
 22
165.258841
 32
0
 13
52.38970152088198
 23
165.258841
 33
0
  0
SOLID
  5
DA
100
AcDbEntity
  8
Dimensions
  6
ByBlock
 62
  256
370
   -2
100
AcDbTrace
 10
51.806903
 20
154.258841
 30
0
 11
52.38970152088198
 21
150.758841
 31
0
 12
51.22410447911802
 22
150.758841
 32
0
 13
51.22410447911802
 23
150.758841
 33
0
  0
MTEXT
  5
DB
100
AcDbEntity
  8
Dimensions
  6
CONTINUOUS
 62
  256
370
   -2
100
AcDbMText
 10
48.556903
 20
158.008841
 30
0
 40
3.5
 41
5.444444444444661
 71
    5
 72
    1
  1
7.5
  7
standard
210
0
220
0
230
1
 50
90
 73
    2
 44
1
  0
LINE
  5
DC
100
AcDbEntity
  8
Dimensions
  6
ByBlock
 62
  256
370
   -2
100
AcDbLine
 10
64.320116
 20
161.758841
 11
49.806903
 21
161.758841
  0
LINE
  5
DD
100
AcDbEntity
  8
Dimensions
  6
ByBlock
 62
  256
370
   -2
100
AcDbLine
 10
71.820116
 20
154.258841
 11
49.806903
 21
154.258841
  0
ENDBLK
  5
7D
330
7B
100
AcDbEntity
  8
0
100
AcDbBlockEnd
  0
BLOCK
  5
7F
330
7E
100
AcDbEntity
  8
0
100
AcDbBlockBegin
  2
*D6
 70
    1
 10
0
 20
0
  3
*D6
  1

  0
LINE
  5
DE
100
AcDbEntity
  8
Dimensions
  6
ByBlock
 62
  256
370
   -2
100
AcDbLine
 10
51.965568
 20
96.258841
 11
51.965568
 21
74.758841
  0
SOLID
  5
DF
100
AcDbEntity
  8
Dimensions
  6
ByBlock
 62
  256
370
   -2
100
AcDbTrace
 10
51.965568
 20
89.258841
 30
0
 11
51.38276947911802
 21
92.758841
 31
0
 12
52.54836652088198
 22
92.758841
 32
0
 13
52.54836652088198
 23
92.758841
 33
0
  0
SOLID
  5
E0
100
AcDbEntity
  8
Dimensions
  6
ByBlock
 62
  256
370
   -2
100
AcDbTrace
 10
51.965568
 20
81.758841
 30
0
 11
52.54836652088198
 21
78.258841
 31
0
 12
51.38276947911802
 22
78.258841
 32
0
 13
51.38276947911802
 23
78.258841
 33
0
  0
MTEXT
  5
E1
100
AcDbEntity
  8
Dimensions
  6
CONTINUOUS
 62
  256
370
   -2
100
AcDbMText
 10
48.715568
 20
85.508841
 30
0
 40
3.5
 41
5.444444444444661
 71
    5
 72
    1
  1
7.5
  7
standard
210
0
220
0
230
1
 50
90
 73
    2
 44
1
  0
LINE
  5
E2
100
AcDbEntity
  8
Dimensions
  6
ByBlock
 62
  256
370
   -2
100
AcDbLine
 10
71.820116
 20
89.258841
 11
49.965568
 21
89.258841
  0
LINE
  5
E3
100
AcDbEntity
  8
Dimensions
  6
ByBlock
 62
  256
370
   -2
100
AcDbLine
 10
64.320116
 20
81.758841
 11
49.965568
 21
81.758841
  0
ENDBLK
  5
80
330
7E
100
AcDbEntity
  8
0
100
AcDbBlockEnd
  0
BLOCK
  5
82
330
81
100
AcDbEntity
  8
0
100
AcDbBlockBegin
  2
*D13
 70
    1
 10
0
 20
0
  3
*D13
  1

  0
LINE
  5
E4
100
AcDbEntity
  8
Dimensions
  6
ByBlock
 62
  256
370
   -2
100
AcDbLine
 10
218.428589
 20
154.258841
 11
208.529094
 21
154.258841
  0
LINE
  5
E5
100
AcDbEntity
  8
Dimensions
  6
ByBlock
 62
  256
370
   -2
100
AcDbLine
 10
218.428589
 20
89.258841
 11
208.529094
 21
89.258841
  0
LINE
  5
E6
100
AcDbEntity
  8
Dimensions
  6
ByBlock
 62
  256
370
   -2
100
AcDbLine
 10
210.529094
 20
154.258841
 11
210.529094
 21
89.258841
  0
SOLID
  5
E7
100
AcDbEntity
  8
Dimensions
  6
ByBlock
 62
  256
370
   -2
100
AcDbTrace
 10
210.529094
 20
154.258841
 30
0
 11
211.111892520882
 21
150.758841
 31
0
 12
209.946295479118
 22
150.758841
 32
0
 13
209.946295479118
 23
150.758841
 33
0
  0
SOLID
  5
E8
100
AcDbEntity
  8
Dimensions
  6
ByBlock
 62
  256
370
   -2
100
AcDbTrace
 10
210.529094
 20
89.258841
 30
0
 11
209.946295479118
 21
92.758841
 31
0
 12
211.111892520882
 22
92.758841
 32
0
 13
211.111892520882
 23
92.758841
 33
0
  0
MTEXT
  5
E9
100
AcDbEntity
  8
Dimensions
  6
CONTINUOUS
 62
  256
370
   -2
100
AcDbMText
 10
207.279094
 20
121.758841
 30
0
 40
3.5
 41
4.277777777778212
 71
    5
 72
    1
  1
65
  7
standard
210
0
220
0
230
1
 50
90
 73
    2
 44
1
  0
ENDBLK
  5
83
330
81
100
AcDbEntity
  8
0
100
AcDbBlockEnd
  0
BLOCK
  5
85
330
84
100
AcDbEntity
  8
0
100
AcDbBlockBegin
  2
ISO_A4(L)_SHEET
 70
    0
 10
0
 20
0
  3
ISO_A4(L)_SHEET
  1

  0
LINE
  5
EA
100
AcDbEntity
  8
Border
  6
ByLayer
 62
  256
370
   -1
100
AcDbLine
 10
0
 20
210
 11
0
 21
195
  0
LINE
  5
EB
100
AcDbEntity
  8
Border
  6
ByLayer
 62
  256
370
   -1
100
AcDbLine
 10
0
 20
15
 11
0
 21
0
  0
LINE
  5
EC
100
AcDbEntity
  8
Border
  6
ByLayer
 62
  256
370
   -1
100
AcDbLine
 10
0
 20
0
 11
15
 21
0
  0
LINE
  5
ED
100
AcDbEntity
  8
Border
  6
ByLayer
 62
  256
370
   -1
100
AcDbLine
 10
282
 20
0
 11
297
 21
0
  0
LINE
  5
EE
100
AcDbEntity
  8
Border
  6
ByLayer
 62
  256
370
   -1
100
AcDbLine
 10
297
 20
0
 11
297
 21
15
  0
LINE
  5
EF
100
AcDbEntity
  8
Border
  6
ByLayer
 62
  256
370
   -1
100
AcDbLine
 10
297
 20
195
 11
297
 21
210
  0
LINE
  5
F0
100
AcDbEntity
  8
Border
  6
ByLayer
 62
  256
370
   -1
100
AcDbLine
 10
287
 20
10
 11
287
 21
200
  0
LINE
  5
F1
100
AcDbEntity
  8
Border
  6
ByLayer
 62
  256
370
   -1
100
AcDbLine
 10
297
 20
210
 11
282
 21
210
  0
LINE
  5
F2
100
AcDbEntity
  8
Border
  6
ByLayer
 62
  256
370
   -1
100
AcDbLine
 10
15
 20
210
 11
0
 21
210
  0
LINE
  5
F3
100
AcDbEntity
  8
Border
  6
ByLayer
 62
  256
370
   -1
100
AcDbLine
 10
287
 20
10
 11
20
 21
10
  0
LINE
  5
F4
100
AcDbEntity
  8
Border
  6
ByLayer
 62
  256
370
   -1
100
AcDbLine
 10
15
 20
100
 11
25
 21
100
  0
LINE
  5
F5
100
AcDbEntity
  8
Border
  6
ByLayer
 62
  256
370
   -1
100
AcDbLine
 10
292
 20
100
 11
282
 21
100
  0
LINE
  5
F6
100
AcDbEntity
  8
Border
  6
ByLayer
 62
  256
370
   -1
100
AcDbLine
 10
148.5
 20
205
 11
148.5
 21
195
  0
LINE
  5
F7
100
AcDbEntity
  8
Border
  6
ByLayer
 62
  256
370
   -1
100
AcDbLine
 10
148.5
 20
5
 11
148.5
 21
15
  0
LINE
  5
F8
100
AcDbEntity
  8
Border
  6
ByLayer
 62
  256
370
   -1
100
AcDbLine
 10
287
 20
200
 11
20
 21
200
  0
LINE
  5
F9
100
AcDbEntity
  8
Border
  6
ByLayer
 62
  256
370
   -1
100
AcDbLine
 10
20
 20
200
 11
20
 21
10
  0
ENDBLK
  5
86
330
84
100
AcDbEntity
  8
0
100
AcDbBlockEnd
  0
BLOCK
  5
88
330
87
100
AcDbEntity
  8
0
100
AcDbBlockBegin
  2
ISO_TITLEBLOCK
 70
    0
 10
0
 20
0
  3
ISO_TITLEBLOCK
  1

  0
LINE
  5
FA
100
AcDbEntity
  8
TitleBlock
  6
ByLayer
 62
  256
370
   -1
100
AcDbLine
 10
-180
 20
0
 11
0
 21
0
  0
LINE
  5
FB
100
AcDbEntity
  8
TitleBlock
  6
ByLayer
 62
  256
370
   -1
100
AcDbLine
 10
-61
 20
10
 11
0
 21
10
  0
LINE
  5
FC
100
AcDbEntity
  8
TitleBlock
  6
ByLayer
 62
  256
370
   -1
100
AcDbLine
 10
-122
 20
27
 11
0
 21
27
  0
LINE
  5
FD
100
AcDbEntity
  8
TitleBlock
  6
ByLayer
 62
  256
370
   -1
100
AcDbLine
 10
-180
 20
37
 11
0
 21
37
  0
LINE
  5
FE
100
AcDbEntity
  8
TitleBlock
  6
ByLayer
 62
  256
370
   -1
100
AcDbLine
 10
0
 20
0
 11
0
 21
47
  0
LINE
  5
FF
100
AcDbEntity
  8
TitleBlock
  6
ByLayer
 62
  256
370
   -1
100
AcDbLine
 10
-15
 20
0
 11
-15
 21
10
  0
LINE
  5
100
100
AcDbEntity
  8
TitleBlock
  6
ByLayer
 62
  256
370
   -1
100
AcDbLine
 10
-51
 20
0
 11
-51
 21
10
  0
LINE
  5
101
100
AcDbEntity
  8
TitleBlock
  6
ByLayer
 62
  256
370
   -1
100
AcDbLine
 10
-61
 20
0
 11
-61
 21
47
  0
LINE
  5
102
100
AcDbEntity
  8
TitleBlock
  6
ByLayer
 62
  256
370
   -1
100
AcDbLine
 10
-122
 20
0
 11
-122
 21
47
  0
LINE
  5
103
100
AcDbEntity
  8
TitleBlock
  6
ByLayer
 62
  256
370
   -1
100
AcDbLine
 10
-156
 20
37
 11
-156
 21
47
  0
LINE
  5
104
100
AcDbEntity
  8
TitleBlock
  6
ByLayer
 62
  256
370
   -1
100
AcDbLine
 10
0
 20
47
 11
-180
 21
47
  0
LINE
  5
105
100
AcDbEntity
  8
TitleBlock
  6
ByLayer
 62
  256
370
   -1
100
AcDbLine
 10
-180
 20
47
 11
-180
 21
0
  0
TEXT
  5
106
100
AcDbEntity
  8
TitleBlock
  6
ByLayer
 62
  256
370
   -1
100
AcDbText
 10
-179
 20
46
 30
0
 40
1.8
  1
Dept.
 50
0
 41
1
 51
0
  7
fusiontitle
 71
    0
 11
-179
 21
46
 31
0
210
0
220
0
230
1
100
AcDbText
 73
    3
  0
TEXT
  5
107
100
AcDbEntity
  8
TitleBlock
  6
ByLayer
 62
  256
370
   -1
100
AcDbText
 10
-155
 20
46
 30
0
 40
1.8
  1
Technical reference
 50
0
 41
1
 51
0
  7
fusiontitle
 71
    0
 11
-155
 21
46
 31
0
210
0
220
0
230
1
100
AcDbText
 73
    3
  0
TEXT
  5
108
100
AcDbEntity
  8
TitleBlock
  6
ByLayer
 62
  256
370
   -1
100
AcDbText
 10
-121
 20
46
 30
0
 40
1.8
  1
Created by
 50
0
 41
1
 51
0
  7
fusiontitle
 71
    0
 11
-121
 21
46
 31
0
210
0
220
0
230
1
100
AcDbText
 73
    3
  0
TEXT
  5
109
100
AcDbEntity
  8
TitleBlock
  6
ByLayer
 62
  256
370
   -1
100
AcDbText
 10
-60
 20
46
 30
0
 40
1.8
  1
Approved by
 50
0
 41
1
 51
0
  7
fusiontitle
 71
    0
 11
-60
 21
46
 31
0
210
0
220
0
230
1
100
AcDbText
 73
    3
  0
TEXT
  5
10A
100
AcDbEntity
  8
TitleBlock
  6
ByLayer
 62
  256
370
   -1
100
AcDbText
 10
-121
 20
36
 30
0
 40
1.8
  1
Document type
 50
0
 41
1
 51
0
  7
fusiontitle
 71
    0
 11
-121
 21
36
 31
0
210
0
220
0
230
1
100
AcDbText
 73
    3
  0
TEXT
  5
10B
100
AcDbEntity
  8
TitleBlock
  6
ByLayer
 62
  256
370
   -1
100
AcDbText
 10
-60
 20
36
 30
0
 40
1.8
  1
Document status
 50
0
 41
1
 51
0
  7
fusiontitle
 71
    0
 11
-60
 21
36
 31
0
210
0
220
0
230
1
100
AcDbText
 73
    3
  0
TEXT
  5
10C
100
AcDbEntity
  8
TitleBlock
  6
ByLayer
 62
  256
370
   -1
100
AcDbText
 10
-121
 20
26
 30
0
 40
1.8
  1
Title
 50
0
 41
1
 51
0
  7
fusiontitle
 71
    0
 11
-121
 21
26
 31
0
210
0
220
0
230
1
100
AcDbText
 73
    3
  0
TEXT
  5
10D
100
AcDbEntity
  8
TitleBlock
  6
ByLayer
 62
  256
370
   -1
100
AcDbText
 10
-60
 20
26
 30
0
 40
1.8
  1
DWG No.
 50
0
 41
1
 51
0
  7
fusiontitle
 71
    0
 11
-60
 21
26
 31
0
210
0
220
0
230
1
100
AcDbText
 73
    3
  0
TEXT
  5
10E
100
AcDbEntity
  8
TitleBlock
  6
ByLayer
 62
  256
370
   -1
100
AcDbText
 10
-60
 20
9
 30
0
 40
1.8
  1
Rev.
 50
0
 41
1
 51
0
  7
fusiontitle
 71
    0
 11
-60
 21
9
 31
0
210
0
220
0
230
1
100
AcDbText
 73
    3
  0
TEXT
  5
10F
100
AcDbEntity
  8
TitleBlock
  6
ByLayer
 62
  256
370
   -1
100
AcDbText
 10
-50
 20
9
 30
0
 40
1.8
  1
Date of issue
 50
0
 41
1
 51
0
  7
fusiontitle
 71
    0
 11
-50
 21
9
 31
0
210
0
220
0
230
1
100
AcDbText
 73
    3
  0
TEXT
  5
110
100
AcDbEntity
  8
TitleBlock
  6
ByLayer
 62
  256
370
   -1
100
AcDbText
 10
-14
 20
9
 30
0
 40
1.8
  1
Sheet
 50
0
 41
1
 51
0
  7
fusiontitle
 71
    0
 11
-14
 21
9
 31
0
210
0
220
0
230
1
100
AcDbText
 73
    3
  0
ENDBLK
  5
89
330
87
100
AcDbEntity
  8
0
100
AcDbBlockEnd
  0
ENDSEC
  0
SECTION
  2
ENTITIES
  0
INSERT
  5
111
100
AcDbEntity
  8
Border
  6
ByLayer
 62
  256
370
   -1
100
AcDbBlockReference
  2
ISO_A4(L)_SHEET
 10
0
 20
0
 30
0
 41
1
 42
1
 43
0
 50
0
 70
    1
 71
    1
 44
0
 45
0
  0
INSERT
  5
112
100
AcDbEntity
  8
TitleBlock
  6
ByLayer
 62
  256
370
   -1
100
AcDbBlockReference
  2
ISO_TITLEBLOCK
 10
287
 20
10
 30
0
 41
1
 42
1
 43
0
 50
0
 70
    1
 71
    1
 44
0
 45
0
  0
DIMENSION
  5
113
100
AcDbEntity
  8
Dimensions
  6
ByLayer
 62
  256
370
   -1
100
AcDbDimension
  2
*D1
 10
171.320116
 20
180.432131
 30
0
 11
118.820116
 21
183.682131
 31
0
 70
   32
 71
    5
  3
ISO-25
 53
0
210
0
220
0
230
1
100
AcDbAlignedDimension
 13
66.320116
 23
159.758841
 33
0
 14
171.320116
 24
161.758841
 34
0
 50
180
100
AcDbRotatedDimension
  0
DIMENSION
  5
114
100
AcDbEntity
  8
Dimensions
  6
ByLayer
 62
  256
370
   -1
100
AcDbDimension
  2
*D2
 10
189.067355
 20
81.758841
 30
0
 11
185.817355
 21
121.758841
 31
0
 70
   32
 71
    5
  3
ISO-25
 53
0
210
0
220
0
230
1
100
AcDbAlignedDimension
 13
171.320116
 23
161.758841
 33
0
 14
171.320116
 24
81.758841
 34
0
 50
270
100
AcDbRotatedDimension
  0
DIMENSION
  5
115
100
AcDbEntity
  8
Dimensions
  6
ByLayer
 62
  256
370
   -1
100
AcDbDimension
  2
*D3
 10
66.320116
 20
72.712638
 30
0
 11
70.070116
 21
75.962638
 31
0
 70
   32
 71
    5
  3
ISO-25
 53
0
210
0
220
0
230
1
100
AcDbAlignedDimension
 13
73.820116
 23
89.258841
 33
0
 14
66.320116
 24
83.758841
 34
0
100
AcDbRotatedDimension
  0
DIMENSION
  5
116
100
AcDbEntity
  8
Dimensions
  6
ByLayer
 62
  256
370
   -1
100
AcDbDimension
  2
*D4
 10
171.320116
 20
72.566035
 30
0
 11
167.570116
 21
75.816035
 31
0
 70
   32
 71
    5
  3
ISO-25
 53
0
210
0
220
0
230
1
100
AcDbAlignedDimension
 13
163.820116
 23
89.258841
 33
0
 14
171.320116
 24
81.758841
 34
0
 50
180
100
AcDbRotatedDimension
  0
DIMENSION
  5
117
100
AcDbEntity
  8
Dimensions
  6
ByLayer
 62
  256
370
   -1
100
AcDbDimension
  2
*D5
 10
51.806903
 20
154.258841
 30
0
 11
48.556903
 21
158.008841
 31
0
 70
   32
 71
    5
  3
ISO-25
 53
0
210
0
220
0
230
1
100
AcDbAlignedDimension
 13
66.320116
 23
161.758841
 33
0
 14
73.820116
 24
154.258841
 34
0
 50
270
100
AcDbRotatedDimension
  0
DIMENSION
  5
118
100
AcDbEntity
  8
Dimensions
  6
ByLayer
 62
  256
370
   -1
100
AcDbDimension
  2
*D6
 10
51.965568
 20
81.758841
 30
0
 11
48.715568
 21
85.508841
 31
0
 70
   32
 71
    5
  3
ISO-25
 53
0
210
0
220
0
230
1
100
AcDbAlignedDimension
 13
73.820116
 23
89.258841
 33
0
 14
66.320116
 24
81.758841
 34
0
 50
90
100
AcDbRotatedDimension
  0
DIMENSION
  5
119
100
AcDbEntity
  8
Dimensions
  6
ByLayer
 62
  256
370
   -1
100
AcDbDimension
  2
*D7
 10
51.959039
 20
89.258841
 30
0
 11
48.709039
 21
121.758841
 31
0
 70
   32
 71
    5
  3
ISO-25
 53
0
210
0
220
0
230
1
100
AcDbAlignedDimension
 13
73.820116
 23
154.258841
 33
0
 14
73.820116
 24
89.258841
 34
0
 50
270
100
AcDbRotatedDimension
  0
DIMENSION
  5
11A
100
AcDbEntity
  8
Dimensions
  6
ByLayer
 62
  256
370
   -1
100
AcDbDimension
  2
*D8
 10
163.820116
 20
72.687504
 30
0
 11
118.820116
 21
75.937504
 31
0
 70
   32
 71
    5
  3
ISO-25
 53
0
210
0
220
0
230
1
100
AcDbAlignedDimension
 13
73.820116
 23
89.258841
 33
0
 14
163.820116
 24
89.258841
 34
0
100
AcDbRotatedDimension
  0
DIMENSION
  5
11B
100
AcDbEntity
  8
Dimensions
  6
ByLayer
 62
  256
370
   -1
100
AcDbDimension
  2
*D9
 10
181.219611
 20
159.758841
 30
0
 11
177.969611
 21
160.758841
 31
0
 70
   32
 71
    5
  3
ISO-25
 53
0
210
0
220
0
230
1
100
AcDbAlignedDimension
 13
171.320116
 23
161.758841
 33
0
 14
169.070116
 24
159.758841
 34
0
 50
90
100
AcDbRotatedDimension
  0
DIMENSION
  5
11C
100
AcDbEntity
  8
Dimensions
  6
ByLayer
 62
  256
370
   -1
100
AcDbDimension
  2
*D10
 10
223.428589
 20
179.75447
 30
0
 11
221.928589
 21
183.00447
 31
0
 70
   32
 71
    5
  3
ISO-25
 53
0
210
0
220
0
230
1
100
AcDbAlignedDimension
 13
220.428589
 23
161.758841
 33
0
 14
223.428589
 24
159.758841
 34
0
 50
180
100
AcDbRotatedDimension
  0
DIMENSION
  5
11D
100
AcDbEntity
  8
Dimensions
  6
ByLayer
 62
  256
370
   -1
100
AcDbDimension
  2
*D11
 10
223.428589
 20
171.734169
 30
0
 11
223.178589
 21
174.984169
 31
0
 70
   32
 71
    5
  3
ISO-25
 53
0
210
0
220
0
230
1
100
AcDbAlignedDimension
 13
222.928589
 23
159.758841
 33
0
 14
223.428589
 24
159.758841
 34
0
 50
180
100
AcDbRotatedDimension
  0
DIMENSION
  5
11E
100
AcDbEntity
  8
Dimensions
  6
ByLayer
 62
  256
370
   -1
100
AcDbDimension
  2
*D12
 10
210.415432
 20
154.258841
 30
0
 11
207.165432
 21
158.008841
 31
0
 70
   33
 71
    5
  3
ISO-25
 53
0
210
0
220
0
230
1
100
AcDbAlignedDimension
 13
220.428589
 23
161.758841
 33
0
 14
220.428589
 24
154.258841
 34
0
  0
DIMENSION
  5
11F
100
AcDbEntity
  8
Dimensions
  6
ByLayer
 62
  256
370
   -1
100
AcDbDimension
  2
*D13
 10
210.529094
 20
89.258841
 30
0
 11
207.279094
 21
121.758841
 31
0
 70
   33
 71
    5
  3
ISO-25
 53
0
210
0
220
0
230
1
100
AcDbAlignedDimension
 13
220.428589
 23
154.258841
 33
0
 14
220.428589
 24
89.258841
 34
0
  0
DIMENSION
  5
120
100
AcDbEntity
  8
Dimensions
  6
ByLayer
 62
  256
370
   -1
100
AcDbDimension
  2
*D14
 10
210.51581
 20
81.758841
 30
0
 11
207.26581
 21
85.508841
 31
0
 70
   33
 71
    5
  3
ISO-25
 53
0
210
0
220
0
230
1
100
AcDbAlignedDimension
 13
220.428589
 23
89.258841
 33
0
 14
220.428589
 24
81.758841
 34
0
  0
DIMENSION
  5
121
100
AcDbEntity
  8
Dimensions
  6
ByLayer
 62
  256
370
   -1
100
AcDbDimension
  2
*D15
 10
233.328084
 20
159.758841
 30
0
 11
230.078084
 21
160.758841
 31
0
 70
   32
 71
    5
  3
ISO-25
 53
0
210
0
220
0
230
1
100
AcDbAlignedDimension
 13
223.428589
 23
161.758841
 33
0
 14
223.428589
 24
159.758841
 34
0
 50
90
100
AcDbRotatedDimension
  0
DIMENSION
  5
122
100
AcDbEntity
  8
Dimensions
  6
ByLayer
 62
  256
370
   -1
100
AcDbDimension
  2
*D16
 10
171.320116
 20
170.532636
 30
0
 11
170.195116
 21
173.782636
 31
0
 70
   32
 71
    5
  3
ISO-25
 53
0
210
0
220
0
230
1
100
AcDbAlignedDimension
 13
169.070116
 23
159.758841
 33
0
 14
171.320116
 24
161.758841
 34
0
100
AcDbRotatedDimension
  0
LINE
  5
123
100
AcDbEntity
  8
Visible
  6
ByLayer
 62
  256
370
   -1
100
AcDbLine
 10
111.9250275752756
 20
88.72472609506839
 11
111.9250275752756
 21
12.72472609506841
  0
LINE
  5
124
100
AcDbEntity
  8
Visible
  6
ByLayer
 62
  256
370
   -1
100
AcDbLine
 10
9.175027575275621
 20
88.72472609506839
 11
111.9250275752756
 21
88.72472609506839
  0
LINE
  5
125
100
AcDbEntity
  8
Visible
  6
ByLayer
 62
  256
370
   -1
100
AcDbLine
 10
111.9250275752756
 20
12.72472609506841
 11
9.175027575275621
 21
12.72472609506841
  0
LINE
  5
126
100
AcDbEntity
  8
Visible
  6
ByLayer
 62
  256
370
   -1
100
AcDbLine
 10
106.6750275752756
 20
18.22472609506841
 11
106.6750275752756
 21
83.22472609506839
  0
LINE
  5
127
100
AcDbEntity
  8
Visible
  6
ByLayer
 62
  256
370
   -1
100
AcDbLine
 10
16.67502757527562
 20
18.22472609506841
 11
106.6750275752756
 21
18.22472609506841
  0
LINE
  5
128
100
AcDbEntity
  8
Visible
  6
ByLayer
 62
  256
370
   -1
100
AcDbLine
 10
16.67502757527562
 20
83.22472609506839
 11
16.67502757527562
 21
18.22472609506841
  0
LINE
  5
129
100
AcDbEntity
  8
Visible
  6
ByLayer
 62
  256
370
   -1
100
AcDbLine
 10
106.6750275752756
 20
83.22472609506839
 11
16.67502757527562
 21
83.22472609506839
  0
LINE
  5
12A
100
AcDbEntity
  8
Visible
  6
ByLayer
 62
  256
370
   -1
100
AcDbLine
 10
9.175027575275621
 20
12.72472609506841
 11
9.175027575275621
 21
88.72472609506839
  0
LINE
  5
12B
100
AcDbEntity
  8
Visible
  6
ByLayer
 62
  256
370
   -1
100
AcDbLine
 10
9.175027575275621
 20
90.72472609506839
 11
9.175027575275621
 21
88.72472609506839
  0
LINE
  5
12C
100
AcDbEntity
  8
Visible
  6
ByLayer
 62
  256
370
   -1
100
AcDbLine
 10
9.175027575275621
 20
12.72472609506841
 11
9.175027575275621
 21
10.72472609506841
  0
LINE
  5
12D
100
AcDbEntity
  8
Visible
  6
ByLayer
 62
  256
370
   -1
100
AcDbLine
 10
9.175027575275621
 20
10.72472609506841
 11
114.1750275752756
 21
10.72472609506841
  0
LINE
  5
12E
100
AcDbEntity
  8
Visible
  6
ByLayer
 62
  256
370
   -1
100
AcDbLine
 10
114.1750275752756
 20
10.72472609506841
 11
114.1750275752756
 21
90.72472609506839
  0
LINE
  5
12F
100
AcDbEntity
  8
Visible
  6
ByLayer
 62
  256
370
   -1
100
AcDbLine
 10
114.1750275752756
 20
90.72472609506839
 11
9.175027575275621
 21
90.72472609506839
  0
LINE
  5
130
100
AcDbEntity
  8
Visible
  6
ByLayer
 62
  256
370
   -1
100
AcDbLine
 10
111.9250275752756
 20
179.619933857885
 11
111.9250275752756
 21
103.619933857885
  0
LINE
  5
131
100
AcDbEntity
  8
Visible
  6
ByLayer
 62
  256
370
   -1
100
AcDbLine
 10
9.175027575275621
 20
179.619933857885
 11
111.9250275752756
 21
179.619933857885
  0
LINE
  5
132
100
AcDbEntity
  8
Visible
  6
ByLayer
 62
  256
370
   -1
100
AcDbLine
 10
111.9250275752756
 20
103.619933857885
 11
9.175027575275621
 21
103.619933857885
  0
LINE
  5
133
100
AcDbEntity
  8
Visible
  6
ByLayer
 62
  256
370
   -1
100
AcDbLine
 10
106.6750275752756
 20
109.119933857885
 11
106.6750275752756
 21
174.119933857885
  0
LINE
  5
134
100
AcDbEntity
  8
Visible
  6
ByLayer
 62
  256
370
   -1
100
AcDbLine
 10
16.67502757527562
 20
109.119933857885
 11
106.6750275752756
 21
109.119933857885
  0
LINE
  5
135
100
AcDbEntity
  8
Visible
  6
ByLayer
 62
  256
370
   -1
100
AcDbLine
 10
16.67502757527562
 20
174.119933857885
 11
16.67502757527562
 21
109.119933857885
  0
LINE
  5
136
100
AcDbEntity
  8
Visible
  6
ByLayer
 62
  256
370
   -1
100
AcDbLine
 10
106.6750275752756
 20
174.119933857885
 11
16.67502757527562
 21
174.119933857885
  0
LINE
  5
137
100
AcDbEntity
  8
Visible
  6
ByLayer
 62
  256
370
   -1
100
AcDbLine
 10
9.175027575275621
 20
103.619933857885
 11
9.175027575275621
 21
179.619933857885
  0
LINE
  5
138
100
AcDbEntity
  8
Visible
  6
ByLayer
 62
  256
370
   -1
100
AcDbLine
 10
9.175027575275621
 20
181.619933857885
 11
9.175027575275621
 21
179.619933857885
  0
LINE
  5
139
100
AcDbEntity
  8
Visible
  6
ByLayer
 62
  256
370
   -1
100
AcDbLine
 10
9.175027575275621
 20
103.619933857885
 11
9.175027575275621
 21
101.619933857885
  0
LINE
  5
13A
100
AcDbEntity
  8
Visible
  6
ByLayer
 62
  256
370
   -1
100
AcDbLine
 10
9.175027575275621
 20
101.619933857885
 11
114.1750275752756
 21
101.619933857885
  0
LINE
  5
13B
100
AcDbEntity
  8
Visible
  6
ByLayer
 62
  256
370
   -1
100
AcDbLine
 10
114.1750275752756
 20
101.619933857885
 11
114.1750275752756
 21
181.619933857885
  0
LINE
  5
13C
100
AcDbEntity
  8
Visible
  6
ByLayer
 62
  256
370
   -1
100
AcDbLine
 10
114.1750275752756
 20
181.619933857885
 11
9.175027575275621
 21
181.619933857885
  0
LINE
  5
13D
100
AcDbEntity
  8
Visible
  6
ByLayer
 62
  256
370
   -1
100
AcDbLine
 10
111.9250275752756
 20
270.1316175373142
 11
111.9250275752756
 21
194.1316175373142
  0
LINE
  5
13E
100
AcDbEntity
  8
Visible
  6
ByLayer
 62
  256
370
   -1
100
AcDbLine
 10
9.175027575275621
 20
270.1316175373142
 11
111.9250275752756
 21
270.1316175373142
  0
LINE
  5
13F
100
AcDbEntity
  8
Visible
  6
ByLayer
 62
  256
370
   -1
100
AcDbLine
 10
111.9250275752756
 20
194.1316175373142
 11
9.175027575275621
 21
194.1316175373142
  0
LINE
  5
140
100
AcDbEntity
  8
Visible
  6
ByLayer
 62
  256
370
   -1
100
AcDbLine
 10
106.6750275752756
 20
199.6316175373142
 11
106.6750275752756
 21
264.6316175373142
  0
LINE
  5
141
100
AcDbEntity
  8
Visible
  6
ByLayer
 62
  256
370
   -1
100
AcDbLine
 10
16.67502757527562
 20
199.6316175373142
 11
106.6750275752756
 21
199.6316175373142
  0
LINE
  5
142
100
AcDbEntity
  8
Visible
  6
ByLayer
 62
  256
370
   -1
100
AcDbLine
 10
16.67502757527562
 20
264.6316175373142
 11
16.67502757527562
 21
199.6316175373142
  0
LINE
  5
143
100
AcDbEntity
  8
Visible
  6
ByLayer
 62
  256
370
   -1
100
AcDbLine
 10
106.6750275752756
 20
264.6316175373142
 11
16.67502757527562
 21
264.6316175373142
  0
LINE
  5
144
100
AcDbEntity
  8
Visible
  6
ByLayer
 62
  256
370
   -1
100
AcDbLine
 10
9.175027575275621
 20
194.1316175373142
 11
9.175027575275621
 21
270.1316175373142
  0
LINE
  5
145
100
AcDbEntity
  8
Visible
  6
ByLayer
 62
  256
370
   -1
100
AcDbLine
 10
9.175027575275621
 20
272.1316175373142
 11
9.175027575275621
 21
270.1316175373142
  0
LINE
  5
146
100
AcDbEntity
  8
Visible
  6
ByLayer
 62
  256
370
   -1
100
AcDbLine
 10
9.175027575275621
 20
194.1316175373142
 11
9.175027575275621
 21
192.1316175373142
  0
LINE
  5
147
100
AcDbEntity
  8
Visible
  6
ByLayer
 62
  256
370
   -1
100
AcDbLine
 10
9.175027575275621
 20
192.1316175373142
 11
114.1750275752756
 21
192.1316175373142
  0
LINE
  5
148
100
AcDbEntity
  8
Visible
  6
ByLayer
 62
  256
370
   -1
100
AcDbLine
 10
114.1750275752756
 20
192.1316175373142
 11
114.1750275752756
 21
272.1316175373142
  0
LINE
  5
149
100
AcDbEntity
  8
Visible
  6
ByLayer
 62
  256
370
   -1
100
AcDbLine
 10
114.1750275752756
 20
272.1316175373142
 11
9.175027575275621
 21
272.1316175373142
  0
ENDSEC
  0
SECTION
  2
OBJECTS
  0
DICTIONARY
  5
C
330
0
100
AcDbDictionary
281
    1
  3
ACAD_GROUP
350
D
  0
DICTIONARY
  5
D
330
C
100
AcDbDictionary
281
    1
  0
ENDSEC
  0
EOF
