999
dxfrw 0.6.3
  0
SECTION
  2
HEADER
  9
$ACADVER
  1
AC1021
  9
$DWGCODEPAGE
  3
ANSI_1252
  9
$INSBASE
 10
0
 20
0
 30
0
  9
$EXTMIN
 10
-73.38488853105933
 20
-61.29272629999824
 30
0
  9
$EXTMAX
 10
65.06684052456956
 20
50.05885999820581
 30
0
  9
$LIMMIN
 10
0
 20
0
  9
$LIMMAX
 10
420
 20
297
  9
$ORTHOMODE
 70
    0
  9
$REGENMODE
 70
    1
  9
$FILLMODE
 70
    1
  9
$QTEXTMODE
 70
    0
  9
$MIRRTEXT
 70
    0
  9
$LTSCALE
 40
1
  9
$ATTMODE
 70
    0
  9
$TEXTSIZE
 40
2.5
  9
$TRACEWID
 40
15.68
  9
$TEXTSTYLE
  7
STANDARD
  9
$CLAYER
  8
Dimensions
  9
$CELTYPE
  6
BYLAYER
  9
$CECOLOR
 62
  256
  9
$CELTSCALE
 40
1
  9
$DISPSILH
 70
    0
  9
$DIMSCALE
 40
1
  9
$DIMASZ
 40
2.5
  9
$DIMEXO
 40
0.625
  9
$DIMDLI
 40
3.75
  9
$DIMRND
 40
0
  9
$DIMDLE
 40
0
  9
$DIMEXE
 40
1.25
  9
$DIMTP
 40
0
  9
$DIMTM
 40
0
  9
$DIMTXT
 40
2.5
  9
$DIMCEN
 40
2.5
  9
$DIMTSZ
 40
0
  9
$DIMTOL
 70
    0
  9
$DIMLIM
 70
    0
  9
$DIMTIH
 70
    0
  9
$DIMTOH
 70
    0
  9
$DIMSE1
 70
    0
  9
$DIMSE2
 70
    0
  9
$DIMTAD
 70
    1
  9
$DIMZIN
 70
    8
  9
$DIMBLK
  1

  9
$DIMASO
 70
    1
  9
$DIMSHO
 70
    1
  9
$DIMPOST
  1

  9
$DIMAPOST
  1

  9
$DIMALT
 70
    0
  9
$DIMALTD
 70
    3
  9
$DIMALTF
 40
0.03937
  9
$DIMLFAC
 40
1
  9
$DIMTOFL
 70
    1
  9
$DIMTVP
 40
0
  9
$DIMTIX
 70
    0
  9
$DIMSOXD
 70
    0
  9
$DIMSAH
 70
    0
  9
$DIMBLK1
  1

  9
$DIMBLK2
  1

  9
$DIMSTYLE
  2
STANDARD
  9
$DIMCLRD
 70
    0
  9
$DIMCLRE
 70
    0
  9
$DIMCLRT
 70
    0
  9
$DIMTFAC
 40
1
  9
$DIMGAP
 40
0.625
  9
$DIMJUST
 70
    0
  9
$DIMSD1
 70
    0
  9
$DIMSD2
 70
    0
  9
$DIMTOLJ
 70
    0
  9
$DIMTZIN
 70
    8
  9
$DIMALTZ
 70
    0
  9
$DIMALTTZ
 70
    0
  9
$DIMUPT
 70
    0
  9
$DIMDEC
 70
    2
  9
$DIMTDEC
 70
    2
  9
$DIMALTU
 70
    2
  9
$DIMALTTD
 70
    3
  9
$DIMTXSTY
  7
standard
  9
$DIMAUNIT
 70
    0
  9
$DIMADEC
 70
    0
  9
$DIMALTRND
 40
0
  9
$DIMAZIN
 70
    0
  9
$DIMDSEP
 70
   44
  9
$DIMATFIT
 70
    3
  9
$DIMFRAC
 70
    0
  9
$DIMLDRBLK
  1
STANDARD
  9
$DIMLUNIT
 70
    2
  9
$DIMLWD
 70
   -2
  9
$DIMLWE
 70
   -2
  9
$DIMTMOVE
 70
    0
  9
$DIMFXL
 40
1
  9
$DIMFXLON
 70
    0
  9
$DIMJOGANG
 40
0.7854
  9
$DIMTFILL
 70
    0
  9
$DIMTFILLCLR
 70
    0
  9
$DIMARCSYM
 70
    0
  9
$DIMLTYPE
  6

  9
$DIMLTEX1
  6

  9
$DIMLTEX2
  6

  9
$LUNITS
 70
    2
  9
$LUPREC
 70
    0
  9
$SKETCHINC
 40
1
  9
$FILLETRAD
 40
0
  9
$AUNITS
 70
    0
  9
$AUPREC
 70
    0
  9
$MENU
  1
.
  9
$ELEVATION
 40
0
  9
$PELEVATION
 40
0
  9
$THICKNESS
 40
0
  9
$LIMCHECK
 70
    0
  9
$CHAMFERA
 40
0
  9
$CHAMFERB
 40
0
  9
$CHAMFERC
 40
0
  9
$CHAMFERD
 40
0
  9
$SKPOLY
 70
    0
  9
$USRTIMER
 70
    1
  9
$ANGBASE
 50
0
  9
$ANGDIR
 70
    0
  9
$PDMODE
 70
   34
  9
$PDSIZE
 40
0
  9
$PLINEWID
 40
0
  9
$SPLFRAME
 70
    0
  9
$SPLINETYPE
 70
    2
  9
$SPLINESEGS
 70
    8
  9
$HANDSEED
  5
20000
  9
$SURFTAB1
 70
    6
  9
$SURFTAB2
 70
    6
  9
$SURFTYPE
 70
    6
  9
$SURFU
 70
    6
  9
$SURFV
 70
    6
  9
$UCSBASE
  2

  9
$UCSNAME
  2

  9
$UCSORG
 10
0
 20
0
 30
0
  9
$UCSXDIR
 10
1
 20
0
 30
0
  9
$UCSYDIR
 10
0
 20
1
 30
0
  9
$UCSORTHOREF
  2

  9
$UCSORTHOVIEW
 70
    0
  9
$UCSORGTOP
 10
0
 20
0
 30
0
  9
$UCSORGBOTTOM
 10
0
 20
0
 30
0
  9
$UCSORGLEFT
 10
0
 20
0
 30
0
  9
$UCSORGRIGHT
 10
0
 20
0
 30
0
  9
$UCSORGFRONT
 10
0
 20
0
 30
0
  9
$UCSORGBACK
 10
0
 20
0
 30
0
  9
$PUCSBASE
  2

  9
$PUCSNAME
  2

  9
$PUCSORG
 10
0
 20
0
 30
0
  9
$PUCSXDIR
 10
1
 20
0
 30
0
  9
$PUCSYDIR
 10
0
 20
1
 30
0
  9
$PUCSORTHOREF
  2

  9
$PUCSORTHOVIEW
 70
    0
  9
$PUCSORGTOP
 10
0
 20
0
 30
0
  9
$PUCSORGBOTTOM
 10
0
 20
0
 30
0
  9
$PUCSORGLEFT
 10
0
 20
0
 30
0
  9
$PUCSORGRIGHT
 10
0
 20
0
 30
0
  9
$PUCSORGFRONT
 10
0
 20
0
 30
0
  9
$PUCSORGBACK
 10
0
 20
0
 30
0
  9
$USERI1
 70
    0
  9
$USERI2
 70
    0
  9
$USERI3
 70
    0
  9
$USERI4
 70
    0
  9
$USERI5
 70
    0
  9
$USERR1
 40
0
  9
$USERR2
 40
0
  9
$USERR3
 40
0
  9
$USERR4
 40
0
  9
$USERR5
 40
0
  9
$WORLDVIEW
 70
    1
  9
$SHADEDGE
 70
    3
  9
$SHADEDIF
 70
   70
  9
$TILEMODE
 70
    1
  9
$MAXACTVP
 70
   64
  9
$PINSBASE
 10
0
 20
0
 30
0
  9
$PLIMCHECK
 70
    0
  9
$PEXTMIN
 10
0
 20
0
 30
0
  9
$PEXTMAX
 10
0
 20
0
 30
0
  9
$GRIDMODE
 70
    1
  9
$SNAPSTYLE
 70
    0
  9
$GRIDUNIT
 10
0
 20
0
  9
$PLIMMIN
 10
0
 20
0
  9
$PLIMMAX
 10
210
 20
297
  9
$UNITMODE
 70
    0
  9
$VISRETAIN
 70
    1
  9
$PLINEGEN
 70
    0
  9
$PSLTSCALE
 70
    1
  9
$TREEDEPTH
 70
 3020
  9
$CMLSTYLE
  2
Standard
  9
$CMLJUST
 70
    0
  9
$CMLSCALE
 40
20
  9
$PROXYGRAPHICS
 70
    1
  9
$MEASUREMENT
 70
    1
  9
$CELWEIGHT
370
   -1
  9
$ENDCAPS
280
    0
  9
$JOINSTYLE
280
    0
  9
$LWDISPLAY
290
    0
  9
$INSUNITS
 70
    4
  9
$HYPERLINKBASE
  1

  9
$STYLESHEET
  1

  9
$XEDIT
290
    1
  9
$CEPSNTYPE
380
    0
  9
$PSTYLEMODE
290
    1
  9
$EXTNAMES
290
    1
  9
$PSVPSCALE
 40
1
  9
$OLESTARTUP
290
    0
  9
$SORTENTS
280
  127
  9
$INDEXCTL
280
    0
  9
$HIDETEXT
280
    1
  9
$XCLIPFRAME
290
    0
  9
$HALOGAP
280
    0
  9
$OBSCOLOR
 70
  257
  9
$OBSLTYPE
280
    0
  9
$INTERSECTIONDISPLAY
280
    0
  9
$INTERSECTIONCOLOR
 70
  257
  9
$DIMASSOC
280
    1
  9
$PROJECTNAME
  1

  9
$CAMERADISPLAY
290
    0
  9
$LENSLENGTH
 40
50
  9
$CAMERAHEIGHT
 40
0
  9
$STEPSPERSEC
 40
2
  9
$STEPSIZE
 40
50
  9
$3DDWFPREC
 40
2
  9
$PSOLWIDTH
 40
5
  9
$PSOLHEIGHT
 40
80
  9
$LOFTANG1
 40
1.570796326794897
  9
$LOFTANG2
 40
1.570796326794897
  9
$LOFTMAG1
 40
0
  9
$LOFTMAG2
 40
0
  9
$LOFTPARAM
 70
    7
  9
$LOFTNORMALS
280
    1
  9
$LATITUDE
 40
1
  9
$LONGITUDE
 40
1
  9
$NORTHDIRECTION
 40
0
  9
$TIMEZONE
 70
-8000
  9
$LIGHTGLYPHDISPLAY
280
    1
  9
$TILEMODELIGHTSYNCH
280
    1
  9
$SOLIDHIST
280
    1
  9
$SHOWHIST
280
    1
  9
$DWFFRAME
280
    2
  9
$DGNFRAME
280
    0
  9
$REALWORLDSCALE
290
    1
  9
$INTERFERECOLOR
 62
    1
  9
$CSHADOW
280
    0
  9
$SHADOWPLANELOCATION
 40
0
  0
ENDSEC
  0
SECTION
  2
CLASSES
  0
ENDSEC
  0
SECTION
  2
TABLES
  0
TABLE
  2
VPORT
  5
8
330
0
100
AcDbSymbolTable
 70
    1
  0
VPORT
  5
31
330
2
100
AcDbSymbolTableRecord
100
AcDbViewportTableRecord
  2
*ACTIVE
 70
    0
 10
0
 20
0
 11
1
 21
1
 12
58.36211304577472
 22
28.7625537565878
 13
0
 23
0
 14
10
 24
10
 15
10
 25
10
 16
0
 26
0
 36
1
 17
0
 27
0
 37
0
 40
130.5728630854621
 41
1.867132867132867
 42
50
 43
0
 44
0
 50
0
 51
0
 71
    0
 72
  100
 73
    1
 74
    3
 75
    0
 76
    1
 77
    0
 78
    0
281
    0
 65
    1
110
0
120
0
130
0
111
1
121
0
131
0
112
0
122
1
132
0
 79
    0
146
0
348
10020
 60
    7
 61
    5
292
1
282
    1
141
0
142
0
 63
  250
421
3358443
  0
ENDTAB
  0
TABLE
  2
LTYPE
  5
5
330
0
100
AcDbSymbolTable
 70
    4
  0
LTYPE
  5
14
330
5
100
AcDbSymbolTableRecord
100
AcDbLinetypeTableRecord
  2
ByBlock
 70
    0
  3

 72
   65
 73
    0
 40
0
  0
LTYPE
  5
15
330
5
100
AcDbSymbolTableRecord
100
AcDbLinetypeTableRecord
  2
ByLayer
 70
    0
  3

 72
   65
 73
    0
 40
0
  0
LTYPE
  5
16
330
5
100
AcDbSymbolTableRecord
100
AcDbLinetypeTableRecord
  2
Continuous
 70
    0
  3
Solid line
 72
   65
 73
    0
 40
0
  0
LTYPE
  5
32
330
5
100
AcDbSymbolTableRecord
100
AcDbLinetypeTableRecord
  2
DOT
 70
    0
  3
Dot . . . . . . . . . . . . . . . . . . . . . .
 72
   65
 73
    2
 40
6.35
 49
0
 74
    0
 49
-6.35
 74
    0
  0
LTYPE
  5
33
330
5
100
AcDbSymbolTableRecord
100
AcDbLinetypeTableRecord
  2
DOTTINY
 70
    0
  3
Dot (.15x) .....................................
 72
   65
 73
    2
 40
0.9525
 49
0
 74
    0
 49
-0.9525
 74
    0
  0
LTYPE
  5
34
330
5
100
AcDbSymbolTableRecord
100
AcDbLinetypeTableRecord
  2
DOT2
 70
    0
  3
Dot (.5x) .....................................
 72
   65
 73
    2
 40
3.175
 49
0
 74
    0
 49
-3.175
 74
    0
  0
LTYPE
  5
35
330
5
100
AcDbSymbolTableRecord
100
AcDbLinetypeTableRecord
  2
DOTX2
 70
    0
  3
Dot (2x) .  .  .  .  .  .  .  .  .  .  .  .  .
 72
   65
 73
    2
 40
12.7
 49
0
 74
    0
 49
-12.7
 74
    0
  0
LTYPE
  5
36
330
5
100
AcDbSymbolTableRecord
100
AcDbLinetypeTableRecord
  2
DASHED
 70
    0
  3
Dashed _ _ _ _ _ _ _ _ _ _ _ _ _ _ _ _ _
 72
   65
 73
    2
 40
19.05
 49
12.7
 74
    0
 49
-6.35
 74
    0
  0
LTYPE
  5
37
330
5
100
AcDbSymbolTableRecord
100
AcDbLinetypeTableRecord
  2
DASHEDTINY
 70
    0
  3
Dashed (.15x) _ _ _ _ _ _ _ _ _ _ _ _ _ _ _ _ _
 72
   65
 73
    2
 40
2.8575
 49
1.905
 74
    0
 49
-0.9525
 74
    0
  0
LTYPE
  5
38
330
5
100
AcDbSymbolTableRecord
100
AcDbLinetypeTableRecord
  2
DASHED2
 70
    0
  3
Dashed (.5x) _ _ _ _ _ _ _ _ _ _ _ _ _ _ _ _ _
 72
   65
 73
    2
 40
9.524999999999999
 49
6.35
 74
    0
 49
-3.175
 74
    0
  0
LTYPE
  5
39
330
5
100
AcDbSymbolTableRecord
100
AcDbLinetypeTableRecord
  2
DASHEDX2
 70
    0
  3
Dashed (2x) ____  ____  ____  ____  ____  ___
 72
   65
 73
    2
 40
38.09999999999999
 49
25.4
 74
    0
 49
-12.7
 74
    0
  0
LTYPE
  5
3A
330
5
100
AcDbSymbolTableRecord
100
AcDbLinetypeTableRecord
  2
DASHDOT
 70
    0
  3
Dash dot __ . __ . __ . __ . __ . __ . __ . __
 72
   65
 73
    4
 40
25.4
 49
12.7
 74
    0
 49
-6.35
 74
    0
 49
0
 74
    0
 49
-6.35
 74
    0
  0
LTYPE
  5
3B
330
5
100
AcDbSymbolTableRecord
100
AcDbLinetypeTableRecord
  2
DASHDOTTINY
 70
    0
  3
Dash dot (.15x) _._._._._._._._._._._._._._._.
 72
   65
 73
    4
 40
3.81
 49
1.905
 74
    0
 49
-0.9525
 74
    0
 49
0
 74
    0
 49
-0.9525
 74
    0
  0
LTYPE
  5
3C
330
5
100
AcDbSymbolTableRecord
100
AcDbLinetypeTableRecord
  2
DASHDOT2
 70
    0
  3
Dash dot (.5x) _._._._._._._._._._._._._._._.
 72
   65
 73
    4
 40
12.7
 49
6.35
 74
    0
 49
-3.175
 74
    0
 49
0
 74
    0
 49
-3.175
 74
    0
  0
LTYPE
  5
3D
330
5
100
AcDbSymbolTableRecord
100
AcDbLinetypeTableRecord
  2
DASHDOTX2
 70
    0
  3
Dash dot (2x) ____  .  ____  .  ____  .  ___
 72
   65
 73
    4
 40
50.8
 49
25.4
 74
    0
 49
-12.7
 74
    0
 49
0
 74
    0
 49
-12.7
 74
    0
  0
LTYPE
  5
3E
330
5
100
AcDbSymbolTableRecord
100
AcDbLinetypeTableRecord
  2
DIVIDE
 70
    0
  3
Divide ____ . . ____ . . ____ . . ____ . . ____
 72
   65
 73
    6
 40
31.75
 49
12.7
 74
    0
 49
-6.35
 74
    0
 49
0
 74
    0
 49
-6.35
 74
    0
 49
0
 74
    0
 49
-6.35
 74
    0
  0
LTYPE
  5
3F
330
5
100
AcDbSymbolTableRecord
100
AcDbLinetypeTableRecord
  2
DIVIDETINY
 70
    0
  3
Divide (.15x) __..__..__..__..__..__..__..__.._
 72
   65
 73
    6
 40
4.7625
 49
1.905
 74
    0
 49
-0.9525
 74
    0
 49
0
 74
    0
 49
-0.9525
 74
    0
 49
0
 74
    0
 49
-0.9525
 74
    0
  0
LTYPE
  5
40
330
5
100
AcDbSymbolTableRecord
100
AcDbLinetypeTableRecord
  2
DIVIDE2
 70
    0
  3
Divide (.5x) __..__..__..__..__..__..__..__.._
 72
   65
 73
    6
 40
15.875
 49
6.35
 74
    0
 49
-3.175
 74
    0
 49
0
 74
    0
 49
-3.175
 74
    0
 49
0
 74
    0
 49
-3.175
 74
    0
  0
LTYPE
  5
41
330
5
100
AcDbSymbolTableRecord
100
AcDbLinetypeTableRecord
  2
DIVIDEX2
 70
    0
  3
Divide (2x) ________  .  .  ________  .  .  _
 72
   65
 73
    6
 40
63.5
 49
25.4
 74
    0
 49
-12.7
 74
    0
 49
0
 74
    0
 49
-12.7
 74
    0
 49
0
 74
    0
 49
-12.7
 74
    0
  0
LTYPE
  5
42
330
5
100
AcDbSymbolTableRecord
100
AcDbLinetypeTableRecord
  2
BORDER
 70
    0
  3
Border __ __ . __ __ . __ __ . __ __ . __ __ .
 72
   65
 73
    6
 40
44.45
 49
12.7
 74
    0
 49
-6.35
 74
    0
 49
12.7
 74
    0
 49
-6.35
 74
    0
 49
0
 74
    0
 49
-6.35
 74
    0
  0
LTYPE
  5
43
330
5
100
AcDbSymbolTableRecord
100
AcDbLinetypeTableRecord
  2
BORDERTINY
 70
    0
  3
Border (.15x) __.__.__.__.__.__.__.__.__.__.__.
 72
   65
 73
    6
 40
6.6675
 49
1.905
 74
    0
 49
-0.9525
 74
    0
 49
1.905
 74
    0
 49
-0.9525
 74
    0
 49
0
 74
    0
 49
-0.9525
 74
    0
  0
LTYPE
  5
44
330
5
100
AcDbSymbolTableRecord
100
AcDbLinetypeTableRecord
  2
BORDER2
 70
    0
  3
Border (.5x) __.__.__.__.__.__.__.__.__.__.__.
 72
   65
 73
    6
 40
22.225
 49
6.35
 74
    0
 49
-3.175
 74
    0
 49
6.35
 74
    0
 49
-3.175
 74
    0
 49
0
 74
    0
 49
-3.175
 74
    0
  0
LTYPE
  5
45
330
5
100
AcDbSymbolTableRecord
100
AcDbLinetypeTableRecord
  2
BORDERX2
 70
    0
  3
Border (2x) ____  ____  .  ____  ____  .  ___
 72
   65
 73
    6
 40
88.89999999999999
 49
25.4
 74
    0
 49
-12.7
 74
    0
 49
25.4
 74
    0
 49
-12.7
 74
    0
 49
0
 74
    0
 49
-12.7
 74
    0
  0
LTYPE
  5
46
330
5
100
AcDbSymbolTableRecord
100
AcDbLinetypeTableRecord
  2
CENTER
 70
    0
  3
Center ____ _ ____ _ ____ _ ____ _ ____ _ ____
 72
   65
 73
    4
 40
50.8
 49
31.75
 74
    0
 49
-6.35
 74
    0
 49
6.35
 74
    0
 49
-6.35
 74
    0
  0
LTYPE
  5
47
330
5
100
AcDbSymbolTableRecord
100
AcDbLinetypeTableRecord
  2
CENTERTINY
 70
    0
  3
Center (.15x) ___ _ ___ _ ___ _ ___ _ ___ _ ___
 72
   65
 73
    4
 40
7.62
 49
4.7625
 74
    0
 49
-0.9525
 74
    0
 49
0.9525
 74
    0
 49
-0.9525
 74
    0
  0
LTYPE
  5
48
330
5
100
AcDbSymbolTableRecord
100
AcDbLinetypeTableRecord
  2
CENTER2
 70
    0
  3
Center (.5x) ___ _ ___ _ ___ _ ___ _ ___ _ ___
 72
   65
 73
    4
 40
28.575
 49
19.05
 74
    0
 49
-3.175
 74
    0
 49
3.175
 74
    0
 49
-3.175
 74
    0
  0
LTYPE
  5
49
330
5
100
AcDbSymbolTableRecord
100
AcDbLinetypeTableRecord
  2
CENTERX2
 70
    0
  3
Center (2x) ________  __  ________  __  _____
 72
   65
 73
    4
 40
101.6
 49
63.5
 74
    0
 49
-12.7
 74
    0
 49
12.7
 74
    0
 49
-12.7
 74
    0
  0
ENDTAB
  0
TABLE
  2
LAYER
  5
2
330
0
100
AcDbSymbolTable
 70
    1
  0
LAYER
  5
10
330
2
100
AcDbSymbolTableRecord
100
AcDbLayerTableRecord
  2
0
 70
    0
 62
    7
  6
CONTINUOUS
370
    0
390
F
  0
LAYER
  5
4A
330
2
100
AcDbSymbolTableRecord
100
AcDbLayerTableRecord
  2
Cutout
 70
    0
 62
    3
  6
DIVIDE2
370
   -3
390
F
  0
LAYER
  5
4B
330
2
100
AcDbSymbolTableRecord
100
AcDbLayerTableRecord
  2
Dimensions
 70
    0
 62
    1
  6
DIVIDE2
370
   -3
390
F
  0
ENDTAB
  0
TABLE
  2
STYLE
  5
3
330
0
100
AcDbSymbolTable
 70
    3
  0
STYLE
  5
4C
330
2
100
AcDbSymbolTableRecord
100
AcDbTextStyleTableRecord
  2
Standard
 70
    0
 40
0
 41
1
 50
0
 71
    0
 42
1
  3
txt
  4

  0
ENDTAB
  0
TABLE
  2
VIEW
  5
6
330
0
100
AcDbSymbolTable
 70
    0
  0
ENDTAB
  0
TABLE
  2
UCS
  5
7
330
0
100
AcDbSymbolTable
 70
    0
  0
ENDTAB
  0
TABLE
  2
APPID
  5
9
330
0
100
AcDbSymbolTable
 70
    1
  0
APPID
  5
12
330
9
100
AcDbSymbolTableRecord
100
AcDbRegAppTableRecord
  2
ACAD
 70
    0
  0
APPID
  5
4D
330
9
100
AcDbSymbolTableRecord
100
AcDbRegAppTableRecord
  2
LibreCad
 70
    0
  0
ENDTAB
  0
TABLE
  2
DIMSTYLE
  5
A
330
0
100
AcDbSymbolTable
 70
    1
100
AcDbDimStyleTable
 71
    1
  0
DIMSTYLE
105
4E
330
A
100
AcDbSymbolTableRecord
100
AcDbDimStyleTableRecord
  2
Standard
 70
    0
 40
1
 41
2.5
 42
0.625
 43
0.38
 44
1.25
 45
0
 46
0
 47
0
 48
0
 49
1
140
2.5
141
0.09
142
0
143
25.4
144
1
145
0
146
1
147
0.625
148
0
 71
    0
 72
    0
 73
    0
 74
    1
 75
    0
 76
    0
 77
    0
 78
    8
 79
    0
170
    0
171
    2
172
    0
173
    0
174
    0
175
    0
176
    0
177
    0
178
    0
179
    0
271
    2
272
    4
273
    2
274
    2
275
    0
276
    0
277
    2
278
   44
279
    0
280
    0
281
    0
282
    0
283
    1
284
    0
285
    0
286
    0
288
    0
289
    3
340
standard
341

371
   -2
372
   -2
  0
ENDTAB
  0
TABLE
  2
BLOCK_RECORD
  5
1
330
0
100
AcDbSymbolTable
 70
    2
  0
BLOCK_RECORD
  5
1F
330
1
100
AcDbSymbolTableRecord
100
AcDbBlockTableRecord
  2
*Model_Space
 70
    0
280
    1
281
    0
  0
BLOCK_RECORD
  5
1E
330
1
100
AcDbSymbolTableRecord
100
AcDbBlockTableRecord
  2
*Paper_Space
 70
    0
280
    1
281
    0
  0
BLOCK_RECORD
  5
4F
330
1
100
AcDbSymbolTableRecord
100
AcDbBlockTableRecord
  2
*D11
 70
    0
280
    1
281
    0
  0
BLOCK_RECORD
  5
52
330
1
100
AcDbSymbolTableRecord
100
AcDbBlockTableRecord
  2
*D1
 70
    0
280
    1
281
    0
  0
BLOCK_RECORD
  5
55
330
1
100
AcDbSymbolTableRecord
100
AcDbBlockTableRecord
  2
*D9
 70
    0
280
    1
281
    0
  0
BLOCK_RECORD
  5
58
330
1
100
AcDbSymbolTableRecord
100
AcDbBlockTableRecord
  2
*D13
 70
    0
280
    1
281
    0
  0
BLOCK_RECORD
  5
5B
330
1
100
AcDbSymbolTableRecord
100
AcDbBlockTableRecord
  2
*D7
 70
    0
280
    1
281
    0
  0
BLOCK_RECORD
  5
5E
330
1
100
AcDbSymbolTableRecord
100
AcDbBlockTableRecord
  2
*D2
 70
    0
280
    1
281
    0
  0
BLOCK_RECORD
  5
61
330
1
100
AcDbSymbolTableRecord
100
AcDbBlockTableRecord
  2
*D3
 70
    0
280
    1
281
    0
  0
BLOCK_RECORD
  5
64
330
1
100
AcDbSymbolTableRecord
100
AcDbBlockTableRecord
  2
*D10
 70
    0
280
    1
281
    0
  0
BLOCK_RECORD
  5
67
330
1
100
AcDbSymbolTableRecord
100
AcDbBlockTableRecord
  2
*D12
 70
    0
280
    1
281
    0
  0
BLOCK_RECORD
  5
6A
330
1
100
AcDbSymbolTableRecord
100
AcDbBlockTableRecord
  2
*D5
 70
    0
280
    1
281
    0
  0
BLOCK_RECORD
  5
6D
330
1
100
AcDbSymbolTableRecord
100
AcDbBlockTableRecord
  2
*D8
 70
    0
280
    1
281
    0
  0
BLOCK_RECORD
  5
70
330
1
100
AcDbSymbolTableRecord
100
AcDbBlockTableRecord
  2
*D4
 70
    0
280
    1
281
    0
  0
BLOCK_RECORD
  5
73
330
1
100
AcDbSymbolTableRecord
100
AcDbBlockTableRecord
  2
*D6
 70
    0
280
    1
281
    0
  0
ENDTAB
  0
ENDSEC
  0
SECTION
  2
BLOCKS
  0
BLOCK
  5
20
330
1F
100
AcDbEntity
  8
0
100
AcDbBlockBegin
  2
*Model_Space
 70
    0
 10
0
 20
0
 30
0
  3
*Model_Space
  1

  0
ENDBLK
  5
21
330
1F
100
AcDbEntity
  8
0
100
AcDbBlockEnd
  0
BLOCK
  5
1C
330
1B
100
AcDbEntity
  8
0
100
AcDbBlockBegin
  2
*Paper_Space
 70
    0
 10
0
 20
0
 30
0
  3
*Paper_Space
  1

  0
ENDBLK
  5
1D
330
1F
100
AcDbEntity
  8
0
100
AcDbBlockEnd
  0
BLOCK
  5
50
330
4F
100
AcDbEntity
  8
0
100
AcDbBlockBegin
  2
*D11
 70
    1
 10
0
 20
0
  3
*D11
  1

  0
LINE
  5
76
100
AcDbEntity
  8
Dimensions
  6
ByBlock
 62
    0
370
   -2
100
AcDbLine
 10
0.6250000000000001
 20
-31
 11
65.06684052456956
 21
-31.00000000000001
  0
LINE
  5
77
100
AcDbEntity
  8
Dimensions
  6
ByBlock
 62
    0
370
   -2
100
AcDbLine
 10
0.625
 20
-33.5
 11
65.06684052456956
 21
-33.50000000000001
  0
LINE
  5
78
100
AcDbEntity
  8
Dimensions
  6
ByBlock
 62
    0
370
   -2
100
AcDbLine
 10
63.81684052456955
 20
-26.00000000000001
 11
63.81684052456955
 21
-38.50000000000001
  0
SOLID
  5
79
100
AcDbEntity
  8
Dimensions
  6
ByBlock
 62
    0
370
   -2
100
AcDbTrace
 10
63.81684052456955
 20
-31.00000000000001
 30
0
 11
63.40055586679671
 21
-28.50000000000001
 31
0
 12
64.23312518234239
 22
-28.50000000000001
 32
0
 13
64.23312518234239
 23
-28.50000000000001
 33
0
  0
SOLID
  5
7A
100
AcDbEntity
  8
Dimensions
  6
ByBlock
 62
    0
370
   -2
100
AcDbTrace
 10
63.81684052456955
 20
-33.50000000000001
 30
0
 11
64.23312518234239
 21
-36.00000000000001
 31
0
 12
63.40055586679671
 22
-36.00000000000001
 32
0
 13
63.40055586679671
 23
-36.00000000000001
 33
0
  0
MTEXT
  5
7B
100
AcDbEntity
  8
Dimensions
  6
CONTINUOUS
 62
    0
370
   -2
100
AcDbMText
 10
61.94184052456955
 20
-28.36111111111104
 30
0
 40
2.5
 41
4.027777777777933
 71
    5
 72
    1
  1
2,5
  7
standard
210
0
220
0
230
1
 50
90
 73
    2
 44
1
  0
ENDBLK
  5
51
330
4F
100
AcDbEntity
  8
0
100
AcDbBlockEnd
  0
BLOCK
  5
53
330
52
100
AcDbEntity
  8
0
100
AcDbBlockBegin
  2
*D1
 70
    1
 10
0
 20
0
  3
*D1
  1

  0
LINE
  5
7C
100
AcDbEntity
  8
Cutout
  6
ByBlock
 62
    0
370
   -2
100
AcDbLine
 10
-28.72621298570349
 20
0.4419417382415917
 11
-49.85980976583085
 21
21.57553851836896
  0
LINE
  5
7D
100
AcDbEntity
  8
Cutout
  6
ByBlock
 62
    0
370
   -2
100
AcDbLine
 10
-0.4419417382415922
 20
28.72621298570349
 11
-21.57553851836895
 21
49.85980976583085
  0
LINE
  5
7E
100
AcDbEntity
  8
Cutout
  6
ByBlock
 62
    0
370
   -2
100
AcDbLine
 10
-48.97592628934767
 20
20.69165504188577
 11
-20.69165504188577
 21
48.97592628934767
  0
SOLID
  5
7F
100
AcDbEntity
  8
Cutout
  6
ByBlock
 62
    0
370
   -2
100
AcDbTrace
 10
-48.97592628934767
 20
20.69165504188577
 30
0
 11
-47.5025170407964
 21
22.75377969926724
 31
0
 12
-46.9138016319662
 22
22.16506429043704
 32
0
 13
-46.9138016319662
 23
22.16506429043704
 33
0
  0
SOLID
  5
80
100
AcDbEntity
  8
Cutout
  6
ByBlock
 62
    0
370
   -2
100
AcDbTrace
 10
-20.69165504188577
 20
48.97592628934767
 30
0
 11
-22.16506429043704
 21
46.9138016319662
 31
0
 12
-22.75377969926723
 22
47.5025170407964
 32
0
 13
-22.75377969926723
 23
47.5025170407964
 33
0
  0
MTEXT
  5
81
100
AcDbEntity
  8
Cutout
  6
CONTINUOUS
 62
    0
370
   -2
100
AcDbMText
 10
-36.15961588034149
 20
36.15961588034149
 30
0
 40
2.5
 41
3.333333333333333
 71
    5
 72
    1
  1
40
  7
standard
210
0
220
0
230
1
 50
45
 73
    2
 44
1
  0
ENDBLK
  5
54
330
52
100
AcDbEntity
  8
0
100
AcDbBlockEnd
  0
BLOCK
  5
56
330
55
100
AcDbEntity
  8
0
100
AcDbBlockBegin
  2
*D9
 70
    1
 10
0
 20
0
  3
*D9
  1

  0
LINE
  5
82
100
AcDbEntity
  8
Dimensions
  6
ByBlock
 62
    0
370
   -2
100
AcDbLine
 10
-20.125
 20
21.5
 11
-71.24266380114079
 21
21.50000000000001
  0
LINE
  5
83
100
AcDbEntity
  8
Dimensions
  6
ByBlock
 62
    0
370
   -2
100
AcDbLine
 10
-20.125
 20
19.5
 11
-71.24266380114079
 21
19.50000000000001
  0
LINE
  5
84
100
AcDbEntity
  8
Dimensions
  6
ByBlock
 62
    0
370
   -2
100
AcDbLine
 10
-69.99266380114079
 20
26.50000000000001
 11
-69.99266380114079
 21
14.50000000000001
  0
SOLID
  5
85
100
AcDbEntity
  8
Dimensions
  6
ByBlock
 62
    0
370
   -2
100
AcDbTrace
 10
-69.99266380114079
 20
21.50000000000001
 30
0
 11
-70.40894845891363
 21
24.00000000000001
 31
0
 12
-69.57637914336796
 22
24.00000000000001
 32
0
 13
-69.57637914336796
 23
24.00000000000001
 33
0
  0
SOLID
  5
86
100
AcDbEntity
  8
Dimensions
  6
ByBlock
 62
    0
370
   -2
100
AcDbTrace
 10
-69.99266380114079
 20
19.50000000000001
 30
0
 11
-69.57637914336796
 21
17.00000000000001
 31
0
 12
-70.40894845891363
 22
17.00000000000001
 32
0
 13
-70.40894845891363
 23
17.00000000000001
 33
0
  0
MTEXT
  5
87
100
AcDbEntity
  8
Dimensions
  6
CONTINUOUS
 62
    0
370
   -2
100
AcDbMText
 10
-71.86766380114079
 20
20.50000000000001
 30
0
 40
2.5
 41
1.111111111111111
 71
    5
 72
    1
  1
2
  7
standard
210
0
220
0
230
1
 50
90
 73
    2
 44
1
  0
ENDBLK
  5
57
330
55
100
AcDbEntity
  8
0
100
AcDbBlockEnd
  0
BLOCK
  5
59
330
58
100
AcDbEntity
  8
0
100
AcDbBlockBegin
  2
*D13
 70
    1
 10
0
 20
0
  3
*D13
  1

  0
LINE
  5
88
100
AcDbEntity
  8
Dimensions
  6
ByBlock
 62
    0
370
   -2
100
AcDbLine
 10
-0.6250000000000004
 20
-36
 11
-71.50988853105933
 21
-35.99999999999999
  0
LINE
  5
89
100
AcDbEntity
  8
Dimensions
  6
ByBlock
 62
    0
370
   -2
100
AcDbLine
 10
-0.6250000000000013
 20
-40.5
 11
-71.50988853105933
 21
-40.49999999999999
  0
LINE
  5
8A
100
AcDbEntity
  8
Dimensions
  6
ByBlock
 62
    0
370
   -2
100
AcDbLine
 10
-70.25988853105933
 20
-30.99999999999999
 11
-70.25988853105933
 21
-45.49999999999999
  0
SOLID
  5
8B
100
AcDbEntity
  8
Dimensions
  6
ByBlock
 62
    0
370
   -2
100
AcDbTrace
 10
-70.25988853105933
 20
-35.99999999999999
 30
0
 11
-70.67617318883217
 21
-33.49999999999999
 31
0
 12
-69.8436038732865
 22
-33.49999999999999
 32
0
 13
-69.8436038732865
 23
-33.49999999999999
 33
0
  0
SOLID
  5
8C
100
AcDbEntity
  8
Dimensions
  6
ByBlock
 62
    0
370
   -2
100
AcDbTrace
 10
-70.25988853105933
 20
-40.49999999999999
 30
0
 11
-69.8436038732865
 21
-42.99999999999999
 31
0
 12
-70.67617318883217
 22
-42.99999999999999
 32
0
 13
-70.67617318883217
 23
-42.99999999999999
 33
0
  0
MTEXT
  5
8D
100
AcDbEntity
  8
Dimensions
  6
CONTINUOUS
 62
    0
370
   -2
100
AcDbMText
 10
-72.13488853105933
 20
-38.24999999999999
 30
0
 40
2.5
 41
4.30555555555571
 71
    5
 72
    1
  1
4,5
  7
standard
210
0
220
0
230
1
 50
90
 73
    2
 44
1
  0
ENDBLK
  5
5A
330
58
100
AcDbEntity
  8
0
100
AcDbBlockEnd
  0
BLOCK
  5
5C
330
5B
100
AcDbEntity
  8
0
100
AcDbBlockBegin
  2
*D7
 70
    1
 10
0
 20
0
  3
*D7
  1

  0
LINE
  5
8E
100
AcDbEntity
  8
Dimensions
  6
ByBlock
 62
    0
370
   -2
100
AcDbLine
 10
20.125
 20
21.5
 11
61.29272629999824
 21
21.5
  0
LINE
  5
8F
100
AcDbEntity
  8
Dimensions
  6
ByBlock
 62
    0
370
   -2
100
AcDbLine
 10
20.125
 20
19.5
 11
61.29272629999824
 21
19.5
  0
LINE
  5
90
100
AcDbEntity
  8
Dimensions
  6
ByBlock
 62
    0
370
   -2
100
AcDbLine
 10
60.04272629999824
 20
26.5
 11
60.04272629999824
 21
14.5
  0
SOLID
  5
91
100
AcDbEntity
  8
Dimensions
  6
ByBlock
 62
    0
370
   -2
100
AcDbTrace
 10
60.04272629999824
 20
21.5
 30
0
 11
59.6264416422254
 21
24
 31
0
 12
60.45901095777108
 22
24
 32
0
 13
60.45901095777108
 23
24
 33
0
  0
SOLID
  5
92
100
AcDbEntity
  8
Dimensions
  6
ByBlock
 62
    0
370
   -2
100
AcDbTrace
 10
60.04272629999824
 20
19.5
 30
0
 11
60.45901095777108
 21
17
 31
0
 12
59.6264416422254
 22
17
 32
0
 13
59.6264416422254
 23
17
 33
0
  0
MTEXT
  5
93
100
AcDbEntity
  8
Dimensions
  6
CONTINUOUS
 62
    0
370
   -2
100
AcDbMText
 10
58.16772629999824
 20
20.49999999999999
 30
0
 40
2.5
 41
1.111111111111111
 71
    5
 72
    1
  1
2
  7
standard
210
0
220
0
230
1
 50
90
 73
    2
 44
1
  0
ENDBLK
  5
5D
330
5B
100
AcDbEntity
  8
0
100
AcDbBlockEnd
  0
BLOCK
  5
5F
330
5E
100
AcDbEntity
  8
0
100
AcDbBlockBegin
  2
*D2
 70
    1
 10
0
 20
0
  3
*D2
  1

  0
LINE
  5
94
100
AcDbEntity
  8
Cutout
  6
ByBlock
 62
    0
370
   -2
100
AcDbLine
 10
28.72621298570349
 20
-0.4419417382415918
 11
50.12521007566411
 21
-21.84093882820223
  0
LINE
  5
95
100
AcDbEntity
  8
Cutout
  6
ByBlock
 62
    0
370
   -2
100
AcDbLine
 10
0.4419417382415921
 20
-28.72621298570349
 11
21.84093882820222
 21
-50.12521007566412
  0
LINE
  5
96
100
AcDbEntity
  8
Cutout
  6
ByBlock
 62
    0
370
   -2
100
AcDbLine
 10
49.24132659918093
 20
-20.95705535171904
 11
20.95705535171903
 21
-49.24132659918094
  0
SOLID
  5
97
100
AcDbEntity
  8
Cutout
  6
ByBlock
 62
    0
370
   -2
100
AcDbTrace
 10
49.24132659918093
 20
-20.95705535171904
 30
0
 11
47.76791735062966
 21
-23.01918000910051
 31
0
 12
47.17920194179946
 22
-22.43046460027031
 32
0
 13
47.17920194179946
 23
-22.43046460027031
 33
0
  0
SOLID
  5
98
100
AcDbEntity
  8
Cutout
  6
ByBlock
 62
    0
370
   -2
100
AcDbTrace
 10
20.95705535171903
 20
-49.24132659918094
 30
0
 11
22.43046460027031
 21
-47.17920194179947
 31
0
 12
23.01918000910049
 22
-47.76791735062967
 32
0
 13
23.01918000910049
 23
-47.76791735062967
 33
0
  0
MTEXT
  5
99
100
AcDbEntity
  8
Cutout
  6
CONTINUOUS
 62
    0
370
   -2
100
AcDbMText
 10
33.77336576072521
 20
-33.77336576072521
 30
0
 40
2.5
 41
3.333333333333333
 71
    5
 72
    1
  1
40
  7
standard
210
0
220
0
230
1
 50
45
 73
    2
 44
1
  0
ENDBLK
  5
60
330
5E
100
AcDbEntity
  8
0
100
AcDbBlockEnd
  0
BLOCK
  5
62
330
61
100
AcDbEntity
  8
0
100
AcDbBlockBegin
  2
*D3
 70
    1
 10
0
 20
0
  3
*D3
  1

  0
LINE
  5
9A
100
AcDbEntity
  8
Cutout
  6
ByBlock
 62
    0
370
   -2
100
AcDbLine
 10
0.4419417382415922
 20
28.72621298570349
 11
21.77458875074391
 21
50.05885999820581
  0
LINE
  5
9B
100
AcDbEntity
  8
Cutout
  6
ByBlock
 62
    0
370
   -2
100
AcDbLine
 10
28.72621298570349
 20
0.4419417382415917
 11
50.05885999820581
 21
21.77458875074391
  0
LINE
  5
9C
100
AcDbEntity
  8
Cutout
  6
ByBlock
 62
    0
370
   -2
100
AcDbLine
 10
20.89070527426073
 20
49.17497652172263
 11
49.17497652172263
 21
20.89070527426072
  0
SOLID
  5
9D
100
AcDbEntity
  8
Cutout
  6
ByBlock
 62
    0
370
   -2
100
AcDbTrace
 10
20.89070527426073
 20
49.17497652172263
 30
0
 11
22.95282993164219
 21
47.70156727317136
 31
0
 12
22.364114522812
 22
47.11285186434116
 32
0
 13
22.364114522812
 23
47.11285186434116
 33
0
  0
SOLID
  5
9E
100
AcDbEntity
  8
Cutout
  6
ByBlock
 62
    0
370
   -2
100
AcDbTrace
 10
49.17497652172263
 20
20.89070527426072
 30
0
 11
47.11285186434116
 21
22.364114522812
 31
0
 12
47.70156727317136
 22
22.95282993164219
 32
0
 13
47.70156727317136
 23
22.95282993164219
 33
0
  0
MTEXT
  5
9F
100
AcDbEntity
  8
Cutout
  6
CONTINUOUS
 62
    0
370
   -2
100
AcDbMText
 10
36.35866611271646
 20
36.35866611271645
 30
0
 40
2.5
 41
3.333333333333333
 71
    5
 72
    1
  1
40
  7
standard
210
0
220
0
230
1
 50
315
 73
    2
 44
1
  0
ENDBLK
  5
63
330
61
100
AcDbEntity
  8
0
100
AcDbBlockEnd
  0
BLOCK
  5
65
330
64
100
AcDbEntity
  8
0
100
AcDbBlockBegin
  2
*D10
 70
    1
 10
0
 20
0
  3
*D10
  1

  0
LINE
  5
A0
100
AcDbEntity
  8
Dimensions
  6
ByBlock
 62
    0
370
   -2
100
AcDbLine
 10
-20.125
 20
-19.5
 11
-71.41421444771223
 21
-19.49999999999999
  0
LINE
  5
A1
100
AcDbEntity
  8
Dimensions
  6
ByBlock
 62
    0
370
   -2
100
AcDbLine
 10
-20.125
 20
-21.5
 11
-71.41421444771223
 21
-21.49999999999999
  0
LINE
  5
A2
100
AcDbEntity
  8
Dimensions
  6
ByBlock
 62
    0
370
   -2
100
AcDbLine
 10
-70.16421444771223
 20
-14.49999999999999
 11
-70.16421444771223
 21
-26.49999999999999
  0
SOLID
  5
A3
100
AcDbEntity
  8
Dimensions
  6
ByBlock
 62
    0
370
   -2
100
AcDbTrace
 10
-70.16421444771223
 20
-19.49999999999999
 30
0
 11
-70.58049910548506
 21
-16.99999999999999
 31
0
 12
-69.74792978993939
 22
-16.99999999999999
 32
0
 13
-69.74792978993939
 23
-16.99999999999999
 33
0
  0
SOLID
  5
A4
100
AcDbEntity
  8
Dimensions
  6
ByBlock
 62
    0
370
   -2
100
AcDbTrace
 10
-70.16421444771223
 20
-21.49999999999999
 30
0
 11
-69.74792978993939
 21
-23.99999999999999
 31
0
 12
-70.58049910548506
 22
-23.99999999999999
 32
0
 13
-70.58049910548506
 23
-23.99999999999999
 33
0
  0
MTEXT
  5
A5
100
AcDbEntity
  8
Dimensions
  6
CONTINUOUS
 62
    0
370
   -2
100
AcDbMText
 10
-72.03921444771223
 20
-20.49999999999999
 30
0
 40
2.5
 41
1.111111111111111
 71
    5
 72
    1
  1
2
  7
standard
210
0
220
0
230
1
 50
90
 73
    2
 44
1
  0
ENDBLK
  5
66
330
64
100
AcDbEntity
  8
0
100
AcDbBlockEnd
  0
BLOCK
  5
68
330
67
100
AcDbEntity
  8
0
100
AcDbBlockBegin
  2
*D12
 70
    1
 10
0
 20
0
  3
*D12
  1

  0
LINE
  5
A6
100
AcDbEntity
  8
Dimensions
  6
ByBlock
 62
    0
370
   -2
100
AcDbLine
 10
-6.954656568139181
 20
-30.82954288661255
 11
-6.954656568139184
 21
-47.21422404061146
  0
LINE
  5
A7
100
AcDbEntity
  8
Dimensions
  6
ByBlock
 62
    0
370
   -2
100
AcDbLine
 10
6.95465656813917
 20
-30.82954288661255
 11
6.954656568139168
 21
-47.21422404061146
  0
LINE
  5
A8
100
AcDbEntity
  8
Dimensions
  6
ByBlock
 62
    0
370
   -2
100
AcDbLine
 10
-6.954656568139184
 20
-45.96422404061146
 11
6.954656568139168
 21
-45.96422404061146
  0
SOLID
  5
A9
100
AcDbEntity
  8
Dimensions
  6
ByBlock
 62
    0
370
   -2
100
AcDbTrace
 10
-6.954656568139184
 20
-45.96422404061146
 30
0
 11
-4.454656568139184
 21
-45.54793938283862
 31
0
 12
-4.454656568139184
 22
-46.3805086983843
 32
0
 13
-4.454656568139184
 23
-46.3805086983843
 33
0
  0
SOLID
  5
AA
100
AcDbEntity
  8
Dimensions
  6
ByBlock
 62
    0
370
   -2
100
AcDbTrace
 10
6.954656568139168
 20
-45.96422404061146
 30
0
 11
4.454656568139168
 21
-46.3805086983843
 31
0
 12
4.454656568139168
 22
-45.54793938283862
 32
0
 13
4.454656568139168
 23
-45.54793938283862
 33
0
  0
MTEXT
  5
AB
100
AcDbEntity
  8
Dimensions
  6
CONTINUOUS
 62
    0
370
   -2
100
AcDbMText
 10
-5.754237012009153e-015
 20
-44.08922404061146
 30
0
 40
2.5
 41
2.777777777777778
 71
    5
 72
    1
  1
14
  7
standard
210
0
220
0
230
1
 50
0
 73
    2
 44
1
  0
ENDBLK
  5
69
330
67
100
AcDbEntity
  8
0
100
AcDbBlockEnd
  0
BLOCK
  5
6B
330
6A
100
AcDbEntity
  8
0
100
AcDbBlockBegin
  2
*D5
 70
    1
 10
0
 20
0
  3
*D5
  1

  0
LINE
  5
AC
100
AcDbEntity
  8
Cutout
  6
ByBlock
 62
    0
370
   -2
100
AcDbLine
 10
-0.625
 20
28.2842712474619
 11
-61.23047002231908
 21
28.28427124746191
  0
LINE
  5
AD
100
AcDbEntity
  8
Cutout
  6
ByBlock
 62
    0
370
   -2
100
AcDbLine
 10
-0.625
 20
-28.2842712474619
 11
-61.23047002231908
 21
-28.28427124746189
  0
LINE
  5
AE
100
AcDbEntity
  8
Cutout
  6
ByBlock
 62
    0
370
   -2
100
AcDbLine
 10
-59.98047002231908
 20
28.28427124746191
 11
-59.98047002231908
 21
-28.28427124746189
  0
SOLID
  5
AF
100
AcDbEntity
  8
Cutout
  6
ByBlock
 62
    0
370
   -2
100
AcDbTrace
 10
-59.98047002231908
 20
28.28427124746191
 30
0
 11
-59.56418536454624
 21
25.78427124746191
 31
0
 12
-60.39675468009192
 22
25.78427124746191
 32
0
 13
-60.39675468009192
 23
25.78427124746191
 33
0
  0
SOLID
  5
B0
100
AcDbEntity
  8
Cutout
  6
ByBlock
 62
    0
370
   -2
100
AcDbTrace
 10
-59.98047002231908
 20
-28.28427124746189
 30
0
 11
-60.39675468009192
 21
-25.78427124746189
 31
0
 12
-59.56418536454624
 22
-25.78427124746189
 32
0
 13
-59.56418536454624
 23
-25.78427124746189
 33
0
  0
MTEXT
  5
B1
100
AcDbEntity
  8
Cutout
  6
CONTINUOUS
 62
    0
370
   -2
100
AcDbMText
 10
-61.85547002231908
 20
7.335041048942698e-015
 30
0
 40
2.5
 41
7.916666666667131
 71
    5
 72
    1
  1
56,57
  7
standard
210
0
220
0
230
1
 50
90
 73
    2
 44
1
  0
ENDBLK
  5
6C
330
6A
100
AcDbEntity
  8
0
100
AcDbBlockEnd
  0
BLOCK
  5
6E
330
6D
100
AcDbEntity
  8
0
100
AcDbBlockBegin
  2
*D8
 70
    1
 10
0
 20
0
  3
*D8
  1

  0
LINE
  5
B2
100
AcDbEntity
  8
Dimensions
  6
ByBlock
 62
    0
370
   -2
100
AcDbLine
 10
20.125
 20
-19.5
 11
61.29272629999824
 21
-19.5
  0
LINE
  5
B3
100
AcDbEntity
  8
Dimensions
  6
ByBlock
 62
    0
370
   -2
100
AcDbLine
 10
20.125
 20
-21.5
 11
61.29272629999824
 21
-21.5
  0
LINE
  5
B4
100
AcDbEntity
  8
Dimensions
  6
ByBlock
 62
    0
370
   -2
100
AcDbLine
 10
60.04272629999824
 20
-14.5
 11
60.04272629999824
 21
-26.5
  0
SOLID
  5
B5
100
AcDbEntity
  8
Dimensions
  6
ByBlock
 62
    0
370
   -2
100
AcDbTrace
 10
60.04272629999824
 20
-19.5
 30
0
 11
59.6264416422254
 21
-17
 31
0
 12
60.45901095777108
 22
-17
 32
0
 13
60.45901095777108
 23
-17
 33
0
  0
SOLID
  5
B6
100
AcDbEntity
  8
Dimensions
  6
ByBlock
 62
    0
370
   -2
100
AcDbTrace
 10
60.04272629999824
 20
-21.5
 30
0
 11
60.45901095777108
 21
-24
 31
0
 12
59.6264416422254
 22
-24
 32
0
 13
59.6264416422254
 23
-24
 33
0
  0
MTEXT
  5
B7
100
AcDbEntity
  8
Dimensions
  6
CONTINUOUS
 62
    0
370
   -2
100
AcDbMText
 10
58.16772629999824
 20
-20.50000000000001
 30
0
 40
2.5
 41
1.111111111111111
 71
    5
 72
    1
  1
2
  7
standard
210
0
220
0
230
1
 50
90
 73
    2
 44
1
  0
ENDBLK
  5
6F
330
6D
100
AcDbEntity
  8
0
100
AcDbBlockEnd
  0
BLOCK
  5
71
330
70
100
AcDbEntity
  8
0
100
AcDbBlockBegin
  2
*D4
 70
    1
 10
0
 20
0
  3
*D4
  1

  0
LINE
  5
B8
100
AcDbEntity
  8
Cutout
  6
ByBlock
 62
    0
370
   -2
100
AcDbLine
 10
-28.72621298570349
 20
-0.4419417382415928
 11
-49.99250992074749
 21
-21.7082386732856
  0
LINE
  5
B9
100
AcDbEntity
  8
Cutout
  6
ByBlock
 62
    0
370
   -2
100
AcDbLine
 10
-0.4419417382415921
 20
-28.72621298570349
 11
-21.70823867328559
 21
-49.9925099207475
  0
LINE
  5
BA
100
AcDbEntity
  8
Cutout
  6
ByBlock
 62
    0
370
   -2
100
AcDbLine
 10
-49.1086264442643
 20
-20.82435519680241
 11
-20.8243551968024
 21
-49.10862644426432
  0
SOLID
  5
BB
100
AcDbEntity
  8
Cutout
  6
ByBlock
 62
    0
370
   -2
100
AcDbTrace
 10
-49.1086264442643
 20
-20.82435519680241
 30
0
 11
-47.04650178688284
 21
-22.29776444535369
 31
0
 12
-47.63521719571303
 22
-22.88647985418388
 32
0
 13
-47.63521719571303
 23
-22.88647985418388
 33
0
  0
SOLID
  5
BC
100
AcDbEntity
  8
Cutout
  6
ByBlock
 62
    0
370
   -2
100
AcDbTrace
 10
-20.8243551968024
 20
-49.10862644426432
 30
0
 11
-22.88647985418387
 21
-47.63521719571305
 31
0
 12
-22.29776444535367
 22
-47.04650178688285
 32
0
 13
-22.29776444535367
 23
-47.04650178688285
 33
0
  0
MTEXT
  5
BD
100
AcDbEntity
  8
Cutout
  6
CONTINUOUS
 62
    0
370
   -2
100
AcDbMText
 10
-33.64066560580859
 20
-33.64066560580857
 30
0
 40
2.5
 41
3.333333333333333
 71
    5
 72
    1
  1
40
  7
standard
210
0
220
0
230
1
 50
315
 73
    2
 44
1
  0
ENDBLK
  5
72
330
70
100
AcDbEntity
  8
0
100
AcDbBlockEnd
  0
BLOCK
  5
74
330
73
100
AcDbEntity
  8
0
100
AcDbBlockBegin
  2
*D6
 70
    1
 10
0
 20
0
  3
*D6
  1

  0
LINE
  5
BE
100
AcDbEntity
  8
Cutout
  6
ByBlock
 62
    0
370
   -2
100
AcDbLine
 10
-28.2842712474619
 20
-0.6249999999999996
 11
-28.28427124746191
 21
-61.29272629999824
  0
LINE
  5
BF
100
AcDbEntity
  8
Cutout
  6
ByBlock
 62
    0
370
   -2
100
AcDbLine
 10
28.2842712474619
 20
-0.625
 11
28.28427124746189
 21
-61.29272629999824
  0
LINE
  5
C0
100
AcDbEntity
  8
Cutout
  6
ByBlock
 62
    0
370
   -2
100
AcDbLine
 10
-28.28427124746191
 20
-60.04272629999824
 11
28.28427124746189
 21
-60.04272629999824
  0
SOLID
  5
C1
100
AcDbEntity
  8
Cutout
  6
ByBlock
 62
    0
370
   -2
100
AcDbTrace
 10
-28.28427124746191
 20
-60.04272629999824
 30
0
 11
-25.78427124746191
 21
-59.6264416422254
 31
0
 12
-25.78427124746191
 22
-60.45901095777108
 32
0
 13
-25.78427124746191
 23
-60.45901095777108
 33
0
  0
SOLID
  5
C2
100
AcDbEntity
  8
Cutout
  6
ByBlock
 62
    0
370
   -2
100
AcDbTrace
 10
28.28427124746189
 20
-60.04272629999824
 30
0
 11
25.78427124746189
 21
-60.45901095777108
 31
0
 12
25.78427124746189
 22
-59.6264416422254
 32
0
 13
25.78427124746189
 23
-59.6264416422254
 33
0
  0
MTEXT
  5
C3
100
AcDbEntity
  8
Cutout
  6
CONTINUOUS
 62
    0
370
   -2
100
AcDbMText
 10
-1.054333419073065e-014
 20
-58.16772629999824
 30
0
 40
2.5
 41
7.916666666667131
 71
    5
 72
    1
  1
56,57
  7
standard
210
0
220
0
230
1
 50
0
 73
    2
 44
1
  0
ENDBLK
  5
75
330
73
100
AcDbEntity
  8
0
100
AcDbBlockEnd
  0
ENDSEC
  0
SECTION
  2
ENTITIES
  0
ARC
  5
C4
100
AcDbEntity
  8
0
  6
ByLayer
 62
  256
370
   -1
100
AcDbCircle
 10
0
 20
0
 40
0
100
AcDbArc
 50
0
 51
0
  0
CIRCLE
  5
C5
100
AcDbEntity
  8
0
  6
ByLayer
 62
  256
370
   -1
100
AcDbCircle
 10
-19.5
 20
19.5
 40
2
  0
CIRCLE
  5
C6
100
AcDbEntity
  8
0
  6
ByLayer
 62
  256
370
   -1
100
AcDbCircle
 10
19.5
 20
19.5
 40
2
  0
CIRCLE
  5
C7
100
AcDbEntity
  8
0
  6
ByLayer
 62
  256
370
   -1
100
AcDbCircle
 10
19.5
 20
-19.5
 40
2
  0
CIRCLE
  5
C8
100
AcDbEntity
  8
0
  6
ByLayer
 62
  256
370
   -1
100
AcDbCircle
 10
-19.5
 20
-19.5
 40
2
  0
CIRCLE
  5
C9
100
AcDbEntity
  8
0
  6
ByLayer
 62
  256
370
   -1
100
AcDbCircle
 10
0
 20
-33.5
 40
2.5
  0
LINE
  5
CA
100
AcDbEntity
  8
0
  6
ByLayer
 62
  256
370
   -1
100
AcDbLine
 10
-28.2842712474619
 20
0
 11
0
 21
28.2842712474619
  0
LINE
  5
CB
100
AcDbEntity
  8
0
  6
ByLayer
 62
  256
370
   -1
100
AcDbLine
 10
0
 20
28.2842712474619
 11
28.2842712474619
 21
0
  0
LINE
  5
CC
100
AcDbEntity
  8
0
  6
ByLayer
 62
  256
370
   -1
100
AcDbLine
 10
28.2842712474619
 20
0
 11
0
 21
-28.2842712474619
  0
LINE
  5
CD
100
AcDbEntity
  8
0
  6
ByLayer
 62
  256
370
   -1
100
AcDbLine
 10
0
 20
-28.2842712474619
 11
-28.2842712474619
 21
0
  0
ARC
  5
CE
100
AcDbEntity
  8
Dimensions
  6
ByLayer
 62
  256
370
   -1
100
AcDbCircle
 10
0
 20
0
 40
30.99486504197071
100
AcDbArc
 50
282.9664771582142
 51
257.0335228417858
  0
ARC
  5
CF
100
AcDbEntity
  8
Dimensions
  6
ByLayer
 62
  256
370
   -1
100
AcDbCircle
 10
0
 20
0
 40
30.99486504197071
100
AcDbArc
 50
282.9664771582142
 51
257.0335228417858
  0
ARC
  5
D0
100
AcDbEntity
  8
0
  6
ByLayer
 62
  256
370
   -1
100
AcDbCircle
 10
0
 20
0
 40
30.99486504197071
100
AcDbArc
 50
282.9664771582142
 51
257.0335228417858
  0
ARC
  5
D1
100
AcDbEntity
  8
0
  6
ByLayer
 62
  256
370
   -1
100
AcDbCircle
 10
0
 20
-33.5
 40
7
100
AcDbArc
 50
173.475
 51
6.525
  0
LINE
  5
D2
100
AcDbEntity
  8
0
  6
ByLayer
 62
  256
370
   -1
100
AcDbLine
 10
-6.954656568139181
 20
-30.20454288661255
 11
-6.95465656813917
 21
-32.70454288661255
  0
LINE
  5
D3
100
AcDbEntity
  8
0
  6
ByLayer
 62
  256
370
   -1
100
AcDbLine
 10
6.95465656813917
 20
-30.20454288661255
 11
6.954656568139171
 21
-32.70454288661255
  0
DIMENSION
  5
D4
100
AcDbEntity
  8
Cutout
  6
ByLayer
 62
  256
370
   -1
100
AcDbDimension
  2
*D1
 10
-20.69165504188577
 20
48.97592628934768
 30
0
 11
-36.15961588034149
 21
36.15961588034149
 31
0
 70
   33
 71
    5
  3
Standard
 53
0
210
0
220
0
230
1
100
AcDbAlignedDimension
 13
-28.2842712474619
 23
-4.975230478454213e-016
 33
0
 14
0
 24
28.2842712474619
 34
0
  0
DIMENSION
  5
D5
100
AcDbEntity
  8
Cutout
  6
ByLayer
 62
  256
370
   -1
100
AcDbDimension
  2
*D2
 10
20.95705535171903
 20
-49.24132659918094
 30
0
 11
33.77336576072521
 21
-33.77336576072521
 31
0
 70
   33
 71
    5
  3
Standard
 53
0
210
0
220
0
230
1
100
AcDbAlignedDimension
 13
28.2842712474619
 23
4.975230478454213e-016
 33
0
 14
0
 24
-28.2842712474619
 34
0
  0
DIMENSION
  5
D6
100
AcDbEntity
  8
Cutout
  6
ByLayer
 62
  256
370
   -1
100
AcDbDimension
  2
*D3
 10
49.17497652172263
 20
20.89070527426072
 30
0
 11
36.35866611271646
 21
36.35866611271645
 31
0
 70
   33
 71
    5
  3
Standard
 53
0
210
0
220
0
230
1
100
AcDbAlignedDimension
 13
0
 23
28.2842712474619
 33
0
 14
28.2842712474619
 24
-4.975230478454213e-016
 34
0
  0
DIMENSION
  5
D7
100
AcDbEntity
  8
Cutout
  6
ByLayer
 62
  256
370
   -1
100
AcDbDimension
  2
*D4
 10
-20.8243551968024
 20
-49.10862644426432
 30
0
 11
-33.64066560580859
 21
-33.64066560580857
 31
0
 70
   33
 71
    5
  3
Standard
 53
0
210
0
220
0
230
1
100
AcDbAlignedDimension
 13
-28.2842712474619
 23
-4.975230478454213e-016
 33
0
 14
0
 24
-28.2842712474619
 34
0
  0
DIMENSION
  5
D8
100
AcDbEntity
  8
Cutout
  6
ByLayer
 62
  256
370
   -1
100
AcDbDimension
  2
*D5
 10
-59.98047002231908
 20
-28.2842712474619
 30
0
 11
-61.85547002231908
 21
7.335041048942698e-015
 31
0
 70
   33
 71
    5
  3
Standard
 53
0
210
0
220
0
230
1
100
AcDbAlignedDimension
 13
0
 23
28.2842712474619
 33
0
 14
0
 24
-28.2842712474619
 34
0
  0
DIMENSION
  5
D9
100
AcDbEntity
  8
Cutout
  6
ByLayer
 62
  256
370
   -1
100
AcDbDimension
  2
*D6
 10
28.2842712474619
 20
-60.04272629999824
 30
0
 11
-1.054333419073065e-014
 21
-58.16772629999824
 31
0
 70
   33
 71
    5
  3
Standard
 53
0
210
0
220
0
230
1
100
AcDbAlignedDimension
 13
-28.2842712474619
 23
4.975230478454213e-016
 33
0
 14
28.2842712474619
 24
0
 34
0
  0
DIMENSION
  5
DA
100
AcDbEntity
  8
Dimensions
  6
ByLayer
 62
  256
370
   -1
100
AcDbDimension
  2
*D7
 10
60.04272629999824
 20
19.5
 30
0
 11
58.16772629999824
 21
20.49999999999999
 31
0
 70
   33
 71
    5
  3
Standard
 53
0
210
0
220
0
230
1
100
AcDbAlignedDimension
 13
19.5
 23
21.5
 33
0
 14
19.5
 24
19.5
 34
0
  0
DIMENSION
  5
DB
100
AcDbEntity
  8
Dimensions
  6
ByLayer
 62
  256
370
   -1
100
AcDbDimension
  2
*D8
 10
60.04272629999824
 20
-21.5
 30
0
 11
58.16772629999824
 21
-20.50000000000001
 31
0
 70
   33
 71
    5
  3
Standard
 53
0
210
0
220
0
230
1
100
AcDbAlignedDimension
 13
19.5
 23
-19.5
 33
0
 14
19.5
 24
-21.5
 34
0
  0
DIMENSION
  5
DC
100
AcDbEntity
  8
Dimensions
  6
ByLayer
 62
  256
370
   -1
100
AcDbDimension
  2
*D9
 10
-69.99266380114079
 20
19.5
 30
0
 11
-71.86766380114079
 21
20.50000000000001
 31
0
 70
   33
 71
    5
  3
Standard
 53
0
210
0
220
0
230
1
100
AcDbAlignedDimension
 13
-19.5
 23
21.5
 33
0
 14
-19.5
 24
19.5
 34
0
  0
DIMENSION
  5
DD
100
AcDbEntity
  8
Dimensions
  6
ByLayer
 62
  256
370
   -1
100
AcDbDimension
  2
*D10
 10
-70.16421444771223
 20
-21.5
 30
0
 11
-72.03921444771223
 21
-20.49999999999999
 31
0
 70
   33
 71
    5
  3
Standard
 53
0
210
0
220
0
230
1
100
AcDbAlignedDimension
 13
-19.5
 23
-19.5
 33
0
 14
-19.5
 24
-21.5
 34
0
  0
DIMENSION
  5
DE
100
AcDbEntity
  8
Dimensions
  6
ByLayer
 62
  256
370
   -1
100
AcDbDimension
  2
*D11
 10
63.81684052456955
 20
-33.50000000000001
 30
0
 11
61.94184052456955
 21
-32.25000000000001
 31
0
 70
   33
 71
    5
  3
Standard
 53
0
210
0
220
0
230
1
100
AcDbAlignedDimension
 13
1.530757942277972e-016
 23
-31
 33
0
 14
0
 24
-33.5
 34
0
  0
DIMENSION
  5
DF
100
AcDbEntity
  8
Dimensions
  6
ByLayer
 62
  256
370
   -1
100
AcDbDimension
  2
*D12
 10
6.954656568139171
 20
-45.96422404061146
 30
0
 11
-5.754237012009153e-015
 21
-44.08922404061146
 31
0
 70
   33
  1
14
 71
    5
  3
Standard
 53
0
210
0
220
0
230
1
100
AcDbAlignedDimension
 13
-6.954656568139181
 23
-30.20454288661255
 33
0
 14
6.95465656813917
 24
-30.20454288661255
 34
0
  0
DIMENSION
  5
E0
100
AcDbEntity
  8
Dimensions
  6
ByLayer
 62
  256
370
   -1
100
AcDbDimension
  2
*D13
 10
-70.25988853105933
 20
-40.49999999999999
 30
0
 11
-72.13488853105933
 21
-38.24999999999999
 31
0
 70
   33
 71
    5
  3
Standard
 53
0
210
0
220
0
230
1
100
AcDbAlignedDimension
 13
-4.592273826833915e-016
 23
-36
 33
0
 14
-1.285836671513496e-015
 24
-40.5
 34
0
  0
ENDSEC
  0
SECTION
  2
OBJECTS
  0
DICTIONARY
  5
C
330
0
100
AcDbDictionary
281
    1
  3
ACAD_GROUP
350
D
  0
DICTIONARY
  5
D
330
C
100
AcDbDictionary
281
    1
  0
ENDSEC
  0
EOF
