  0
SECTION
  2
HEADER
  9
$ACADVER
  1
AC1014
  9
$ACADMAINTVER
 70
     9
  9
$DWGCODEPAGE
  3
ANSI_1252
  9
$INSBASE
 10
0.0
 20
0.0
 30
0.0
  9
$EXTMIN
 10
0.0
 20
0.0
 30
0.0
  9
$EXTMAX
 10
51.79714048639963
 20
26.33965590055594
 30
0.0
  9
$LIMMIN
 10
0.0
 20
0.0
  9
$LIMMAX
 10
12.0
 20
9.0
  9
$ORTHOMODE
 70
     0
  9
$REGENMODE
 70
     1
  9
$FILLMODE
 70
     1
  9
$QTEXTMODE
 70
     0
  9
$MIRRTEXT
 70
     0
  9
$DRAGMODE
 70
     2
  9
$LTSCALE
 40
1.0
  9
$OSMODE
 70
   511
  9
$ATTMODE
 70
     1
  9
$TEXTSIZE
 40
1.0
  9
$TRACEWID
 40
0.05
  9
$TEXTSTYLE
  7
STANDARD
  9
$CLAYER
  8
0
  9
$CELTYPE
  6
BYLAYER
  9
$CECOLOR
 62
   256
  9
$CELTSCALE
 40
1.0
  9
$DELOBJ
 70
     1
  9
$DISPSILH
 70
     0
  9
$DIMSCALE
 40
1.0
  9
$DIMASZ
 40
0.18
  9
$DIMEXO
 40
0.0625
  9
$DIMDLI
 40
0.38
  9
$DIMRND
 40
0.0
  9
$DIMDLE
 40
0.0
  9
$DIMEXE
 40
0.18
  9
$DIMTP
 40
0.0
  9
$DIMTM
 40
0.0
  9
$DIMTXT
 40
0.18
  9
$DIMCEN
 40
0.09
  9
$DIMTSZ
 40
0.0
  9
$DIMTOL
 70
     0
  9
$DIMLIM
 70
     0
  9
$DIMTIH
 70
     1
  9
$DIMTOH
 70
     1
  9
$DIMSE1
 70
     0
  9
$DIMSE2
 70
     0
  9
$DIMTAD
 70
     0
  9
$DIMZIN
 70
     0
  9
$DIMBLK
  1

  9
$DIMASO
 70
     1
  9
$DIMSHO
 70
     1
  9
$DIMPOST
  1

  9
$DIMAPOST
  1

  9
$DIMALT
 70
     0
  9
$DIMALTD
 70
     2
  9
$DIMALTF
 40
25.4
  9
$DIMLFAC
 40
1.0
  9
$DIMTOFL
 70
     0
  9
$DIMTVP
 40
0.0
  9
$DIMTIX
 70
     0
  9
$DIMSOXD
 70
     0
  9
$DIMSAH
 70
     0
  9
$DIMBLK1
  1

  9
$DIMBLK2
  1

  9
$DIMSTYLE
  2
STANDARD
  9
$DIMCLRD
 70
     0
  9
$DIMCLRE
 70
     0
  9
$DIMCLRT
 70
     0
  9
$DIMTFAC
 40
1.0
  9
$DIMGAP
 40
0.09
  9
$DIMJUST
 70
     0
  9
$DIMSD1
 70
     0
  9
$DIMSD2
 70
     0
  9
$DIMTOLJ
 70
     1
  9
$DIMTZIN
 70
     0
  9
$DIMALTZ
 70
     0
  9
$DIMALTTZ
 70
     0
  9
$DIMFIT
 70
     5
  9
$DIMUPT
 70
     0
  9
$DIMUNIT
 70
     2
  9
$DIMDEC
 70
     4
  9
$DIMTDEC
 70
     4
  9
$DIMALTU
 70
     2
  9
$DIMALTTD
 70
     2
  9
$DIMTXSTY
  7
STANDARD
  9
$DIMAUNIT
 70
     0
  9
$LUNITS
 70
     2
  9
$LUPREC
 70
     4
  9
$SKETCHINC
 40
0.1
  9
$FILLETRAD
 40
0.5
  9
$AUNITS
 70
     0
  9
$AUPREC
 70
     0
  9
$MENU
  1
.
  9
$ELEVATION
 40
0.0
  9
$PELEVATION
 40
0.0
  9
$THICKNESS
 40
0.0
  9
$LIMCHECK
 70
     0
  9
$CHAMFERA
 40
0.0
  9
$CHAMFERB
 40
0.0
  9
$CHAMFERC
 40
0.0
  9
$CHAMFERD
 40
0.0
  9
$SKPOLY
 70
     0
  9
$TDCREATE
 40
2452642.896717593
  9
$TDUPDATE
 40
2458107.32814228
  9
$TDINDWG
 40
0.0974539352
  9
$TDUSRTIMER
 40
0.0002715972
  9
$USRTIMER
 70
     1
  9
$ANGBASE
 50
0.0
  9
$ANGDIR
 70
     0
  9
$PDMODE
 70
     0
  9
$PDSIZE
 40
0.0
  9
$PLINEWID
 40
0.0
  9
$COORDS
 70
     1
  9
$SPLFRAME
 70
     0
  9
$SPLINETYPE
 70
     6
  9
$SPLINESEGS
 70
     8
  9
$ATTDIA
 70
     0
  9
$ATTREQ
 70
     1
  9
$HANDLING
 70
     1
  9
$HANDSEED
  5
D68
  9
$SURFTAB1
 70
     6
  9
$SURFTAB2
 70
     6
  9
$SURFTYPE
 70
     6
  9
$SURFU
 70
     6
  9
$SURFV
 70
     6
  9
$UCSNAME
  2

  9
$UCSORG
 10
0.0
 20
0.0
 30
0.0
  9
$UCSXDIR
 10
1.0
 20
0.0
 30
0.0
  9
$UCSYDIR
 10
0.0
 20
1.0
 30
0.0
  9
$PUCSNAME
  2

  9
$PUCSORG
 10
0.0
 20
0.0
 30
0.0
  9
$PUCSXDIR
 10
1.0
 20
0.0
 30
0.0
  9
$PUCSYDIR
 10
0.0
 20
1.0
 30
0.0
  9
$USERI1
 70
     0
  9
$USERI2
 70
     0
  9
$USERI3
 70
     0
  9
$USERI4
 70
     0
  9
$USERI5
 70
     0
  9
$USERR1
 40
0.0
  9
$USERR2
 40
0.0
  9
$USERR3
 40
0.0
  9
$USERR4
 40
0.0
  9
$USERR5
 40
0.0
  9
$WORLDVIEW
 70
     1
  9
$SHADEDGE
 70
     3
  9
$SHADEDIF
 70
    70
  9
$TILEMODE
 70
     1
  9
$MAXACTVP
 70
    64
  9
$PINSBASE
 10
0.0
 20
0.0
 30
0.0
  9
$PLIMCHECK
 70
     0
  9
$PEXTMIN
 10
0.0
 20
0.0
 30
0.0
  9
$PEXTMAX
 10
0.0
 20
0.0
 30
0.0
  9
$PLIMMIN
 10
0.0
 20
0.0
  9
$PLIMMAX
 10
0.0
 20
0.0
  9
$UNITMODE
 70
     0
  9
$VISRETAIN
 70
     1
  9
$PLINEGEN
 70
     0
  9
$PSLTSCALE
 70
     1
  9
$TREEDEPTH
 70
  3020
  9
$PICKSTYLE
 70
     1
  9
$CMLSTYLE
  2
STANDARD
  9
$CMLJUST
 70
     0
  9
$CMLSCALE
 40
1.0
  9
$PROXYGRAPHICS
 70
     1
  9
$MEASUREMENT
 70
     0
  0
ENDSEC
  0
SECTION
  2
CLASSES
  0
CLASS
  1
ACDBDICTIONARYWDFLT
  2
AcDbDictionaryWithDefault
  3
ObjectDBX Classes
 90
        0
280
     0
281
     0
  0
CLASS
  1
ACDBPLACEHOLDER
  2
AcDbPlaceHolder
  3
ObjectDBX Classes
 90
        0
280
     0
281
     0
  0
CLASS
  1
LAYOUT
  2
AcDbLayout
  3
ObjectDBX Classes
 90
        0
280
     0
281
     0
  0
CLASS
  1
DICTIONARYVAR
  2
AcDbDictionaryVar
  3
ObjectDBX Classes
 90
        0
280
     0
281
     0
  0
CLASS
  1
TABLESTYLE
  2
AcDbTableStyle
  3
ObjectDBX Classes
 90
     4095
280
     0
281
     0
  0
CLASS
  1
MATERIAL
  2
AcDbMaterial
  3
ObjectDBX Classes
 90
     1153
280
     0
281
     0
  0
CLASS
  1
VISUALSTYLE
  2
AcDbVisualStyle
  3
ObjectDBX Classes
 90
     4095
280
     0
281
     0
  0
CLASS
  1
SCALE
  2
AcDbScale
  3
ObjectDBX Classes
 90
     1153
280
     0
281
     0
  0
CLASS
  1
CELLSTYLEMAP
  2
AcDbCellStyleMap
  3
ObjectDBX Classes
 90
     1152
280
     0
281
     0
  0
CLASS
  1
RASTERVARIABLES
  2
AcDbRasterVariables
  3
ISM
 90
        0
280
     0
281
     0
  0
CLASS
  1
SUN
  2
AcDbSun
  3
SCENEOE
 90
     1153
280
     0
281
     0
  0
CLASS
  1
MLEADERSTYLE
  2
AcDbMLeaderStyle
  3
ACDB_MLEADERSTYLE_CLASS
 90
     4095
280
     0
281
     0
  0
CLASS
  1
XRECORD
  2
AcDbXrecord
  3
ObjectDBX Classes
 90
        0
280
     0
281
     0
  0
CLASS
  1
LWPOLYLINE
  2
AcDbPolyline
  3
ObjectDBX Classes
 90
        0
280
     0
281
     1
  0
CLASS
  1
HATCH
  2
AcDbHatch
  3
ObjectDBX Classes
 90
        0
280
     0
281
     1
  0
CLASS
  1
DIMASSOC
  2
AcDbDimAssoc
  3
"AcDbDimAssoc|Product Desc:     AcDim ARX App For Dimension|Company:          Autodesk, Inc.|WEB Address:      www.autodesk.com"
 90
        0
280
     0
281
     0
  0
ENDSEC
  0
SECTION
  2
TABLES
  0
TABLE
  2
VPORT
  5
8
330
0
100
AcDbSymbolTable
 70
     1
  0
VPORT
  5
94
330
8
100
AcDbSymbolTableRecord
100
AcDbViewportTableRecord
  2
*ACTIVE
 70
     0
 10
0.0
 20
0.0
 11
1.0
 21
1.0
 12
47.90160688264837
 22
31.61579515745019
 13
0.0
 23
0.0
 14
0.5
 24
0.5
 15
0.5
 25
0.5
 16
0.0
 26
0.0
 36
1.0
 17
-27.66959356597954
 27
-19.5387029578621
 37
0.0
 40
33.58306127320883
 41
2.674094707520891
 42
50.0
 43
0.0
 44
0.0
 50
0.0
 51
0.0
 71
    16
 72
  1000
 73
     1
 74
     0
 75
     0
 76
     0
 77
     0
 78
     0
  0
ENDTAB
  0
TABLE
  2
LTYPE
  5
5
330
0
100
AcDbSymbolTable
 70
     1
  0
LTYPE
  5
14
330
5
100
AcDbSymbolTableRecord
100
AcDbLinetypeTableRecord
  2
BYBLOCK
 70
     0
  3

 72
    65
 73
     0
 40
0.0
  0
LTYPE
  5
15
330
5
100
AcDbSymbolTableRecord
100
AcDbLinetypeTableRecord
  2
BYLAYER
 70
     0
  3

 72
    65
 73
     0
 40
0.0
  0
LTYPE
  5
16
330
5
100
AcDbSymbolTableRecord
100
AcDbLinetypeTableRecord
  2
CONTINUOUS
 70
     0
  3
Solid line
 72
    65
 73
     0
 40
0.0
  0
ENDTAB
  0
TABLE
  2
LAYER
  5
2
330
0
100
AcDbSymbolTable
 70
     2
  0
LAYER
  5
10
330
2
100
AcDbSymbolTableRecord
100
AcDbLayerTableRecord
  2
0
 70
     0
 62
     7
  6
CONTINUOUS
  0
LAYER
  5
137
330
2
100
AcDbSymbolTableRecord
100
AcDbLayerTableRecord
  2
DEFPOINTS
 70
     0
 62
     7
  6
CONTINUOUS
  0
ENDTAB
  0
TABLE
  2
STYLE
  5
3
330
0
100
AcDbSymbolTable
 70
     1
  0
STYLE
  5
11
330
3
100
AcDbSymbolTableRecord
100
AcDbTextStyleTableRecord
  2
STANDARD
 70
     0
 40
0.0
 41
1.0
 50
0.0
 71
     0
 42
1.0
  3
arial.ttf
  4

1001
ACAD
1000
Arial
1071
        0
  0
ENDTAB
  0
TABLE
  2
VIEW
  5
6
330
0
100
AcDbSymbolTable
 70
     0
  0
ENDTAB
  0
TABLE
  2
UCS
  5
7
330
0
100
AcDbSymbolTable
 70
     0
  0
ENDTAB
  0
TABLE
  2
APPID
  5
9
330
0
100
AcDbSymbolTable
 70
     1
  0
APPID
  5
12
330
9
100
AcDbSymbolTableRecord
100
AcDbRegAppTableRecord
  2
ACAD
 70
     0
  0
ENDTAB
  0
TABLE
  2
DIMSTYLE
  5
A
330
0
100
AcDbSymbolTable
 70
     1
  0
DIMSTYLE
105
27
102
{ACAD_REACTORS
330
A99
102
}
330
A
100
AcDbSymbolTableRecord
100
AcDbDimStyleTableRecord
  2
STANDARD
 70
     0
  3

  4

  5

  6

  7

 40
1.0
 41
0.18
 42
0.0625
 43
0.38
 44
0.18
 45
0.0
 46
0.0
 47
0.0
 48
0.0
140
0.18
141
0.09
142
0.0
143
25.4
144
1.0
145
0.0
146
1.0
147
0.09
 71
     0
 72
     0
 73
     1
 74
     1
 75
     0
 76
     0
 77
     0
 78
     0
170
     0
171
     2
172
     0
173
     0
174
     0
175
     0
176
     0
177
     0
178
     0
270
     2
271
     4
272
     4
273
     2
274
     2
340
11
275
     0
280
     0
281
     0
282
     0
283
     1
284
     0
285
     0
286
     0
287
     3
288
     0
  0
ENDTAB
  0
TABLE
  2
BLOCK_RECORD
  5
1
330
0
100
AcDbSymbolTable
 70
    34
  0
BLOCK_RECORD
  5
1F
330
1
100
AcDbSymbolTableRecord
100
AcDbBlockTableRecord
  2
*MODEL_SPACE
  0
BLOCK_RECORD
  5
58
330
1
100
AcDbSymbolTableRecord
100
AcDbBlockTableRecord
  2
*PAPER_SPACE
  0
BLOCK_RECORD
  5
5D
330
1
100
AcDbSymbolTableRecord
100
AcDbBlockTableRecord
  2
*PAPER_SPACE0
  0
BLOCK_RECORD
  5
13B
330
1
100
AcDbSymbolTableRecord
100
AcDbBlockTableRecord
  2
*D1
  0
BLOCK_RECORD
  5
14B
330
1
100
AcDbSymbolTableRecord
100
AcDbBlockTableRecord
  2
A$C14460
  0
BLOCK_RECORD
  5
173
330
1
100
AcDbSymbolTableRecord
100
AcDbBlockTableRecord
  2
A$C8087
  0
BLOCK_RECORD
  5
1C5
330
1
100
AcDbSymbolTableRecord
100
AcDbBlockTableRecord
  2
A$C19594
  0
BLOCK_RECORD
  5
1EE
330
1
100
AcDbSymbolTableRecord
100
AcDbBlockTableRecord
  2
A$C4606
  0
BLOCK_RECORD
  5
218
330
1
100
AcDbSymbolTableRecord
100
AcDbBlockTableRecord
  2
A$C17036
  0
BLOCK_RECORD
  5
242
330
1
100
AcDbSymbolTableRecord
100
AcDbBlockTableRecord
  2
A$C23219
  0
BLOCK_RECORD
  5
37D
330
1
100
AcDbSymbolTableRecord
100
AcDbBlockTableRecord
  2
A$C7150
  0
BLOCK_RECORD
  5
463
330
1
100
AcDbSymbolTableRecord
100
AcDbBlockTableRecord
  2
A$C27412
  0
BLOCK_RECORD
  5
497
330
1
100
AcDbSymbolTableRecord
100
AcDbBlockTableRecord
  2
A$C31348
  0
BLOCK_RECORD
  5
4EB
330
1
100
AcDbSymbolTableRecord
100
AcDbBlockTableRecord
  2
A$C23495
  0
BLOCK_RECORD
  5
540
330
1
100
AcDbSymbolTableRecord
100
AcDbBlockTableRecord
  2
A$C9452
  0
BLOCK_RECORD
  5
573
330
1
100
AcDbSymbolTableRecord
100
AcDbBlockTableRecord
  2
*D13
  0
BLOCK_RECORD
  5
583
330
1
100
AcDbSymbolTableRecord
100
AcDbBlockTableRecord
  2
*D14
  0
BLOCK_RECORD
  5
593
330
1
100
AcDbSymbolTableRecord
100
AcDbBlockTableRecord
  2
*D15
  0
BLOCK_RECORD
  5
5A3
330
1
100
AcDbSymbolTableRecord
100
AcDbBlockTableRecord
  2
*D16
  0
BLOCK_RECORD
  5
731
330
1
100
AcDbSymbolTableRecord
100
AcDbBlockTableRecord
  2
A$C8210
  0
BLOCK_RECORD
  5
807
330
1
100
AcDbSymbolTableRecord
100
AcDbBlockTableRecord
  2
*D18
  0
BLOCK_RECORD
  5
938
330
1
100
AcDbSymbolTableRecord
100
AcDbBlockTableRecord
  2
*D19
  0
BLOCK_RECORD
  5
948
330
1
100
AcDbSymbolTableRecord
100
AcDbBlockTableRecord
  2
*D20
  0
BLOCK_RECORD
  5
958
330
1
100
AcDbSymbolTableRecord
100
AcDbBlockTableRecord
  2
*D21
  0
BLOCK_RECORD
  5
968
330
1
100
AcDbSymbolTableRecord
100
AcDbBlockTableRecord
  2
*D22
  0
BLOCK_RECORD
  5
978
330
1
100
AcDbSymbolTableRecord
100
AcDbBlockTableRecord
  2
*D23
  0
BLOCK_RECORD
  5
988
330
1
100
AcDbSymbolTableRecord
100
AcDbBlockTableRecord
  2
*D24
  0
BLOCK_RECORD
  5
998
330
1
100
AcDbSymbolTableRecord
100
AcDbBlockTableRecord
  2
*D25
  0
BLOCK_RECORD
  5
9B8
330
1
100
AcDbSymbolTableRecord
100
AcDbBlockTableRecord
  2
*D26
  0
BLOCK_RECORD
  5
9C8
330
1
100
AcDbSymbolTableRecord
100
AcDbBlockTableRecord
  2
*D27
  0
BLOCK_RECORD
  5
9DA
330
1
100
AcDbSymbolTableRecord
100
AcDbBlockTableRecord
  2
*D28
  0
BLOCK_RECORD
  5
A43
330
1
100
AcDbSymbolTableRecord
100
AcDbBlockTableRecord
  2
*D29
  0
BLOCK_RECORD
  5
A54
330
1
100
AcDbSymbolTableRecord
100
AcDbBlockTableRecord
  2
*D30
  0
BLOCK_RECORD
  5
A64
330
1
100
AcDbSymbolTableRecord
100
AcDbBlockTableRecord
  2
*D31
  0
BLOCK_RECORD
  5
A9C
330
1
100
AcDbSymbolTableRecord
100
AcDbBlockTableRecord
  2
*D32
  0
BLOCK_RECORD
  5
AF4
330
1
100
AcDbSymbolTableRecord
100
AcDbBlockTableRecord
  2
A$C22867
  0
ENDTAB
  0
ENDSEC
  0
SECTION
  2
BLOCKS
  0
BLOCK
  5
20
330
1F
100
AcDbEntity
  8
0
100
AcDbBlockBegin
  2
*MODEL_SPACE
 70
     0
 10
0.0
 20
0.0
 30
0.0
  3
*MODEL_SPACE
  1

  0
ENDBLK
  5
21
330
1F
100
AcDbEntity
  8
0
100
AcDbBlockEnd
  0
BLOCK
  5
5A
330
58
100
AcDbEntity
 67
     1
  8
0
100
AcDbBlockBegin
  2
*PAPER_SPACE
 70
     0
 10
0.0
 20
0.0
 30
0.0
  3
*PAPER_SPACE
  1

  0
ENDBLK
  5
5B
330
58
100
AcDbEntity
 67
     1
  8
0
100
AcDbBlockEnd
  0
BLOCK
  5
5F
330
5D
100
AcDbEntity
  8
0
100
AcDbBlockBegin
  2
*PAPER_SPACE0
 70
     0
 10
0.0
 20
0.0
 30
0.0
  3
*PAPER_SPACE0
  1

  0
ENDBLK
  5
60
330
5D
100
AcDbEntity
  8
0
100
AcDbBlockEnd
  0
BLOCK
  5
13C
330
13B
100
AcDbEntity
  8
0
100
AcDbBlockBegin
  2
*D1
 70
     1
 10
0.0
 20
0.0
 30
0.0
  3
*D1
  1

  0
LINE
  5
13E
330
13B
100
AcDbEntity
  8
0
 62
     0
100
AcDbLine
 10
-0.0625
 20
10.0
 30
0.0
 11
-1.004964917709843
 21
10.0
 31
0.0
  0
LINE
  5
13F
330
13B
100
AcDbEntity
  8
0
 62
     0
100
AcDbLine
 10
-0.0625
 20
5.0
 30
0.0
 11
-1.004964917709843
 21
5.0
 31
0.0
  0
LINE
  5
140
330
13B
100
AcDbEntity
  8
0
 62
     0
100
AcDbLine
 10
-0.8249649177098435
 20
9.82
 30
0.0
 11
-0.8249649177098435
 21
7.681889999999999
 31
0.0
  0
LINE
  5
141
330
13B
100
AcDbEntity
  8
0
 62
     0
100
AcDbLine
 10
-0.8249649177098435
 20
5.18
 30
0.0
 11
-0.8249649177098435
 21
7.31811
 31
0.0
  0
SOLID
  5
142
330
13B
100
AcDbEntity
  8
0
 62
     0
100
AcDbTrace
 10
-0.7949649177098435
 20
9.82
 30
0.0
 11
-0.8549649177098435
 21
9.82
 31
0.0
 12
-0.8249649177098435
 22
10.0
 32
0.0
 13
-0.8249649177098435
 23
10.0
 33
0.0
  0
SOLID
  5
143
330
13B
100
AcDbEntity
  8
0
 62
     0
100
AcDbTrace
 10
-0.8549649177098435
 20
5.18
 30
0.0
 11
-0.7949649177098435
 21
5.18
 31
0.0
 12
-0.8249649177098435
 22
5.0
 32
0.0
 13
-0.8249649177098435
 23
5.0
 33
0.0
  0
MTEXT
  5
144
330
13B
100
AcDbEntity
  8
0
 62
     0
100
AcDbMText
 10
-0.8249649177098435
 20
7.5
 30
0.0
 40
0.18
 41
0.0
 71
     5
 72
     1
  1
\A1;5.0000
  0
POINT
  5
145
330
13B
100
AcDbEntity
  8
DEFPOINTS
 62
     0
100
AcDbPoint
 10
0.0
 20
10.0
 30
0.0
  0
POINT
  5
146
330
13B
100
AcDbEntity
  8
DEFPOINTS
 62
     0
100
AcDbPoint
 10
0.0
 20
5.0
 30
0.0
  0
POINT
  5
147
330
13B
100
AcDbEntity
  8
DEFPOINTS
 62
     0
100
AcDbPoint
 10
-0.8249649177098435
 20
5.0
 30
0.0
  0
ENDBLK
  5
13D
330
13B
100
AcDbEntity
  8
0
100
AcDbBlockEnd
  0
BLOCK
  5
170
330
14B
100
AcDbEntity
  8
0
100
AcDbBlockBegin
  2
A$C14460
 70
     0
 10
0.0
 20
0.0
 30
0.0
  3
A$C14460
  1

  0
CIRCLE
  5
16E
330
14B
100
AcDbEntity
  8
0
100
AcDbCircle
 10
-3.75
 20
0.7499999999999911
 30
0.0
 40
0.125
  0
LWPOLYLINE
  5
16F
330
14B
100
AcDbEntity
  8
0
100
AcDbPolyline
 90
        4
 70
     1
 43
0.0
 10
-38.00000000000001
 20
0.0
 10
-38.00000000000001
 20
1.499999999999991
 10
0.0
 20
1.499999999999991
 10
0.0
 20
0.0
  0
ENDBLK
  5
171
330
14B
100
AcDbEntity
  8
0
100
AcDbBlockEnd
  0
BLOCK
  5
198
330
173
100
AcDbEntity
  8
0
100
AcDbBlockBegin
  2
A$C8087
 70
     0
 10
0.0
 20
0.0
 30
0.0
  3
A$C8087
  1

  0
LWPOLYLINE
  5
196
330
173
100
AcDbEntity
  8
0
100
AcDbPolyline
 90
        4
 70
     1
 43
0.0
 10
-0.7499999999999998
 20
-9.25
 10
-0.7499999999999998
 20
0.75
 10
0.7499999999999998
 20
0.75
 10
0.7499999999999998
 20
-9.25
  0
CIRCLE
  5
197
330
173
100
AcDbEntity
  8
0
100
AcDbCircle
 10
0.0
 20
0.0
 30
0.0
 40
0.125
  0
ENDBLK
  5
199
330
173
100
AcDbEntity
  8
0
100
AcDbBlockEnd
  0
BLOCK
  5
1EB
330
1C5
100
AcDbEntity
  8
0
100
AcDbBlockBegin
  2
A$C19594
 70
     0
 10
0.0
 20
0.0
 30
0.0
  3
A$C19594
  1

  0
LWPOLYLINE
  5
1E8
330
1C5
100
AcDbEntity
  8
0
100
AcDbPolyline
 90
        4
 70
     1
 43
0.0
 10
-0.7499999999999998
 20
-9.25
 10
-0.7499999999999998
 20
0.75
 10
0.7499999999999998
 20
0.75
 10
0.7499999999999998
 20
-9.25
  0
CIRCLE
  5
1E9
330
1C5
100
AcDbEntity
  8
0
100
AcDbCircle
 10
0.0
 20
-5.0
 30
0.0
 40
0.125
  0
CIRCLE
  5
1EA
330
1C5
100
AcDbEntity
  8
0
100
AcDbCircle
 10
0.0
 20
0.0
 30
0.0
 40
0.125
  0
ENDBLK
  5
1EC
330
1C5
100
AcDbEntity
  8
0
100
AcDbBlockEnd
  0
BLOCK
  5
213
330
1EE
100
AcDbEntity
  8
0
100
AcDbBlockBegin
  2
A$C4606
 70
     0
 10
0.0
 20
0.0
 30
0.0
  3
A$C4606
  1

  0
LWPOLYLINE
  5
211
330
1EE
100
AcDbEntity
  8
0
100
AcDbPolyline
 90
        4
 70
     1
 43
0.0
 10
-2.25
 20
-0.75
 10
-2.25
 20
0.7499999999999964
 10
5.25
 20
0.7499999999999964
 10
5.25
 20
-0.75
  0
CIRCLE
  5
212
330
1EE
100
AcDbEntity
  8
0
100
AcDbCircle
 10
0.0
 20
0.0
 30
0.0
 40
0.125
  0
ENDBLK
  5
214
330
1EE
100
AcDbEntity
  8
0
100
AcDbBlockEnd
  0
BLOCK
  5
23E
330
218
100
AcDbEntity
  8
0
100
AcDbBlockBegin
  2
A$C17036
 70
     0
 10
0.0
 20
0.0
 30
0.0
  3
A$C17036
  1

  0
LWPOLYLINE
  5
23B
330
218
100
AcDbEntity
  8
0
100
AcDbPolyline
 90
        4
 70
     1
 43
0.0
 10
-34.25000000000001
 20
-0.7499999999999911
 10
-34.25000000000001
 20
0.75
 10
3.75
 20
0.75
 10
3.75
 20
-0.7499999999999911
  0
CIRCLE
  5
23C
330
218
100
AcDbEntity
  8
0
100
AcDbCircle
 10
-33.50000000000001
 20
0.0000000000000036
 30
0.0
 40
0.125
  0
CIRCLE
  5
23D
330
218
100
AcDbEntity
  8
0
100
AcDbCircle
 10
0.0
 20
0.0
 30
0.0
 40
0.125
  0
ENDBLK
  5
23F
330
218
100
AcDbEntity
  8
0
100
AcDbBlockEnd
  0
BLOCK
  5
269
330
242
100
AcDbEntity
  8
0
100
AcDbBlockBegin
  2
A$C23219
 70
     0
 10
0.0
 20
0.0
 30
0.0
  3
A$C23219
  1

  0
LWPOLYLINE
  5
265
330
242
100
AcDbEntity
  8
0
100
AcDbPolyline
 90
        4
 70
     1
 43
0.0
 10
-34.25000000000001
 20
-0.7499999999999911
 10
-34.25000000000001
 20
0.75
 10
3.75
 20
0.75
 10
3.75
 20
-0.7499999999999911
  0
CIRCLE
  5
266
330
242
100
AcDbEntity
  8
0
100
AcDbCircle
 10
3.0
 20
0.0000000000000036
 30
0.0
 40
0.125
  0
CIRCLE
  5
267
330
242
100
AcDbEntity
  8
0
100
AcDbCircle
 10
0.0
 20
0.0
 30
0.0
 40
0.125
  0
CIRCLE
  5
268
330
242
100
AcDbEntity
  8
0
100
AcDbCircle
 10
-33.50000000000001
 20
0.0000000000000036
 30
0.0
 40
0.125
  0
ENDBLK
  5
26A
330
242
100
AcDbEntity
  8
0
100
AcDbBlockEnd
  0
BLOCK
  5
3A5
330
37D
100
AcDbEntity
  8
0
100
AcDbBlockBegin
  2
A$C7150
 70
     0
 10
0.0
 20
0.0
 30
0.0
  3
A$C7150
  1

  0
CIRCLE
  5
3A0
330
37D
100
AcDbEntity
  8
0
100
AcDbCircle
 10
5.25
 20
0.75
 30
0.0
 40
0.125
  0
LINE
  5
3A1
330
37D
100
AcDbEntity
  8
0
100
AcDbLine
 10
2.0
 20
0.875
 30
0.0
 11
2.5
 21
0.875
 31
0.0
  0
LINE
  5
3A2
330
37D
100
AcDbEntity
  8
0
100
AcDbLine
 10
2.0
 20
0.625
 30
0.0
 11
2.5
 21
0.625
 31
0.0
  0
ARC
  5
3A3
330
37D
100
AcDbEntity
  8
0
100
AcDbCircle
 10
2.5
 20
0.75
 30
0.0
 40
0.125
100
AcDbArc
 50
270.0
 51
90.0
  0
ARC
  5
3A4
330
37D
100
AcDbEntity
  8
0
100
AcDbCircle
 10
2.0
 20
0.75
 30
0.0
 40
0.125
100
AcDbArc
 50
90.0
 51
270.0
  0
ENDBLK
  5
3A6
330
37D
100
AcDbEntity
  8
0
100
AcDbBlockEnd
  0
BLOCK
  5
494
330
463
100
AcDbEntity
  8
0
100
AcDbBlockBegin
  2
A$C27412
 70
     0
 10
0.0
 20
0.0
 30
0.0
  3
A$C27412
  1

  0
LINE
  5
486
330
463
100
AcDbEntity
  8
0
100
AcDbLine
 10
-35.52178008558651
 20
0.1826842171470666
 30
0.0
 11
-35.02178008558651
 21
0.1826842171470666
 31
0.0
  0
LINE
  5
487
330
463
100
AcDbEntity
  8
0
100
AcDbLine
 10
-35.52178008558651
 20
-0.0673157828529334
 30
0.0
 11
-35.02178008558651
 21
-0.0673157828529334
 31
0.0
  0
ARC
  5
488
330
463
100
AcDbEntity
  8
0
100
AcDbCircle
 10
-35.02178008558651
 20
0.0576842171470666
 30
0.0
 40
0.125
100
AcDbArc
 50
270.0
 51
90.0
  0
ARC
  5
489
330
463
100
AcDbEntity
  8
0
100
AcDbCircle
 10
-35.52178008558651
 20
0.0576842171470666
 30
0.0
 40
0.125
100
AcDbArc
 50
90.0
 51
270.0
  0
LINE
  5
48A
330
463
100
AcDbEntity
  8
0
100
AcDbLine
 10
1.228219914413497
 20
-0.692315782852928
 30
0.0
 11
-35.77178008558651
 21
-0.692315782852928
 31
0.0
  0
ARC
  5
48B
330
463
100
AcDbEntity
  8
0
100
AcDbCircle
 10
-35.77178008558651
 20
-0.1923157828529281
 30
0.0
 40
0.5000000000000002
100
AcDbArc
 50
180.0
 51
270.0
  0
LINE
  5
48C
330
463
100
AcDbEntity
  8
0
100
AcDbLine
 10
-36.27178008558651
 20
-0.1923157828529281
 30
0.0
 11
-36.27178008558651
 21
0.3076842171470631
 31
0.0
  0
ARC
  5
48D
330
463
100
AcDbEntity
  8
0
100
AcDbCircle
 10
-35.77178008558651
 20
0.3076842171470631
 30
0.0
 40
0.5000000000000002
100
AcDbArc
 50
90.0
 51
180.0
  0
LINE
  5
48E
330
463
100
AcDbEntity
  8
0
100
AcDbLine
 10
-35.77178008558651
 20
0.8076842171470631
 30
0.0
 11
1.228219914413497
 21
0.8076842171470631
 31
0.0
  0
CIRCLE
  5
48F
330
463
100
AcDbEntity
  8
0
100
AcDbCircle
 10
0.9782199144134971
 20
0.0576842171470666
 30
0.0
 40
0.125
  0
LINE
  5
490
330
463
100
AcDbEntity
  8
0
100
AcDbLine
 10
1.728219914413497
 20
0.3076842171470631
 30
0.0
 11
1.728219914413497
 21
-0.1923157828529281
 31
0.0
  0
ARC
  5
491
330
463
100
AcDbEntity
  8
0
100
AcDbCircle
 10
1.228219914413497
 20
-0.1923157828529281
 30
0.0
 40
0.5000000000000002
100
AcDbArc
 50
270.0
 51
0.0
  0
ARC
  5
492
330
463
100
AcDbEntity
  8
0
100
AcDbCircle
 10
1.228219914413497
 20
0.3076842171470631
 30
0.0
 40
0.5000000000000002
100
AcDbArc
 50
0.0
 51
90.0
  0
CIRCLE
  5
493
330
463
100
AcDbEntity
  8
0
100
AcDbCircle
 10
-2.021780085586503
 20
0.0576842171470631
 30
0.0
 40
0.125
  0
ENDBLK
  5
495
330
463
100
AcDbEntity
  8
0
100
AcDbBlockEnd
  0
BLOCK
  5
4BC
330
497
100
AcDbEntity
  8
0
100
AcDbBlockBegin
  2
A$C31348
 70
     0
 10
0.0
 20
0.0
 30
0.0
  3
A$C31348
  1

  0
CIRCLE
  5
4BA
330
497
100
AcDbEntity
  8
0
100
AcDbCircle
 10
0.0
 20
0.0
 30
0.0
 40
0.125
  0
LWPOLYLINE
  5
4BB
330
497
100
AcDbEntity
  8
0
100
AcDbPolyline
 90
        6
 70
     1
 43
0.0
 10
-0.75
 20
-3.75
 10
-0.75
 20
0.25
 42
-0.414213562373095
 10
-0.25
 20
0.75
 10
0.25
 20
0.75
 42
-0.414213562373095
 10
0.75
 20
0.25
 10
0.75
 20
-3.75
  0
ENDBLK
  5
4BD
330
497
100
AcDbEntity
  8
0
100
AcDbBlockEnd
  0
BLOCK
  5
511
330
4EB
100
AcDbEntity
  8
0
100
AcDbBlockBegin
  2
A$C23495
 70
     0
 10
0.0
 20
0.0
 30
0.0
  3
A$C23495
  1

  0
LWPOLYLINE
  5
50E
330
4EB
100
AcDbEntity
  8
0
100
AcDbPolyline
 90
        6
 70
     1
 43
0.0
 10
-0.75
 20
-4.25
 10
-0.75
 20
5.25
 42
-0.414213562373095
 10
-0.25
 20
5.75
 10
0.25
 20
5.75
 42
-0.414213562373095
 10
0.75
 20
5.25
 10
0.75
 20
-4.25
  0
CIRCLE
  5
50F
330
4EB
100
AcDbEntity
  8
0
100
AcDbCircle
 10
0.0
 20
5.0
 30
0.0
 40
0.125
  0
CIRCLE
  5
510
330
4EB
100
AcDbEntity
  8
0
100
AcDbCircle
 10
0.0
 20
0.0
 30
0.0
 40
0.125
  0
ENDBLK
  5
512
330
4EB
100
AcDbEntity
  8
0
100
AcDbBlockEnd
  0
BLOCK
  5
56D
330
540
100
AcDbEntity
  8
0
100
AcDbBlockBegin
  2
A$C9452
 70
     0
 10
0.0
 20
0.0
 30
0.0
  3
A$C9452
  1

  0
INSERT
  5
563
330
540
100
AcDbEntity
  8
0
100
AcDbBlockReference
  2
A$C7150
 10
-5.25
 20
-0.75
 30
0.0
  0
LWPOLYLINE
  5
56C
330
540
100
AcDbEntity
  8
0
100
AcDbPolyline
 90
        6
 70
     1
 43
0.0
 10
-5.25
 20
-0.75
 10
-5.25
 20
0.2499999999999964
 42
-0.414213562373095
 10
-4.75
 20
0.7499999999999964
 10
1.75
 20
0.7499999999999964
 42
-0.414213562373095
 10
2.25
 20
0.2499999999999964
 10
2.25
 20
-0.75
  0
ENDBLK
  5
56E
330
540
100
AcDbEntity
  8
0
100
AcDbBlockEnd
  0
BLOCK
  5
574
330
573
100
AcDbEntity
  8
0
100
AcDbBlockBegin
  2
*D13
 70
     1
 10
0.0
 20
0.0
 30
0.0
  3
*D13
  1

  0
LINE
  5
576
330
573
100
AcDbEntity
  8
0
 62
     0
100
AcDbLine
 10
87.62961568501308
 20
17.46299674317819
 30
0.0
 11
87.62961568501308
 21
19.34398643330479
 31
0.0
  0
LINE
  5
577
330
573
100
AcDbEntity
  8
0
 62
     0
100
AcDbLine
 10
125.6296156850131
 20
17.46299674317819
 30
0.0
 11
125.6296156850131
 21
19.34398643330479
 31
0.0
  0
LINE
  5
578
330
573
100
AcDbEntity
  8
0
 62
     0
100
AcDbLine
 10
87.80961568501309
 20
19.16398643330479
 30
0.0
 11
106.0969956850131
 21
19.16398643330479
 31
0.0
  0
LINE
  5
579
330
573
100
AcDbEntity
  8
0
 62
     0
100
AcDbLine
 10
125.4496156850131
 20
19.16398643330479
 30
0.0
 11
107.1622356850131
 21
19.16398643330479
 31
0.0
  0
SOLID
  5
57A
330
573
100
AcDbEntity
  8
0
 62
     0
100
AcDbTrace
 10
87.80961568501309
 20
19.19398643330479
 30
0.0
 11
87.80961568501309
 21
19.13398643330478
 31
0.0
 12
87.62961568501308
 22
19.16398643330479
 32
0.0
 13
87.62961568501308
 23
19.16398643330479
 33
0.0
  0
SOLID
  5
57B
330
573
100
AcDbEntity
  8
0
 62
     0
100
AcDbTrace
 10
125.4496156850131
 20
19.13398643330478
 30
0.0
 11
125.4496156850131
 21
19.19398643330479
 31
0.0
 12
125.6296156850131
 22
19.16398643330479
 32
0.0
 13
125.6296156850131
 23
19.16398643330479
 33
0.0
  0
MTEXT
  5
57C
330
573
100
AcDbEntity
  8
0
 62
     0
100
AcDbMText
 10
106.6296156850131
 20
19.16398643330479
 30
0.0
 40
0.18
 41
0.0
 71
     5
 72
     1
  1
\A1;38.0000
  0
POINT
  5
57D
330
573
100
AcDbEntity
  8
DEFPOINTS
 62
     0
100
AcDbPoint
 10
87.62961568501308
 20
17.40049674317819
 30
0.0
  0
POINT
  5
57E
330
573
100
AcDbEntity
  8
DEFPOINTS
 62
     0
100
AcDbPoint
 10
125.6296156850131
 20
17.40049674317819
 30
0.0
  0
POINT
  5
57F
330
573
100
AcDbEntity
  8
DEFPOINTS
 62
     0
100
AcDbPoint
 10
125.6296156850131
 20
19.16398643330479
 30
0.0
  0
ENDBLK
  5
575
330
573
100
AcDbEntity
  8
0
100
AcDbBlockEnd
  0
BLOCK
  5
584
330
583
100
AcDbEntity
  8
0
100
AcDbBlockBegin
  2
*D14
 70
     1
 10
0.0
 20
0.0
 30
0.0
  3
*D14
  1

  0
LINE
  5
586
330
583
100
AcDbEntity
  8
0
 62
     0
100
AcDbLine
 10
101.665107341723
 20
9.89123502313923
 30
0.0
 11
101.665107341723
 21
11.64500507323043
 31
0.0
  0
LINE
  5
587
330
583
100
AcDbEntity
  8
0
 62
     0
100
AcDbLine
 10
109.165107341723
 20
9.89123502313923
 30
0.0
 11
109.165107341723
 21
11.64500507323043
 31
0.0
  0
LINE
  5
588
330
583
100
AcDbEntity
  8
0
 62
     0
100
AcDbLine
 10
101.845107341723
 20
11.46500507323043
 30
0.0
 11
104.952957341723
 21
11.46500507323043
 31
0.0
  0
LINE
  5
589
330
583
100
AcDbEntity
  8
0
 62
     0
100
AcDbLine
 10
108.985107341723
 20
11.46500507323043
 30
0.0
 11
105.877257341723
 21
11.46500507323043
 31
0.0
  0
SOLID
  5
58A
330
583
100
AcDbEntity
  8
0
 62
     0
100
AcDbTrace
 10
101.845107341723
 20
11.49500507323043
 30
0.0
 11
101.845107341723
 21
11.43500507323043
 31
0.0
 12
101.665107341723
 22
11.46500507323043
 32
0.0
 13
101.665107341723
 23
11.46500507323043
 33
0.0
  0
SOLID
  5
58B
330
583
100
AcDbEntity
  8
0
 62
     0
100
AcDbTrace
 10
108.985107341723
 20
11.43500507323043
 30
0.0
 11
108.985107341723
 21
11.49500507323043
 31
0.0
 12
109.165107341723
 22
11.46500507323043
 32
0.0
 13
109.165107341723
 23
11.46500507323043
 33
0.0
  0
MTEXT
  5
58C
330
583
100
AcDbEntity
  8
0
 62
     0
100
AcDbMText
 10
105.415107341723
 20
11.46500507323043
 30
0.0
 40
0.18
 41
0.0
 71
     5
 72
     1
  1
\A1;7.5000
  0
POINT
  5
58D
330
583
100
AcDbEntity
  8
DEFPOINTS
 62
     0
100
AcDbPoint
 10
101.665107341723
 20
9.82873502313923
 30
0.0
  0
POINT
  5
58E
330
583
100
AcDbEntity
  8
DEFPOINTS
 62
     0
100
AcDbPoint
 10
109.165107341723
 20
9.82873502313923
 30
0.0
  0
POINT
  5
58F
330
583
100
AcDbEntity
  8
DEFPOINTS
 62
     0
100
AcDbPoint
 10
109.165107341723
 20
11.46500507323043
 30
0.0
  0
ENDBLK
  5
585
330
583
100
AcDbEntity
  8
0
100
AcDbBlockEnd
  0
BLOCK
  5
594
330
593
100
AcDbEntity
  8
0
100
AcDbBlockBegin
  2
*D15
 70
     1
 10
0.0
 20
0.0
 30
0.0
  3
*D15
  1

  0
LINE
  5
596
330
593
100
AcDbEntity
  8
0
 62
     0
100
AcDbLine
 10
95.46709839069271
 20
10.90365261569862
 30
0.0
 11
98.17761126430334
 21
10.90365261569862
 31
0.0
  0
LINE
  5
597
330
593
100
AcDbEntity
  8
0
 62
     0
100
AcDbLine
 10
95.96709839069271
 20
0.9036526156986184
 30
0.0
 11
98.17761126430334
 21
0.9036526156986183
 31
0.0
  0
LINE
  5
598
330
593
100
AcDbEntity
  8
0
 62
     0
100
AcDbLine
 10
97.99761126430333
 20
10.72365261569862
 30
0.0
 11
97.99761126430333
 21
6.085542615698618
 31
0.0
  0
LINE
  5
599
330
593
100
AcDbEntity
  8
0
 62
     0
100
AcDbLine
 10
97.99761126430333
 20
1.083652615698618
 30
0.0
 11
97.99761126430333
 21
5.721762615698618
 31
0.0
  0
SOLID
  5
59A
330
593
100
AcDbEntity
  8
0
 62
     0
100
AcDbTrace
 10
98.02761126430333
 20
10.72365261569862
 30
0.0
 11
97.96761126430333
 21
10.72365261569862
 31
0.0
 12
97.99761126430333
 22
10.90365261569862
 32
0.0
 13
97.99761126430333
 23
10.90365261569862
 33
0.0
  0
SOLID
  5
59B
330
593
100
AcDbEntity
  8
0
 62
     0
100
AcDbTrace
 10
97.96761126430333
 20
1.083652615698618
 30
0.0
 11
98.02761126430333
 21
1.083652615698618
 31
0.0
 12
97.99761126430333
 22
0.9036526156986183
 32
0.0
 13
97.99761126430333
 23
0.9036526156986183
 33
0.0
  0
MTEXT
  5
59C
330
593
100
AcDbEntity
  8
0
 62
     0
100
AcDbMText
 10
97.99761126430333
 20
5.903652615698618
 30
0.0
 40
0.18
 41
0.0
 71
     5
 72
     1
  1
\A1;10.0000
  0
POINT
  5
59D
330
593
100
AcDbEntity
  8
DEFPOINTS
 62
     0
100
AcDbPoint
 10
95.40459839069271
 20
10.90365261569862
 30
0.0
  0
POINT
  5
59E
330
593
100
AcDbEntity
  8
DEFPOINTS
 62
     0
100
AcDbPoint
 10
95.90459839069271
 20
0.9036526156986184
 30
0.0
  0
POINT
  5
59F
330
593
100
AcDbEntity
  8
DEFPOINTS
 62
     0
100
AcDbPoint
 10
97.99761126430333
 20
0.9036526156986183
 30
0.0
  0
ENDBLK
  5
595
330
593
100
AcDbEntity
  8
0
100
AcDbBlockEnd
  0
BLOCK
  5
5A4
330
5A3
100
AcDbEntity
  8
0
100
AcDbBlockBegin
  2
*D16
 70
     1
 10
0.0
 20
0.0
 30
0.0
  3
*D16
  1

  0
LINE
  5
5A6
330
5A3
100
AcDbEntity
  8
0
 62
     0
100
AcDbLine
 10
88.93855999788974
 20
10.75712574807424
 30
0.0
 11
90.65522991880097
 21
10.75712574807424
 31
0.0
  0
LINE
  5
5A7
330
5A3
100
AcDbEntity
  8
0
 62
     0
100
AcDbLine
 10
89.43855999788974
 20
6.257125748074241
 30
0.0
 11
90.65522991880097
 21
6.257125748074241
 31
0.0
  0
LINE
  5
5A8
330
5A3
100
AcDbEntity
  8
0
 62
     0
100
AcDbLine
 10
90.47522991880096
 20
10.57712574807424
 30
0.0
 11
90.47522991880096
 21
8.68901574807424
 31
0.0
  0
LINE
  5
5A9
330
5A3
100
AcDbEntity
  8
0
 62
     0
100
AcDbLine
 10
90.47522991880096
 20
6.437125748074241
 30
0.0
 11
90.47522991880096
 21
8.325235748074242
 31
0.0
  0
SOLID
  5
5AA
330
5A3
100
AcDbEntity
  8
0
 62
     0
100
AcDbTrace
 10
90.50522991880096
 20
10.57712574807424
 30
0.0
 11
90.44522991880096
 21
10.57712574807424
 31
0.0
 12
90.47522991880096
 22
10.75712574807424
 32
0.0
 13
90.47522991880096
 23
10.75712574807424
 33
0.0
  0
SOLID
  5
5AB
330
5A3
100
AcDbEntity
  8
0
 62
     0
100
AcDbTrace
 10
90.44522991880096
 20
6.437125748074241
 30
0.0
 11
90.50522991880096
 21
6.437125748074241
 31
0.0
 12
90.47522991880096
 22
6.257125748074241
 32
0.0
 13
90.47522991880096
 23
6.257125748074241
 33
0.0
  0
MTEXT
  5
5AC
330
5A3
100
AcDbEntity
  8
0
 62
     0
100
AcDbMText
 10
90.47522991880096
 20
8.507125748074241
 30
0.0
 40
0.18
 41
0.0
 71
     5
 72
     1
  1
\A1;4.5000
  0
POINT
  5
5AD
330
5A3
100
AcDbEntity
  8
DEFPOINTS
 62
     0
100
AcDbPoint
 10
88.87605999788974
 20
10.75712574807424
 30
0.0
  0
POINT
  5
5AE
330
5A3
100
AcDbEntity
  8
DEFPOINTS
 62
     0
100
AcDbPoint
 10
89.37605999788974
 20
6.257125748074241
 30
0.0
  0
POINT
  5
5AF
330
5A3
100
AcDbEntity
  8
DEFPOINTS
 62
     0
100
AcDbPoint
 10
90.47522991880096
 20
6.257125748074241
 30
0.0
  0
ENDBLK
  5
5A5
330
5A3
100
AcDbEntity
  8
0
100
AcDbBlockEnd
  0
BLOCK
  5
763
330
731
100
AcDbEntity
  8
0
100
AcDbBlockBegin
  2
A$C8210
 70
     0
 10
0.0
 20
0.0
 30
0.0
  3
A$C8210
  1

  0
LINE
  5
754
330
731
100
AcDbEntity
  8
0
100
AcDbLine
 10
-33.50000000000001
 20
0.1250000000000036
 30
0.0
 11
-33.00000000000001
 21
0.1250000000000036
 31
0.0
  0
LINE
  5
755
330
731
100
AcDbEntity
  8
0
100
AcDbLine
 10
-33.50000000000001
 20
-0.1249999999999964
 30
0.0
 11
-33.00000000000001
 21
-0.1249999999999964
 31
0.0
  0
ARC
  5
756
330
731
100
AcDbEntity
  8
0
100
AcDbCircle
 10
-33.00000000000001
 20
0.0000000000000036
 30
0.0
 40
0.125
100
AcDbArc
 50
270.0
 51
90.0
  0
ARC
  5
757
330
731
100
AcDbEntity
  8
0
100
AcDbCircle
 10
-33.50000000000001
 20
0.0000000000000036
 30
0.0
 40
0.125
100
AcDbArc
 50
90.0
 51
270.0
  0
LINE
  5
758
330
731
100
AcDbEntity
  8
0
100
AcDbLine
 10
3.25
 20
-0.7499999999999929
 30
0.0
 11
-33.75000000000001
 21
-0.7499999999999929
 31
0.0
  0
ARC
  5
759
330
731
100
AcDbEntity
  8
0
100
AcDbCircle
 10
-33.75000000000001
 20
-0.2499999999999929
 30
0.0
 40
0.5000000000000002
100
AcDbArc
 50
179.9999999999996
 51
270.0
  0
LINE
  5
75A
330
731
100
AcDbEntity
  8
0
100
AcDbLine
 10
-34.25000000000001
 20
-0.2499999999999929
 30
0.0
 11
-34.25000000000001
 21
0.25
 31
0.0
  0
ARC
  5
75B
330
731
100
AcDbEntity
  8
0
100
AcDbCircle
 10
-33.75000000000001
 20
0.25
 30
0.0
 40
0.5000000000000002
100
AcDbArc
 50
90.0
 51
180.0
  0
LINE
  5
75C
330
731
100
AcDbEntity
  8
0
100
AcDbLine
 10
-33.75000000000001
 20
0.75
 30
0.0
 11
3.25
 21
0.75
 31
0.0
  0
LINE
  5
75D
330
731
100
AcDbEntity
  8
0
100
AcDbLine
 10
3.75
 20
0.25
 30
0.0
 11
3.75
 21
-0.2499999999999929
 31
0.0
  0
ARC
  5
75E
330
731
100
AcDbEntity
  8
0
100
AcDbCircle
 10
3.25
 20
-0.2499999999999929
 30
0.0
 40
0.5000000000000002
100
AcDbArc
 50
270.0
 51
0.0
  0
ARC
  5
75F
330
731
100
AcDbEntity
  8
0
100
AcDbCircle
 10
3.25
 20
0.25
 30
0.0
 40
0.5000000000000002
100
AcDbArc
 50
0.0
 51
90.0
  0
CIRCLE
  5
760
330
731
100
AcDbEntity
  8
0
100
AcDbCircle
 10
0.0
 20
0.0
 30
0.0
 40
0.125
  0
LINE
  5
761
330
731
100
AcDbEntity
  8
0
 62
     6
100
AcDbLine
 10
3.125
 20
-0.7499999999999929
 30
0.0
 11
3.125
 21
0.75
 31
0.0
  0
LINE
  5
762
330
731
100
AcDbEntity
  8
0
 62
     6
100
AcDbLine
 10
2.875
 20
-0.7499999999999929
 30
0.0
 11
2.875
 21
0.75
 31
0.0
  0
ENDBLK
  5
764
330
731
100
AcDbEntity
  8
0
100
AcDbBlockEnd
  0
BLOCK
  5
808
330
807
100
AcDbEntity
  8
0
100
AcDbBlockBegin
  2
*D18
 70
     1
 10
0.0
 20
0.0
 30
0.0
  3
*D18
  1

  0
LINE
  5
80A
330
807
100
AcDbEntity
  8
0
 62
     0
100
AcDbLine
 10
121.7278692342513
 20
-63.59774034201918
 30
0.0
 11
121.8497156033306
 21
-63.25179595423565
 31
0.0
  0
LINE
  5
80B
330
807
100
AcDbEntity
  8
0
 62
     0
100
AcDbLine
 10
121.6110042120175
 20
-63.55657887464349
 30
0.0
 11
121.7328505810968
 21
-63.21063448685996
 31
0.0
  0
LINE
  5
80C
330
807
100
AcDbEntity
  8
0
 62
     0
100
AcDbLine
 10
121.3334988236116
 20
-63.26081589570309
 30
0.0
 11
121.1534988236116
 21
-63.26081589570309
 31
0.0
  0
LINE
  5
80D
330
807
100
AcDbEntity
  8
0
 62
     0
100
AcDbLine
 10
121.9596948001335
 20
-63.48137072695814
 30
0.0
 11
122.1294717848962
 21
-63.54116851491793
 31
0.0
  0
LINE
  5
80E
330
807
100
AcDbEntity
  8
0
 62
     0
100
AcDbLine
 10
121.5032758083743
 20
-63.32061368366288
 30
0.0
 11
121.3334988236116
 21
-63.26081589570309
 31
0.0
  0
SOLID
  5
80F
330
807
100
AcDbEntity
  8
0
 62
     0
100
AcDbTrace
 10
121.9696610981268
 20
-63.45307456283102
 30
0.0
 11
121.9497285021402
 21
-63.50966689108526
 31
0.0
 12
121.7899178153708
 22
-63.42157293899835
 32
0.0
 13
121.7899178153708
 23
-63.42157293899835
 33
0.0
  0
SOLID
  5
810
330
807
100
AcDbEntity
  8
0
 62
     0
100
AcDbTrace
 10
121.493309510381
 20
-63.34890984779
 30
0.0
 11
121.5132421063676
 21
-63.29231751953576
 31
0.0
 12
121.673052793137
 22
-63.38041147162266
 32
0.0
 13
121.673052793137
 23
-63.38041147162266
 33
0.0
  0
MTEXT
  5
811
330
807
100
AcDbEntity
  8
0
 62
     0
100
AcDbMText
 10
120.6900888236116
 20
-63.26081589570308
 30
0.0
 40
0.18
 41
0.0
 71
     5
 72
     1
  1
\A1;0.1239
  0
POINT
  5
812
330
807
100
AcDbEntity
  8
DEFPOINTS
 62
     0
100
AcDbPoint
 10
121.7071061134319
 20
-63.65669068395067
 30
0.0
  0
POINT
  5
813
330
807
100
AcDbEntity
  8
DEFPOINTS
 62
     0
100
AcDbPoint
 10
121.5902410911982
 20
-63.61552921657498
 30
0.0
  0
POINT
  5
814
330
807
100
AcDbEntity
  8
DEFPOINTS
 62
     0
100
AcDbPoint
 10
121.673052793137
 20
-63.38041147162266
 30
0.0
  0
ENDBLK
  5
809
330
807
100
AcDbEntity
  8
0
100
AcDbBlockEnd
  0
BLOCK
  5
939
330
938
100
AcDbEntity
  8
0
100
AcDbBlockBegin
  2
*D19
 70
     1
 10
0.0
 20
0.0
 30
0.0
  3
*D19
  1

  0
LINE
  5
93B
330
938
100
AcDbEntity
  8
0
 62
     0
100
AcDbLine
 10
87.81355999788974
 20
6.257125748074239
 30
0.0
 11
86.5675832958424
 21
6.257125748074239
 31
0.0
  0
LINE
  5
93C
330
938
100
AcDbEntity
  8
0
 62
     0
100
AcDbLine
 10
88.56355999788974
 20
10.00712574807424
 30
0.0
 11
86.5675832958424
 21
10.00712574807424
 31
0.0
  0
LINE
  5
93D
330
938
100
AcDbEntity
  8
0
 62
     0
100
AcDbLine
 10
86.7475832958424
 20
6.437125748074239
 30
0.0
 11
86.7475832958424
 21
7.95023574807424
 31
0.0
  0
LINE
  5
93E
330
938
100
AcDbEntity
  8
0
 62
     0
100
AcDbLine
 10
86.7475832958424
 20
9.82712574807424
 30
0.0
 11
86.7475832958424
 21
8.314015748074238
 31
0.0
  0
SOLID
  5
93F
330
938
100
AcDbEntity
  8
0
 62
     0
100
AcDbTrace
 10
86.7175832958424
 20
6.437125748074239
 30
0.0
 11
86.7775832958424
 21
6.437125748074239
 31
0.0
 12
86.7475832958424
 22
6.257125748074239
 32
0.0
 13
86.7475832958424
 23
6.257125748074239
 33
0.0
  0
SOLID
  5
940
330
938
100
AcDbEntity
  8
0
 62
     0
100
AcDbTrace
 10
86.7775832958424
 20
9.82712574807424
 30
0.0
 11
86.7175832958424
 21
9.82712574807424
 31
0.0
 12
86.7475832958424
 22
10.00712574807424
 32
0.0
 13
86.7475832958424
 23
10.00712574807424
 33
0.0
  0
MTEXT
  5
941
330
938
100
AcDbEntity
  8
0
 62
     0
100
AcDbMText
 10
86.7475832958424
 20
8.13212574807424
 30
0.0
 40
0.18
 41
0.0
 71
     5
 72
     1
  1
\A1;3.7500
  0
POINT
  5
942
330
938
100
AcDbEntity
  8
DEFPOINTS
 62
     0
100
AcDbPoint
 10
87.87605999788974
 20
6.257125748074239
 30
0.0
  0
POINT
  5
943
330
938
100
AcDbEntity
  8
DEFPOINTS
 62
     0
100
AcDbPoint
 10
88.62605999788974
 20
10.00712574807424
 30
0.0
  0
POINT
  5
944
330
938
100
AcDbEntity
  8
DEFPOINTS
 62
     0
100
AcDbPoint
 10
86.7475832958424
 20
10.00712574807424
 30
0.0
  0
ENDBLK
  5
93A
330
938
100
AcDbEntity
  8
0
100
AcDbBlockEnd
  0
BLOCK
  5
949
330
948
100
AcDbEntity
  8
0
100
AcDbBlockBegin
  2
*D20
 70
     1
 10
0.0
 20
0.0
 30
0.0
  3
*D20
  1

  0
LINE
  5
94B
330
948
100
AcDbEntity
  8
0
 62
     0
100
AcDbLine
 10
94.34209839069271
 20
0.9036526156986184
 30
0.0
 11
93.27281839584862
 21
0.9036526156986184
 31
0.0
  0
LINE
  5
94C
330
948
100
AcDbEntity
  8
0
 62
     0
100
AcDbLine
 10
95.09209839069271
 20
5.153652615698618
 30
0.0
 11
93.27281839584862
 21
5.153652615698618
 31
0.0
  0
LINE
  5
94D
330
948
100
AcDbEntity
  8
0
 62
     0
100
AcDbLine
 10
93.45281839584862
 20
1.083652615698618
 30
0.0
 11
93.45281839584862
 21
2.846762615698618
 31
0.0
  0
LINE
  5
94E
330
948
100
AcDbEntity
  8
0
 62
     0
100
AcDbLine
 10
93.45281839584862
 20
4.973652615698619
 30
0.0
 11
93.45281839584862
 21
3.210542615698618
 31
0.0
  0
SOLID
  5
94F
330
948
100
AcDbEntity
  8
0
 62
     0
100
AcDbTrace
 10
93.42281839584862
 20
1.083652615698618
 30
0.0
 11
93.48281839584862
 21
1.083652615698618
 31
0.0
 12
93.45281839584862
 22
0.9036526156986184
 32
0.0
 13
93.45281839584862
 23
0.9036526156986184
 33
0.0
  0
SOLID
  5
950
330
948
100
AcDbEntity
  8
0
 62
     0
100
AcDbTrace
 10
93.48281839584862
 20
4.973652615698619
 30
0.0
 11
93.42281839584862
 21
4.973652615698619
 31
0.0
 12
93.45281839584862
 22
5.153652615698618
 32
0.0
 13
93.45281839584862
 23
5.153652615698618
 33
0.0
  0
MTEXT
  5
951
330
948
100
AcDbEntity
  8
0
 62
     0
100
AcDbMText
 10
93.45281839584862
 20
3.028652615698618
 30
0.0
 40
0.18
 41
0.0
 71
     5
 72
     1
  1
\A1;4.2500
  0
POINT
  5
952
330
948
100
AcDbEntity
  8
DEFPOINTS
 62
     0
100
AcDbPoint
 10
94.40459839069271
 20
0.9036526156986184
 30
0.0
  0
POINT
  5
953
330
948
100
AcDbEntity
  8
DEFPOINTS
 62
     0
100
AcDbPoint
 10
95.15459839069271
 20
5.153652615698618
 30
0.0
  0
POINT
  5
954
330
948
100
AcDbEntity
  8
DEFPOINTS
 62
     0
100
AcDbPoint
 10
93.45281839584862
 20
5.153652615698618
 30
0.0
  0
ENDBLK
  5
94A
330
948
100
AcDbEntity
  8
0
100
AcDbBlockEnd
  0
BLOCK
  5
959
330
958
100
AcDbEntity
  8
0
100
AcDbBlockBegin
  2
*D21
 70
     1
 10
0.0
 20
0.0
 30
0.0
  3
*D21
  1

  0
LINE
  5
95B
330
958
100
AcDbEntity
  8
0
 62
     0
100
AcDbLine
 10
94.34209839069271
 20
0.9036526156986184
 30
0.0
 11
92.22619881641515
 21
0.9036526156986184
 31
0.0
  0
LINE
  5
95C
330
958
100
AcDbEntity
  8
0
 62
     0
100
AcDbLine
 10
95.09209839069271
 20
10.15365261569862
 30
0.0
 11
92.22619881641515
 21
10.15365261569862
 31
0.0
  0
LINE
  5
95D
330
958
100
AcDbEntity
  8
0
 62
     0
100
AcDbLine
 10
92.40619881641516
 20
1.083652615698618
 30
0.0
 11
92.40619881641516
 21
5.346762615698618
 31
0.0
  0
LINE
  5
95E
330
958
100
AcDbEntity
  8
0
 62
     0
100
AcDbLine
 10
92.40619881641516
 20
9.973652615698619
 30
0.0
 11
92.40619881641516
 21
5.710542615698619
 31
0.0
  0
SOLID
  5
95F
330
958
100
AcDbEntity
  8
0
 62
     0
100
AcDbTrace
 10
92.37619881641515
 20
1.083652615698618
 30
0.0
 11
92.43619881641516
 21
1.083652615698618
 31
0.0
 12
92.40619881641516
 22
0.9036526156986184
 32
0.0
 13
92.40619881641516
 23
0.9036526156986184
 33
0.0
  0
SOLID
  5
960
330
958
100
AcDbEntity
  8
0
 62
     0
100
AcDbTrace
 10
92.43619881641516
 20
9.973652615698619
 30
0.0
 11
92.37619881641515
 21
9.973652615698619
 31
0.0
 12
92.40619881641516
 22
10.15365261569862
 32
0.0
 13
92.40619881641516
 23
10.15365261569862
 33
0.0
  0
MTEXT
  5
961
330
958
100
AcDbEntity
  8
0
 62
     0
100
AcDbMText
 10
92.40619881641516
 20
5.528652615698618
 30
0.0
 40
0.18
 41
0.0
 71
     5
 72
     1
  1
\A1;9.2500
  0
POINT
  5
962
330
958
100
AcDbEntity
  8
DEFPOINTS
 62
     0
100
AcDbPoint
 10
94.40459839069271
 20
0.9036526156986184
 30
0.0
  0
POINT
  5
963
330
958
100
AcDbEntity
  8
DEFPOINTS
 62
     0
100
AcDbPoint
 10
95.15459839069271
 20
10.15365261569862
 30
0.0
  0
POINT
  5
964
330
958
100
AcDbEntity
  8
DEFPOINTS
 62
     0
100
AcDbPoint
 10
92.40619881641516
 20
10.15365261569862
 30
0.0
  0
ENDBLK
  5
95A
330
958
100
AcDbEntity
  8
0
100
AcDbBlockEnd
  0
BLOCK
  5
969
330
968
100
AcDbEntity
  8
0
100
AcDbBlockBegin
  2
*D22
 70
     1
 10
0.0
 20
0.0
 30
0.0
  3
*D22
  1

  0
LINE
  5
96B
330
968
100
AcDbEntity
  8
0
 62
     0
100
AcDbLine
 10
103.665107341723
 20
9.516235023139233
 30
0.0
 11
103.665107341723
 21
7.815904762564178
 31
0.0
  0
LINE
  5
96C
330
968
100
AcDbEntity
  8
0
 62
     0
100
AcDbLine
 10
101.665107341723
 20
8.766235023139233
 30
0.0
 11
101.665107341723
 21
7.815904762564178
 31
0.0
  0
LINE
  5
96D
330
968
100
AcDbEntity
  8
0
 62
     0
100
AcDbLine
 10
103.485107341723
 20
7.995904762564177
 30
0.0
 11
103.129507341723
 21
7.995904762564177
 31
0.0
  0
LINE
  5
96E
330
968
100
AcDbEntity
  8
0
 62
     0
100
AcDbLine
 10
101.845107341723
 20
7.995904762564177
 30
0.0
 11
102.200707341723
 21
7.995904762564177
 31
0.0
  0
SOLID
  5
96F
330
968
100
AcDbEntity
  8
0
 62
     0
100
AcDbTrace
 10
103.485107341723
 20
7.965904762564177
 30
0.0
 11
103.485107341723
 21
8.025904762564178
 31
0.0
 12
103.665107341723
 22
7.995904762564177
 32
0.0
 13
103.665107341723
 23
7.995904762564177
 33
0.0
  0
SOLID
  5
970
330
968
100
AcDbEntity
  8
0
 62
     0
100
AcDbTrace
 10
101.845107341723
 20
8.025904762564178
 30
0.0
 11
101.845107341723
 21
7.965904762564177
 31
0.0
 12
101.665107341723
 22
7.995904762564177
 32
0.0
 13
101.665107341723
 23
7.995904762564177
 33
0.0
  0
MTEXT
  5
971
330
968
100
AcDbEntity
  8
0
 62
     0
100
AcDbMText
 10
102.665107341723
 20
7.995904762564177
 30
0.0
 40
0.18
 41
0.0
 71
     5
 72
     1
  1
\A1;2.0000
  0
POINT
  5
972
330
968
100
AcDbEntity
  8
DEFPOINTS
 62
     0
100
AcDbPoint
 10
103.665107341723
 20
9.578735023139233
 30
0.0
  0
POINT
  5
973
330
968
100
AcDbEntity
  8
DEFPOINTS
 62
     0
100
AcDbPoint
 10
101.665107341723
 20
8.828735023139233
 30
0.0
  0
POINT
  5
974
330
968
100
AcDbEntity
  8
DEFPOINTS
 62
     0
100
AcDbPoint
 10
101.665107341723
 20
7.995904762564177
 30
0.0
  0
ENDBLK
  5
96A
330
968
100
AcDbEntity
  8
0
100
AcDbBlockEnd
  0
BLOCK
  5
979
330
978
100
AcDbEntity
  8
0
100
AcDbBlockBegin
  2
*D23
 70
     1
 10
0.0
 20
0.0
 30
0.0
  3
*D23
  1

  0
LINE
  5
97B
330
978
100
AcDbEntity
  8
0
 62
     0
100
AcDbLine
 10
101.665107341723
 20
8.766235023139233
 30
0.0
 11
101.665107341723
 21
7.154366576055756
 31
0.0
  0
LINE
  5
97C
330
978
100
AcDbEntity
  8
0
 62
     0
100
AcDbLine
 10
104.165107341723
 20
9.516235023139233
 30
0.0
 11
104.165107341723
 21
7.154366576055756
 31
0.0
  0
LINE
  5
97D
330
978
100
AcDbEntity
  8
0
 62
     0
100
AcDbLine
 10
101.845107341723
 20
7.334366576055755
 30
0.0
 11
102.450707341723
 21
7.334366576055755
 31
0.0
  0
LINE
  5
97E
330
978
100
AcDbEntity
  8
0
 62
     0
100
AcDbLine
 10
103.985107341723
 20
7.334366576055755
 30
0.0
 11
103.379507341723
 21
7.334366576055755
 31
0.0
  0
SOLID
  5
97F
330
978
100
AcDbEntity
  8
0
 62
     0
100
AcDbTrace
 10
101.845107341723
 20
7.364366576055756
 30
0.0
 11
101.845107341723
 21
7.304366576055755
 31
0.0
 12
101.665107341723
 22
7.334366576055755
 32
0.0
 13
101.665107341723
 23
7.334366576055755
 33
0.0
  0
SOLID
  5
980
330
978
100
AcDbEntity
  8
0
 62
     0
100
AcDbTrace
 10
103.985107341723
 20
7.304366576055755
 30
0.0
 11
103.985107341723
 21
7.364366576055756
 31
0.0
 12
104.165107341723
 22
7.334366576055755
 32
0.0
 13
104.165107341723
 23
7.334366576055755
 33
0.0
  0
MTEXT
  5
981
330
978
100
AcDbEntity
  8
0
 62
     0
100
AcDbMText
 10
102.915107341723
 20
7.334366576055755
 30
0.0
 40
0.18
 41
0.0
 71
     5
 72
     1
  1
\A1;2.5000
  0
POINT
  5
982
330
978
100
AcDbEntity
  8
DEFPOINTS
 62
     0
100
AcDbPoint
 10
101.665107341723
 20
8.828735023139233
 30
0.0
  0
POINT
  5
983
330
978
100
AcDbEntity
  8
DEFPOINTS
 62
     0
100
AcDbPoint
 10
104.165107341723
 20
9.578735023139233
 30
0.0
  0
POINT
  5
984
330
978
100
AcDbEntity
  8
DEFPOINTS
 62
     0
100
AcDbPoint
 10
104.165107341723
 20
7.334366576055755
 30
0.0
  0
ENDBLK
  5
97A
330
978
100
AcDbEntity
  8
0
100
AcDbBlockEnd
  0
BLOCK
  5
989
330
988
100
AcDbEntity
  8
0
100
AcDbBlockBegin
  2
*D24
 70
     1
 10
0.0
 20
0.0
 30
0.0
  3
*D24
  1

  0
LINE
  5
98B
330
988
100
AcDbEntity
  8
0
 62
     0
100
AcDbLine
 10
101.665107341723
 20
8.766235023139233
 30
0.0
 11
101.665107341723
 21
6.42760631482115
 31
0.0
  0
LINE
  5
98C
330
988
100
AcDbEntity
  8
0
 62
     0
100
AcDbLine
 10
106.915107341723
 20
9.516235023139233
 30
0.0
 11
106.915107341723
 21
6.42760631482115
 31
0.0
  0
LINE
  5
98D
330
988
100
AcDbEntity
  8
0
 62
     0
100
AcDbLine
 10
101.845107341723
 20
6.60760631482115
 30
0.0
 11
103.827237341723
 21
6.60760631482115
 31
0.0
  0
LINE
  5
98E
330
988
100
AcDbEntity
  8
0
 62
     0
100
AcDbLine
 10
106.735107341723
 20
6.60760631482115
 30
0.0
 11
104.752977341723
 21
6.60760631482115
 31
0.0
  0
SOLID
  5
98F
330
988
100
AcDbEntity
  8
0
 62
     0
100
AcDbTrace
 10
101.845107341723
 20
6.63760631482115
 30
0.0
 11
101.845107341723
 21
6.57760631482115
 31
0.0
 12
101.665107341723
 22
6.60760631482115
 32
0.0
 13
101.665107341723
 23
6.60760631482115
 33
0.0
  0
SOLID
  5
990
330
988
100
AcDbEntity
  8
0
 62
     0
100
AcDbTrace
 10
106.735107341723
 20
6.57760631482115
 30
0.0
 11
106.735107341723
 21
6.63760631482115
 31
0.0
 12
106.915107341723
 22
6.60760631482115
 32
0.0
 13
106.915107341723
 23
6.60760631482115
 33
0.0
  0
MTEXT
  5
991
330
988
100
AcDbEntity
  8
0
 62
     0
100
AcDbMText
 10
104.290107341723
 20
6.60760631482115
 30
0.0
 40
0.18
 41
0.0
 71
     5
 72
     1
  1
\A1;5.2500
  0
POINT
  5
992
330
988
100
AcDbEntity
  8
DEFPOINTS
 62
     0
100
AcDbPoint
 10
101.665107341723
 20
8.828735023139233
 30
0.0
  0
POINT
  5
993
330
988
100
AcDbEntity
  8
DEFPOINTS
 62
     0
100
AcDbPoint
 10
106.915107341723
 20
9.578735023139233
 30
0.0
  0
POINT
  5
994
330
988
100
AcDbEntity
  8
DEFPOINTS
 62
     0
100
AcDbPoint
 10
106.915107341723
 20
6.60760631482115
 30
0.0
  0
ENDBLK
  5
98A
330
988
100
AcDbEntity
  8
0
100
AcDbBlockEnd
  0
BLOCK
  5
999
330
998
100
AcDbEntity
  8
0
100
AcDbBlockBegin
  2
*D25
 70
     1
 10
0.0
 20
0.0
 30
0.0
  3
*D25
  1

  0
LINE
  5
99B
330
998
100
AcDbEntity
  8
0
 62
     0
100
AcDbLine
 10
87.62961568501308
 20
16.8379967431782
 30
0.0
 11
87.62961568501308
 21
15.5612517930301
 31
0.0
  0
LINE
  5
99C
330
998
100
AcDbEntity
  8
0
 62
     0
100
AcDbLine
 10
88.37961568501308
 20
17.0879967431782
 30
0.0
 11
88.37961568501308
 21
15.5612517930301
 31
0.0
  0
LINE
  5
99D
330
998
100
AcDbEntity
  8
0
 62
     0
100
AcDbLine
 10
87.80961568501309
 20
15.7412517930301
 30
0.0
 11
88.19961568501307
 21
15.7412517930301
 31
0.0
  0
LINE
  5
99E
330
998
100
AcDbEntity
  8
0
 62
     0
100
AcDbLine
 10
88.19961568501307
 20
15.7412517930301
 30
0.0
 11
87.80961568501309
 21
15.7412517930301
 31
0.0
  0
SOLID
  5
99F
330
998
100
AcDbEntity
  8
0
 62
     0
100
AcDbTrace
 10
87.80961568501309
 20
15.7712517930301
 30
0.0
 11
87.80961568501309
 21
15.7112517930301
 31
0.0
 12
87.62961568501308
 22
15.7412517930301
 32
0.0
 13
87.62961568501308
 23
15.7412517930301
 33
0.0
  0
SOLID
  5
9A0
330
998
100
AcDbEntity
  8
0
 62
     0
100
AcDbTrace
 10
88.19961568501307
 20
15.7112517930301
 30
0.0
 11
88.19961568501307
 21
15.7712517930301
 31
0.0
 12
88.37961568501308
 22
15.7412517930301
 32
0.0
 13
88.37961568501308
 23
15.7412517930301
 33
0.0
  0
MTEXT
  5
9A1
330
998
100
AcDbEntity
  8
0
 62
     0
100
AcDbMText
 10
88.00461568501308
 20
15.1505817930301
 30
0.0
 40
0.18
 41
0.0
 71
     5
 72
     1
  1
\A1;0.7500
  0
POINT
  5
9A2
330
998
100
AcDbEntity
  8
DEFPOINTS
 62
     0
100
AcDbPoint
 10
87.62961568501308
 20
16.9004967431782
 30
0.0
  0
POINT
  5
9A3
330
998
100
AcDbEntity
  8
DEFPOINTS
 62
     0
100
AcDbPoint
 10
88.37961568501308
 20
17.1504967431782
 30
0.0
  0
POINT
  5
9A4
330
998
100
AcDbEntity
  8
DEFPOINTS
 62
     0
100
AcDbPoint
 10
88.37961568501308
 20
15.7412517930301
 30
0.0
  0
ENDBLK
  5
99A
330
998
100
AcDbEntity
  8
0
100
AcDbBlockEnd
  0
BLOCK
  5
9B9
330
9B8
100
AcDbEntity
  8
0
100
AcDbBlockBegin
  2
*D26
 70
     1
 10
0.0
 20
0.0
 30
0.0
  3
*D26
  1

  0
LINE
  5
9BB
330
9B8
100
AcDbEntity
  8
0
 62
     0
100
AcDbLine
 10
87.62961568501308
 20
16.7754967431782
 30
0.0
 11
87.62961568501308
 21
14.34625771527379
 31
0.0
  0
LINE
  5
9BC
330
9B8
100
AcDbEntity
  8
0
 62
     0
100
AcDbLine
 10
88.87961568501308
 20
17.0879967431782
 30
0.0
 11
88.87961568501308
 21
14.34625771527379
 31
0.0
  0
LINE
  5
9BD
330
9B8
100
AcDbEntity
  8
0
 62
     0
100
AcDbLine
 10
87.44961568501307
 20
14.52625771527379
 30
0.0
 11
87.26961568501306
 21
14.52625771527379
 31
0.0
  0
LINE
  5
9BE
330
9B8
100
AcDbEntity
  8
0
 62
     0
100
AcDbLine
 10
89.05961568501309
 20
14.52625771527379
 30
0.0
 11
89.23961568501309
 21
14.52625771527379
 31
0.0
  0
SOLID
  5
9BF
330
9B8
100
AcDbEntity
  8
0
 62
     0
100
AcDbTrace
 10
87.44961568501307
 20
14.49625771527379
 30
0.0
 11
87.44961568501307
 21
14.55625771527379
 31
0.0
 12
87.62961568501308
 22
14.52625771527379
 32
0.0
 13
87.62961568501308
 23
14.52625771527379
 33
0.0
  0
SOLID
  5
9C0
330
9B8
100
AcDbEntity
  8
0
 62
     0
100
AcDbTrace
 10
89.05961568501309
 20
14.55625771527379
 30
0.0
 11
89.05961568501309
 21
14.49625771527379
 31
0.0
 12
88.87961568501308
 22
14.52625771527379
 32
0.0
 13
88.87961568501308
 23
14.52625771527379
 33
0.0
  0
MTEXT
  5
9C1
330
9B8
100
AcDbEntity
  8
0
 62
     0
100
AcDbMText
 10
88.25461568501308
 20
14.52625771527379
 30
0.0
 40
0.18
 41
0.0
 71
     5
 72
     1
  1
\A1;1.2500
  0
POINT
  5
9C2
330
9B8
100
AcDbEntity
  8
DEFPOINTS
 62
     0
100
AcDbPoint
 10
87.62961568501308
 20
16.8379967431782
 30
0.0
  0
POINT
  5
9C3
330
9B8
100
AcDbEntity
  8
DEFPOINTS
 62
     0
100
AcDbPoint
 10
88.87961568501308
 20
17.1504967431782
 30
0.0
  0
POINT
  5
9C4
330
9B8
100
AcDbEntity
  8
DEFPOINTS
 62
     0
100
AcDbPoint
 10
88.87961568501308
 20
14.52625771527379
 30
0.0
  0
ENDBLK
  5
9BA
330
9B8
100
AcDbEntity
  8
0
100
AcDbBlockEnd
  0
BLOCK
  5
9C9
330
9C8
100
AcDbEntity
  8
0
100
AcDbBlockBegin
  2
*D27
 70
     1
 10
0.0
 20
0.0
 30
0.0
  3
*D27
  1

  0
LINE
  5
9CB
330
9C8
100
AcDbEntity
  8
0
 62
     0
100
AcDbLine
 10
121.8796156850131
 20
17.08799674317819
 30
0.0
 11
121.8796156850131
 21
14.57252044454082
 31
0.0
  0
LINE
  5
9CC
330
9C8
100
AcDbEntity
  8
0
 62
     0
100
AcDbLine
 10
125.6296156850131
 20
16.8379967431782
 30
0.0
 11
125.6296156850131
 21
14.57252044454082
 31
0.0
  0
LINE
  5
9CD
330
9C8
100
AcDbEntity
  8
0
 62
     0
100
AcDbLine
 10
122.0596156850131
 20
14.75252044454082
 30
0.0
 11
123.2918356850131
 21
14.75252044454082
 31
0.0
  0
LINE
  5
9CE
330
9C8
100
AcDbEntity
  8
0
 62
     0
100
AcDbLine
 10
125.4496156850131
 20
14.75252044454082
 30
0.0
 11
124.2173956850131
 21
14.75252044454082
 31
0.0
  0
SOLID
  5
9CF
330
9C8
100
AcDbEntity
  8
0
 62
     0
100
AcDbTrace
 10
122.0596156850131
 20
14.78252044454082
 30
0.0
 11
122.0596156850131
 21
14.72252044454082
 31
0.0
 12
121.8796156850131
 22
14.75252044454082
 32
0.0
 13
121.8796156850131
 23
14.75252044454082
 33
0.0
  0
SOLID
  5
9D0
330
9C8
100
AcDbEntity
  8
0
 62
     0
100
AcDbTrace
 10
125.4496156850131
 20
14.72252044454082
 30
0.0
 11
125.4496156850131
 21
14.78252044454082
 31
0.0
 12
125.6296156850131
 22
14.75252044454082
 32
0.0
 13
125.6296156850131
 23
14.75252044454082
 33
0.0
  0
MTEXT
  5
9D1
330
9C8
100
AcDbEntity
  8
0
 62
     0
100
AcDbMText
 10
123.7546156850131
 20
14.75252044454082
 30
0.0
 40
0.18
 41
0.0
 71
     5
 72
     1
  1
\A1;3.7500
  0
POINT
  5
9D2
330
9C8
100
AcDbEntity
  8
DEFPOINTS
 62
     0
100
AcDbPoint
 10
121.8796156850131
 20
17.15049674317819
 30
0.0
  0
POINT
  5
9D3
330
9C8
100
AcDbEntity
  8
DEFPOINTS
 62
     0
100
AcDbPoint
 10
125.6296156850131
 20
16.9004967431782
 30
0.0
  0
POINT
  5
9D4
330
9C8
100
AcDbEntity
  8
DEFPOINTS
 62
     0
100
AcDbPoint
 10
125.6296156850131
 20
14.75252044454082
 30
0.0
  0
ENDBLK
  5
9CA
330
9C8
100
AcDbEntity
  8
0
100
AcDbBlockEnd
  0
BLOCK
  5
9DB
330
9DA
100
AcDbEntity
  8
0
100
AcDbBlockBegin
  2
*D28
 70
     1
 10
0.0
 20
0.0
 30
0.0
  3
*D28
  1

  0
LINE
  5
9DD
330
9DA
100
AcDbEntity
  8
0
 62
     0
100
AcDbLine
 10
125.6296156850131
 20
16.7754967431782
 30
0.0
 11
125.6296156850131
 21
15.73211302853687
 31
0.0
  0
LINE
  5
9DE
330
9DA
100
AcDbEntity
  8
0
 62
     0
100
AcDbLine
 10
124.8796156850131
 20
16.3379967431782
 30
0.0
 11
124.8796156850131
 21
15.73211302853687
 31
0.0
  0
LINE
  5
9DF
330
9DA
100
AcDbEntity
  8
0
 62
     0
100
AcDbLine
 10
125.4496156850131
 20
15.91211302853687
 30
0.0
 11
125.0596156850131
 21
15.91211302853687
 31
0.0
  0
LINE
  5
9E0
330
9DA
100
AcDbEntity
  8
0
 62
     0
100
AcDbLine
 10
125.0596156850131
 20
15.91211302853687
 30
0.0
 11
125.4496156850131
 21
15.91211302853687
 31
0.0
  0
SOLID
  5
9E1
330
9DA
100
AcDbEntity
  8
0
 62
     0
100
AcDbTrace
 10
125.4496156850131
 20
15.88211302853687
 30
0.0
 11
125.4496156850131
 21
15.94211302853687
 31
0.0
 12
125.6296156850131
 22
15.91211302853687
 32
0.0
 13
125.6296156850131
 23
15.91211302853687
 33
0.0
  0
SOLID
  5
9E2
330
9DA
100
AcDbEntity
  8
0
 62
     0
100
AcDbTrace
 10
125.0596156850131
 20
15.94211302853687
 30
0.0
 11
125.0596156850131
 21
15.88211302853687
 31
0.0
 12
124.8796156850131
 22
15.91211302853687
 32
0.0
 13
124.8796156850131
 23
15.91211302853687
 33
0.0
  0
MTEXT
  5
9E3
330
9DA
100
AcDbEntity
  8
0
 62
     0
100
AcDbMText
 10
125.2546156850131
 20
15.32144302853687
 30
0.0
 40
0.18
 41
0.0
 71
     5
 72
     1
  1
\A1;0.7500
  0
POINT
  5
9E4
330
9DA
100
AcDbEntity
  8
DEFPOINTS
 62
     0
100
AcDbPoint
 10
125.6296156850131
 20
16.8379967431782
 30
0.0
  0
POINT
  5
9E5
330
9DA
100
AcDbEntity
  8
DEFPOINTS
 62
     0
100
AcDbPoint
 10
124.8796156850131
 20
16.4004967431782
 30
0.0
  0
POINT
  5
9E6
330
9DA
100
AcDbEntity
  8
DEFPOINTS
 62
     0
100
AcDbPoint
 10
124.8796156850131
 20
15.91211302853687
 30
0.0
  0
ENDBLK
  5
9DC
330
9DA
100
AcDbEntity
  8
0
100
AcDbBlockEnd
  0
BLOCK
  5
A44
330
A43
100
AcDbEntity
  8
0
100
AcDbBlockBegin
  2
*D29
 70
     1
 10
0.0
 20
0.0
 30
0.0
  3
*D29
  1

  0
LINE
  5
A46
330
A43
100
AcDbEntity
  8
0
 62
     0
100
AcDbLine
 10
18.06548793991262
 20
0.5860004385232429
 30
0.0
 11
17.02937826498118
 21
0.586000438523243
 31
0.0
  0
LINE
  5
A47
330
A43
100
AcDbEntity
  8
0
 62
     0
100
AcDbLine
 10
18.06548793991262
 20
1.586000438523241
 30
0.0
 11
17.02937826498118
 21
1.586000438523241
 31
0.0
  0
LINE
  5
A48
330
A43
100
AcDbEntity
  8
0
 62
     0
100
AcDbLine
 10
17.20937826498118
 20
0.7660004385232431
 30
0.0
 11
17.20937826498118
 21
0.9041104385232419
 31
0.0
  0
LINE
  5
A49
330
A43
100
AcDbEntity
  8
0
 62
     0
100
AcDbLine
 10
17.20937826498118
 20
1.406000438523241
 30
0.0
 11
17.20937826498118
 21
1.267890438523242
 31
0.0
  0
SOLID
  5
A4A
330
A43
100
AcDbEntity
  8
0
 62
     0
100
AcDbTrace
 10
17.17937826498117
 20
0.7660004385232431
 30
0.0
 11
17.23937826498118
 21
0.7660004385232431
 31
0.0
 12
17.20937826498118
 22
0.586000438523243
 32
0.0
 13
17.20937826498118
 23
0.586000438523243
 33
0.0
  0
SOLID
  5
A4B
330
A43
100
AcDbEntity
  8
0
 62
     0
100
AcDbTrace
 10
17.23937826498118
 20
1.406000438523241
 30
0.0
 11
17.17937826498117
 21
1.406000438523241
 31
0.0
 12
17.20937826498118
 22
1.586000438523241
 32
0.0
 13
17.20937826498118
 23
1.586000438523241
 33
0.0
  0
MTEXT
  5
A4C
330
A43
100
AcDbEntity
  8
0
 62
     0
100
AcDbMText
 10
17.20937826498118
 20
1.086000438523242
 30
0.0
 40
0.18
 41
0.0
 71
     5
 72
     1
  1
\A1;1.0000
  0
POINT
  5
A4D
330
A43
100
AcDbEntity
  8
DEFPOINTS
 62
     0
100
AcDbPoint
 10
18.12798793991262
 20
0.5860004385232429
 30
0.0
  0
POINT
  5
A4E
330
A43
100
AcDbEntity
  8
DEFPOINTS
 62
     0
100
AcDbPoint
 10
18.12798793991262
 20
1.586000438523241
 30
0.0
  0
POINT
  5
A4F
330
A43
100
AcDbEntity
  8
DEFPOINTS
 62
     0
100
AcDbPoint
 10
17.20937826498118
 20
1.586000438523241
 30
0.0
  0
ENDBLK
  5
A45
330
A43
100
AcDbEntity
  8
0
100
AcDbBlockEnd
  0
BLOCK
  5
A55
330
A54
100
AcDbEntity
  8
0
100
AcDbBlockBegin
  2
*D30
 70
     1
 10
0.0
 20
0.0
 30
0.0
  3
*D30
  1

  0
LINE
  5
A57
330
A54
100
AcDbEntity
  8
0
 62
     0
100
AcDbLine
 10
20.60411774271224
 20
-0.4216861552620389
 30
0.0
 11
19.87476339430087
 21
-0.5502910053840078
 31
0.0
  0
LINE
  5
A58
330
A54
100
AcDbEntity
  8
0
 62
     0
100
AcDbLine
 10
20.38370901682666
 20
0.8283138447379602
 30
0.0
 11
19.65435466841528
 21
0.6997089946159913
 31
0.0
  0
LINE
  5
A59
330
A54
100
AcDbEntity
  8
0
 62
     0
100
AcDbLine
 10
20.02077211786301
 20
-0.3417689378617626
 30
0.0
 11
19.97389654142134
 21
-0.0759243334039606
 31
0.0
  0
LINE
  5
A5A
330
A54
100
AcDbEntity
  8
0
 62
     0
100
AcDbLine
 10
19.86287673593753
 20
0.5537002710538417
 30
0.0
 11
19.90975231237921
 21
0.2878556665960398
 31
0.0
  0
SOLID
  5
A5B
330
A54
100
AcDbEntity
  8
0
 62
     0
100
AcDbTrace
 10
19.99122788527265
 20
-0.3469783831917705
 30
0.0
 11
20.05031635045338
 21
-0.3365594925317547
 31
0.0
 12
20.05202878984306
 22
-0.51903433340396
 32
0.0
 13
20.05202878984306
 23
-0.51903433340396
 33
0.0
  0
SOLID
  5
A5C
330
A54
100
AcDbEntity
  8
0
 62
     0
100
AcDbTrace
 10
19.8924209685279
 20
0.5589097163838497
 30
0.0
 11
19.83333250334716
 21
0.5484908257238337
 31
0.0
 12
19.83162006395748
 22
0.7309656665960391
 32
0.0
 13
19.83162006395748
 23
0.7309656665960391
 33
0.0
  0
MTEXT
  5
A5D
330
A54
100
AcDbEntity
  8
0
 62
     0
100
AcDbMText
 10
19.94182442690027
 20
0.1059656665960396
 30
0.0
 40
0.18
 41
0.0
 71
     5
 72
     1
  1
\A1;1.2693
  0
POINT
  5
A5E
330
A54
100
AcDbEntity
  8
DEFPOINTS
 62
     0
100
AcDbPoint
 10
20.6656682272755
 20
-0.4108331441578557
 30
0.0
  0
POINT
  5
A5F
330
A54
100
AcDbEntity
  8
DEFPOINTS
 62
     0
100
AcDbPoint
 10
20.44525950138992
 20
0.8391668558421435
 30
0.0
  0
POINT
  5
A60
330
A54
100
AcDbEntity
  8
DEFPOINTS
 62
     0
100
AcDbPoint
 10
19.83162006395748
 20
0.7309656665960391
 30
0.0
  0
ENDBLK
  5
A56
330
A54
100
AcDbEntity
  8
0
100
AcDbBlockEnd
  0
BLOCK
  5
A65
330
A64
100
AcDbEntity
  8
0
100
AcDbBlockBegin
  2
*D31
 70
     1
 10
0.0
 20
0.0
 30
0.0
  3
*D31
  1

  0
LINE
  5
A67
330
A64
100
AcDbEntity
  8
0
 62
     0
100
AcDbLine
 10
17.84775345208707
 20
17.3699714655828
 30
0.0
 11
19.38926425675305
 21
17.64178141149903
 31
0.0
  0
LINE
  5
A68
330
A64
100
AcDbEntity
  8
0
 62
     0
100
AcDbLine
 10
20.97342065009182
 20
-0.35656808863694
 30
0.0
 11
22.5149314547578
 21
-0.0847581427207116
 31
0.0
  0
LINE
  5
A69
330
A64
100
AcDbEntity
  8
0
 62
     0
100
AcDbLine
 10
19.2432555331909
 20
17.43325934397679
 30
0.0
 11
20.74276034569217
 21
8.929144962409113
 31
0.0
  0
LINE
  5
A6A
330
A64
100
AcDbEntity
  8
0
 62
     0
100
AcDbLine
 10
22.30640938723555
 20
0.0612505808414384
 30
0.0
 11
20.80690457473429
 21
8.565364962409113
 31
0.0
  0
SOLID
  5
A6B
330
A64
100
AcDbEntity
  8
0
 62
     0
100
AcDbTrace
 10
19.27279976578127
 20
17.4384687893068
 30
0.0
 11
19.21371130060053
 21
17.42804989864678
 31
0.0
 12
19.21199886121085
 22
17.61052473951899
 32
0.0
 13
19.21199886121085
 23
17.61052473951899
 33
0.0
  0
SOLID
  5
A6C
330
A64
100
AcDbEntity
  8
0
 62
     0
100
AcDbTrace
 10
22.27686515464519
 20
0.0560411355114305
 30
0.0
 11
22.33595361982592
 21
0.0664600261714463
 31
0.0
 12
22.3376660592156
 22
-0.116014814700759
 32
0.0
 13
22.3376660592156
 23
-0.116014814700759
 33
0.0
  0
MTEXT
  5
A6D
330
A64
100
AcDbEntity
  8
0
 62
     0
100
AcDbMText
 10
20.77483246021323
 20
8.747254962409114
 30
0.0
 40
0.18
 41
0.0
 71
     5
 72
     1
  1
\A1;18.0000
  0
POINT
  5
A6E
330
A64
100
AcDbEntity
  8
DEFPOINTS
 62
     0
100
AcDbPoint
 10
17.78620296752381
 20
17.35911845447862
 30
0.0
  0
POINT
  5
A6F
330
A64
100
AcDbEntity
  8
DEFPOINTS
 62
     0
100
AcDbPoint
 10
20.91187016552855
 20
-0.3674210997411231
 30
0.0
  0
POINT
  5
A70
330
A64
100
AcDbEntity
  8
DEFPOINTS
 62
     0
100
AcDbPoint
 10
22.3376660592156
 20
-0.116014814700759
 30
0.0
  0
ENDBLK
  5
A66
330
A64
100
AcDbEntity
  8
0
100
AcDbBlockEnd
  0
BLOCK
  5
A9D
330
A9C
100
AcDbEntity
  8
0
100
AcDbBlockBegin
  2
*D32
 70
     1
 10
0.0
 20
0.0
 30
0.0
  3
*D32
  1

  0
LINE
  5
A9F
330
A9C
100
AcDbEntity
  8
0
 62
     0
100
AcDbLine
 10
32.52664818147055
 20
17.85499240592659
 30
0.0
 11
34.06507919335843
 21
18.12625930128105
 31
0.0
  0
LINE
  5
AA0
330
A9C
100
AcDbEntity
  8
0
 62
     0
100
AcDbLine
 10
35.40856093323787
 20
1.510853011104182
 30
0.0
 11
36.94699194512575
 21
1.782119906458641
 31
0.0
  0
LINE
  5
AA1
330
A9C
100
AcDbEntity
  8
0
 62
     0
100
AcDbLine
 10
33.91907046979627
 20
17.91773723375881
 30
0.0
 11
35.29669805917883
 21
10.1048229318898
 31
0.0
  0
LINE
  5
AA2
330
A9C
100
AcDbEntity
  8
0
 62
     0
100
AcDbLine
 10
36.73846987760351
 20
1.928128630020791
 30
0.0
 11
35.36084228822095
 21
9.741042931889801
 31
0.0
  0
SOLID
  5
AA3
330
A9C
100
AcDbEntity
  8
0
 62
     0
100
AcDbTrace
 10
33.94861470238664
 20
17.92294667908882
 30
0.0
 11
33.88952623720591
 21
17.9125277884288
 31
0.0
 12
33.88781379781623
 22
18.09500262930101
 32
0.0
 13
33.88781379781623
 23
18.09500262930101
 33
0.0
  0
SOLID
  5
AA4
330
A9C
100
AcDbEntity
  8
0
 62
     0
100
AcDbTrace
 10
36.70892564501314
 20
1.922919184690783
 30
0.0
 11
36.76801411019387
 21
1.933338075350799
 31
0.0
 12
36.76972654958355
 22
1.750863234478594
 32
0.0
 13
36.76972654958355
 23
1.750863234478594
 33
0.0
  0
MTEXT
  5
AA5
330
A9C
100
AcDbEntity
  8
0
 62
     0
100
AcDbMText
 10
35.32877017369989
 20
9.9229329318898
 30
0.0
 40
0.18
 41
0.0
 71
     5
 72
     1
  1
\A1;16.5963
  0
POINT
  5
AA6
330
A9C
100
AcDbEntity
  8
DEFPOINTS
 62
     0
100
AcDbPoint
 10
32.46509769690729
 20
17.84413939482241
 30
0.0
  0
POINT
  5
AA7
330
A9C
100
AcDbEntity
  8
DEFPOINTS
 62
     0
100
AcDbPoint
 10
35.34701044867461
 20
1.499999999999999
 30
0.0
  0
POINT
  5
AA8
330
A9C
100
AcDbEntity
  8
DEFPOINTS
 62
     0
100
AcDbPoint
 10
36.76972654958355
 20
1.750863234478594
 30
0.0
  0
ENDBLK
  5
A9E
330
A9C
100
AcDbEntity
  8
0
100
AcDbBlockEnd
  0
BLOCK
  5
B17
330
AF4
100
AcDbEntity
  8
0
100
AcDbBlockBegin
  2
A$C22867
 70
     0
 10
0.0
 20
0.0
 30
0.0
  3
A$C22867
  1

  0
LWPOLYLINE
  5
B16
330
AF4
100
AcDbEntity
  8
0
100
AcDbPolyline
 90
       10
 70
     1
 43
0.0
 10
5.156029345617668
 20
0.8048062296575758
 10
5.033447927085852
 20
1.499999999999999
 10
5.5
 20
1.499999999999999
 42
-0.414213562373095
 10
6.0
 20
0.9999999999999991
 10
6.0
 20
0.0
 10
0.0
 20
0.0
 10
0.0
 20
0.9999999999999991
 42
-0.414213562373095
 10
0.5
 20
1.499999999999999
 10
4.779591274114416
 20
1.499999999999999
 10
4.909827407364617
 20
0.7613941852408437
  0
ENDBLK
  5
B18
330
AF4
100
AcDbEntity
  8
0
100
AcDbBlockEnd
  0
ENDSEC
  0
SECTION
  2
ENTITIES
  0
LWPOLYLINE
  5
A71
330
1F
100
AcDbEntity
  8
0
100
AcDbPolyline
 90
        4
 70
     1
 43
0.0
 10
23.86781480597828
 20
4.938738846636653
 10
23.86781480597828
 20
22.43873884663665
 10
24.11781480597828
 20
22.43873884663665
 10
24.11781480597828
 20
4.938738846636653
  0
LWPOLYLINE
  5
A98
330
1F
100
AcDbEntity
  8
0
100
AcDbPolyline
 90
        4
 70
     1
 43
0.0
 10
35.25773886782552
 20
0.5665916726920415
 10
32.21889575865423
 20
17.80072735040568
 10
32.46509769690729
 20
17.84413939482241
 10
35.50394080607857
 20
0.6100037171087749
  0
DIMENSION
  5
A99
330
1F
100
AcDbEntity
  8
0
100
AcDbDimension
  2
*D32
 10
36.76972654958355
 20
1.750863234478594
 30
0.0
 11
35.32877017369989
 21
9.9229329318898
 31
0.0
 70
    33
  3
STANDARD
100
AcDbAlignedDimension
 13
32.46509769690729
 23
17.84413939482241
 33
0.0
 14
35.34701044867461
 24
1.499999999999999
 34
0.0
1001
ACAD
1000
DSTYLE
1002
{
1070
   287
1070
     5
1070
   144
1040
1.0
1070
   279
1070
     2
1002
}
  0
LWPOLYLINE
  5
BDC
330
1F
100
AcDbEntity
  8
0
100
AcDbPolyline
 90
       12
 70
     1
 43
0.0
 10
10.75
 20
2.249999999999999
 10
1.25
 20
2.249999999999999
 10
1.25
 20
3.062499999999999
 10
0.9999999999999999
 20
3.062499999999999
 10
1.000000000000002
 20
2.249999999999999
 10
0.0
 20
2.249999999999999
 10
0.0
 20
19.75
 10
12.0
 20
19.75
 10
12.0
 20
2.249999999999999
 10
11.0
 20
2.249999999999999
 10
11.0
 20
3.062499999999999
 10
10.75
 20
3.062499999999999
  0
LWPOLYLINE
  5
C17
330
1F
100
AcDbEntity
  8
0
100
AcDbPolyline
 90
       10
 70
     1
 43
0.0
 10
11.54188235672185
 20
0.7432557450943128
 10
11.40844792708585
 20
1.499999999999999
 10
11.875
 20
1.499999999999999
 42
-0.414213562373095
 10
12.375
 20
0.9999999999999991
 10
12.375
 20
0.0
 10
6.375
 20
0.0
 10
6.375
 20
0.9999999999999992
 42
-0.414213562373095
 10
6.875
 20
1.499999999999999
 10
11.15459127411442
 20
1.499999999999999
 10
11.2956804184688
 20
0.6998437006775807
  0
LWPOLYLINE
  5
C48
330
1F
100
AcDbEntity
  8
0
100
AcDbPolyline
 90
       10
 70
     1
 43
0.0
 10
5.166882356721851
 20
0.7432557450943128
 10
5.033447927085852
 20
1.499999999999999
 10
5.5
 20
1.499999999999999
 42
-0.414213562373095
 10
6.0
 20
0.9999999999999991
 10
6.0
 20
0.0
 10
0.0
 20
0.0
 10
0.0
 20
0.9999999999999992
 42
-0.414213562373095
 10
0.5
 20
1.499999999999999
 10
4.779591274114416
 20
1.499999999999999
 10
4.9206804184688
 20
0.6998437006775807
  0
LWPOLYLINE
  5
C7A
330
1F
100
AcDbEntity
  8
0
100
AcDbPolyline
 90
        4
 70
     1
 43
0.0
 10
39.79714048639963
 20
10.33965590055594
 10
39.79714048639963
 20
26.33965590055594
 10
51.79714048639963
 20
26.33965590055594
 10
51.79714048639963
 20
10.33965590055594
  0
LWPOLYLINE
  5
C7B
330
1F
100
AcDbEntity
  8
0
100
AcDbPolyline
 90
        4
 70
     1
 43
0.0
 10
40.29714048639963
 20
10.83965590055594
 10
40.29714048639963
 20
25.83965590055594
 10
51.29714048639963
 20
25.83965590055594
 10
51.29714048639963
 20
10.83965590055594
  0
CIRCLE
  5
CA3
330
1F
100
AcDbEntity
  8
0
100
AcDbCircle
 10
0.4999999999999991
 20
19.25
 30
0.0
 40
0.2375
  0
CIRCLE
  5
CCA
330
1F
100
AcDbEntity
  8
0
100
AcDbCircle
 10
11.5
 20
19.25
 30
0.0
 40
0.2375
  0
CIRCLE
  5
CF1
330
1F
100
AcDbEntity
  8
0
100
AcDbCircle
 10
11.5
 20
4.25
 30
0.0
 40
0.2375
  0
CIRCLE
  5
D18
330
1F
100
AcDbEntity
  8
0
100
AcDbCircle
 10
0.5
 20
4.25
 30
0.0
 40
0.2375
  0
TEXT
  5
D1A
330
1F
100
AcDbEntity
  8
0
100
AcDbText
 10
3.449600907799493
 20
11.82523201843555
 30
0.0
 40
1.0
  1
FOR
100
AcDbText
  0
TEXT
  5
D1B
330
1F
100
AcDbEntity
  8
0
100
AcDbText
 10
3.449600907799493
 20
10.32523201843555
 30
0.0
 40
1.0
  1
1/4 IN
100
AcDbText
  0
TEXT
  5
D1C
330
1F
100
AcDbEntity
  8
0
100
AcDbText
 10
3.449600907799493
 20
8.825232018435553
 30
0.0
 40
1.0
  1
MDF
100
AcDbText
  0
ENDSEC
  0
SECTION
  2
OBJECTS
  0
DICTIONARY
  5
C
330
0
100
AcDbDictionary
  3
ACAD_DETAILVIEWSTYLE
350
122
  3
ACAD_GROUP
350
D
  3
ACAD_IMAGE_VARS
350
DC
  3
ACAD_MLINESTYLE
350
17
  3
ACAD_SCALELIST
350
D21
  3
ACAD_SECTIONVIEWSTYLE
350
123
  3
ACDBVARIABLEDICTIONARY
350
66
  3
APPDATA
350
E1
  3
CENTERLINE
350
12D
  3
DIMOFFSETDICTIONARY
350
128
  3
DWGPROPS
350
D67
  0
DICTIONARY
  5
122
102
{ACAD_REACTORS
330
C
102
}
330
C
100
AcDbDictionary
  0
DICTIONARY
  5
D
102
{ACAD_REACTORS
330
C
102
}
330
C
100
AcDbDictionary
  0
RASTERVARIABLES
  5
DC
102
{ACAD_REACTORS
330
C
102
}
330
C
100
AcDbRasterVariables
 90
        0
 70
     1
 71
     1
 72
     5
  0
DICTIONARY
  5
17
102
{ACAD_REACTORS
330
C
102
}
330
C
100
AcDbDictionary
  3
STANDARD
350
18
  0
DICTIONARY
  5
D21
102
{ACAD_REACTORS
330
C
102
}
330
C
100
AcDbDictionary
  0
DICTIONARY
  5
123
102
{ACAD_REACTORS
330
C
102
}
330
C
100
AcDbDictionary
  0
DICTIONARY
  5
66
102
{ACAD_REACTORS
330
C
102
}
330
C
100
AcDbDictionary
  3
DIMASSOC
350
67
  3
HIDETEXT
350
6B
  0
DICTIONARY
  5
E1
102
{ACAD_REACTORS
330
C
102
}
330
C
100
AcDbDictionary
  0
DICTIONARY
  5
12D
102
{ACAD_REACTORS
330
C
102
}
330
C
100
AcDbDictionary
  3
CLEXTENSION
350
84E
  0
DICTIONARY
  5
128
102
{ACAD_REACTORS
330
C
102
}
330
C
100
AcDbDictionary
  3
DIMRAILANGLE
350
84C
  3
DIMRAILFIRSTOFFSET
350
84A
  3
DIMRAILOFFSET
350
84B
  3
DIMRAILSENABLED
350
84D
  0
XRECORD
  5
D67
102
{ACAD_REACTORS
330
C
102
}
330
C
100
AcDbXrecord
  1
DWGPROPS COOKIE
  2

  3

  4

  6

  7

  8
jerem
  9

300
=
301
=
302
=
303
=
304
=
305
=
306
=
307
=
308
=
309
=
 40
0.0
 41
2452643.105050926
 42
2458107.536475613
  1

 90
        0
  0
MLINESTYLE
  5
18
102
{ACAD_REACTORS
330
17
102
}
330
17
100
AcDbMlineStyle
  2
STANDARD
 70
     0
  3

 62
   256
 51
90.0
 52
90.0
 71
     2
 49
0.5
 62
   256
  6
BYLAYER
 49
-0.5
 62
   256
  6
BYLAYER
  0
DICTIONARYVAR
  5
67
102
{ACAD_REACTORS
330
66
102
}
330
66
100
DictionaryVariables
280
     0
  1
2
  0
DICTIONARYVAR
  5
6B
102
{ACAD_REACTORS
330
66
102
}
330
66
100
DictionaryVariables
280
     0
  1
1
  0
DICTIONARYVAR
  5
84E
102
{ACAD_REACTORS
330
12D
102
}
330
12D
100
DictionaryVariables
280
     0
  1
0.250000
  0
DICTIONARYVAR
  5
84C
102
{ACAD_REACTORS
330
128
102
}
330
128
100
DictionaryVariables
280
     0
  1
0.261799
  0
DICTIONARYVAR
  5
84A
102
{ACAD_REACTORS
330
128
102
}
330
128
100
DictionaryVariables
280
     0
  1
0.400000
  0
DICTIONARYVAR
  5
84B
102
{ACAD_REACTORS
330
128
102
}
330
128
100
DictionaryVariables
280
     0
  1
0.250000
  0
DICTIONARYVAR
  5
84D
102
{ACAD_REACTORS
330
128
102
}
330
128
100
DictionaryVariables
280
     0
  1
0
  0
ENDSEC
  0
EOF
