  0
SECTION
  2
HEADER
  9
$ACADVER
  1
AC1009
  9
$DWGCODEPAGE
  3
ansi_1252
  9
$INSBASE
 10
0.0
 20
0.0
 30
0.0
  9
$EXTMIN
 10
-36.37500000000001
 20
-23.08350254915745
 30
0.0
  9
$EXTMAX
 10
37.69740006046492
 20
40.9375
 30
0.0
  9
$LIMMIN
 10
0.0
 20
0.0
  9
$LIMMAX
 10
12.0
 20
9.0
  9
$ORTHOMODE
 70
     0
  9
$REGENMODE
 70
     1
  9
$FILLMODE
 70
     1
  9
$QTEXTMODE
 70
     0
  9
$MIRRTEXT
 70
     1
  9
$DRAGMODE
 70
     2
  9
$LTSCALE
 40
1.0
  9
$OSMODE
 70
    37
  9
$ATTMODE
 70
     1
  9
$TEXTSIZE
 40
0.2
  9
$TRACEWID
 40
0.05
  9
$TEXTSTYLE
  7
STANDARD
  9
$CLAYER
  8
DIMENTIONS
  9
$CELTYPE
  6
BYLAYER
  9
$CECOLOR
 62
   256
  9
$DIMSCALE
 40
1.0
  9
$DIMASZ
 40
0.18
  9
$DIMEXO
 40
0.0625
  9
$DIMDLI
 40
0.38
  9
$DIMRND
 40
0.0
  9
$DIMDLE
 40
0.0
  9
$DIMEXE
 40
0.18
  9
$DIMTP
 40
0.0
  9
$DIMTM
 40
0.0
  9
$DIMTXT
 40
0.18
  9
$DIMCEN
 40
0.09
  9
$DIMTSZ
 40
0.0
  9
$DIMTOL
 70
     0
  9
$DIMLIM
 70
     0
  9
$DIMTIH
 70
     1
  9
$DIMTOH
 70
     1
  9
$DIMSE1
 70
     0
  9
$DIMSE2
 70
     0
  9
$DIMTAD
 70
     0
  9
$DIMZIN
 70
     0
  9
$DIMBLK
  1

  9
$DIMASO
 70
     1
  9
$DIMSHO
 70
     1
  9
$DIMPOST
  1

  9
$DIMAPOST
  1

  9
$DIMALT
 70
     0
  9
$DIMALTD
 70
     2
  9
$DIMALTF
 40
25.4
  9
$DIMLFAC
 40
1.0
  9
$DIMTOFL
 70
     0
  9
$DIMTVP
 40
0.0
  9
$DIMTIX
 70
     0
  9
$DIMSOXD
 70
     0
  9
$DIMSAH
 70
     0
  9
$DIMBLK1
  1

  9
$DIMBLK2
  1

  9
$DIMSTYLE
  2
STANDARD
  9
$DIMCLRD
 70
     0
  9
$DIMCLRE
 70
     0
  9
$DIMCLRT
 70
     0
  9
$DIMTFAC
 40
1.0
  9
$DIMGAP
 40
0.09
  9
$LUNITS
 70
     2
  9
$LUPREC
 70
     3
  9
$SKETCHINC
 40
0.1
  9
$FILLETRAD
 40
0.5
  9
$AUNITS
 70
     0
  9
$AUPREC
 70
     0
  9
$MENU
  1
.
  9
$ELEVATION
 40
0.0
  9
$PELEVATION
 40
0.0
  9
$THICKNESS
 40
0.0
  9
$LIMCHECK
 70
     0
  9
$CHAMFERA
 40
0.5
  9
$CHAMFERB
 40
0.5
  9
$SKPOLY
 70
     0
  9
$TDCREATE
 40
2454624.422596423
  9
$TDUPDATE
 40
2454624.464263102
  9
$TDINDWG
 40
0.0000000116
  9
$TDUSRTIMER
 40
0.0000000116
  9
$USRTIMER
 70
     1
  9
$ANGBASE
 50
0.0
  9
$ANGDIR
 70
     0
  9
$PDMODE
 70
     0
  9
$PDSIZE
 40
0.0
  9
$PLINEWID
 40
0.0
  9
$COORDS
 70
     1
  9
$SPLFRAME
 70
     0
  9
$SPLINETYPE
 70
     6
  9
$SPLINESEGS
 70
     8
  9
$ATTDIA
 70
     0
  9
$ATTREQ
 70
     1
  9
$HANDLING
 70
     1
  9
$HANDSEED
  5
3CC
  9
$SURFTAB1
 70
     6
  9
$SURFTAB2
 70
     6
  9
$SURFTYPE
 70
     6
  9
$SURFU
 70
     6
  9
$SURFV
 70
     6
  9
$UCSNAME
  2

  9
$UCSORG
 10
0.0
 20
0.0
 30
0.0
  9
$UCSXDIR
 10
1.0
 20
0.0
 30
0.0
  9
$UCSYDIR
 10
0.0
 20
1.0
 30
0.0
  9
$PUCSNAME
  2

  9
$PUCSORG
 10
0.0
 20
0.0
 30
0.0
  9
$PUCSXDIR
 10
1.0
 20
0.0
 30
0.0
  9
$PUCSYDIR
 10
0.0
 20
1.0
 30
0.0
  9
$USERI1
 70
     0
  9
$USERI2
 70
     0
  9
$USERI3
 70
     0
  9
$USERI4
 70
     0
  9
$USERI5
 70
     0
  9
$USERR1
 40
0.0
  9
$USERR2
 40
0.0
  9
$USERR3
 40
0.0
  9
$USERR4
 40
0.0
  9
$USERR5
 40
0.0
  9
$WORLDVIEW
 70
     1
  9
$SHADEDGE
 70
     3
  9
$SHADEDIF
 70
    70
  9
$TILEMODE
 70
     1
  9
$MAXACTVP
 70
    64
  9
$PLIMCHECK
 70
     0
  9
$PEXTMIN
 10
1.000000000000000E+20
 20
1.000000000000000E+20
 30
1.000000000000000E+20
  9
$PEXTMAX
 10
-1.000000000000000E+20
 20
-1.000000000000000E+20
 30
-1.000000000000000E+20
  9
$PLIMMIN
 10
0.0
 20
0.0
  9
$PLIMMAX
 10
12.0
 20
9.0
  9
$UNITMODE
 70
     0
  9
$VISRETAIN
 70
     1
  9
$PLINEGEN
 70
     0
  9
$PSLTSCALE
 70
     1
  0
ENDSEC
  0
SECTION
  2
TABLES
  0
TABLE
  2
VPORT
 70
     2
  0
VPORT
  2
*ACTIVE
 70
     0
 10
0.0
 20
0.0
 11
1.0
 21
1.0
 12
-1.353670326995903
 22
16.78562044720381
 13
0.0
 23
0.0
 14
0.5
 24
0.5
 15
0.5
 25
0.5
 16
0.0
 26
0.0
 36
1.0
 17
0.0
 27
0.0
 37
0.0
 40
65.08390993818344
 41
1.6
 42
50.0
 43
0.0
 44
0.0
 50
0.0
 51
0.0
 71
     0
 72
   100
 73
     1
 74
     3
 75
     0
 76
     0
 77
     0
 78
     0
  0
ENDTAB
  0
TABLE
  2
LTYPE
 70
     1
  0
LTYPE
  2
CONTINUOUS
 70
     0
  3
Solid line
 72
    65
 73
     0
 40
0.0
  0
ENDTAB
  0
TABLE
  2
LAYER
 70
    11
  0
LAYER
  2
0
 70
     0
 62
     7
  6
CONTINUOUS
  0
LAYER
  2
DIMENTIONS
 70
     0
 62
     3
  6
CONTINUOUS
  0
LAYER
  2
DEFPOINTS
 70
     0
 62
     7
  6
CONTINUOUS
  0
LAYER
  2
BACK_REST
 70
     0
 62
     1
  6
CONTINUOUS
  0
LAYER
  2
FOOT_REST
 70
     0
 62
     7
  6
CONTINUOUS
  0
LAYER
  2
FRONT_AND_BACL_SUPORT_PANE
 70
     0
 62
     7
  6
CONTINUOUS
  0
LAYER
  2
SEAT
 70
     0
 62
     7
  6
CONTINUOUS
  0
LAYER
  2
HEAD_AND_TAIL
 70
     0
 62
     1
  6
CONTINUOUS
  0
LAYER
  2
FRONT_HANDLES
 70
     0
 62
     7
  6
CONTINUOUS
  0
LAYER
  2
SIDE_PROFILE
 70
     0
 62
     5
  6
CONTINUOUS
  0
LAYER
  2
TRNON_HOLES
 70
     0
 62
    30
  6
CONTINUOUS
  0
ENDTAB
  0
TABLE
  2
STYLE
 70
     2
  0
STYLE
  2
STANDARD
 70
     0
 40
0.0
 41
1.0
 50
0.0
 71
     0
 42
0.2
  3
txt
  4

  0
STYLE
  2
ARIAL
 70
     0
 40
0.0
 41
1.0
 50
0.0
 71
     0
 42
0.0
  3
ARIAL.TTF
  4

  0
ENDTAB
  0
TABLE
  2
VIEW
 70
     0
  0
ENDTAB
  0
TABLE
  2
UCS
 70
     0
  0
ENDTAB
  0
TABLE
  2
APPID
 70
     1
  0
APPID
  2
ACAD
 70
     0
  0
ENDTAB
  0
TABLE
  2
DIMSTYLE
 70
     2
  0
DIMSTYLE
  2
STANDARD
 70
     0
  3

  4

  5

  6

  7

 40
1.0
 41
0.18
 42
0.0625
 43
0.38
 44
0.18
 45
0.0
 46
0.0
 47
0.0
 48
0.0
140
0.18
141
0.09
142
0.0
143
25.4
144
1.0
145
0.0
146
1.0
147
0.09
 71
     0
 72
     0
 73
     1
 74
     1
 75
     0
 76
     0
 77
     0
 78
     0
170
     0
171
     2
172
     0
173
     0
174
     0
175
     0
176
     0
177
     0
178
     0
  0
DIMSTYLE
  2
DEFAULT
 70
     0
  3

  4

  5

  6

  7

 40
1.0
 41
1.0
 42
0.5
 43
0.38
 44
0.5
 45
0.0
 46
0.0
 47
0.0
 48
0.0
140
1.0
141
0.5
142
0.0
143
25.4
144
1.0
145
0.0
146
1.0
147
0.09
 71
     0
 72
     0
 73
     0
 74
     0
 75
     0
 76
     0
 77
     1
 78
     0
170
     0
171
     2
172
     0
173
     0
174
     0
175
     0
176
     0
177
     0
178
     0
  0
ENDTAB
  0
ENDSEC
  0
SECTION
  2
BLOCKS
  0
BLOCK
  8
0
  2
$MODEL_SPACE
 70
     0
 10
0.0
 20
0.0
 30
0.0
  3
$MODEL_SPACE
  1

  0
ENDBLK
  5
21
  8
0
  0
BLOCK
 67
     1
  8
0
  2
$PAPER_SPACE
 70
     0
 10
0.0
 20
0.0
 30
0.0
  3
$PAPER_SPACE
  1

  0
ENDBLK
  5
1D
 67
     1
  8
0
  0
BLOCK
  8
0
  2
$PAPER_SPACE0
 70
     0
 10
0.0
 20
0.0
 30
0.0
  3
$PAPER_SPACE0
  1

  0
ENDBLK
  5
25
  8
0
  0
BLOCK
  8
0
  2
*D1
 70
     1
 10
0.0
 20
0.0
 30
0.0
  3
*D1
  1

  0
LINE
  5
30
  8
DIMENTIONS
 62
     0
 10
-16.75884125978424
 20
19.33310782698144
 30
0.0
 11
-12.875
 21
19.33310782698144
 31
0.0
  0
LINE
  5
31
  8
DIMENTIONS
 62
     0
 10
-17.375
 20
10.12500000000003
 30
0.0
 11
-12.875
 21
10.12500000000003
 31
0.0
  0
LINE
  5
32
  8
DIMENTIONS
 62
     0
 10
-13.375
 20
20.33310782698144
 30
0.0
 11
-13.375
 21
23.78380391349074
 31
0.0
  0
LINE
  5
33
  8
DIMENTIONS
 62
     0
 10
-13.375
 20
9.125000000000028
 30
0.0
 11
-13.375
 21
5.674303913490734
 31
0.0
  0
SOLID
  5
34
  8
DIMENTIONS
 62
     0
 10
-13.54166666666667
 20
20.33310782698144
 30
0.0
 11
-13.20833333333333
 21
20.33310782698144
 31
0.0
 12
-13.375
 22
19.33310782698144
 32
0.0
 13
-13.375
 23
19.33310782698144
 33
0.0
  0
SOLID
  5
35
  8
DIMENTIONS
 62
     0
 10
-13.20833333333333
 20
9.125000000000028
 30
0.0
 11
-13.54166666666667
 21
9.125000000000028
 31
0.0
 12
-13.375
 22
10.12500000000003
 32
0.0
 13
-13.375
 23
10.12500000000003
 33
0.0
  0
TEXT
  5
36
  8
DIMENTIONS
 62
     0
 10
-13.484
 20
12.69405391349073
 30
0.0
 40
1.0
  1
9.2081
 50
90.0
  7
ARIAL
  0
POINT
  5
37
  8
DEFPOINTS
 62
     0
 10
-17.25884125978424
 20
19.33310782698144
 30
0.0
  0
POINT
  5
38
  8
DEFPOINTS
 62
     0
 10
-17.875
 20
10.12500000000003
 30
0.0
  0
POINT
  5
39
  8
DEFPOINTS
 62
     0
 10
-13.375
 20
10.12500000000003
 30
0.0
  0
ENDBLK
  5
3B
  8
0
  0
BLOCK
  8
0
  2
*D2
 70
     1
 10
0.0
 20
0.0
 30
0.0
  3
*D2
  1

  0
LINE
  5
F9
  8
DIMENTIONS
 62
     0
 10
-26.375
 20
19.625
 30
0.0
 11
-24.0
 21
19.625
 31
0.0
  0
LINE
  5
FA
  8
DIMENTIONS
 62
     0
 10
-29.5
 20
9.625000000000014
 30
0.0
 11
-24.0
 21
9.625000000000014
 31
0.0
  0
LINE
  5
FB
  8
DIMENTIONS
 62
     0
 10
-24.5
 20
20.625
 30
0.0
 11
-24.5
 21
29.67775000000001
 31
0.0
  0
LINE
  5
FC
  8
DIMENTIONS
 62
     0
 10
-24.5
 20
8.625000000000014
 30
0.0
 11
-24.5
 21
-0.4277499999999925
 31
0.0
  0
SOLID
  5
FD
  8
DIMENTIONS
 62
     0
 10
-24.66666666666667
 20
20.625
 30
0.0
 11
-24.33333333333333
 21
20.625
 31
0.0
 12
-24.5
 22
19.625
 32
0.0
 13
-24.5
 23
19.625
 33
0.0
  0
SOLID
  5
FE
  8
DIMENTIONS
 62
     0
 10
-24.33333333333333
 20
8.625000000000014
 30
0.0
 11
-24.66666666666667
 21
8.625000000000014
 31
0.0
 12
-24.5
 22
9.625000000000014
 32
0.0
 13
-24.5
 23
9.625000000000014
 33
0.0
  0
TEXT
  5
FF
  8
DIMENTIONS
 62
     0
 10
-24.609
 20
12.06050000000001
 30
0.0
 40
1.0
  1
10.0000
 50
90.0
  7
ARIAL
  0
POINT
  5
100
  8
DEFPOINTS
 62
     0
 10
-26.875
 20
19.625
 30
0.0
  0
POINT
  5
101
  8
DEFPOINTS
 62
     0
 10
-30.0
 20
9.625000000000014
 30
0.0
  0
POINT
  5
102
  8
DEFPOINTS
 62
     0
 10
-24.5
 20
9.625000000000014
 30
0.0
  0
ENDBLK
  5
104
  8
0
  0
BLOCK
  8
0
  2
*D3
 70
     1
 10
0.0
 20
0.0
 30
0.0
  3
*D3
  1

  0
LINE
  5
107
  8
DIMENTIONS
 62
     0
 10
-26.375
 20
19.625
 30
0.0
 11
-26.375
 21
22.375
 31
0.0
  0
LINE
  5
108
  8
DIMENTIONS
 62
     0
 10
-36.375
 20
19.62499999999903
 30
0.0
 11
-36.375
 21
22.375
 31
0.0
  0
LINE
  5
109
  8
DIMENTIONS
 62
     0
 10
-25.375
 20
21.875
 30
0.0
 11
-13.185
 21
21.875
 31
0.0
  0
LINE
  5
10A
  8
DIMENTIONS
 62
     0
 10
-37.375
 20
21.875
 30
0.0
 11
-49.565
 21
21.875
 31
0.0
  0
SOLID
  5
10B
  8
DIMENTIONS
 62
     0
 10
-25.375
 20
22.04166666666667
 30
0.0
 11
-25.375
 21
21.70833333333333
 31
0.0
 12
-26.375
 22
21.875
 32
0.0
 13
-26.375
 23
21.875
 33
0.0
  0
SOLID
  5
10C
  8
DIMENTIONS
 62
     0
 10
-37.375
 20
21.70833333333333
 30
0.0
 11
-37.375
 21
22.04166666666667
 31
0.0
 12
-36.375
 22
21.875
 32
0.0
 13
-36.375
 23
21.875
 33
0.0
  0
TEXT
  5
10D
  8
DIMENTIONS
 62
     0
 10
-33.9395
 20
21.984
 30
0.0
 40
1.0
  1
10.0000
  7
ARIAL
  0
POINT
  5
10E
  8
DEFPOINTS
 62
     0
 10
-26.375
 20
19.125
 30
0.0
  0
POINT
  5
10F
  8
DEFPOINTS
 62
     0
 10
-36.375
 20
19.12499999999903
 30
0.0
  0
POINT
  5
110
  8
DEFPOINTS
 62
     0
 10
-36.375
 20
21.875
 30
0.0
  0
ENDBLK
  5
112
  8
0
  0
BLOCK
  8
0
  2
*D4
 70
     1
 10
0.0
 20
0.0
 30
0.0
  3
*D4
  1

  0
LINE
  5
115
  8
DIMENTIONS
 62
     0
 10
-22.92735311279952
 20
20.60141274775019
 30
0.0
 11
-22.92735311279952
 21
24.5
 31
0.0
  0
LINE
  5
116
  8
DIMENTIONS
 62
     0
 10
-15.57271132863241
 20
20.48936477013631
 30
0.0
 11
-15.57271132863241
 21
24.5
 31
0.0
  0
LINE
  5
117
  8
DIMENTIONS
 62
     0
 10
-23.92735311279952
 20
24.0
 30
0.0
 11
-31.03454833107395
 21
24.0
 31
0.0
  0
LINE
  5
118
  8
DIMENTIONS
 62
     0
 10
-14.57271132863241
 20
24.0
 30
0.0
 11
-7.465516110357982
 21
24.0
 31
0.0
  0
SOLID
  5
119
  8
DIMENTIONS
 62
     0
 10
-23.92735311279952
 20
23.83333333333333
 30
0.0
 11
-23.92735311279952
 21
24.16666666666667
 31
0.0
 12
-22.92735311279952
 22
24.0
 32
0.0
 13
-22.92735311279952
 23
24.0
 33
0.0
  0
SOLID
  5
11A
  8
DIMENTIONS
 62
     0
 10
-14.57271132863241
 20
24.16666666666667
 30
0.0
 11
-14.57271132863241
 21
23.83333333333333
 31
0.0
 12
-15.57271132863241
 22
24.0
 32
0.0
 13
-15.57271132863241
 23
24.0
 33
0.0
  0
TEXT
  5
11B
  8
DIMENTIONS
 62
     0
 10
-21.38553222071597
 20
24.109
 30
0.0
 40
1.0
  1
7.3546
  7
ARIAL
  0
POINT
  5
11C
  8
DEFPOINTS
 62
     0
 10
-22.92735311279952
 20
20.10141274775019
 30
0.0
  0
POINT
  5
11D
  8
DEFPOINTS
 62
     0
 10
-15.57271132863241
 20
19.98936477013631
 30
0.0
  0
POINT
  5
11E
  8
DEFPOINTS
 62
     0
 10
-15.57271132863241
 20
24.0
 30
0.0
  0
ENDBLK
  5
120
  8
0
  0
BLOCK
  8
0
  2
*D5
 70
     1
 10
0.0
 20
0.0
 30
0.0
  3
*D5
  1

  0
LINE
  5
123
  8
DIMENTIONS
 62
     0
 10
5.094739177228272
 20
15.5
 30
0.0
 11
9.375000000000004
 21
15.5
 31
0.0
  0
LINE
  5
124
  8
DIMENTIONS
 62
     0
 10
-4.867997821867241
 20
23.13943873603486
 30
0.0
 11
9.375000000000004
 21
23.13943873603486
 31
0.0
  0
LINE
  5
125
  8
DIMENTIONS
 62
     0
 10
8.875
 20
14.5
 30
0.0
 11
8.875
 21
13.02496936801743
 31
0.0
  0
LINE
  5
126
  8
DIMENTIONS
 62
     0
 10
8.875
 20
24.13943873603486
 30
0.0
 11
8.875
 21
25.61446936801743
 31
0.0
  0
SOLID
  5
127
  8
DIMENTIONS
 62
     0
 10
9.041666666666666
 20
14.5
 30
0.0
 11
8.708333333333334
 21
14.5
 31
0.0
 12
8.875
 22
15.5
 32
0.0
 13
8.875
 23
15.5
 33
0.0
  0
SOLID
  5
128
  8
DIMENTIONS
 62
     0
 10
8.708333333333334
 20
24.13943873603486
 30
0.0
 11
9.041666666666666
 21
24.13943873603486
 31
0.0
 12
8.875
 22
23.13943873603486
 32
0.0
 13
8.875
 23
23.13943873603486
 33
0.0
  0
TEXT
  5
129
  8
DIMENTIONS
 62
     0
 10
7.783000000000001
 20
21.45321936801743
 30
0.0
 40
1.0
  1
7.6394
 50
270.0
  7
ARIAL
  0
POINT
  5
12A
  8
DEFPOINTS
 62
     0
 10
4.594739177228272
 20
15.5
 30
0.0
  0
POINT
  5
12B
  8
DEFPOINTS
 62
     0
 10
-5.367997821867241
 20
23.13943873603486
 30
0.0
  0
POINT
  5
12C
  8
DEFPOINTS
 62
     0
 10
8.875000000000004
 20
23.13943873603486
 30
0.0
  0
ENDBLK
  5
12E
  8
0
  0
BLOCK
  8
0
  2
*D6
 70
     1
 10
0.0
 20
0.0
 30
0.0
  3
*D6
  1

  0
LINE
  5
131
  8
DIMENTIONS
 62
     0
 10
6.874999999997108
 20
17.0
 30
0.0
 11
6.874999999997108
 21
13.0
 31
0.0
  0
LINE
  5
132
  8
DIMENTIONS
 62
     0
 10
-8.234592801153465
 20
20.90413908467487
 30
0.0
 11
-8.234592801153465
 21
13.0
 31
0.0
  0
LINE
  5
133
  8
DIMENTIONS
 62
     0
 10
5.874999999997108
 20
13.5
 30
0.0
 11
2.164601799710911
 21
13.5
 31
0.0
  0
LINE
  5
134
  8
DIMENTIONS
 62
     0
 10
-7.234592801153465
 20
13.5
 30
0.0
 11
-3.524194600867266
 21
13.5
 31
0.0
  0
SOLID
  5
135
  8
DIMENTIONS
 62
     0
 10
5.874999999997108
 20
13.33333333333333
 30
0.0
 11
5.874999999997108
 21
13.66666666666666
 31
0.0
 12
6.874999999997108
 22
13.5
 32
0.0
 13
6.874999999997108
 23
13.5
 33
0.0
  0
SOLID
  5
136
  8
DIMENTIONS
 62
     0
 10
-7.234592801153465
 20
13.66666666666667
 30
0.0
 11
-7.234592801153465
 21
13.33333333333333
 31
0.0
 12
-8.234592801153465
 22
13.5
 32
0.0
 13
-8.234592801153465
 23
13.5
 33
0.0
  0
TEXT
  5
137
  8
DIMENTIONS
 62
     0
 10
-3.246296400578177
 20
13.609
 30
0.0
 40
1.0
  1
15.1096
  7
ARIAL
  0
POINT
  5
138
  8
DEFPOINTS
 62
     0
 10
6.874999999997108
 20
17.5
 30
0.0
  0
POINT
  5
139
  8
DEFPOINTS
 62
     0
 10
-8.234592801153465
 20
21.40413908467487
 30
0.0
  0
POINT
  5
13A
  8
DEFPOINTS
 62
     0
 10
-8.234592801153465
 20
13.5
 30
0.0
  0
ENDBLK
  5
13C
  8
0
  0
BLOCK
  8
0
  2
*D7
 70
     1
 10
0.0
 20
0.0
 30
0.0
  3
*D7
  1

  0
LINE
  5
13F
  8
DIMENTIONS
 62
     0
 10
11.49065810722759
 20
6.500000014761961
 30
0.0
 11
11.49065810722759
 21
-0.2500000000000009
 31
0.0
  0
LINE
  5
140
  8
DIMENTIONS
 62
     0
 10
-10.99168768135231
 20
6.499992900052973
 30
0.0
 11
-10.99168768135231
 21
-0.2499999999999991
 31
0.0
  0
LINE
  5
141
  8
DIMENTIONS
 62
     0
 10
10.49065810722759
 20
0.2499999999999996
 30
0.0
 11
2.934227819406461
 21
0.2499999999999999
 31
0.0
  0
LINE
  5
142
  8
DIMENTIONS
 62
     0
 10
-9.99168768135231
 20
0.2500000000000008
 30
0.0
 11
-2.435257393531179
 21
0.2500000000000003
 31
0.0
  0
SOLID
  5
143
  8
DIMENTIONS
 62
     0
 10
10.49065810722759
 20
0.0833333333333329
 30
0.0
 11
10.49065810722759
 21
0.4166666666666662
 31
0.0
 12
11.49065810722759
 22
0.2499999999999995
 32
0.0
 13
11.49065810722759
 23
0.2499999999999995
 33
0.0
  0
SOLID
  5
144
  8
DIMENTIONS
 62
     0
 10
-9.99168768135231
 20
0.4166666666666675
 30
0.0
 11
-9.99168768135231
 21
0.0833333333333342
 31
0.0
 12
-10.99168768135231
 22
0.2500000000000009
 32
0.0
 13
-10.99168768135231
 23
0.2500000000000009
 33
0.0
  0
TEXT
  5
145
  8
DIMENTIONS
 62
     0
 10
-2.261514787062359
 20
0.3590000000000008
 30
0.0
 40
1.0
  1
22.4823
  7
ARIAL
  0
POINT
  5
146
  8
DEFPOINTS
 62
     0
 10
11.49065810722759
 20
7.000000014761961
 30
0.0
  0
POINT
  5
147
  8
DEFPOINTS
 62
     0
 10
-10.99168768135231
 20
6.999992900052973
 30
0.0
  0
POINT
  5
148
  8
DEFPOINTS
 62
     0
 10
-10.99168768135231
 20
0.2500000000000009
 30
0.0
  0
ENDBLK
  5
14A
  8
0
  0
BLOCK
  8
0
  2
*D8
 70
     1
 10
0.0
 20
0.0
 30
0.0
  3
*D8
  1

  0
LINE
  5
14D
  8
DIMENTIONS
 62
     0
 10
9.715866023351225
 20
3.625
 30
0.0
 11
15.25
 21
3.625000000000001
 31
0.0
  0
LINE
  5
14E
  8
DIMENTIONS
 62
     0
 10
9.715866023352513
 20
11.12500000000002
 30
0.0
 11
15.25
 21
11.12500000000002
 31
0.0
  0
LINE
  5
14F
  8
DIMENTIONS
 62
     0
 10
14.75
 20
2.625000000000002
 30
0.0
 11
14.75
 21
-1.85724999999999
 31
0.0
  0
LINE
  5
150
  8
DIMENTIONS
 62
     0
 10
14.75
 20
12.12500000000002
 30
0.0
 11
14.75
 21
16.60725000000001
 31
0.0
  0
SOLID
  5
151
  8
DIMENTIONS
 62
     0
 10
14.91666666666667
 20
2.625000000000002
 30
0.0
 11
14.58333333333333
 21
2.625000000000002
 31
0.0
 12
14.75
 22
3.625000000000002
 32
0.0
 13
14.75
 23
3.625000000000002
 33
0.0
  0
SOLID
  5
152
  8
DIMENTIONS
 62
     0
 10
14.58333333333333
 20
12.12500000000002
 30
0.0
 11
14.91666666666667
 21
12.12500000000002
 31
0.0
 12
14.75
 22
11.12500000000002
 32
0.0
 13
14.75
 23
11.12500000000002
 33
0.0
  0
TEXT
  5
153
  8
DIMENTIONS
 62
     0
 10
13.658
 20
9.50850000000001
 30
0.0
 40
1.0
  1
7.5000
 50
270.0
  7
ARIAL
  0
POINT
  5
154
  8
DEFPOINTS
 62
     0
 10
9.215866023351225
 20
3.625
 30
0.0
  0
POINT
  5
155
  8
DEFPOINTS
 62
     0
 10
9.215866023352513
 20
11.12500000000002
 30
0.0
  0
POINT
  5
156
  8
DEFPOINTS
 62
     0
 10
14.75
 20
11.12500000000002
 30
0.0
  0
ENDBLK
  5
158
  8
0
  0
BLOCK
  8
0
  2
*D9
 70
     1
 10
0.0
 20
0.0
 30
0.0
  3
*D9
  1

  0
LINE
  5
15B
  8
DIMENTIONS
 62
     0
 10
24.90526265263909
 20
3.999992900052973
 30
0.0
 11
17.875
 21
3.999992900052973
 31
0.0
  0
LINE
  5
15C
  8
DIMENTIONS
 62
     0
 10
32.39545916115628
 20
18.26180942436773
 30
0.0
 11
17.875
 21
18.26180942436773
 31
0.0
  0
LINE
  5
15D
  8
DIMENTIONS
 62
     0
 10
18.375
 20
2.999992900052972
 30
0.0
 11
18.375
 21
-0.2618488377896497
 31
0.0
  0
LINE
  5
15E
  8
DIMENTIONS
 62
     0
 10
18.375
 20
19.26180942436773
 30
0.0
 11
18.375
 21
22.52365116221035
 31
0.0
  0
SOLID
  5
15F
  8
DIMENTIONS
 62
     0
 10
18.54166666666667
 20
2.999992900052972
 30
0.0
 11
18.20833333333333
 21
2.999992900052972
 31
0.0
 12
18.375
 22
3.999992900052972
 32
0.0
 13
18.375
 23
3.999992900052972
 33
0.0
  0
SOLID
  5
160
  8
DIMENTIONS
 62
     0
 10
18.20833333333333
 20
19.26180942436773
 30
0.0
 11
18.54166666666667
 21
19.26180942436773
 31
0.0
 12
18.375
 22
18.26180942436773
 32
0.0
 13
18.375
 23
18.26180942436773
 33
0.0
  0
TEXT
  5
161
  8
DIMENTIONS
 62
     0
 10
17.283
 20
13.69840116221035
 30
0.0
 40
1.0
  1
14.2618
 50
270.0
  7
ARIAL
  0
POINT
  5
162
  8
DEFPOINTS
 62
     0
 10
25.40526265263909
 20
3.999992900052973
 30
0.0
  0
POINT
  5
163
  8
DEFPOINTS
 62
     0
 10
32.89545916115628
 20
18.26180942436773
 30
0.0
  0
POINT
  5
164
  8
DEFPOINTS
 62
     0
 10
18.375
 20
18.26180942436773
 30
0.0
  0
ENDBLK
  5
166
  8
0
  0
BLOCK
  8
0
  2
*D10
 70
     1
 10
0.0
 20
0.0
 30
0.0
  3
*D10
  1

  0
LINE
  5
169
  8
DIMENTIONS
 62
     0
 10
21.74234723537453
 20
7.249998148140202
 30
0.0
 11
21.74234723537453
 21
0.1250000000000009
 31
0.0
  0
LINE
  5
16A
  8
DIMENTIONS
 62
     0
 10
37.40253189263638
 20
13.45090815362594
 30
0.0
 11
37.40253189263638
 21
0.125
 31
0.0
  0
LINE
  5
16B
  8
DIMENTIONS
 62
     0
 10
20.74234723537453
 20
0.6250000000000011
 30
0.0
 11
12.28721978200273
 21
0.6250000000000016
 31
0.0
  0
LINE
  5
16C
  8
DIMENTIONS
 62
     0
 10
38.40253189263638
 20
0.6249999999999999
 30
0.0
 11
46.85765934600819
 21
0.6249999999999993
 31
0.0
  0
SOLID
  5
16D
  8
DIMENTIONS
 62
     0
 10
20.74234723537453
 20
0.4583333333333345
 30
0.0
 11
20.74234723537453
 21
0.7916666666666677
 31
0.0
 12
21.74234723537453
 22
0.625000000000001
 32
0.0
 13
21.74234723537453
 23
0.625000000000001
 33
0.0
  0
SOLID
  5
16E
  8
DIMENTIONS
 62
     0
 10
38.40253189263638
 20
0.7916666666666665
 30
0.0
 11
38.40253189263638
 21
0.4583333333333333
 31
0.0
 12
37.40253189263638
 22
0.625
 32
0.0
 13
37.40253189263638
 23
0.625
 33
0.0
  0
TEXT
  5
16F
  8
DIMENTIONS
 62
     0
 10
27.01143956400546
 20
0.7339999999999998
 30
0.0
 40
1.0
  1
15.6602
  7
ARIAL
  0
POINT
  5
170
  8
DEFPOINTS
 62
     0
 10
21.74234723537453
 20
7.749998148140202
 30
0.0
  0
POINT
  5
171
  8
DEFPOINTS
 62
     0
 10
37.40253189263638
 20
13.95090815362594
 30
0.0
  0
POINT
  5
172
  8
DEFPOINTS
 62
     0
 10
37.40253189263638
 20
0.625
 30
0.0
  0
ENDBLK
  5
174
  8
0
  0
BLOCK
  8
0
  2
*D11
 70
     1
 10
0.0
 20
0.0
 30
0.0
  3
*D11
  1

  0
LINE
  5
249
  8
DIMENTIONS
 62
     0
 10
17.1875000000001
 20
22.75
 30
0.0
 11
35.5
 21
22.75
 31
0.0
  0
LINE
  5
24A
  8
DIMENTIONS
 62
     0
 10
17.1875000000001
 20
36.5
 30
0.0
 11
35.5
 21
36.5
 31
0.0
  0
LINE
  5
24B
  8
DIMENTIONS
 62
     0
 10
35.0
 20
21.75
 30
0.0
 11
35.0
 21
9.922749999999997
 31
0.0
  0
LINE
  5
24C
  8
DIMENTIONS
 62
     0
 10
35.0
 20
37.5
 30
0.0
 11
35.0
 21
49.32725000000001
 31
0.0
  0
SOLID
  5
24D
  8
DIMENTIONS
 62
     0
 10
35.16666666666666
 20
21.75
 30
0.0
 11
34.83333333333334
 21
21.75
 31
0.0
 12
35.0
 22
22.75
 32
0.0
 13
35.0
 23
22.75
 33
0.0
  0
SOLID
  5
24E
  8
DIMENTIONS
 62
     0
 10
34.83333333333334
 20
37.5
 30
0.0
 11
35.16666666666666
 21
37.5
 31
0.0
 12
35.0
 22
36.5
 32
0.0
 13
35.0
 23
36.5
 33
0.0
  0
TEXT
  5
24F
  8
DIMENTIONS
 62
     0
 10
33.908
 20
32.1895
 30
0.0
 40
1.0
  1
13.7500
 50
270.0
  7
ARIAL
  0
POINT
  5
250
  8
DEFPOINTS
 62
     0
 10
16.6875000000001
 20
22.75
 30
0.0
  0
POINT
  5
251
  8
DEFPOINTS
 62
     0
 10
16.6875000000001
 20
36.5
 30
0.0
  0
POINT
  5
252
  8
DEFPOINTS
 62
     0
 10
35.0
 20
36.5
 30
0.0
  0
ENDBLK
  5
254
  8
0
  0
BLOCK
  8
0
  2
*D12
 70
     1
 10
0.0
 20
0.0
 30
0.0
  3
*D12
  1

  0
LINE
  5
257
  8
DIMENTIONS
 62
     0
 10
0.633755790700485
 20
29.26435741019596
 30
0.0
 11
0.6337557907004835
 21
38.75
 31
0.0
  0
LINE
  5
258
  8
DIMENTIONS
 62
     0
 10
32.74124420929918
 20
29.26435741019632
 30
0.0
 11
32.74124420929918
 21
38.75
 31
0.0
  0
LINE
  5
259
  8
DIMENTIONS
 62
     0
 10
1.633755790700484
 20
38.25
 30
0.0
 11
5.789249999999916
 21
38.25
 31
0.0
  0
LINE
  5
25A
  8
DIMENTIONS
 62
     0
 10
31.74124420929918
 20
38.25
 30
0.0
 11
27.58574999999975
 21
38.25
 31
0.0
  0
SOLID
  5
25B
  8
DIMENTIONS
 62
     0
 10
1.633755790700484
 20
38.41666666666666
 30
0.0
 11
1.633755790700484
 21
38.08333333333334
 31
0.0
 12
0.6337557907004836
 22
38.25
 32
0.0
 13
0.6337557907004836
 23
38.25
 33
0.0
  0
SOLID
  5
25C
  8
DIMENTIONS
 62
     0
 10
31.74124420929918
 20
38.08333333333334
 30
0.0
 11
31.74124420929918
 21
38.41666666666666
 31
0.0
 12
32.74124420929918
 22
38.25
 32
0.0
 13
32.74124420929918
 23
38.25
 33
0.0
  0
TEXT
  5
25D
  8
DIMENTIONS
 62
     0
 10
14.16399999999984
 20
38.359
 30
0.0
 40
1.0
  1
32.1075
  7
ARIAL
  0
POINT
  5
25E
  8
DEFPOINTS
 62
     0
 10
0.6337557907004852
 20
28.76435741019596
 30
0.0
  0
POINT
  5
25F
  8
DEFPOINTS
 62
     0
 10
32.74124420929918
 20
28.76435741019632
 30
0.0
  0
POINT
  5
260
  8
DEFPOINTS
 62
     0
 10
32.74124420929918
 20
38.25
 30
0.0
  0
ENDBLK
  5
262
  8
0
  0
BLOCK
  8
0
  2
*D13
 70
     1
 10
0.0
 20
0.0
 30
0.0
  3
*D13
  1

  0
LINE
  5
328
  8
DIMENTIONS
 62
     0
 10
-15.0
 20
2.755555791380047
 30
0.0
 11
-15.0
 21
-1.000000000000001
 31
0.0
  0
LINE
  5
329
  8
DIMENTIONS
 62
     0
 10
-33.0
 20
2.755555791380048
 30
0.0
 11
-33.0
 21
-1.0
 31
0.0
  0
LINE
  5
32A
  8
DIMENTIONS
 62
     0
 10
-14.0
 20
-0.5000000000000012
 30
0.0
 11
-9.497499999999999
 21
-0.5000000000000014
 31
0.0
  0
LINE
  5
32B
  8
DIMENTIONS
 62
     0
 10
-34.0
 20
-0.4999999999999999
 30
0.0
 11
-38.5025
 21
-0.4999999999999997
 31
0.0
  0
SOLID
  5
32C
  8
DIMENTIONS
 62
     0
 10
-14.0
 20
-0.3333333333333346
 30
0.0
 11
-14.0
 21
-0.6666666666666679
 31
0.0
 12
-15.0
 22
-0.5000000000000011
 32
0.0
 13
-15.0
 23
-0.5000000000000011
 33
0.0
  0
SOLID
  5
32D
  8
DIMENTIONS
 62
     0
 10
-34.0
 20
-0.6666666666666666
 30
0.0
 11
-34.0
 21
-0.3333333333333333
 31
0.0
 12
-33.0
 22
-0.5
 32
0.0
 13
-33.0
 23
-0.5
 33
0.0
  0
TEXT
  5
32E
  8
DIMENTIONS
 62
     0
 10
-26.5645
 20
-0.391
 30
0.0
 40
1.0
  1
18.0000
  7
ARIAL
  0
POINT
  5
32F
  8
DEFPOINTS
 62
     0
 10
-15.0
 20
3.255555791380047
 30
0.0
  0
POINT
  5
330
  8
DEFPOINTS
 62
     0
 10
-33.0
 20
3.255555791380048
 30
0.0
  0
POINT
  5
331
  8
DEFPOINTS
 62
     0
 10
-33.0
 20
-0.5
 30
0.0
  0
ENDBLK
  5
333
  8
0
  0
BLOCK
  8
0
  2
*D14
 70
     1
 10
0.0
 20
0.0
 30
0.0
  3
*D14
  1

  0
LINE
  5
336
  8
DIMENTIONS
 62
     0
 10
-33.0
 20
2.0
 30
0.0
 11
-34.875
 21
2.0
 31
0.0
  0
LINE
  5
337
  8
DIMENTIONS
 62
     0
 10
-32.99999999997613
 20
4.5
 30
0.0
 11
-34.875
 21
4.5
 31
0.0
  0
LINE
  5
338
  8
DIMENTIONS
 62
     0
 10
-34.375
 20
3.0
 30
0.0
 11
-34.375
 21
3.5
 31
0.0
  0
LINE
  5
339
  8
DIMENTIONS
 62
     0
 10
-34.375
 20
4.5
 30
0.0
 11
-34.375
 21
44.8155
 31
0.0
  0
SOLID
  5
33A
  8
DIMENTIONS
 62
     0
 10
-34.54166666666666
 20
3.0
 30
0.0
 11
-34.20833333333334
 21
3.0
 31
0.0
 12
-34.375
 22
2.0
 32
0.0
 13
-34.375
 23
2.0
 33
0.0
  0
SOLID
  5
33B
  8
DIMENTIONS
 62
     0
 10
-34.20833333333334
 20
3.5
 30
0.0
 11
-34.54166666666666
 21
3.5
 31
0.0
 12
-34.375
 22
4.5
 32
0.0
 13
-34.375
 23
4.5
 33
0.0
  0
TEXT
  5
33C
  8
DIMENTIONS
 62
     0
 10
-37.092
 20
27.27875
 30
0.0
 40
1.0
  1
2.5000
 50
270.0
  7
ARIAL
  0
POINT
  5
33D
  8
DEFPOINTS
 62
     0
 10
-32.5
 20
2.0
 30
0.0
  0
POINT
  5
33E
  8
DEFPOINTS
 62
     0
 10
-32.49999999997613
 20
4.5
 30
0.0
  0
POINT
  5
33F
  8
DEFPOINTS
 62
     0
 10
-34.375
 20
4.5
 30
0.0
  0
ENDBLK
  5
341
  8
0
  0
BLOCK
  8
0
  2
*D15
 70
     1
 10
0.0
 20
0.0
 30
0.0
  3
*D15
  1

  0
LINE
  5
344
  8
DIMENTIONS
 62
     0
 10
-11.98323170731308
 20
40.81249999999976
 30
0.0
 11
-6.124999999999998
 21
40.81249999999976
 31
0.0
  0
LINE
  5
345
  8
DIMENTIONS
 62
     0
 10
-9.499999999999844
 20
29.4999999999979
 30
0.0
 11
-6.124999999999999
 21
29.4999999999979
 31
0.0
  0
LINE
  5
346
  8
DIMENTIONS
 62
     0
 10
-6.624999999999996
 20
41.81249999999976
 30
0.0
 11
-6.624999999999996
 21
41.27699999999883
 31
0.0
  0
LINE
  5
347
  8
DIMENTIONS
 62
     0
 10
-6.624999999999996
 20
28.4999999999979
 30
0.0
 11
-6.624999999999996
 21
29.03549999999883
 31
0.0
  0
SOLID
  5
348
  8
DIMENTIONS
 62
     0
 10
-6.791666666666663
 20
41.81249999999976
 30
0.0
 11
-6.45833333333333
 21
41.81249999999976
 31
0.0
 12
-6.624999999999996
 22
40.81249999999976
 32
0.0
 13
-6.624999999999996
 23
40.81249999999976
 33
0.0
  0
SOLID
  5
349
  8
DIMENTIONS
 62
     0
 10
-6.45833333333333
 20
28.4999999999979
 30
0.0
 11
-6.791666666666663
 21
28.4999999999979
 31
0.0
 12
-6.624999999999996
 22
29.4999999999979
 32
0.0
 13
-6.624999999999996
 23
29.4999999999979
 33
0.0
  0
TEXT
  5
34A
  8
DIMENTIONS
 62
     0
 10
-6.734000000000005
 20
32.58624999999883
 30
0.0
 40
1.0
  1
11.3125
 50
90.0
  7
ARIAL
  0
POINT
  5
34B
  8
DEFPOINTS
 62
     0
 10
-12.48323170731308
 20
40.81249999999976
 30
0.0
  0
POINT
  5
34C
  8
DEFPOINTS
 62
     0
 10
-9.999999999999844
 20
29.4999999999979
 30
0.0
  0
POINT
  5
34D
  8
DEFPOINTS
 62
     0
 10
-6.624999999999999
 20
29.4999999999979
 30
0.0
  0
ENDBLK
  5
34F
  8
0
  0
BLOCK
  8
0
  2
*D16
 70
     1
 10
0.0
 20
0.0
 30
0.0
  3
*D16
  1

  0
LINE
  5
352
  8
DIMENTIONS
 62
     0
 10
-20.39442243076594
 20
31.92143954711582
 30
0.0
 11
-20.39442243076594
 21
26.875
 31
0.0
  0
LINE
  5
353
  8
DIMENTIONS
 62
     0
 10
-9.105577569229213
 20
31.92143954711013
 30
0.0
 11
-9.105577569229213
 21
26.875
 31
0.0
  0
LINE
  5
354
  8
DIMENTIONS
 62
     0
 10
-21.39442243076594
 20
27.375
 30
0.0
 11
-24.63049999999636
 21
27.375
 31
0.0
  0
LINE
  5
355
  8
DIMENTIONS
 62
     0
 10
-8.105577569229213
 20
27.375
 30
0.0
 11
-4.869499999998787
 21
27.375
 31
0.0
  0
SOLID
  5
356
  8
DIMENTIONS
 62
     0
 10
-21.39442243076594
 20
27.20833333333333
 30
0.0
 11
-21.39442243076594
 21
27.54166666666667
 31
0.0
 12
-20.39442243076594
 22
27.375
 32
0.0
 13
-20.39442243076594
 23
27.375
 33
0.0
  0
SOLID
  5
357
  8
DIMENTIONS
 62
     0
 10
-8.105577569229213
 20
27.54166666666667
 30
0.0
 11
-8.105577569229213
 21
27.20833333333333
 31
0.0
 12
-9.105577569229213
 22
27.375
 32
0.0
 13
-9.105577569229213
 23
27.375
 33
0.0
  0
TEXT
  5
358
  8
DIMENTIONS
 62
     0
 10
-17.31749999999757
 20
27.484
 30
0.0
 40
1.0
  1
11.2888
  7
ARIAL
  0
POINT
  5
359
  8
DEFPOINTS
 62
     0
 10
-20.39442243076594
 20
32.42143954711582
 30
0.0
  0
POINT
  5
35A
  8
DEFPOINTS
 62
     0
 10
-9.105577569229213
 20
32.42143954711013
 30
0.0
  0
POINT
  5
35B
  8
DEFPOINTS
 62
     0
 10
-9.105577569229213
 20
27.375
 30
0.0
  0
ENDBLK
  5
35D
  8
0
  0
ENDSEC
  0
SECTION
  2
ENTITIES
  0
DIMENSION
  5
2B
  8
DIMENTIONS
  2
*D1
 10
-13.375
 20
10.12500000000003
 30
0.0
 11
-13.9755
 21
14.72905391349073
 31
0.0
 70
    32
  1
<>
  3
DEFAULT
 13
-17.25884125978424
 23
19.33310782698144
 33
0.0
 14
-17.875
 24
10.12500000000003
 34
0.0
 50
90.0
  0
POLYLINE
  5
3D
  8
BACK_REST
 66
     1
 10
0.0
 20
0.0
 30
0.0
  0
VERTEX
  5
3F
  8
BACK_REST
 10
-22.25761877217081
 20
16.99256356347641
 30
0.0
 42
-0.0925109701981002
  0
VERTEX
  5
40
  8
BACK_REST
 10
-21.55553155116503
 20
16.14483765165309
 30
0.0
 42
0.0082913583114159
  0
VERTEX
  5
41
  8
BACK_REST
 10
-21.15996260441096
 20
15.45998997391795
 30
0.0
 42
-0.1359202046574374
  0
VERTEX
  5
42
  8
BACK_REST
 10
-20.87499999999995
 20
14.4310843748802
 30
0.0
  0
VERTEX
  5
43
  8
BACK_REST
 10
-20.875
 20
13.87499999999994
 30
0.0
  0
VERTEX
  5
44
  8
BACK_REST
 10
-20.82469403727811
 20
13.87499999999995
 30
0.0
 42
0.1602414199413277
  0
VERTEX
  5
45
  8
BACK_REST
 10
-20.78759214073505
 20
13.887203884117
 30
0.0
 42
-0.8603642831452278
  0
VERTEX
  5
46
  8
BACK_REST
 10
-20.61279611588259
 20
13.71240785926538
 30
0.0
 42
0.1602414199402622
  0
VERTEX
  5
47
  8
BACK_REST
 10
-20.62499999999997
 20
13.67530596272199
 30
0.0
  0
VERTEX
  5
48
  8
BACK_REST
 10
-20.625
 20
10.12499999999994
 30
0.0
  0
VERTEX
  5
49
  8
BACK_REST
 10
-19.625
 20
10.12499999999998
 30
0.0
  0
VERTEX
  5
4A
  8
BACK_REST
 10
-19.625
 20
12.67530596272204
 30
0.0
 42
0.1602414199381834
  0
VERTEX
  5
4B
  8
BACK_REST
 10
-19.63720388411725
 20
12.71240785926526
 30
0.0
 42
-0.8603642831388155
  0
VERTEX
  5
4C
  8
BACK_REST
 10
-19.46240785926515
 20
12.88720388411725
 30
0.0
 42
0.1602414199388119
  0
VERTEX
  5
4D
  8
BACK_REST
 10
-19.42530596272191
 20
12.87500000000003
 30
0.0
  0
VERTEX
  5
4E
  8
BACK_REST
 10
-19.07469403727801
 20
12.87499999999998
 30
0.0
 42
0.160241419940217
  0
VERTEX
  5
4F
  8
BACK_REST
 10
-19.03759214073497
 20
12.88720388411708
 30
0.0
 42
-0.8603642831408453
  0
VERTEX
  5
50
  8
BACK_REST
 10
-18.86279611588278
 20
12.71240785926511
 30
0.0
 42
0.1602414199388457
  0
VERTEX
  5
51
  8
BACK_REST
 10
-18.875
 20
12.67530596272186
 30
0.0
  0
VERTEX
  5
52
  8
BACK_REST
 10
-18.875
 20
10.125
 30
0.0
  0
VERTEX
  5
53
  8
BACK_REST
 10
-17.875
 20
10.12500000000003
 30
0.0
  0
VERTEX
  5
54
  8
BACK_REST
 10
-17.875
 20
13.69822330470338
 30
0.0
 42
-1.00000000000001
  0
VERTEX
  5
55
  8
BACK_REST
 10
-17.69822330470337
 20
13.87500000000003
 30
0.0
  0
VERTEX
  5
56
  8
BACK_REST
 10
-17.625
 20
13.87500000000003
 30
0.0
  0
VERTEX
  5
57
  8
BACK_REST
 10
-17.625
 20
14.43108437488021
 30
0.0
 42
-0.1359202046574001
  0
VERTEX
  5
58
  8
BACK_REST
 10
-17.34003739558898
 20
15.45998997391805
 30
0.0
 42
0.0082913583113921
  0
VERTEX
  5
59
  8
BACK_REST
 10
-16.9444684488348
 20
16.1448376516534
 30
0.0
 42
-0.0925109701980636
  0
VERTEX
  5
5A
  8
BACK_REST
 10
-16.2423812278292
 20
16.99256356347667
 30
0.0
 42
0.2394017349227764
  0
VERTEX
  5
5B
  8
BACK_REST
 10
-15.73875198605105
 20
18.16333669116787
 30
0.0
 42
0.339227248948703
  0
VERTEX
  5
5C
  8
BACK_REST
 10
-17.25884125978424
 20
19.33310782698144
 30
0.0
 42
-0.0097419063453037
  0
VERTEX
  5
5D
  8
BACK_REST
 10
-17.37570657079805
 20
19.33559537829409
 30
0.0
 42
0.1384608117923892
  0
VERTEX
  5
5E
  8
BACK_REST
 10
-18.86346050836514
 20
18.98032538260163
 30
0.0
 42
-0.2604497053866975
  0
VERTEX
  5
5F
  8
BACK_REST
 10
-19.63653949163494
 20
18.9803253826016
 30
0.0
 42
0.1442083546224069
  0
VERTEX
  5
60
  8
BACK_REST
 10
-21.18764943529807
 20
19.33229563530836
 30
0.0
 42
0.3487198822918098
  0
VERTEX
  5
61
  8
BACK_REST
 10
-22.76124801394888
 20
18.16333669116776
 30
0.0
 42
0.239401734922867
  0
VERTEX
  5
62
  8
BACK_REST
 10
-22.25761877217084
 20
16.99256356347654
 30
0.0
  0
SEQEND
  5
3E
  8
BACK_REST
  0
POLYLINE
  5
64
  8
FOOT_REST
 66
     1
 10
0.0
 20
0.0
 30
0.0
  0
VERTEX
  5
66
  8
FOOT_REST
 10
-28.12499999999999
 20
2.0
 30
0.0
  0
VERTEX
  5
67
  8
FOOT_REST
 10
-19.875
 20
2.0
 30
0.0
  0
VERTEX
  5
68
  8
FOOT_REST
 10
-19.875
 20
2.75
 30
0.0
  0
VERTEX
  5
69
  8
FOOT_REST
 10
-19.0
 20
2.75
 30
0.0
  0
VERTEX
  5
6A
  8
FOOT_REST
 10
-19.0
 20
2.0
 30
0.0
  0
VERTEX
  5
6B
  8
FOOT_REST
 10
-15.49999999999998
 20
2.0
 30
0.0
 42
0.4142135623730751
  0
VERTEX
  5
6C
  8
FOOT_REST
 10
-15.0
 20
2.500000000000018
 30
0.0
  0
VERTEX
  5
6D
  8
FOOT_REST
 10
-15.0
 20
4.000000000000018
 30
0.0
 42
0.4142135623730838
  0
VERTEX
  5
6E
  8
FOOT_REST
 10
-15.5
 20
4.5
 30
0.0
  0
VERTEX
  5
6F
  8
FOOT_REST
 10
-32.50000000000001
 20
4.499999999999993
 30
0.0
 42
0.4142135623730805
  0
VERTEX
  5
70
  8
FOOT_REST
 10
-33.0
 20
3.999999999999986
 30
0.0
  0
VERTEX
  5
71
  8
FOOT_REST
 10
-33.0
 20
2.5
 30
0.0
 42
0.4142135623730929
  0
VERTEX
  5
72
  8
FOOT_REST
 10
-32.5
 20
2.0
 30
0.0
  0
VERTEX
  5
73
  8
FOOT_REST
 10
-29.0
 20
2.0
 30
0.0
  0
VERTEX
  5
74
  8
FOOT_REST
 10
-29.0
 20
2.75
 30
0.0
  0
VERTEX
  5
75
  8
FOOT_REST
 10
-28.125
 20
2.74999999999838
 30
0.0
  0
VERTEX
  5
76
  8
FOOT_REST
 10
-28.12499999999999
 20
1.99999999999838
 30
0.0
  0
SEQEND
  5
65
  8
FOOT_REST
  0
POLYLINE
  5
78
  8
FRONT_AND_BACL_SUPORT_PANE
 66
     1
 10
0.0
 20
0.0
 30
0.0
  0
VERTEX
  5
7A
  8
FRONT_AND_BACL_SUPORT_PANE
 10
-26.61279611588249
 20
38.74370785926457
 30
0.0
 42
0.1602414199387353
  0
VERTEX
  5
7B
  8
FRONT_AND_BACL_SUPORT_PANE
 10
-26.62499999999971
 20
38.70660596272131
 30
0.0
  0
VERTEX
  5
7C
  8
FRONT_AND_BACL_SUPORT_PANE
 10
-26.62499999999972
 20
37.94969403727805
 30
0.0
 42
0.1602414199388461
  0
VERTEX
  5
7D
  8
FRONT_AND_BACL_SUPORT_PANE
 10
-26.6127961158825
 20
37.91259214073482
 30
0.0
 42
-0.8603642831395854
  0
VERTEX
  5
7E
  8
FRONT_AND_BACL_SUPORT_PANE
 10
-26.78759214073459
 20
37.73779611588277
 30
0.0
 42
0.1602414199388153
  0
VERTEX
  5
7F
  8
FRONT_AND_BACL_SUPORT_PANE
 10
-26.82469403727786
 20
37.75
 30
0.0
  0
VERTEX
  5
80
  8
FRONT_AND_BACL_SUPORT_PANE
 10
-27.17530596272166
 20
37.75
 30
0.0
 42
0.1602414199390023
  0
VERTEX
  5
81
  8
FRONT_AND_BACL_SUPORT_PANE
 10
-27.21240785926492
 20
37.73779611588279
 30
0.0
 42
-0.860364283140814
  0
VERTEX
  5
82
  8
FRONT_AND_BACL_SUPORT_PANE
 10
-27.38720388411696
 20
37.91259214073486
 30
0.0
 42
0.1602414199389933
  0
VERTEX
  5
83
  8
FRONT_AND_BACL_SUPORT_PANE
 10
-27.37499999999971
 20
37.94969403727815
 30
0.0
  0
VERTEX
  5
84
  8
FRONT_AND_BACL_SUPORT_PANE
 10
-27.3749999999997
 20
38.70660596272136
 30
0.0
 42
0.1602414199386457
  0
VERTEX
  5
85
  8
FRONT_AND_BACL_SUPORT_PANE
 10
-27.38720388411695
 20
38.7437078592646
 30
0.0
 42
-0.8603642831423781
  0
VERTEX
  5
86
  8
FRONT_AND_BACL_SUPORT_PANE
 10
-27.21240785926491
 20
38.91850388411667
 30
0.0
 42
0.16024141993962
  0
VERTEX
  5
87
  8
FRONT_AND_BACL_SUPORT_PANE
 10
-27.17530596272162
 20
38.90629999999938
 30
0.0
  0
VERTEX
  5
88
  8
FRONT_AND_BACL_SUPORT_PANE
 10
-26.82469403727783
 20
38.90629999999938
 30
0.0
 42
0.1602414199391495
  0
VERTEX
  5
89
  8
FRONT_AND_BACL_SUPORT_PANE
 10
-26.78759214073457
 20
38.91850388411659
 30
0.0
 42
-0.8603642831402555
  0
VERTEX
  5
8A
  8
FRONT_AND_BACL_SUPORT_PANE
 10
-26.61279611588249
 20
38.74370785926456
 30
0.0
  0
SEQEND
  5
79
  8
FRONT_AND_BACL_SUPORT_PANE
  0
POLYLINE
  5
8B
  8
FRONT_AND_BACL_SUPORT_PANE
 66
     1
 10
0.0
 20
0.0
 30
0.0
  0
VERTEX
  5
8D
  8
FRONT_AND_BACL_SUPORT_PANE
 10
-31.74999999998309
 20
29.62499999999211
 30
0.0
  0
VERTEX
  5
8E
  8
FRONT_AND_BACL_SUPORT_PANE
 10
-22.24999999999984
 20
29.6249999999979
 30
0.0
  0
VERTEX
  5
8F
  8
FRONT_AND_BACL_SUPORT_PANE
 10
-22.77619097499897
 20
32.02209221945478
 30
0.0
 42
0.168057848106091
  0
VERTEX
  5
90
  8
FRONT_AND_BACL_SUPORT_PANE
 10
-22.79751644899934
 20
32.05694617668979
 30
0.0
 42
-0.8603253103238088
  0
VERTEX
  5
91
  8
FRONT_AND_BACL_SUPORT_PANE
 10
-22.6706730543921
 20
32.26911881233149
 30
0.0
 42
0.1524211194100709
  0
VERTEX
  5
92
  8
FRONT_AND_BACL_SUPORT_PANE
 10
-22.63357194860819
 20
32.26590419554131
 30
0.0
  0
VERTEX
  5
93
  8
FRONT_AND_BACL_SUPORT_PANE
 10
-22.28028781679237
 20
32.34345437081726
 30
0.0
 42
0.1573558712373717
  0
VERTEX
  5
94
  8
FRONT_AND_BACL_SUPORT_PANE
 10
-22.24713184214593
 20
32.36280258567886
 30
0.0
 42
-0.8603589762109655
  0
VERTEX
  5
95
  8
FRONT_AND_BACL_SUPORT_PANE
 10
-22.04043600350272
 20
32.22721490791241
 30
0.0
 42
0.1631264419272436
  0
VERTEX
  5
96
  8
FRONT_AND_BACL_SUPORT_PANE
 10
-22.04469103620341
 20
32.18771891968842
 30
0.0
  0
VERTEX
  5
97
  8
FRONT_AND_BACL_SUPORT_PANE
 10
-22.00773309104304
 20
32.01935494728988
 30
0.0
 42
0.4142135623735981
  0
VERTEX
  5
98
  8
FRONT_AND_BACL_SUPORT_PANE
 10
-21.85883913629147
 20
31.92406281624833
 30
0.0
  0
VERTEX
  5
99
  8
FRONT_AND_BACL_SUPORT_PANE
 10
-21.7367460933948
 20
31.95086372810347
 30
0.0
 42
0.414213562373049
  0
VERTEX
  5
9A
  8
FRONT_AND_BACL_SUPORT_PANE
 10
-21.35557756922921
 20
32.54643954711013
 30
0.0
  0
VERTEX
  5
9B
  8
FRONT_AND_BACL_SUPORT_PANE
 10
-21.70398942334581
 20
34.13364910476498
 30
0.0
 42
0.4142135623731837
  0
VERTEX
  5
9C
  8
FRONT_AND_BACL_SUPORT_PANE
 10
-22.29956524235242
 20
34.5148176289306
 30
0.0
  0
VERTEX
  5
9D
  8
FRONT_AND_BACL_SUPORT_PANE
 10
-23.07804632805771
 20
34.34393153694775
 30
0.0
 42
0.1634792167256976
  0
VERTEX
  5
9E
  8
FRONT_AND_BACL_SUPORT_PANE
 10
-23.11218464196912
 20
34.32345982741748
 30
0.0
 42
-0.8603575988345699
  0
VERTEX
  5
9F
  8
FRONT_AND_BACL_SUPORT_PANE
 10
-23.3220590776051
 20
34.4540733034936
 30
0.0
 42
0.1570029597036124
  0
VERTEX
  5
A0
  8
FRONT_AND_BACL_SUPORT_PANE
 10
-23.31841100413571
 20
34.49220568554146
 30
0.0
  0
VERTEX
  5
A1
  8
FRONT_AND_BACL_SUPORT_PANE
 10
-23.63457721199228
 20
35.93251841023278
 30
0.0
 42
0.1645201837771398
  0
VERTEX
  5
A2
  8
FRONT_AND_BACL_SUPORT_PANE
 10
-23.65524201523316
 20
35.96682085604704
 30
0.0
 42
-0.8603526088036032
  0
VERTEX
  5
A3
  8
FRONT_AND_BACL_SUPORT_PANE
 10
-23.52548193055084
 20
36.17722373974884
 30
0.0
 42
0.1559614971774655
  0
VERTEX
  5
A4
  8
FRONT_AND_BACL_SUPORT_PANE
 10
-23.48758315048943
 20
36.17367575840939
 30
0.0
  0
VERTEX
  5
A5
  8
FRONT_AND_BACL_SUPORT_PANE
 10
-23.1424322999655
 20
36.24944057925552
 30
0.0
 42
0.1618658811237018
  0
VERTEX
  5
A6
  8
FRONT_AND_BACL_SUPORT_PANE
 10
-23.10855001662965
 20
36.2696142176672
 30
0.0
 42
-0.8603626007684897
  0
VERTEX
  5
A7
  8
FRONT_AND_BACL_SUPORT_PANE
 10
-22.89950146371987
 20
36.13768254042364
 30
0.0
 42
0.1586167917986377
  0
VERTEX
  5
A8
  8
FRONT_AND_BACL_SUPORT_PANE
 10
-22.90330644797712
 20
36.09918912891072
 30
0.0
  0
VERTEX
  5
A9
  8
FRONT_AND_BACL_SUPORT_PANE
 10
-22.86536227040696
 20
35.92633231997864
 30
0.0
 42
0.4142135623728027
  0
VERTEX
  5
AA
  8
FRONT_AND_BACL_SUPORT_PANE
 10
-22.71646831565523
 20
35.83104018893731
 30
0.0
  0
VERTEX
  5
AB
  8
FRONT_AND_BACL_SUPORT_PANE
 10
-22.59437527275882
 20
35.85784110079241
 30
0.0
 42
0.4142135623731372
  0
VERTEX
  5
AC
  8
FRONT_AND_BACL_SUPORT_PANE
 10
-22.21320674859315
 20
36.45341691979901
 30
0.0
  0
VERTEX
  5
AD
  8
FRONT_AND_BACL_SUPORT_PANE
 10
-22.56161860270977
 20
38.04062647745393
 30
0.0
 42
0.4142135623731069
  0
VERTEX
  5
AE
  8
FRONT_AND_BACL_SUPORT_PANE
 10
-23.15719442171638
 20
38.42179500161956
 30
0.0
  0
VERTEX
  5
AF
  8
FRONT_AND_BACL_SUPORT_PANE
 10
-23.94273308338435
 20
38.24935968564503
 30
0.0
 42
0.1564204840680445
  0
VERTEX
  5
B0
  8
FRONT_AND_BACL_SUPORT_PANE
 10
-23.97573647964539
 20
38.23018120095583
 30
0.0
 42
-0.8603549783135938
  0
VERTEX
  5
B1
  8
FRONT_AND_BACL_SUPORT_PANE
 10
-24.1819363036835
 20
38.36652171533969
 30
0.0
 42
0.1640614321875204
  0
VERTEX
  5
B2
  8
FRONT_AND_BACL_SUPORT_PANE
 10
-24.17758584206597
 20
38.40622439169918
 30
0.0
  0
VERTEX
  5
B3
  8
FRONT_AND_BACL_SUPORT_PANE
 10
-24.73323170731308
 20
40.93749999999976
 30
0.0
  0
VERTEX
  5
B4
  8
FRONT_AND_BACL_SUPORT_PANE
 10
-26.62499999999964
 20
40.9375
 30
0.0
  0
VERTEX
  5
B5
  8
FRONT_AND_BACL_SUPORT_PANE
 10
-26.62499999999987
 20
40.0121940372772
 30
0.0
 42
0.1602414199401352
  0
VERTEX
  5
B6
  8
FRONT_AND_BACL_SUPORT_PANE
 10
-26.61279611588276
 20
39.97509214073416
 30
0.0
 42
-0.8603642831399209
  0
VERTEX
  5
B7
  8
FRONT_AND_BACL_SUPORT_PANE
 10
-26.78759214073471
 20
39.80029611588202
 30
0.0
 42
0.1602414199394607
  0
VERTEX
  5
B8
  8
FRONT_AND_BACL_SUPORT_PANE
 10
-26.82469403727772
 20
39.81249999999923
 30
0.0
  0
VERTEX
  5
B9
  8
FRONT_AND_BACL_SUPORT_PANE
 10
-27.17530596272162
 20
39.81249999999937
 30
0.0
 42
0.1602414199372156
  0
VERTEX
  5
BA
  8
FRONT_AND_BACL_SUPORT_PANE
 10
-27.21240785926507
 20
39.80029611588198
 30
0.0
 42
-0.8603642831395215
  0
VERTEX
  5
BB
  8
FRONT_AND_BACL_SUPORT_PANE
 10
-27.38720388411707
 20
39.97509214073411
 30
0.0
 42
0.1602414199401757
  0
VERTEX
  5
BC
  8
FRONT_AND_BACL_SUPORT_PANE
 10
-27.37499999999987
 20
40.01219403727736
 30
0.0
  0
VERTEX
  5
BD
  8
FRONT_AND_BACL_SUPORT_PANE
 10
-27.37500000000208
 20
40.93749999999938
 30
0.0
  0
VERTEX
  5
BE
  8
FRONT_AND_BACL_SUPORT_PANE
 10
-29.26676829268232
 20
40.93749999999807
 30
0.0
  0
VERTEX
  5
BF
  8
FRONT_AND_BACL_SUPORT_PANE
 10
-29.82241415791943
 20
38.40622439170021
 30
0.0
 42
0.1640614321890148
  0
VERTEX
  5
C0
  8
FRONT_AND_BACL_SUPORT_PANE
 10
-29.81806369630198
 20
38.3665217153407
 30
0.0
 42
-0.8603549783242329
  0
VERTEX
  5
C1
  8
FRONT_AND_BACL_SUPORT_PANE
 10
-30.02426352034032
 20
38.23018120095717
 30
0.0
 42
0.1564204840682582
  0
VERTEX
  5
C2
  8
FRONT_AND_BACL_SUPORT_PANE
 10
-30.05726691660132
 20
38.24935968564644
 30
0.0
  0
VERTEX
  5
C3
  8
FRONT_AND_BACL_SUPORT_PANE
 10
-30.842805578269
 20
38.42179500162227
 30
0.0
 42
0.4142135623731024
  0
VERTEX
  5
C4
  8
FRONT_AND_BACL_SUPORT_PANE
 10
-31.43838139727625
 20
38.04062647745764
 30
0.0
  0
VERTEX
  5
C5
  8
FRONT_AND_BACL_SUPORT_PANE
 10
-31.78679325139551
 20
36.4534169198033
 30
0.0
 42
0.4142135623730707
  0
VERTEX
  5
C6
  8
FRONT_AND_BACL_SUPORT_PANE
 10
-31.40562472723082
 20
35.85784110079607
 30
0.0
  0
VERTEX
  5
C7
  8
FRONT_AND_BACL_SUPORT_PANE
 10
-31.28353168433445
 20
35.83104018894078
 30
0.0
 42
0.4142135623735136
  0
VERTEX
  5
C8
  8
FRONT_AND_BACL_SUPORT_PANE
 10
-31.13463772958256
 20
35.92633231998185
 30
0.0
  0
VERTEX
  5
C9
  8
FRONT_AND_BACL_SUPORT_PANE
 10
-31.09669355201213
 20
36.09918912891386
 30
0.0
 42
0.1586167917986789
  0
VERTEX
  5
CA
  8
FRONT_AND_BACL_SUPORT_PANE
 10
-31.10049853626932
 20
36.13768254042678
 30
0.0
 42
-0.8603626007659498
  0
VERTEX
  5
CB
  8
FRONT_AND_BACL_SUPORT_PANE
 10
-30.89144998335931
 20
36.26961421767
 30
0.0
 42
0.1618658811248851
  0
VERTEX
  5
CC
  8
FRONT_AND_BACL_SUPORT_PANE
 10
-30.85756770002349
 20
36.24944057925828
 30
0.0
  0
VERTEX
  5
CD
  8
FRONT_AND_BACL_SUPORT_PANE
 10
-30.51241684949969
 20
36.17367575841157
 30
0.0
 42
0.155961497179773
  0
VERTEX
  5
CE
  8
FRONT_AND_BACL_SUPORT_PANE
 10
-30.47451806943827
 20
36.17722373975094
 30
0.0
 42
-0.8603526088094623
  0
VERTEX
  5
CF
  8
FRONT_AND_BACL_SUPORT_PANE
 10
-30.34475798475629
 20
35.96682085604895
 30
0.0
 42
0.1645201837815312
  0
VERTEX
  5
D0
  8
FRONT_AND_BACL_SUPORT_PANE
 10
-30.36542278799724
 20
35.93251841023472
 30
0.0
  0
VERTEX
  5
D1
  8
FRONT_AND_BACL_SUPORT_PANE
 10
-30.68158899585621
 20
34.49220568554391
 30
0.0
 42
0.1570029597014188
  0
VERTEX
  5
D2
  8
FRONT_AND_BACL_SUPORT_PANE
 10
-30.67794092238688
 20
34.45407330349606
 30
0.0
 42
-0.8603575988294919
  0
VERTEX
  5
D3
  8
FRONT_AND_BACL_SUPORT_PANE
 10
-30.88781535802308
 20
34.32345982742028
 30
0.0
 42
0.1634792167292943
  0
VERTEX
  5
D4
  8
FRONT_AND_BACL_SUPORT_PANE
 10
-30.92195367193445
 20
34.34393153695059
 30
0.0
  0
VERTEX
  5
D5
  8
FRONT_AND_BACL_SUPORT_PANE
 10
-31.70043475763945
 20
34.51481762893475
 30
0.0
 42
0.4142135623731024
  0
VERTEX
  5
D6
  8
FRONT_AND_BACL_SUPORT_PANE
 10
-32.2960105766467
 20
34.13364910477011
 30
0.0
  0
VERTEX
  5
D7
  8
FRONT_AND_BACL_SUPORT_PANE
 10
-32.64442243076592
 20
32.54643954711582
 30
0.0
 42
0.4142135623731826
  0
VERTEX
  5
D8
  8
FRONT_AND_BACL_SUPORT_PANE
 10
-32.26325390660134
 20
31.95086372810856
 30
0.0
  0
VERTEX
  5
D9
  8
FRONT_AND_BACL_SUPORT_PANE
 10
-32.14116086370471
 20
31.92406281625321
 30
0.0
 42
0.4142135623725051
  0
VERTEX
  5
DA
  8
FRONT_AND_BACL_SUPORT_PANE
 10
-31.99226690895299
 20
32.01935494729452
 30
0.0
  0
VERTEX
  5
DB
  8
FRONT_AND_BACL_SUPORT_PANE
 10
-31.95530896379233
 20
32.187718919693
 30
0.0
 42
0.1631264419273655
  0
VERTEX
  5
DC
  8
FRONT_AND_BACL_SUPORT_PANE
 10
-31.95956399649296
 20
32.227214907917
 30
0.0
 42
-0.8603589762161779
  0
VERTEX
  5
DD
  8
FRONT_AND_BACL_SUPORT_PANE
 10
-31.75286815784952
 20
32.36280258568309
 30
0.0
 42
0.1573558712403162
  0
VERTEX
  5
DE
  8
FRONT_AND_BACL_SUPORT_PANE
 10
-31.71971218320311
 20
32.34345437082143
 30
0.0
  0
VERTEX
  5
DF
  8
FRONT_AND_BACL_SUPORT_PANE
 10
-31.36642805138743
 20
32.26590419554491
 30
0.0
 42
0.1524211194070721
  0
VERTEX
  5
E0
  8
FRONT_AND_BACL_SUPORT_PANE
 10
-31.32932694560349
 20
32.26911881233502
 30
0.0
 42
-0.8603253103136467
  0
VERTEX
  5
E1
  8
FRONT_AND_BACL_SUPORT_PANE
 10
-31.20248355099661
 20
32.0569461766931
 30
0.0
 42
0.1680578480998011
  0
VERTEX
  5
E2
  8
FRONT_AND_BACL_SUPORT_PANE
 10
-31.22380902499706
 20
32.02209221945815
 30
0.0
  0
VERTEX
  5
E3
  8
FRONT_AND_BACL_SUPORT_PANE
 10
-31.75000000000019
 20
29.62500000000004
 30
0.0
  0
SEQEND
  5
8C
  8
FRONT_AND_BACL_SUPORT_PANE
  0
POLYLINE
  5
E4
  8
FRONT_AND_BACL_SUPORT_PANE
 66
     1
 10
0.0
 20
0.0
 30
0.0
  0
VERTEX
  5
E6
  8
FRONT_AND_BACL_SUPORT_PANE
 10
-14.36279611588249
 20
38.61870785926457
 30
0.0
 42
0.1602414199387313
  0
VERTEX
  5
E7
  8
FRONT_AND_BACL_SUPORT_PANE
 10
-14.37499999999971
 20
38.58160596272131
 30
0.0
  0
VERTEX
  5
E8
  8
FRONT_AND_BACL_SUPORT_PANE
 10
-14.37499999999972
 20
37.82469403727805
 30
0.0
 42
0.1602414199388363
  0
VERTEX
  5
E9
  8
FRONT_AND_BACL_SUPORT_PANE
 10
-14.3627961158825
 20
37.78759214073482
 30
0.0
 42
-0.8603642831396013
  0
VERTEX
  5
EA
  8
FRONT_AND_BACL_SUPORT_PANE
 10
-14.53759214073459
 20
37.61279611588277
 30
0.0
 42
0.1602414199388153
  0
VERTEX
  5
EB
  8
FRONT_AND_BACL_SUPORT_PANE
 10
-14.57469403727786
 20
37.625
 30
0.0
  0
VERTEX
  5
EC
  8
FRONT_AND_BACL_SUPORT_PANE
 10
-14.92530596272166
 20
37.625
 30
0.0
 42
0.1602414199390198
  0
VERTEX
  5
ED
  8
FRONT_AND_BACL_SUPORT_PANE
 10
-14.96240785926491
 20
37.61279611588279
 30
0.0
 42
-0.8603642831408164
  0
VERTEX
  5
EE
  8
FRONT_AND_BACL_SUPORT_PANE
 10
-15.13720388411696
 20
37.78759214073486
 30
0.0
 42
0.1602414199389974
  0
VERTEX
  5
EF
  8
FRONT_AND_BACL_SUPORT_PANE
 10
-15.12499999999971
 20
37.82469403727815
 30
0.0
  0
VERTEX
  5
F0
  8
FRONT_AND_BACL_SUPORT_PANE
 10
-15.12499999999971
 20
38.58160596272136
 30
0.0
 42
0.1602414199387348
  0
VERTEX
  5
F1
  8
FRONT_AND_BACL_SUPORT_PANE
 10
-15.13720388411694
 20
38.61870785926461
 30
0.0
 42
-0.8603642831423999
  0
VERTEX
  5
F2
  8
FRONT_AND_BACL_SUPORT_PANE
 10
-14.96240785926491
 20
38.79350388411667
 30
0.0
 42
0.1602414199396257
  0
VERTEX
  5
F3
  8
FRONT_AND_BACL_SUPORT_PANE
 10
-14.92530596272162
 20
38.78129999999938
 30
0.0
  0
VERTEX
  5
F4
  8
FRONT_AND_BACL_SUPORT_PANE
 10
-14.57469403727783
 20
38.78129999999938
 30
0.0
 42
0.1602414199391943
  0
VERTEX
  5
F5
  8
FRONT_AND_BACL_SUPORT_PANE
 10
-14.53759214073457
 20
38.79350388411659
 30
0.0
 42
-0.8603642831402486
  0
VERTEX
  5
F6
  8
FRONT_AND_BACL_SUPORT_PANE
 10
-14.36279611588249
 20
38.61870785926456
 30
0.0
  0
SEQEND
  5
E5
  8
FRONT_AND_BACL_SUPORT_PANE
  0
DIMENSION
  5
F7
  8
DIMENTIONS
  2
*D2
 10
-24.5
 20
9.625000000000014
 30
0.0
 11
-25.1005
 21
14.62500000000001
 31
0.0
 70
    32
  1
<>
  3
DEFAULT
 13
-26.875
 23
19.625
 33
0.0
 14
-30.0
 24
9.625000000000014
 34
0.0
 50
90.0
  0
DIMENSION
  5
105
  8
DIMENTIONS
  2
*D3
 10
-36.375
 20
21.875
 30
0.0
 11
-31.375
 21
22.4755
 31
0.0
 70
    32
  1
<>
  3
DEFAULT
 13
-26.375
 23
19.125
 33
0.0
 14
-36.375
 24
19.12499999999903
 34
0.0
  0
DIMENSION
  5
113
  8
DIMENTIONS
  2
*D4
 10
-15.57271132863241
 20
24.0
 30
0.0
 11
-19.25003222071597
 21
24.6005
 31
0.0
 70
    32
  1
<>
  3
DEFAULT
 13
-22.92735311279952
 23
20.10141274775019
 33
0.0
 14
-15.57271132863241
 24
19.98936477013631
 34
0.0
  0
DIMENSION
  5
121
  8
DIMENTIONS
  2
*D5
 10
8.875000000000004
 20
23.13943873603486
 30
0.0
 11
8.274500000000003
 21
19.31971936801743
 31
0.0
 70
    32
  1
<>
  3
DEFAULT
 13
4.594739177228272
 23
15.5
 33
0.0
 14
-5.367997821867241
 24
23.13943873603486
 34
0.0
 50
90.0
  0
DIMENSION
  5
12F
  8
DIMENTIONS
  2
*D6
 10
-8.234592801153465
 20
13.5
 30
0.0
 11
-0.6797964005781774
 21
14.1005
 31
0.0
 70
    32
  1
<>
  3
DEFAULT
 13
6.874999999997108
 23
17.5
 33
0.0
 14
-8.234592801153465
 24
21.40413908467487
 34
0.0
  0
DIMENSION
  5
13D
  8
DIMENTIONS
  2
*D7
 10
-10.99168768135231
 20
0.2500000000000009
 30
0.0
 11
0.2494852129376408
 21
0.8505000000000008
 31
0.0
 70
    32
  1
<>
  3
DEFAULT
 13
11.49065810722759
 23
7.000000014761961
 33
0.0
 14
-10.99168768135231
 24
6.999992900052973
 34
0.0
  0
DIMENSION
  5
14B
  8
DIMENTIONS
  2
*D8
 10
14.75
 20
11.12500000000002
 30
0.0
 11
14.1495
 21
7.375000000000009
 31
0.0
 70
    32
  1
<>
  3
DEFAULT
 13
9.215866023351225
 23
3.625
 33
0.0
 14
9.215866023352513
 24
11.12500000000002
 34
0.0
 50
90.0
  0
DIMENSION
  5
159
  8
DIMENTIONS
  2
*D9
 10
18.375
 20
18.26180942436773
 30
0.0
 11
17.7745
 21
11.13090116221035
 31
0.0
 70
    32
  1
<>
  3
DEFAULT
 13
25.40526265263909
 23
3.999992900052973
 33
0.0
 14
32.89545916115628
 24
18.26180942436773
 34
0.0
 50
90.0
  0
DIMENSION
  5
167
  8
DIMENTIONS
  2
*D10
 10
37.40253189263638
 20
0.625
 30
0.0
 11
29.57243956400546
 21
1.2255
 31
0.0
 70
    32
  1
<>
  3
DEFAULT
 13
21.74234723537453
 23
7.749998148140202
 33
0.0
 14
37.40253189263638
 24
13.95090815362594
 34
0.0
  0
POLYLINE
  5
176
  8
SEAT
 66
     1
 10
0.0
 20
0.0
 30
0.0
  0
VERTEX
  5
178
  8
SEAT
 10
5.937455765372812
 20
6.199686937331121
 30
0.0
  0
VERTEX
  5
179
  8
SEAT
 10
5.937455765374463
 20
8.550298862774817
 30
0.0
 42
0.1602414199394793
  0
VERTEX
  5
17A
  8
SEAT
 10
5.925251881257265
 20
8.587400759318106
 30
0.0
 42
-0.8603642831396682
  0
VERTEX
  5
17B
  8
SEAT
 10
6.100047906109337
 20
8.762196784170186
 30
0.0
 42
0.1602414199387084
  0
VERTEX
  5
17C
  8
SEAT
 10
6.137149802652559
 20
8.749992900052982
 30
0.0
  0
VERTEX
  5
17D
  8
SEAT
 10
6.705568615360509
 20
8.74999290005294
 30
0.0
 42
0.16024141993877
  0
VERTEX
  5
17E
  8
SEAT
 10
6.742670511903728
 20
8.762196784170159
 30
0.0
 42
-0.8603642831401194
  0
VERTEX
  5
17F
  8
SEAT
 10
6.917466536755806
 20
8.587400759318069
 30
0.0
 42
0.1602414199388623
  0
VERTEX
  5
180
  8
SEAT
 10
6.905262652638584
 20
8.550298862774806
 30
0.0
  0
VERTEX
  5
181
  8
SEAT
 10
6.905262652638815
 20
6.19968693733099
 30
0.0
 42
0.1602414199385145
  0
VERTEX
  5
182
  8
SEAT
 10
6.917466536756004
 20
6.162585040787795
 30
0.0
 42
-0.8603642831397433
  0
VERTEX
  5
183
  8
SEAT
 10
6.742670511903697
 20
5.98778901593575
 30
0.0
 42
0.1602414199390224
  0
VERTEX
  5
184
  8
SEAT
 10
6.705568615360463
 20
5.99999290005298
 30
0.0
  0
VERTEX
  5
185
  8
SEAT
 10
6.13714980265253
 20
5.999992900052973
 30
0.0
 42
0.1602414199389757
  0
VERTEX
  5
186
  8
SEAT
 10
6.100047906109292
 20
5.987789015935761
 30
0.0
 42
-0.8603642831405044
  0
VERTEX
  5
187
  8
SEAT
 10
5.925251881257244
 20
6.162585040787836
 30
0.0
 42
0.1602414199389859
  0
VERTEX
  5
188
  8
SEAT
 10
5.937455765374486
 20
6.199686937331121
 30
0.0
  0
SEQEND
  5
177
  8
SEAT
  0
POLYLINE
  5
189
  8
SEAT
 66
     1
 10
0.0
 20
0.0
 30
0.0
  0
VERTEX
  5
18B
  8
SEAT
 10
-6.442852963506572
 20
5.98778901593572
 30
0.0
 42
0.860364283140079
  0
VERTEX
  5
18C
  8
SEAT
 10
-6.268056938654507
 20
6.162585040787782
 30
0.0
 42
-0.1602414199389396
  0
VERTEX
  5
18D
  8
SEAT
 10
-6.28026082277173
 20
6.199686937331011
 30
0.0
  0
VERTEX
  5
18E
  8
SEAT
 10
-6.280260822771732
 20
8.550298862774834
 30
0.0
 42
-0.1602414199382088
  0
VERTEX
  5
18F
  8
SEAT
 10
-6.268056938654468
 20
8.587400759318109
 30
0.0
 42
0.8603642831397982
  0
VERTEX
  5
190
  8
SEAT
 10
-6.442852963506589
 20
8.762196784170104
 30
0.0
 42
-0.1602414199375545
  0
VERTEX
  5
191
  8
SEAT
 10
-6.479954860049876
 20
8.749992900052973
 30
0.0
  0
VERTEX
  5
192
  8
SEAT
 10
-6.830566785493665
 20
8.749992900052968
 30
0.0
 42
-0.1602414199388536
  0
VERTEX
  5
193
  8
SEAT
 10
-6.867668682036899
 20
8.762196784170191
 30
0.0
 42
0.8603642831402996
  0
VERTEX
  5
194
  8
SEAT
 10
-7.042464706888959
 20
8.587400759318122
 30
0.0
 42
-0.1602414199389356
  0
VERTEX
  5
195
  8
SEAT
 10
-7.030260822771728
 20
8.550298862774861
 30
0.0
  0
VERTEX
  5
196
  8
SEAT
 10
-7.030260822771731
 20
6.199686937331116
 30
0.0
 42
-0.1602414199389137
  0
VERTEX
  5
197
  8
SEAT
 10
-7.042464706888963
 20
6.162585040787846
 30
0.0
 42
0.860364283140013
  0
VERTEX
  5
198
  8
SEAT
 10
-6.867668682036925
 20
5.987789015935759
 30
0.0
 42
-0.1602414199387823
  0
VERTEX
  5
199
  8
SEAT
 10
-6.830566785493689
 20
5.999992900052973
 30
0.0
  0
VERTEX
  5
19A
  8
SEAT
 10
-6.479954860049846
 20
5.999992900052981
 30
0.0
 42
-0.1602414199389877
  0
VERTEX
  5
19B
  8
SEAT
 10
-6.442852963506564
 20
5.98778901593573
 30
0.0
  0
SEQEND
  5
18A
  8
SEAT
  0
POLYLINE
  5
19C
  8
SEAT
 66
     1
 10
0.0
 20
0.0
 30
0.0
  0
VERTEX
  5
19E
  8
SEAT
 10
8.319985422935703
 20
7.585859354811574
 30
0.0
 42
-0.8603626007686426
  0
VERTEX
  5
19F
  8
SEAT
 10
8.493499573110913
 20
7.761927820537118
 30
0.0
 42
0.1619839060463688
  0
VERTEX
  5
1A0
  8
SEAT
 10
8.52935153719373
 20
7.749999966783911
 30
0.0
  0
VERTEX
  5
1A1
  8
SEAT
 10
11.49065810575502
 20
7.750000014761935
 30
0.0
 42
0.0681306994189147
  0
VERTEX
  5
1A2
  8
SEAT
 10
11.11312831427831
 20
9.757768361581183
 30
0.0
 42
0.3227772908867497
  0
VERTEX
  5
1A3
  8
SEAT
 10
9.215866023349122
 20
11.12500000000001
 30
0.0
  0
VERTEX
  5
1A4
  8
SEAT
 10
-8.716537062593417
 20
11.125
 30
0.0
 42
0.3226643949428699
  0
VERTEX
  5
1A5
  8
SEAT
 10
-10.61354040007585
 20
9.758544266472768
 30
0.0
 42
0.0682223865746676
  0
VERTEX
  5
1A6
  8
SEAT
 10
-10.99168838991802
 20
7.749992900052973
 30
0.0
  0
VERTEX
  5
1A7
  8
SEAT
 10
-8.640628885653534
 20
7.749992900053122
 30
0.0
 42
0.1586167917983888
  0
VERTEX
  5
1A8
  8
SEAT
 10
-8.603846480090397
 20
7.761962665133966
 30
0.0
 42
-0.8603626007663187
  0
VERTEX
  5
1A9
  8
SEAT
 10
-8.430161425937689
 20
7.586062787652637
 30
0.0
 42
0.1618658811249467
  0
VERTEX
  5
1AA
  8
SEAT
 10
-8.442601304424407
 20
7.548643083831635
 30
0.0
  0
VERTEX
  5
1AB
  8
SEAT
 10
-8.442601304424382
 20
7.195274412759574
 30
0.0
 42
0.1559614971795606
  0
VERTEX
  5
1AC
  8
SEAT
 10
-8.431010058810651
 20
7.159017706802594
 30
0.0
 42
-0.8603526088095577
  0
VERTEX
  5
1AD
  8
SEAT
 10
-8.608698376518403
 20
6.98716336499831
 30
0.0
 42
0.1645201837808344
  0
VERTEX
  5
1AE
  8
SEAT
 10
-8.646633780985749
 20
6.999992900053101
 30
0.0
  0
VERTEX
  5
1AF
  8
SEAT
 10
-10.99168768135231
 20
6.999992900052975
 30
0.0
 42
0.0682219119989983
  0
VERTEX
  5
1B0
  8
SEAT
 10
-10.61354040007583
 20
4.991455733527175
 30
0.0
 42
0.3226643949428836
  0
VERTEX
  5
1B1
  8
SEAT
 10
-8.716537062593574
 20
3.625
 30
0.0
  0
VERTEX
  5
1B2
  8
SEAT
 10
9.215866023351225
 20
3.624999999999998
 30
0.0
 42
0.3227772908865885
  0
VERTEX
  5
1B3
  8
SEAT
 10
11.11312831428005
 20
4.992231638417635
 30
0.0
 42
0.0681307004053577
  0
VERTEX
  5
1B4
  8
SEAT
 10
11.49065810722759
 20
7.000000014761945
 30
0.0
  0
VERTEX
  5
1B5
  8
SEAT
 10
8.537026827383766
 20
6.999999966898294
 30
0.0
 42
0.1645201837768035
  0
VERTEX
  5
1B6
  8
SEAT
 10
8.499103899982458
 20
6.98713359759146
 30
0.0
 42
-0.8603526088033197
  0
VERTEX
  5
1B7
  8
SEAT
 10
8.321248772737967
 20
7.158815299469218
 30
0.0
 42
0.1559614971773873
  0
VERTEX
  5
1B8
  8
SEAT
 10
8.332804802822693
 20
7.195083244963954
 30
0.0
  0
VERTEX
  5
1B9
  8
SEAT
 10
8.332461635044517
 20
7.548451749405302
 30
0.0
 42
0.1618658811224276
  0
VERTEX
  5
1BA
  8
SEAT
 10
8.319985422935709
 20
7.585859354811575
 30
0.0
  0
SEQEND
  5
19D
  8
SEAT
  0
POLYLINE
  5
1BC
  8
HEAD_AND_TAIL
 66
     1
 10
0.0
 20
0.0
 30
0.0
  0
VERTEX
  5
1BE
  8
HEAD_AND_TAIL
 10
2.154956986281499
 20
19.08750072601522
 30
0.0
 42
-0.8589574804916945
  0
VERTEX
  5
1BF
  8
HEAD_AND_TAIL
 10
2.329800641363728
 20
19.26216314067033
 30
0.0
 42
0.15995953332545
  0
VERTEX
  5
1C0
  8
HEAD_AND_TAIL
 10
2.366847221593131
 20
19.25000001476197
 30
0.0
  0
VERTEX
  5
1C1
  8
HEAD_AND_TAIL
 10
3.59473917722827
 20
19.25000001476194
 30
0.0
  0
VERTEX
  5
1C2
  8
HEAD_AND_TAIL
 10
3.59473917722827
 20
20.0
 30
0.0
  0
VERTEX
  5
1C3
  8
HEAD_AND_TAIL
 10
2.814153441638341
 20
20.0
 30
0.0
 42
-0.1085576410892737
  0
VERTEX
  5
1C4
  8
HEAD_AND_TAIL
 10
0.6230985868626355
 20
20.67175759049202
 30
0.0
 42
-0.0154890574928665
  0
VERTEX
  5
1C5
  8
HEAD_AND_TAIL
 10
-2.191570418287027
 20
22.37712739420869
 30
0.0
 42
0.1992851279937835
  0
VERTEX
  5
1C6
  8
HEAD_AND_TAIL
 10
-7.092580971342261
 20
22.86487561989927
 30
0.0
 42
0.0837611701134694
  0
VERTEX
  5
1C7
  8
HEAD_AND_TAIL
 10
-7.316025144851277
 20
22.75379311916413
 30
0.0
 42
0.4266293829248024
  0
VERTEX
  5
1C8
  8
HEAD_AND_TAIL
 10
-7.788185887833052
 20
19.29854560224104
 30
0.0
 42
0.2734852419280648
  0
VERTEX
  5
1C9
  8
HEAD_AND_TAIL
 10
-7.075437418346352
 20
19.025215571938
 30
0.0
 42
-0.0330439618371488
  0
VERTEX
  5
1CA
  8
HEAD_AND_TAIL
 10
-3.947261141475365
 20
19.34432643891354
 30
0.0
 42
-0.1174750684161147
  0
VERTEX
  5
1CB
  8
HEAD_AND_TAIL
 10
-1.292118966686197
 20
18.94573326031815
 30
0.0
 42
-0.2793832891195437
  0
VERTEX
  5
1CC
  8
HEAD_AND_TAIL
 10
0.6138374841169595
 20
16.40199488226492
 30
0.0
 42
0.385746035861216
  0
VERTEX
  5
1CD
  8
HEAD_AND_TAIL
 10
1.609023394838035
 20
15.5
 30
0.0
  0
VERTEX
  5
1CE
  8
HEAD_AND_TAIL
 10
4.594739177228272
 20
15.5
 30
0.0
  0
VERTEX
  5
1CF
  8
HEAD_AND_TAIL
 10
4.59473917722827
 20
16.5
 30
0.0
  0
VERTEX
  5
1D0
  8
HEAD_AND_TAIL
 10
2.444345634237333
 20
16.5
 30
0.0
 42
0.1088193757739579
  0
VERTEX
  5
1D1
  8
HEAD_AND_TAIL
 10
2.418088479044553
 20
16.49421694456848
 30
0.0
 42
-1.082025082775141
  0
VERTEX
  5
1D2
  8
HEAD_AND_TAIL
 10
2.331502600543885
 20
16.72791773790676
 30
0.0
 42
0.266688102999402
  0
VERTEX
  5
1D3
  8
HEAD_AND_TAIL
 10
2.374989040392281
 20
16.77245277939997
 30
0.0
  0
VERTEX
  5
1D4
  8
HEAD_AND_TAIL
 10
2.524032241130338
 20
17.35074413187618
 30
0.0
 42
0.1602414199390693
  0
VERTEX
  5
1D5
  8
HEAD_AND_TAIL
 10
2.52147423168293
 20
17.38971773964245
 30
0.0
 42
-0.8370788233223712
  0
VERTEX
  5
1D6
  8
HEAD_AND_TAIL
 10
2.729952271902157
 20
17.52048937798665
 30
0.0
 42
0.211486160511761
  0
VERTEX
  5
1D7
  8
HEAD_AND_TAIL
 10
2.776227077553376
 20
17.50000000000001
 30
0.0
  0
VERTEX
  5
1D8
  8
HEAD_AND_TAIL
 10
6.874999999997108
 20
17.5
 30
0.0
  0
VERTEX
  5
1D9
  8
HEAD_AND_TAIL
 10
6.875
 20
18.5
 30
0.0
  0
VERTEX
  5
1DA
  8
HEAD_AND_TAIL
 10
4.344739177228281
 20
18.5
 30
0.0
  0
VERTEX
  5
1DB
  8
HEAD_AND_TAIL
 10
4.344739177228271
 20
18.44969403727809
 30
0.0
 42
0.1602414199373027
  0
VERTEX
  5
1DC
  8
HEAD_AND_TAIL
 10
4.356943061345609
 20
18.41259214073467
 30
0.0
 42
-0.8603642831389047
  0
VERTEX
  5
1DD
  8
HEAD_AND_TAIL
 10
4.182147036493292
 20
18.23779611588282
 30
0.0
 42
0.1602414199395293
  0
VERTEX
  5
1DE
  8
HEAD_AND_TAIL
 10
4.145045139950273
 20
18.25000000000003
 30
0.0
  0
VERTEX
  5
1DF
  8
HEAD_AND_TAIL
 10
3.794433214506139
 20
18.25000000000001
 30
0.0
 42
0.1602414199370166
  0
VERTEX
  5
1E0
  8
HEAD_AND_TAIL
 10
3.757331317962926
 20
18.2377961158827
 30
0.0
 42
-0.8603642831431302
  0
VERTEX
  5
1E1
  8
HEAD_AND_TAIL
 10
3.582535293110964
 20
18.41259214073476
 30
0.0
 42
0.1602414199407751
  0
VERTEX
  5
1E2
  8
HEAD_AND_TAIL
 10
3.5947391772283
 20
18.44969403727795
 30
0.0
  0
VERTEX
  5
1E3
  8
HEAD_AND_TAIL
 10
3.594739177228272
 20
18.5
 30
0.0
  0
VERTEX
  5
1E4
  8
HEAD_AND_TAIL
 10
3.041422896365301
 20
18.5
 30
0.0
  0
VERTEX
  5
1E5
  8
HEAD_AND_TAIL
 10
2.366070380729502
 20
18.49988209035611
 30
0.0
 42
0.1600549597634566
  0
VERTEX
  5
1E6
  8
HEAD_AND_TAIL
 10
2.329007195362348
 20
18.48769870203255
 30
0.0
 42
-0.8606127216367445
  0
VERTEX
  5
1E7
  8
HEAD_AND_TAIL
 10
2.154410493360544
 20
18.66258830493405
 30
0.0
 42
0.1602183813498037
  0
VERTEX
  5
1E8
  8
HEAD_AND_TAIL
 10
2.166656050108575
 20
18.69967085056156
 30
0.0
  0
VERTEX
  5
1E9
  8
HEAD_AND_TAIL
 10
2.167081671391424
 20
19.05043053210143
 30
0.0
 42
0.1600047372509507
  0
VERTEX
  5
1EA
  8
HEAD_AND_TAIL
 10
2.154956986281414
 20
19.08750072601515
 30
0.0
  0
SEQEND
  5
1BD
  8
HEAD_AND_TAIL
  0
POLYLINE
  5
1EB
  8
HEAD_AND_TAIL
 66
     1
 10
0.0
 20
0.0
 30
0.0
  0
VERTEX
  5
1ED
  8
HEAD_AND_TAIL
 10
27.325539320172
 20
6.020482278039643
 30
0.0
 42
-1.018532908431734
  0
VERTEX
  5
1EE
  8
HEAD_AND_TAIL
 10
27.50749119748544
 20
5.849098371324156
 30
0.0
 42
0.2623043312786391
  0
VERTEX
  5
1EF
  8
HEAD_AND_TAIL
 10
27.49167010658504
 20
5.789818629372427
 30
0.0
  0
VERTEX
  5
1F0
  8
HEAD_AND_TAIL
 10
27.62523489213946
 20
5.271583915551331
 30
0.0
 42
0.2623043312784532
  0
VERTEX
  5
1F1
  8
HEAD_AND_TAIL
 10
27.66773816355737
 20
5.227336128691971
 30
0.0
 42
-1.07317030952381
  0
VERTEX
  5
1F2
  8
HEAD_AND_TAIL
 10
27.57918594819582
 20
4.994209844621437
 30
0.0
 42
0.1088193757736922
  0
VERTEX
  5
1F3
  8
HEAD_AND_TAIL
 10
27.55292879300306
 20
4.99999290005297
 30
0.0
  0
VERTEX
  5
1F4
  8
HEAD_AND_TAIL
 10
25.4052626526391
 20
4.999992900052973
 30
0.0
  0
VERTEX
  5
1F5
  8
HEAD_AND_TAIL
 10
25.40526265263909
 20
3.999992900052973
 30
0.0
  0
VERTEX
  5
1F6
  8
HEAD_AND_TAIL
 10
29.2392665162302
 20
3.999992900052972
 30
0.0
 42
0.2854260539517178
  0
VERTEX
  5
1F7
  8
HEAD_AND_TAIL
 10
31.5306321189377
 20
10.67425123666773
 30
0.0
 42
0.0461429057499201
  0
VERTEX
  5
1F8
  8
HEAD_AND_TAIL
 10
30.40920438788938
 20
13.95884509320953
 30
0.0
 42
-0.7767966137368153
  0
VERTEX
  5
1F9
  8
HEAD_AND_TAIL
 10
30.87553104799792
 20
14.32917936041535
 30
0.0
 42
-0.0473377206511518
  0
VERTEX
  5
1FA
  8
HEAD_AND_TAIL
 10
32.08775296375588
 20
13.41688756200539
 30
0.0
 42
0.2370727009222887
  0
VERTEX
  5
1FB
  8
HEAD_AND_TAIL
 10
32.83971625558387
 20
13.33795237742591
 30
0.0
 42
-0.1596987564406601
  0
VERTEX
  5
1FC
  8
HEAD_AND_TAIL
 10
34.20596846768081
 20
13.17849144875795
 30
0.0
 42
0.0469023902784263
  0
VERTEX
  5
1FD
  8
HEAD_AND_TAIL
 10
36.26724396824715
 20
12.45125412747877
 30
0.0
 42
0.8186125285053748
  0
VERTEX
  5
1FE
  8
HEAD_AND_TAIL
 10
36.90687032580696
 20
14.51151745381206
 30
0.0
 42
0.0269199929164773
  0
VERTEX
  5
1FF
  8
HEAD_AND_TAIL
 10
35.01618967047151
 20
15.6412863862746
 30
0.0
 42
-0.1307450091546715
  0
VERTEX
  5
200
  8
HEAD_AND_TAIL
 10
34.34402914113692
 20
16.39708975092262
 30
0.0
 42
0.0897021402359817
  0
VERTEX
  5
201
  8
HEAD_AND_TAIL
 10
32.57850700540063
 20
17.52830464657513
 30
0.0
 42
0.0206097986845151
  0
VERTEX
  5
202
  8
HEAD_AND_TAIL
 10
32.93640584107327
 20
17.97055275842319
 30
0.0
 42
0.3186513207604599
  0
VERTEX
  5
203
  8
HEAD_AND_TAIL
 10
32.97616994244878
 20
18.17631575949999
 30
0.0
 42
0.3410618296577643
  0
VERTEX
  5
204
  8
HEAD_AND_TAIL
 10
32.79511656153922
 20
18.28185849791215
 30
0.0
 42
0.1567557164495117
  0
VERTEX
  5
205
  8
HEAD_AND_TAIL
 10
31.62484411902397
 20
17.7300848096498
 30
0.0
 42
0.3203248586914275
  0
VERTEX
  5
206
  8
HEAD_AND_TAIL
 10
26.39886372371012
 20
15.02883654442192
 30
0.0
 42
0.0002383658669813
  0
VERTEX
  5
207
  8
HEAD_AND_TAIL
 10
26.39853779065055
 20
15.02820004448544
 30
0.0
 42
0.0538851840547842
  0
VERTEX
  5
208
  8
HEAD_AND_TAIL
 10
25.21878395971428
 20
11.94188664337392
 30
0.0
 42
-0.0073983466422154
  0
VERTEX
  5
209
  8
HEAD_AND_TAIL
 10
25.16876064938205
 20
11.79765164774466
 30
0.0
  0
VERTEX
  5
20A
  8
HEAD_AND_TAIL
 10
25.67546179151433
 20
9.831638523129495
 30
0.0
 42
0.1602414199366131
  0
VERTEX
  5
20B
  8
HEAD_AND_TAIL
 10
25.69653918069326
 20
9.798756473617832
 30
0.0
 42
-0.8595254498523576
  0
VERTEX
  5
20C
  8
HEAD_AND_TAIL
 10
25.57112281821313
 20
9.585777163302977
 30
0.0
 42
0.159675525591786
  0
VERTEX
  5
20D
  8
HEAD_AND_TAIL
 10
25.53227789920975
 20
9.588294529365328
 30
0.0
  0
VERTEX
  5
20E
  8
HEAD_AND_TAIL
 10
25.19230088203941
 20
9.500773010845611
 30
0.0
 42
0.1600434390463647
  0
VERTEX
  5
20F
  8
HEAD_AND_TAIL
 10
25.15944345107474
 20
9.479742182985422
 30
0.0
 42
-0.8599074164312862
  0
VERTEX
  5
210
  8
HEAD_AND_TAIL
 10
24.94663709642783
 20
9.605483989663942
 30
0.0
 42
0.1602414089490289
  0
VERTEX
  5
211
  8
HEAD_AND_TAIL
 10
24.94919510487344
 20
9.644457594945937
 30
0.0
  0
VERTEX
  5
212
  8
HEAD_AND_TAIL
 10
24.65924635257109
 20
10.76946601725449
 30
0.0
 42
-0.1315075881676975
  0
VERTEX
  5
213
  8
HEAD_AND_TAIL
 10
22.68538566659939
 20
8.975198911044091
 30
0.0
 42
0.2228565973096603
  0
VERTEX
  5
214
  8
HEAD_AND_TAIL
 10
21.74234723537455
 20
7.7499981481402
 30
0.0
  0
VERTEX
  5
215
  8
HEAD_AND_TAIL
 10
27.63328613235751
 20
7.749992914814915
 30
0.0
 42
0.1602414199430359
  0
VERTEX
  5
216
  8
HEAD_AND_TAIL
 10
27.6703880289006
 20
7.762196798931904
 30
0.0
 42
-0.8603642831425504
  0
VERTEX
  5
217
  8
HEAD_AND_TAIL
 10
27.84518405375298
 20
7.587400774079969
 30
0.0
 42
0.1602414199355654
  0
VERTEX
  5
218
  8
HEAD_AND_TAIL
 10
27.83298016963585
 20
7.550298877536223
 30
0.0
  0
VERTEX
  5
219
  8
HEAD_AND_TAIL
 10
27.8329801696358
 20
7.199686952093197
 30
0.0
 42
0.1602414199373214
  0
VERTEX
  5
21A
  8
HEAD_AND_TAIL
 10
27.84518405375319
 20
7.16258505554967
 30
0.0
 42
-0.8603642533421571
  0
VERTEX
  5
21B
  8
HEAD_AND_TAIL
 10
27.67038803579062
 20
6.987789025615393
 30
0.0
 42
0.1602414050894245
  0
VERTEX
  5
21C
  8
HEAD_AND_TAIL
 10
27.63328614203094
 20
6.999992907191473
 30
0.0
  0
VERTEX
  5
21D
  8
HEAD_AND_TAIL
 10
23.12500182986736
 20
6.999992900052973
 30
0.0
  0
VERTEX
  5
21E
  8
HEAD_AND_TAIL
 10
23.12500182987025
 20
5.999992900052973
 30
0.0
  0
VERTEX
  5
21F
  8
HEAD_AND_TAIL
 10
27.27926451452121
 20
5.999992900052971
 30
0.0
 42
0.2114861605109605
  0
VERTEX
  5
220
  8
HEAD_AND_TAIL
 10
27.32553932017209
 20
6.02048227803955
 30
0.0
  0
SEQEND
  5
1EC
  8
HEAD_AND_TAIL
  0
POLYLINE
  5
222
  8
FRONT_HANDLES
 66
     1
 10
0.0
 20
0.0
 30
0.0
  0
VERTEX
  5
224
  8
FRONT_HANDLES
 10
-29.79994666614248
 20
13.74349999999998
 30
0.0
  0
VERTEX
  5
225
  8
FRONT_HANDLES
 10
-29.75
 20
13.74349999999998
 30
0.0
  0
VERTEX
  5
226
  8
FRONT_HANDLES
 10
-29.75
 20
16.62500000000002
 30
0.0
 42
-0.4142135623730914
  0
VERTEX
  5
227
  8
FRONT_HANDLES
 10
-27.75
 20
18.625
 30
0.0
  0
VERTEX
  5
228
  8
FRONT_HANDLES
 10
-26.87500000000001
 20
18.625
 30
0.0
 42
1.000000000000014
  0
VERTEX
  5
229
  8
FRONT_HANDLES
 10
-26.875
 20
19.625
 30
0.0
  0
VERTEX
  5
22A
  8
FRONT_HANDLES
 10
-27.76944872453601
 20
19.62499999999999
 30
0.0
 42
0.1361061113099542
  0
VERTEX
  5
22B
  8
FRONT_HANDLES
 10
-28.79960623181145
 20
19.3392857142857
 30
0.0
 42
-0.2773479653492297
  0
VERTEX
  5
22C
  8
FRONT_HANDLES
 10
-33.95035981797813
 20
19.33926531293132
 30
0.0
 42
0.1361172054603461
  0
VERTEX
  5
22D
  8
FRONT_HANDLES
 10
-34.98050374516947
 20
19.625
 30
0.0
  0
VERTEX
  5
22E
  8
FRONT_HANDLES
 10
-35.87499999999999
 20
19.625
 30
0.0
 42
1.000000000000014
  0
VERTEX
  5
22F
  8
FRONT_HANDLES
 10
-35.875
 20
18.625
 30
0.0
  0
VERTEX
  5
230
  8
FRONT_HANDLES
 10
-35.0
 20
18.625
 30
0.0
 42
-0.4142135623730981
  0
VERTEX
  5
231
  8
FRONT_HANDLES
 10
-33.0
 20
16.62500000000002
 30
0.0
  0
VERTEX
  5
232
  8
FRONT_HANDLES
 10
-33.0
 20
13.74349999999998
 30
0.0
  0
VERTEX
  5
233
  8
FRONT_HANDLES
 10
-32.94969403727813
 20
13.74349999999998
 30
0.0
 42
0.1602414199375185
  0
VERTEX
  5
234
  8
FRONT_HANDLES
 10
-32.91259214073474
 20
13.75570388411732
 30
0.0
 42
-0.8603642831402494
  0
VERTEX
  5
235
  8
FRONT_HANDLES
 10
-32.7377961158827
 20
13.58090785926524
 30
0.0
 42
0.1602414199396877
  0
VERTEX
  5
236
  8
FRONT_HANDLES
 10
-32.74999999999997
 20
13.54380596272203
 30
0.0
  0
VERTEX
  5
237
  8
FRONT_HANDLES
 10
-32.75
 20
9.624999999999943
 30
0.0
  0
VERTEX
  5
238
  8
FRONT_HANDLES
 10
-31.75
 20
9.625
 30
0.0
  0
VERTEX
  5
239
  8
FRONT_HANDLES
 10
-31.75
 20
15.30030596272138
 30
0.0
 42
0.1602414199382493
  0
VERTEX
  5
23A
  8
FRONT_HANDLES
 10
-31.76220388411725
 20
15.33740785926461
 30
0.0
 42
-0.8603642831395556
  0
VERTEX
  5
23B
  8
FRONT_HANDLES
 10
-31.58740785926497
 20
15.51220388411631
 30
0.0
 42
0.1602414199370948
  0
VERTEX
  5
23C
  8
FRONT_HANDLES
 10
-31.55030596272193
 20
15.49999999999907
 30
0.0
  0
VERTEX
  5
23D
  8
FRONT_HANDLES
 10
-31.19969403727872
 20
15.49999999999712
 30
0.0
 42
0.1602414199224589
  0
VERTEX
  5
23E
  8
FRONT_HANDLES
 10
-31.16259214073416
 20
15.51220388411604
 30
0.0
 42
-0.8603642831428491
  0
VERTEX
  5
23F
  8
FRONT_HANDLES
 10
-30.98779611588264
 20
15.33740785926467
 30
0.0
 42
0.1602414199396762
  0
VERTEX
  5
240
  8
FRONT_HANDLES
 10
-30.99999999999998
 20
15.30030596272126
 30
0.0
  0
VERTEX
  5
241
  8
FRONT_HANDLES
 10
-31.0
 20
9.625
 30
0.0
  0
VERTEX
  5
242
  8
FRONT_HANDLES
 10
-30.0
 20
9.625000000000014
 30
0.0
  0
VERTEX
  5
243
  8
FRONT_HANDLES
 10
-30.0
 20
13.54380596272187
 30
0.0
 42
0.1602414199390033
  0
VERTEX
  5
244
  8
FRONT_HANDLES
 10
-30.01220388411722
 20
13.58090785926514
 30
0.0
 42
-0.8610346336089374
  0
VERTEX
  5
245
  8
FRONT_HANDLES
 10
-29.83725300270148
 20
13.75558946692879
 30
0.0
 42
0.1632895241125236
  0
VERTEX
  5
246
  8
FRONT_HANDLES
 10
-29.79994666614248
 20
13.74349999999997
 30
0.0
  0
SEQEND
  5
223
  8
FRONT_HANDLES
  0
DIMENSION
  5
247
  8
DIMENTIONS
  2
*D11
 10
35.0
 20
36.5
 30
0.0
 11
34.3995
 21
29.625
 31
0.0
 70
    32
  1
<>
  3
DEFAULT
 13
16.6875000000001
 23
22.75
 33
0.0
 14
16.6875000000001
 24
36.5
 34
0.0
 50
90.0
  0
DIMENSION
  5
255
  8
DIMENTIONS
  2
*D12
 10
32.74124420929918
 20
38.25
 30
0.0
 11
16.68749999999983
 21
38.8505
 31
0.0
 70
    32
  1
<>
  3
DEFAULT
 13
0.6337557907004852
 23
28.76435741019596
 33
0.0
 14
32.74124420929918
 24
28.76435741019632
 34
0.0
  0
POLYLINE
  5
264
  8
SIDE_PROFILE
 66
     1
 10
0.0
 20
0.0
 30
0.0
  0
VERTEX
  5
266
  8
SIDE_PROFILE
 10
32.61702777617846
 20
28.36511360047874
 30
0.0
 42
-0.3524971787849219
  0
VERTEX
  5
267
  8
SIDE_PROFILE
 10
0.7579722238217542
 20
28.36511360047856
 30
0.0
 42
-0.671534743334073
  0
VERTEX
  5
268
  8
SIDE_PROFILE
 10
0.956309550983968
 20
29.03041081382392
 30
0.0
 42
0.3981336120064752
  0
VERTEX
  5
269
  8
SIDE_PROFILE
 10
7.437499999999998
 20
36.5
 30
0.0
  0
VERTEX
  5
26A
  8
SIDE_PROFILE
 10
25.93749999999999
 20
36.50000000000004
 30
0.0
 42
0.3981336120067827
  0
VERTEX
  5
26B
  8
SIDE_PROFILE
 10
32.41869044901561
 20
29.03041081382396
 30
0.0
 42
-0.6715347433337559
  0
VERTEX
  5
26C
  8
SIDE_PROFILE
 10
32.61702777617842
 20
28.3651136004789
 30
0.0
  0
SEQEND
  5
265
  8
SIDE_PROFILE
  0
POLYLINE
  5
26E
  8
TRNON_HOLES
 66
     1
 10
0.0
 20
0.0
 30
0.0
  0
VERTEX
  5
270
  8
TRNON_HOLES
 10
6.815129139453325
 20
28.23515415710743
 30
0.0
  0
VERTEX
  5
271
  8
TRNON_HOLES
 10
7.372953124497018
 20
30.39952519286865
 30
0.0
 42
0.1586167917987998
  0
VERTEX
  5
272
  8
TRNON_HOLES
 10
7.37054208870159
 20
30.438130989603
 30
0.0
 42
-0.860362600766019
  0
VERTEX
  5
273
  8
TRNON_HOLES
 10
7.584223089677877
 20
30.56241974515128
 30
0.0
 42
0.161865881124846
  0
VERTEX
  5
274
  8
TRNON_HOLES
 10
7.617353991447534
 20
30.54103451289291
 30
0.0
  0
VERTEX
  5
275
  8
TRNON_HOLES
 10
7.959540516758901
 20
30.45284267885725
 30
0.0
 42
0.1559614971795232
  0
VERTEX
  5
276
  8
TRNON_HOLES
 10
7.99754278051178
 20
30.45501837446667
 30
0.0
 42
-0.8603526088094298
  0
VERTEX
  5
277
  8
TRNON_HOLES
 10
8.119612406337554
 20
30.2400624266598
 30
0.0
 42
0.1645201837813353
  0
VERTEX
  5
278
  8
TRNON_HOLES
 10
8.097721142199266
 20
30.20652939166068
 30
0.0
  0
VERTEX
  5
279
  8
TRNON_HOLES
 10
7.543311380781789
 20
28.05540562909733
 30
0.0
 42
0.1645201837771158
  0
VERTEX
  5
27A
  8
TRNON_HOLES
 10
7.546306002442681
 20
28.01547163201549
 30
0.0
 42
-0.860352608803403
  0
VERTEX
  5
27B
  8
TRNON_HOLES
 10
7.33566894923457
 20
27.88609201668681
 30
0.0
 42
0.1559614971774259
  0
VERTEX
  5
27C
  8
TRNON_HOLES
 10
7.303432773286834
 20
27.9063339203027
 30
0.0
  0
VERTEX
  5
27D
  8
TRNON_HOLES
 10
6.961160764691883
 20
27.99419340941808
 30
0.0
 42
0.1618658811237271
  0
VERTEX
  5
27E
  8
TRNON_HOLES
 10
6.921823155859247
 20
27.99144798738386
 30
0.0
 42
-0.8603626007683688
  0
VERTEX
  5
27F
  8
TRNON_HOLES
 10
6.794630996701644
 20
28.20341359681803
 30
0.0
 42
0.1547559628669104
  0
VERTEX
  5
280
  8
TRNON_HOLES
 10
6.815129139453324
 20
28.23515415710743
 30
0.0
  0
SEQEND
  5
26F
  8
TRNON_HOLES
  0
POLYLINE
  5
281
  8
TRNON_HOLES
 66
     1
 10
0.0
 20
0.0
 30
0.0
  0
VERTEX
  5
283
  8
TRNON_HOLES
 10
24.83530589478639
 20
31.92139555979006
 30
0.0
  0
VERTEX
  5
284
  8
TRNON_HOLES
 10
24.27748190974404
 20
34.08576659555163
 30
0.0
 42
0.1586167917988144
  0
VERTEX
  5
285
  8
TRNON_HOLES
 10
24.25671096786518
 20
34.11839769434658
 30
0.0
 42
-0.8603626007660115
  0
VERTEX
  5
286
  8
TRNON_HOLES
 10
24.38369722352738
 20
34.3304867223675
 30
0.0
 42
0.1618658811246659
  0
VERTEX
  5
287
  8
TRNON_HOLES
 10
24.42303747993844
 20
34.32777950306954
 30
0.0
  0
VERTEX
  5
288
  8
TRNON_HOLES
 10
24.76522400524987
 20
34.41597133710499
 30
0.0
 42
0.1559614971794709
  0
VERTEX
  5
289
  8
TRNON_HOLES
 10
24.79744050872961
 20
34.43624453629179
 30
0.0
 42
-0.860352608809407
  0
VERTEX
  5
28A
  8
TRNON_HOLES
 10
25.00820310542799
 20
34.30706953530574
 30
0.0
 42
0.1645201837814704
  0
VERTEX
  5
28B
  8
TRNON_HOLES
 10
25.00524726578393
 20
34.26713264892457
 30
0.0
  0
VERTEX
  5
28C
  8
TRNON_HOLES
 10
25.55965702720009
 20
32.11600888636087
 30
0.0
 42
0.1645201837771006
  0
VERTEX
  5
28D
  8
TRNON_HOLES
 10
25.58158084553413
 20
32.08249712616419
 30
0.0
 42
-0.8603526088033917
  0
VERTEX
  5
28E
  8
TRNON_HOLES
 10
25.45972002475833
 20
31.86742273576254
 30
0.0
 42
0.155961497177317
  0
VERTEX
  5
28F
  8
TRNON_HOLES
 10
25.42171566606869
 20
31.86956152568138
 30
0.0
  0
VERTEX
  5
290
  8
TRNON_HOLES
 10
25.07961494674652
 20
31.78103742989668
 30
0.0
 42
0.1618658811238252
  0
VERTEX
  5
291
  8
TRNON_HOLES
 10
25.04650482817324
 20
31.75962003372256
 30
0.0
 42
-0.860362600768426
  0
VERTEX
  5
292
  8
TRNON_HOLES
 10
24.83270322896521
 20
31.8837012212977
 30
0.0
 42
0.1547559628669317
  0
VERTEX
  5
293
  8
TRNON_HOLES
 10
24.83530589478639
 20
31.92139555979005
 30
0.0
  0
SEQEND
  5
282
  8
TRNON_HOLES
  0
POLYLINE
  5
294
  8
TRNON_HOLES
 66
     1
 10
0.0
 20
0.0
 30
0.0
  0
VERTEX
  5
296
  8
TRNON_HOLES
 10
25.83359994525104
 20
28.04798963617318
 30
0.0
  0
VERTEX
  5
297
  8
TRNON_HOLES
 10
25.27577596020868
 20
30.21236067193475
 30
0.0
 42
0.1586167917987364
  0
VERTEX
  5
298
  8
TRNON_HOLES
 10
25.25500501832982
 20
30.2449917707297
 30
0.0
 42
-0.8603626007659905
  0
VERTEX
  5
299
  8
TRNON_HOLES
 10
25.38199127399203
 20
30.45708079875064
 30
0.0
 42
0.1618658811247223
  0
VERTEX
  5
29A
  8
TRNON_HOLES
 10
25.42133153040309
 20
30.45437357945266
 30
0.0
  0
VERTEX
  5
29B
  8
TRNON_HOLES
 10
25.76351805571451
 20
30.54256541348811
 30
0.0
 42
0.1559614971795394
  0
VERTEX
  5
29C
  8
TRNON_HOLES
 10
25.79573455919425
 20
30.56283861267492
 30
0.0
 42
-0.8603526088094224
  0
VERTEX
  5
29D
  8
TRNON_HOLES
 10
26.00649715589264
 20
30.43366361168886
 30
0.0
 42
0.1645201837813599
  0
VERTEX
  5
29E
  8
TRNON_HOLES
 10
26.00354131624857
 20
30.39372672530769
 30
0.0
  0
VERTEX
  5
29F
  8
TRNON_HOLES
 10
26.55795107766472
 20
28.24260296274399
 30
0.0
 42
0.1645201837770368
  0
VERTEX
  5
2A0
  8
TRNON_HOLES
 10
26.57987489599877
 20
28.20909120254731
 30
0.0
 42
-0.8603526088033803
  0
VERTEX
  5
2A1
  8
TRNON_HOLES
 10
26.45801407522298
 20
27.99401681214566
 30
0.0
 42
0.155961497177407
  0
VERTEX
  5
2A2
  8
TRNON_HOLES
 10
26.42000971653333
 20
27.9961556020645
 30
0.0
  0
VERTEX
  5
2A3
  8
TRNON_HOLES
 10
26.07790899721116
 20
27.9076315062798
 30
0.0
 42
0.1618658811238252
  0
VERTEX
  5
2A4
  8
TRNON_HOLES
 10
26.04479887863789
 20
27.88621411010568
 30
0.0
 42
-0.8603626007684173
  0
VERTEX
  5
2A5
  8
TRNON_HOLES
 10
25.83099727942985
 20
28.01029529768082
 30
0.0
 42
0.1547559628669317
  0
VERTEX
  5
2A6
  8
TRNON_HOLES
 10
25.83359994525103
 20
28.04798963617317
 30
0.0
  0
SEQEND
  5
295
  8
TRNON_HOLES
  0
POLYLINE
  5
2A7
  8
TRNON_HOLES
 66
     1
 10
0.0
 20
0.0
 30
0.0
  0
VERTEX
  5
2A9
  8
TRNON_HOLES
 10
8.371251403380628
 20
34.27294752284753
 30
0.0
 42
0.1586167917988474
  0
VERTEX
  5
2AA
  8
TRNON_HOLES
 10
8.3688403675852
 20
34.31155331958189
 30
0.0
 42
-0.8603626007665201
  0
VERTEX
  5
2AB
  8
TRNON_HOLES
 10
8.582521368561492
 20
34.43584207513018
 30
0.0
 42
0.1618658811249426
  0
VERTEX
  5
2AC
  8
TRNON_HOLES
 10
8.615652270331147
 20
34.41445684287179
 30
0.0
  0
VERTEX
  5
2AD
  8
TRNON_HOLES
 10
8.957838795642513
 20
34.32626500883615
 30
0.0
 42
0.1559614971795689
  0
VERTEX
  5
2AE
  8
TRNON_HOLES
 10
8.995841059395396
 20
34.32844070444555
 30
0.0
 42
-0.8603526088094671
  0
VERTEX
  5
2AF
  8
TRNON_HOLES
 10
9.117910685221167
 20
34.11348475663868
 30
0.0
 42
0.164520183781409
  0
VERTEX
  5
2B0
  8
TRNON_HOLES
 10
9.096019421082875
 20
34.07995172163957
 30
0.0
  0
VERTEX
  5
2B1
  8
TRNON_HOLES
 10
8.541609659665404
 20
31.92882795907622
 30
0.0
 42
0.1645201837770323
  0
VERTEX
  5
2B2
  8
TRNON_HOLES
 10
8.544604281326297
 20
31.88889396199437
 30
0.0
 42
-0.8603526088033571
  0
VERTEX
  5
2B3
  8
TRNON_HOLES
 10
8.333967228118183
 20
31.7595143466657
 30
0.0
 42
0.1559614971774177
  0
VERTEX
  5
2B4
  8
TRNON_HOLES
 10
8.301731052170446
 20
31.77975625028159
 30
0.0
  0
VERTEX
  5
2B5
  8
TRNON_HOLES
 10
7.959459043575495
 20
31.86761573939697
 30
0.0
 42
0.1618658811237877
  0
VERTEX
  5
2B6
  8
TRNON_HOLES
 10
7.920121434742863
 20
31.86487031736274
 30
0.0
 42
-0.860362600768061
  0
VERTEX
  5
2B7
  8
TRNON_HOLES
 10
7.79292927558526
 20
32.07683592679692
 30
0.0
 42
0.1619839003292044
  0
VERTEX
  5
2B8
  8
TRNON_HOLES
 10
7.813427418336936
 20
32.10857648708631
 30
0.0
  0
VERTEX
  5
2B9
  8
TRNON_HOLES
 10
8.371251403380633
 20
34.27294752284753
 30
0.0
  0
SEQEND
  5
2A8
  8
TRNON_HOLES
  0
POLYLINE
  5
2BA
  8
TRNON_HOLES
 66
     1
 10
0.0
 20
0.0
 30
0.0
  0
VERTEX
  5
2BC
  8
TRNON_HOLES
 10
10.46099411224564
 20
26.89194861971399
 30
0.0
 42
-0.1602414199387911
  0
VERTEX
  5
2BD
  8
TRNON_HOLES
 10
10.49809600878888
 20
26.9041525038312
 30
0.0
  0
VERTEX
  5
2BE
  8
TRNON_HOLES
 10
12.59870793423283
 20
26.9041525038312
 30
0.0
 42
-0.1602414199386248
  0
VERTEX
  5
2BF
  8
TRNON_HOLES
 10
12.63580983077607
 20
26.89194861971398
 30
0.0
 42
0.860364283140253
  0
VERTEX
  5
2C0
  8
TRNON_HOLES
 10
12.81060585562807
 20
27.0667446445661
 30
0.0
 42
-0.1602414199389007
  0
VERTEX
  5
2C1
  8
TRNON_HOLES
 10
12.79840197151084
 20
27.10384654110938
 30
0.0
  0
VERTEX
  5
2C2
  8
TRNON_HOLES
 10
12.79840197151033
 20
27.57945846655317
 30
0.0
 42
-0.1602414199389692
  0
VERTEX
  5
2C3
  8
TRNON_HOLES
 10
12.81060585562753
 20
27.61656036309642
 30
0.0
 42
0.8603642831394872
  0
VERTEX
  5
2C4
  8
TRNON_HOLES
 10
12.63580983077541
 20
27.79135638794843
 30
0.0
 42
-0.1602414199387473
  0
VERTEX
  5
2C5
  8
TRNON_HOLES
 10
12.59870793423216
 20
27.77915250383121
 30
0.0
  0
VERTEX
  5
2C6
  8
TRNON_HOLES
 10
10.49809600878848
 20
27.77915250383121
 30
0.0
 42
-0.1602414199392107
  0
VERTEX
  5
2C7
  8
TRNON_HOLES
 10
10.46099411224525
 20
27.79135638794842
 30
0.0
 42
0.860364283139723
  0
VERTEX
  5
2C8
  8
TRNON_HOLES
 10
10.28619808739311
 20
27.6165603630964
 30
0.0
 42
-0.1602414199364591
  0
VERTEX
  5
2C9
  8
TRNON_HOLES
 10
10.29840197151031
 20
27.57945846655316
 30
0.0
  0
VERTEX
  5
2CA
  8
TRNON_HOLES
 10
10.29840197151084
 20
27.10384654110932
 30
0.0
 42
-0.1602414199387699
  0
VERTEX
  5
2CB
  8
TRNON_HOLES
 10
10.28619808739361
 20
27.06674464456609
 30
0.0
 42
0.8603642831402588
  0
VERTEX
  5
2CC
  8
TRNON_HOLES
 10
10.46099411224563
 20
26.89194861971399
 30
0.0
  0
SEQEND
  5
2BB
  8
TRNON_HOLES
  0
POLYLINE
  5
2CD
  8
FRONT_AND_BACL_SUPORT_PANE
 66
     1
 10
0.0
 20
0.0
 30
0.0
  0
VERTEX
  5
2CF
  8
FRONT_AND_BACL_SUPORT_PANE
 10
-18.22451806943827
 20
36.05222373975094
 30
0.0
 42
-0.8603526088096892
  0
VERTEX
  5
2D0
  8
FRONT_AND_BACL_SUPORT_PANE
 10
-18.09475798475629
 20
35.84182085604894
 30
0.0
 42
0.1645201837815782
  0
VERTEX
  5
2D1
  8
FRONT_AND_BACL_SUPORT_PANE
 10
-18.11542278799725
 20
35.80751841023472
 30
0.0
  0
VERTEX
  5
2D2
  8
FRONT_AND_BACL_SUPORT_PANE
 10
-18.43158899585621
 20
34.36720568554392
 30
0.0
 42
0.1570029597013268
  0
VERTEX
  5
2D3
  8
FRONT_AND_BACL_SUPORT_PANE
 10
-18.42794092238688
 20
34.32907330349606
 30
0.0
 42
-0.8603575988294919
  0
VERTEX
  5
2D4
  8
FRONT_AND_BACL_SUPORT_PANE
 10
-18.63781535802309
 20
34.19845982742028
 30
0.0
 42
0.1634792167291874
  0
VERTEX
  5
2D5
  8
FRONT_AND_BACL_SUPORT_PANE
 10
-18.67195367193445
 20
34.21893153695059
 30
0.0
  0
VERTEX
  5
2D6
  8
FRONT_AND_BACL_SUPORT_PANE
 10
-19.45043475763945
 20
34.38981762893475
 30
0.0
 42
0.4142135623731024
  0
VERTEX
  5
2D7
  8
FRONT_AND_BACL_SUPORT_PANE
 10
-20.0460105766467
 20
34.00864910477011
 30
0.0
  0
VERTEX
  5
2D8
  8
FRONT_AND_BACL_SUPORT_PANE
 10
-20.39442243076593
 20
32.42143954711582
 30
0.0
 42
0.4142135623731896
  0
VERTEX
  5
2D9
  8
FRONT_AND_BACL_SUPORT_PANE
 10
-20.01325390660134
 20
31.82586372810856
 30
0.0
  0
VERTEX
  5
2DA
  8
FRONT_AND_BACL_SUPORT_PANE
 10
-19.89116086370471
 20
31.79906281625321
 30
0.0
 42
0.4142135623724998
  0
VERTEX
  5
2DB
  8
FRONT_AND_BACL_SUPORT_PANE
 10
-19.74226690895299
 20
31.89435494729452
 30
0.0
  0
VERTEX
  5
2DC
  8
FRONT_AND_BACL_SUPORT_PANE
 10
-19.70530896379233
 20
32.062718919693
 30
0.0
 42
0.1631264419273655
  0
VERTEX
  5
2DD
  8
FRONT_AND_BACL_SUPORT_PANE
 10
-19.70956399649296
 20
32.102214907917
 30
0.0
 42
-0.8603589762160775
  0
VERTEX
  5
2DE
  8
FRONT_AND_BACL_SUPORT_PANE
 10
-19.50286815784952
 20
32.23780258568309
 30
0.0
 42
0.1573558712403162
  0
VERTEX
  5
2DF
  8
FRONT_AND_BACL_SUPORT_PANE
 10
-19.46971218320311
 20
32.21845437082143
 30
0.0
  0
VERTEX
  5
2E0
  8
FRONT_AND_BACL_SUPORT_PANE
 10
-19.11642805138743
 20
32.14090419554491
 30
0.0
 42
0.152421119407178
  0
VERTEX
  5
2E1
  8
FRONT_AND_BACL_SUPORT_PANE
 10
-19.07932694560349
 20
32.14411881233503
 30
0.0
 42
-0.8603253103134995
  0
VERTEX
  5
2E2
  8
FRONT_AND_BACL_SUPORT_PANE
 10
-18.95248355099661
 20
31.93194617669311
 30
0.0
 42
0.1680578480997938
  0
VERTEX
  5
2E3
  8
FRONT_AND_BACL_SUPORT_PANE
 10
-18.97380902499706
 20
31.89709221945815
 30
0.0
  0
VERTEX
  5
2E4
  8
FRONT_AND_BACL_SUPORT_PANE
 10
-19.50000000000019
 20
29.50000000000004
 30
0.0
  0
VERTEX
  5
2E5
  8
FRONT_AND_BACL_SUPORT_PANE
 10
-9.999999999999844
 20
29.4999999999979
 30
0.0
  0
VERTEX
  5
2E6
  8
FRONT_AND_BACL_SUPORT_PANE
 10
-10.52619097499895
 20
31.89709221945479
 30
0.0
 42
0.168057848106009
  0
VERTEX
  5
2E7
  8
FRONT_AND_BACL_SUPORT_PANE
 10
-10.54751644899935
 20
31.93194617668978
 30
0.0
 42
-0.8603253103238858
  0
VERTEX
  5
2E8
  8
FRONT_AND_BACL_SUPORT_PANE
 10
-10.42067305439211
 20
32.14411881233148
 30
0.0
 42
0.1524211194100958
  0
VERTEX
  5
2E9
  8
FRONT_AND_BACL_SUPORT_PANE
 10
-10.38357194860819
 20
32.14090419554131
 30
0.0
  0
VERTEX
  5
2EA
  8
FRONT_AND_BACL_SUPORT_PANE
 10
-10.03028781679237
 20
32.21845437081726
 30
0.0
 42
0.1573558712373616
  0
VERTEX
  5
2EB
  8
FRONT_AND_BACL_SUPORT_PANE
 10
-9.997131842145922
 20
32.23780258567886
 30
0.0
 42
-0.8603589762111293
  0
VERTEX
  5
2EC
  8
FRONT_AND_BACL_SUPORT_PANE
 10
-9.79043600350272
 20
32.10221490791242
 30
0.0
 42
0.1631264419272799
  0
VERTEX
  5
2ED
  8
FRONT_AND_BACL_SUPORT_PANE
 10
-9.794691036203403
 20
32.06271891968842
 30
0.0
  0
VERTEX
  5
2EE
  8
FRONT_AND_BACL_SUPORT_PANE
 10
-9.757733091043036
 20
31.89435494728989
 30
0.0
 42
0.4142135623736281
  0
VERTEX
  5
2EF
  8
FRONT_AND_BACL_SUPORT_PANE
 10
-9.608839136291465
 20
31.79906281624833
 30
0.0
  0
VERTEX
  5
2F0
  8
FRONT_AND_BACL_SUPORT_PANE
 10
-9.486746093394803
 20
31.82586372810347
 30
0.0
 42
0.414213562373059
  0
VERTEX
  5
2F1
  8
FRONT_AND_BACL_SUPORT_PANE
 10
-9.105577569229208
 20
32.42143954711013
 30
0.0
  0
VERTEX
  5
2F2
  8
FRONT_AND_BACL_SUPORT_PANE
 10
-9.453989423345801
 20
34.00864910476498
 30
0.0
 42
0.4142135623731733
  0
VERTEX
  5
2F3
  8
FRONT_AND_BACL_SUPORT_PANE
 10
-10.04956524235242
 20
34.3898176289306
 30
0.0
  0
VERTEX
  5
2F4
  8
FRONT_AND_BACL_SUPORT_PANE
 10
-10.82804632805771
 20
34.21893153694775
 30
0.0
 42
0.1634792167257566
  0
VERTEX
  5
2F5
  8
FRONT_AND_BACL_SUPORT_PANE
 10
-10.86218464196912
 20
34.19845982741749
 30
0.0
 42
-0.8603575988345905
  0
VERTEX
  5
2F6
  8
FRONT_AND_BACL_SUPORT_PANE
 10
-11.0720590776051
 20
34.32907330349359
 30
0.0
 42
0.1570029597036082
  0
VERTEX
  5
2F7
  8
FRONT_AND_BACL_SUPORT_PANE
 10
-11.06841100413571
 20
34.36720568554146
 30
0.0
  0
VERTEX
  5
2F8
  8
FRONT_AND_BACL_SUPORT_PANE
 10
-11.38457721199228
 20
35.80751841023279
 30
0.0
 42
0.1645201837770161
  0
VERTEX
  5
2F9
  8
FRONT_AND_BACL_SUPORT_PANE
 10
-11.40524201523317
 20
35.84182085604703
 30
0.0
 42
-0.8603526088035254
  0
VERTEX
  5
2FA
  8
FRONT_AND_BACL_SUPORT_PANE
 10
-11.27548193055084
 20
36.05222373974883
 30
0.0
 42
0.155961497177433
  0
VERTEX
  5
2FB
  8
FRONT_AND_BACL_SUPORT_PANE
 10
-11.23758315048943
 20
36.04867575840939
 30
0.0
  0
VERTEX
  5
2FC
  8
FRONT_AND_BACL_SUPORT_PANE
 10
-10.8924322999655
 20
36.12444057925552
 30
0.0
 42
0.1618658811236481
  0
VERTEX
  5
2FD
  8
FRONT_AND_BACL_SUPORT_PANE
 10
-10.85855001662964
 20
36.1446142176672
 30
0.0
 42
-0.8603626007680992
  0
VERTEX
  5
2FE
  8
FRONT_AND_BACL_SUPORT_PANE
 10
-10.64950146371988
 20
36.01268254042364
 30
0.0
 42
0.1586167917985132
  0
VERTEX
  5
2FF
  8
FRONT_AND_BACL_SUPORT_PANE
 10
-10.65330644797711
 20
35.97418912891072
 30
0.0
  0
VERTEX
  5
300
  8
FRONT_AND_BACL_SUPORT_PANE
 10
-10.61536227040696
 20
35.80133231997864
 30
0.0
 42
0.4142135623727982
  0
VERTEX
  5
301
  8
FRONT_AND_BACL_SUPORT_PANE
 10
-10.46646831565523
 20
35.70604018893731
 30
0.0
  0
VERTEX
  5
302
  8
FRONT_AND_BACL_SUPORT_PANE
 10
-10.34437527275882
 20
35.73284110079241
 30
0.0
 42
0.4142135623731389
  0
VERTEX
  5
303
  8
FRONT_AND_BACL_SUPORT_PANE
 10
-9.963206748593152
 20
36.32841691979901
 30
0.0
  0
VERTEX
  5
304
  8
FRONT_AND_BACL_SUPORT_PANE
 10
-10.31161860270977
 20
37.91562647745393
 30
0.0
 42
0.4142135623731058
  0
VERTEX
  5
305
  8
FRONT_AND_BACL_SUPORT_PANE
 10
-10.90719442171638
 20
38.29679500161956
 30
0.0
  0
VERTEX
  5
306
  8
FRONT_AND_BACL_SUPORT_PANE
 10
-11.69273308338434
 20
38.12435968564503
 30
0.0
 42
0.1564204840682063
  0
VERTEX
  5
307
  8
FRONT_AND_BACL_SUPORT_PANE
 10
-11.72573647964538
 20
38.10518120095583
 30
0.0
 42
-0.8603549783133364
  0
VERTEX
  5
308
  8
FRONT_AND_BACL_SUPORT_PANE
 10
-11.93193630368349
 20
38.24152171533969
 30
0.0
 42
0.1640614321875178
  0
VERTEX
  5
309
  8
FRONT_AND_BACL_SUPORT_PANE
 10
-11.92758584206597
 20
38.28122439169918
 30
0.0
  0
VERTEX
  5
30A
  8
FRONT_AND_BACL_SUPORT_PANE
 10
-12.48323170731308
 20
40.81249999999976
 30
0.0
  0
VERTEX
  5
30B
  8
FRONT_AND_BACL_SUPORT_PANE
 10
-14.37499999999964
 20
40.8125
 30
0.0
  0
VERTEX
  5
30C
  8
FRONT_AND_BACL_SUPORT_PANE
 10
-14.37499999999987
 20
39.8871940372772
 30
0.0
 42
0.1602414199400445
  0
VERTEX
  5
30D
  8
FRONT_AND_BACL_SUPORT_PANE
 10
-14.36279611588275
 20
39.85009214073416
 30
0.0
 42
-0.8603642831399209
  0
VERTEX
  5
30E
  8
FRONT_AND_BACL_SUPORT_PANE
 10
-14.53759214073471
 20
39.67529611588202
 30
0.0
 42
0.1602414199394663
  0
VERTEX
  5
30F
  8
FRONT_AND_BACL_SUPORT_PANE
 10
-14.57469403727773
 20
39.68749999999923
 30
0.0
  0
VERTEX
  5
310
  8
FRONT_AND_BACL_SUPORT_PANE
 10
-14.92530596272162
 20
39.68749999999938
 30
0.0
 42
0.1602414199371982
  0
VERTEX
  5
311
  8
FRONT_AND_BACL_SUPORT_PANE
 10
-14.96240785926506
 20
39.67529611588198
 30
0.0
 42
-0.8603642831396159
  0
VERTEX
  5
312
  8
FRONT_AND_BACL_SUPORT_PANE
 10
-15.13720388411708
 20
39.85009214073411
 30
0.0
 42
0.160241419940201
  0
VERTEX
  5
313
  8
FRONT_AND_BACL_SUPORT_PANE
 10
-15.12499999999987
 20
39.88719403727736
 30
0.0
  0
VERTEX
  5
314
  8
FRONT_AND_BACL_SUPORT_PANE
 10
-15.12500000000208
 20
40.81249999999938
 30
0.0
  0
VERTEX
  5
315
  8
FRONT_AND_BACL_SUPORT_PANE
 10
-17.01676829268232
 20
40.81249999999807
 30
0.0
  0
VERTEX
  5
316
  8
FRONT_AND_BACL_SUPORT_PANE
 10
-17.57241415791943
 20
38.28122439170021
 30
0.0
 42
0.1640614321891956
  0
VERTEX
  5
317
  8
FRONT_AND_BACL_SUPORT_PANE
 10
-17.56806369630198
 20
38.24152171534068
 30
0.0
 42
-0.860354978324012
  0
VERTEX
  5
318
  8
FRONT_AND_BACL_SUPORT_PANE
 10
-17.77426352034033
 20
38.10518120095717
 30
0.0
 42
0.1564204840682753
  0
VERTEX
  5
319
  8
FRONT_AND_BACL_SUPORT_PANE
 10
-17.80726691660132
 20
38.12435968564644
 30
0.0
  0
VERTEX
  5
31A
  8
FRONT_AND_BACL_SUPORT_PANE
 10
-18.592805578269
 20
38.29679500162227
 30
0.0
 42
0.4142135623731024
  0
VERTEX
  5
31B
  8
FRONT_AND_BACL_SUPORT_PANE
 10
-19.18838139727625
 20
37.91562647745764
 30
0.0
  0
VERTEX
  5
31C
  8
FRONT_AND_BACL_SUPORT_PANE
 10
-19.53679325139549
 20
36.3284169198033
 30
0.0
 42
0.4142135623730675
  0
VERTEX
  5
31D
  8
FRONT_AND_BACL_SUPORT_PANE
 10
-19.15562472723082
 20
35.73284110079607
 30
0.0
  0
VERTEX
  5
31E
  8
FRONT_AND_BACL_SUPORT_PANE
 10
-19.03353168433445
 20
35.70604018894078
 30
0.0
 42
0.4142135623734962
  0
VERTEX
  5
31F
  8
FRONT_AND_BACL_SUPORT_PANE
 10
-18.88463772958256
 20
35.80133231998185
 30
0.0
  0
VERTEX
  5
320
  8
FRONT_AND_BACL_SUPORT_PANE
 10
-18.84669355201212
 20
35.97418912891386
 30
0.0
 42
0.158616791798423
  0
VERTEX
  5
321
  8
FRONT_AND_BACL_SUPORT_PANE
 10
-18.85049853626933
 20
36.01268254042678
 30
0.0
 42
-0.8603626007658451
  0
VERTEX
  5
322
  8
FRONT_AND_BACL_SUPORT_PANE
 10
-18.64144998335931
 20
36.14461421767
 30
0.0
 42
0.1618658811249441
  0
VERTEX
  5
323
  8
FRONT_AND_BACL_SUPORT_PANE
 10
-18.60756770002349
 20
36.12444057925828
 30
0.0
  0
VERTEX
  5
324
  8
FRONT_AND_BACL_SUPORT_PANE
 10
-18.26241684949969
 20
36.04867575841156
 30
0.0
 42
0.1559614971783393
  0
VERTEX
  5
325
  8
FRONT_AND_BACL_SUPORT_PANE
 10
-18.22451806943827
 20
36.05222373975095
 30
0.0
  0
SEQEND
  5
2CE
  8
FRONT_AND_BACL_SUPORT_PANE
  0
DIMENSION
  5
326
  8
DIMENTIONS
  2
*D13
 10
-33.0
 20
-0.5
 30
0.0
 11
-24.0
 21
0.1004999999999999
 31
0.0
 70
    32
  1
<>
  3
DEFAULT
 13
-15.0
 23
3.255555791380047
 33
0.0
 14
-33.0
 24
3.255555791380048
 34
0.0
  0
DIMENSION
  5
334
  8
DIMENTIONS
  2
*D14
 10
-34.375
 20
4.5
 30
0.0
 11
-36.6005
 21
25.15775
 31
0.0
 70
    32
  1
<>
  3
DEFAULT
 13
-32.5
 23
2.0
 33
0.0
 14
-32.49999999997613
 24
4.5
 34
0.0
 50
90.0
  0
DIMENSION
  5
342
  8
DIMENTIONS
  2
*D15
 10
-6.624999999999999
 20
29.4999999999979
 30
0.0
 11
-7.225499999999999
 21
35.15624999999883
 31
0.0
 70
    32
  1
<>
  3
DEFAULT
 13
-12.48323170731308
 23
40.81249999999976
 33
0.0
 14
-9.999999999999844
 24
29.4999999999979
 34
0.0
 50
90.0
  0
DIMENSION
  5
350
  8
DIMENTIONS
  2
*D16
 10
-9.105577569229213
 20
27.375
 30
0.0
 11
-14.74999999999757
 21
27.9755
 31
0.0
 70
    32
  1
<>
  3
DEFAULT
 13
-20.39442243076594
 23
32.42143954711582
 33
0.0
 14
-9.105577569229213
 24
32.42143954711013
 34
0.0
  0
POLYLINE
  5
35E
  8
SIDE_PROFILE
 66
     1
 10
0.0
 20
0.0
 30
0.0
  0
VERTEX
  5
360
  8
SIDE_PROFILE
 10
32.9920277761784
 20
-10.2598863995213
 30
0.0
 42
-0.3524971787849214
  0
VERTEX
  5
361
  8
SIDE_PROFILE
 10
1.132972223821753
 20
-10.25988639952144
 30
0.0
 42
-0.6715347433340774
  0
VERTEX
  5
362
  8
SIDE_PROFILE
 10
1.331309550983968
 20
-9.594589186176084
 30
0.0
 42
0.3981336120064753
  0
VERTEX
  5
363
  8
SIDE_PROFILE
 10
7.812499999999998
 20
-2.125
 30
0.0
  0
VERTEX
  5
364
  8
SIDE_PROFILE
 10
26.3125
 20
-2.124999999999962
 30
0.0
 42
0.3981336120067836
  0
VERTEX
  5
365
  8
SIDE_PROFILE
 10
32.79369044901561
 20
-9.594589186176044
 30
0.0
 42
-0.6715347433337543
  0
VERTEX
  5
366
  8
SIDE_PROFILE
 10
32.99202777617842
 20
-10.2598863995211
 30
0.0
  0
SEQEND
  5
35F
  8
SIDE_PROFILE
  0
POLYLINE
  5
367
  8
TRNON_HOLES
 66
     1
 10
0.0
 20
0.0
 30
0.0
  0
VERTEX
  5
369
  8
TRNON_HOLES
 10
7.190129139453325
 20
-10.38984584289257
 30
0.0
  0
VERTEX
  5
36A
  8
TRNON_HOLES
 10
7.747953124497018
 20
-8.225474807131354
 30
0.0
 42
0.1586167917988289
  0
VERTEX
  5
36B
  8
TRNON_HOLES
 10
7.74554208870159
 20
-8.186869010397002
 30
0.0
 42
-0.8603626007660077
  0
VERTEX
  5
36C
  8
TRNON_HOLES
 10
7.959223089677878
 20
-8.062580254848717
 30
0.0
 42
0.1618658811248746
  0
VERTEX
  5
36D
  8
TRNON_HOLES
 10
7.992353991447534
 20
-8.08396548710709
 30
0.0
  0
VERTEX
  5
36E
  8
TRNON_HOLES
 10
8.334540516758901
 20
-8.172157321142748
 30
0.0
 42
0.1559614971795277
  0
VERTEX
  5
36F
  8
TRNON_HOLES
 10
8.372542780511781
 20
-8.169981625533335
 30
0.0
 42
-0.8603526088094375
  0
VERTEX
  5
370
  8
TRNON_HOLES
 10
8.494612406337556
 20
-8.384937573340203
 30
0.0
 42
0.1645201837813793
  0
VERTEX
  5
371
  8
TRNON_HOLES
 10
8.472721142199266
 20
-8.41847060833932
 30
0.0
  0
VERTEX
  5
372
  8
TRNON_HOLES
 10
7.918311380781791
 20
-10.56959437090267
 30
0.0
 42
0.1645201837770412
  0
VERTEX
  5
373
  8
TRNON_HOLES
 10
7.921306002442686
 20
-10.60952836798451
 30
0.0
 42
-0.8603526088033878
  0
VERTEX
  5
374
  8
TRNON_HOLES
 10
7.71066894923457
 20
-10.73890798331319
 30
0.0
 42
0.1559614971774068
  0
VERTEX
  5
375
  8
TRNON_HOLES
 10
7.678432773286834
 20
-10.7186660796973
 30
0.0
  0
VERTEX
  5
376
  8
TRNON_HOLES
 10
7.336160764691883
 20
-10.63080659058192
 30
0.0
 42
0.1618658811237482
  0
VERTEX
  5
377
  8
TRNON_HOLES
 10
7.296823155859247
 20
-10.63355201261614
 30
0.0
 42
-0.8603626007683884
  0
VERTEX
  5
378
  8
TRNON_HOLES
 10
7.169630996701644
 20
-10.42158640318197
 30
0.0
 42
0.1547559628669104
  0
VERTEX
  5
379
  8
TRNON_HOLES
 10
7.190129139453324
 20
-10.38984584289257
 30
0.0
  0
SEQEND
  5
368
  8
TRNON_HOLES
  0
POLYLINE
  5
37A
  8
TRNON_HOLES
 66
     1
 10
0.0
 20
0.0
 30
0.0
  0
VERTEX
  5
37C
  8
TRNON_HOLES
 10
25.21030589478639
 20
-6.703604440209944
 30
0.0
  0
VERTEX
  5
37D
  8
TRNON_HOLES
 10
24.65248190974403
 20
-4.539233404448372
 30
0.0
 42
0.1586167917987688
  0
VERTEX
  5
37E
  8
TRNON_HOLES
 10
24.63171096786518
 20
-4.506602305653416
 30
0.0
 42
-0.8603626007660099
  0
VERTEX
  5
37F
  8
TRNON_HOLES
 10
24.75869722352739
 20
-4.29451327763249
 30
0.0
 42
0.1618658811246331
  0
VERTEX
  5
380
  8
TRNON_HOLES
 10
24.79803747993844
 20
-4.297220496930457
 30
0.0
  0
VERTEX
  5
381
  8
TRNON_HOLES
 10
25.14022400524987
 20
-4.209028662895014
 30
0.0
 42
0.155961497179522
  0
VERTEX
  5
382
  8
TRNON_HOLES
 10
25.17244050872961
 20
-4.188755463708203
 30
0.0
 42
-0.860352608809429
  0
VERTEX
  5
383
  8
TRNON_HOLES
 10
25.38320310542799
 20
-4.317930464694258
 30
0.0
 42
0.1645201837813885
  0
VERTEX
  5
384
  8
TRNON_HOLES
 10
25.38024726578393
 20
-4.357867351075434
 30
0.0
  0
VERTEX
  5
385
  8
TRNON_HOLES
 10
25.93465702720008
 20
-6.508991113639127
 30
0.0
 42
0.1645201837770558
  0
VERTEX
  5
386
  8
TRNON_HOLES
 10
25.95658084553413
 20
-6.542502873835814
 30
0.0
 42
-0.8603526088033956
  0
VERTEX
  5
387
  8
TRNON_HOLES
 10
25.83472002475833
 20
-6.757577264237465
 30
0.0
 42
0.1559614971774246
  0
VERTEX
  5
388
  8
TRNON_HOLES
 10
25.79671566606869
 20
-6.755438474318623
 30
0.0
  0
VERTEX
  5
389
  8
TRNON_HOLES
 10
25.45461494674652
 20
-6.84396257010332
 30
0.0
 42
0.1618658811238648
  0
VERTEX
  5
38A
  8
TRNON_HOLES
 10
25.42150482817324
 20
-6.86537996627743
 30
0.0
 42
-0.8603626007684286
  0
VERTEX
  5
38B
  8
TRNON_HOLES
 10
25.20770322896521
 20
-6.741298778702304
 30
0.0
 42
0.1547559628669106
  0
VERTEX
  5
38C
  8
TRNON_HOLES
 10
25.21030589478639
 20
-6.703604440209948
 30
0.0
  0
SEQEND
  5
37B
  8
TRNON_HOLES
  0
POLYLINE
  5
38D
  8
TRNON_HOLES
 66
     1
 10
0.0
 20
0.0
 30
0.0
  0
VERTEX
  5
38F
  8
TRNON_HOLES
 10
26.20859994525104
 20
-10.57701036382682
 30
0.0
  0
VERTEX
  5
390
  8
TRNON_HOLES
 10
25.65077596020868
 20
-8.41263932806525
 30
0.0
 42
0.1586167917987646
  0
VERTEX
  5
391
  8
TRNON_HOLES
 10
25.63000501832983
 20
-8.380008229270294
 30
0.0
 42
-0.8603626007660009
  0
VERTEX
  5
392
  8
TRNON_HOLES
 10
25.75699127399203
 20
-8.167919201249372
 30
0.0
 42
0.1618658811247064
  0
VERTEX
  5
393
  8
TRNON_HOLES
 10
25.79633153040309
 20
-8.170626420547336
 30
0.0
  0
VERTEX
  5
394
  8
TRNON_HOLES
 10
26.13851805571451
 20
-8.082434586511891
 30
0.0
 42
0.1559614971795219
  0
VERTEX
  5
395
  8
TRNON_HOLES
 10
26.17073455919425
 20
-8.062161387325084
 30
0.0
 42
-0.8603526088094378
  0
VERTEX
  5
396
  8
TRNON_HOLES
 10
26.38149715589264
 20
-8.191336388311136
 30
0.0
 42
0.1645201837813645
  0
VERTEX
  5
397
  8
TRNON_HOLES
 10
26.37854131624857
 20
-8.231273274692313
 30
0.0
  0
VERTEX
  5
398
  8
TRNON_HOLES
 10
26.93295107766473
 20
-10.38239703725601
 30
0.0
 42
0.1645201837770766
  0
VERTEX
  5
399
  8
TRNON_HOLES
 10
26.95487489599877
 20
-10.41590879745269
 30
0.0
 42
-0.8603526088033696
  0
VERTEX
  5
39A
  8
TRNON_HOLES
 10
26.83301407522297
 20
-10.63098318785434
 30
0.0
 42
0.155961497177329
  0
VERTEX
  5
39B
  8
TRNON_HOLES
 10
26.79500971653333
 20
-10.6288443979355
 30
0.0
  0
VERTEX
  5
39C
  8
TRNON_HOLES
 10
26.45290899721116
 20
-10.7173684937202
 30
0.0
 42
0.1618658811238338
  0
VERTEX
  5
39D
  8
TRNON_HOLES
 10
26.41979887863788
 20
-10.73878588989431
 30
0.0
 42
-0.8603626007684257
  0
VERTEX
  5
39E
  8
TRNON_HOLES
 10
26.20599727942985
 20
-10.61470470231918
 30
0.0
 42
0.1547559628669036
  0
VERTEX
  5
39F
  8
TRNON_HOLES
 10
26.20859994525103
 20
-10.57701036382683
 30
0.0
  0
SEQEND
  5
38E
  8
TRNON_HOLES
  0
POLYLINE
  5
3A0
  8
TRNON_HOLES
 66
     1
 10
0.0
 20
0.0
 30
0.0
  0
VERTEX
  5
3A2
  8
TRNON_HOLES
 10
8.746251403380629
 20
-4.352052477152469
 30
0.0
 42
0.1586167917987505
  0
VERTEX
  5
3A3
  8
TRNON_HOLES
 10
8.7438403675852
 20
-4.313446680418108
 30
0.0
 42
-0.8603626007665275
  0
VERTEX
  5
3A4
  8
TRNON_HOLES
 10
8.957521368561491
 20
-4.189157924869825
 30
0.0
 42
0.1618658811249712
  0
VERTEX
  5
3A5
  8
TRNON_HOLES
 10
8.990652270331147
 20
-4.210543157128207
 30
0.0
  0
VERTEX
  5
3A6
  8
TRNON_HOLES
 10
9.332838795642513
 20
-4.298734991163856
 30
0.0
 42
0.1559614971795754
  0
VERTEX
  5
3A7
  8
TRNON_HOLES
 10
9.370841059395392
 20
-4.296559295554447
 30
0.0
 42
-0.8603526088094454
  0
VERTEX
  5
3A8
  8
TRNON_HOLES
 10
9.492910685221167
 20
-4.511515243361323
 30
0.0
 42
0.164520183781458
  0
VERTEX
  5
3A9
  8
TRNON_HOLES
 10
9.471019421082875
 20
-4.545048278360433
 30
0.0
  0
VERTEX
  5
3AA
  8
TRNON_HOLES
 10
8.916609659665403
 20
-6.696172040923784
 30
0.0
 42
0.1645201837770342
  0
VERTEX
  5
3AB
  8
TRNON_HOLES
 10
8.919604281326299
 20
-6.736106038005626
 30
0.0
 42
-0.8603526088033596
  0
VERTEX
  5
3AC
  8
TRNON_HOLES
 10
8.708967228118183
 20
-6.865485653334304
 30
0.0
 42
0.1559614971774042
  0
VERTEX
  5
3AD
  8
TRNON_HOLES
 10
8.676731052170446
 20
-6.845243749718414
 30
0.0
  0
VERTEX
  5
3AE
  8
TRNON_HOLES
 10
8.334459043575494
 20
-6.757384260603033
 30
0.0
 42
0.1618658811237972
  0
VERTEX
  5
3AF
  8
TRNON_HOLES
 10
8.29512143474286
 20
-6.760129682637253
 30
0.0
 42
-0.8603626007680494
  0
VERTEX
  5
3B0
  8
TRNON_HOLES
 10
8.16792927558526
 20
-6.548164073203083
 30
0.0
 42
0.1619839003291686
  0
VERTEX
  5
3B1
  8
TRNON_HOLES
 10
8.188427418336936
 20
-6.51642351291369
 30
0.0
  0
VERTEX
  5
3B2
  8
TRNON_HOLES
 10
8.746251403380633
 20
-4.352052477152469
 30
0.0
  0
SEQEND
  5
3A1
  8
TRNON_HOLES
  0
POLYLINE
  5
3B3
  8
TRNON_HOLES
 66
     1
 10
0.0
 20
0.0
 30
0.0
  0
VERTEX
  5
3B5
  8
TRNON_HOLES
 10
10.83599411224564
 20
-11.73305138028601
 30
0.0
 42
-0.1602414199387845
  0
VERTEX
  5
3B6
  8
TRNON_HOLES
 10
10.87309600878888
 20
-11.7208474961688
 30
0.0
  0
VERTEX
  5
3B7
  8
TRNON_HOLES
 10
12.97370793423283
 20
-11.7208474961688
 30
0.0
 42
-0.160241419938649
  0
VERTEX
  5
3B8
  8
TRNON_HOLES
 10
13.01080983077607
 20
-11.73305138028602
 30
0.0
 42
0.8603642831402254
  0
VERTEX
  5
3B9
  8
TRNON_HOLES
 10
13.18560585562807
 20
-11.5582553554339
 30
0.0
 42
-0.1602414199388679
  0
VERTEX
  5
3BA
  8
TRNON_HOLES
 10
13.17340197151084
 20
-11.52115345889062
 30
0.0
  0
VERTEX
  5
3BB
  8
TRNON_HOLES
 10
13.17340197151032
 20
-11.04554153344683
 30
0.0
 42
-0.1602414199389795
  0
VERTEX
  5
3BC
  8
TRNON_HOLES
 10
13.18560585562753
 20
-11.00843963690359
 30
0.0
 42
0.8603642831394938
  0
VERTEX
  5
3BD
  8
TRNON_HOLES
 10
13.01080983077541
 20
-10.83364361205157
 30
0.0
 42
-0.1602414199387678
  0
VERTEX
  5
3BE
  8
TRNON_HOLES
 10
12.97370793423216
 20
-10.84584749616879
 30
0.0
  0
VERTEX
  5
3BF
  8
TRNON_HOLES
 10
10.87309600878848
 20
-10.8458474961688
 30
0.0
 42
-0.1602414199392249
  0
VERTEX
  5
3C0
  8
TRNON_HOLES
 10
10.83599411224525
 20
-10.83364361205158
 30
0.0
 42
0.8603642831397399
  0
VERTEX
  5
3C1
  8
TRNON_HOLES
 10
10.66119808739311
 20
-11.0084396369036
 30
0.0
 42
-0.1602414199364178
  0
VERTEX
  5
3C2
  8
TRNON_HOLES
 10
10.67340197151031
 20
-11.04554153344684
 30
0.0
  0
VERTEX
  5
3C3
  8
TRNON_HOLES
 10
10.67340197151084
 20
-11.52115345889068
 30
0.0
 42
-0.1602414199388318
  0
VERTEX
  5
3C4
  8
TRNON_HOLES
 10
10.66119808739361
 20
-11.55825535543391
 30
0.0
 42
0.8603642831402667
  0
VERTEX
  5
3C5
  8
TRNON_HOLES
 10
10.83599411224563
 20
-11.73305138028601
 30
0.0
  0
SEQEND
  5
3B4
  8
TRNON_HOLES
  0
ENDSEC
  0
EOF
