  0
SECTION
  2
HEADER
  9
$ACADVER
  1
AC1014
  9
$ACADMAINTVER
 70
     9
  9
$DWGCODEPAGE
  3
ANSI_1252
  9
$INSBASE
 10
0.0
 20
0.0
 30
0.0
  9
$EXTMIN
 10
-8.75
 20
-8.75
 30
0.0
  9
$EXTMAX
 10
9.331342567205432
 20
8.75
 30
0.0
  9
$LIMMIN
 10
-17.99585638049104
 20
-11.42120773983791
  9
$LIMMAX
 10
50.16036663614476
 20
41.24496459119884
  9
$ORTHOMODE
 70
     0
  9
$REGENMODE
 70
     1
  9
$FILLMODE
 70
     1
  9
$QTEXTMODE
 70
     0
  9
$MIRRTEXT
 70
     1
  9
$DRAGMODE
 70
     2
  9
$LTSCALE
 40
1.0
  9
$OSMODE
 70
    37
  9
$ATTMODE
 70
     1
  9
$TEXTSIZE
 40
0.20000003278255
  9
$TRACEWID
 40
0.05
  9
$TEXTSTYLE
  7
STANDARD
  9
$CLAYER
  8
0
  9
$CELTYPE
  6
BYLAYER
  9
$CECOLOR
 62
     7
  9
$CELTSCALE
 40
1.0
  9
$DELOBJ
 70
     1
  9
$DISPSILH
 70
     0
  9
$DIMSCALE
 40
1.0
  9
$DIMASZ
 40
0.18
  9
$DIMEXO
 40
0.0625
  9
$DIMDLI
 40
0.38
  9
$DIMRND
 40
0.0
  9
$DIMDLE
 40
0.0
  9
$DIMEXE
 40
0.18
  9
$DIMTP
 40
0.0
  9
$DIMTM
 40
0.0
  9
$DIMTXT
 40
0.18
  9
$DIMCEN
 40
0.09
  9
$DIMTSZ
 40
0.0
  9
$DIMTOL
 70
     0
  9
$DIMLIM
 70
     0
  9
$DIMTIH
 70
     1
  9
$DIMTOH
 70
     1
  9
$DIMSE1
 70
     0
  9
$DIMSE2
 70
     0
  9
$DIMTAD
 70
     0
  9
$DIMZIN
 70
     0
  9
$DIMBLK
  1

  9
$DIMASO
 70
     1
  9
$DIMSHO
 70
     1
  9
$DIMPOST
  1

  9
$DIMAPOST
  1
^B2147483648l^B^B2147483648l^B^B2147483648l^B
  9
$DIMALT
 70
     0
  9
$DIMALTD
 70
     2
  9
$DIMALTF
 40
25.4
  9
$DIMLFAC
 40
1.0
  9
$DIMTOFL
 70
     0
  9
$DIMTVP
 40
0.0
  9
$DIMTIX
 70
     0
  9
$DIMSOXD
 70
     0
  9
$DIMSAH
 70
     0
  9
$DIMBLK1
  1

  9
$DIMBLK2
  1

  9
$DIMSTYLE
  2
STANDARD
  9
$DIMCLRD
 70
     0
  9
$DIMCLRE
 70
     0
  9
$DIMCLRT
 70
     0
  9
$DIMTFAC
 40
1.0
  9
$DIMGAP
 40
0.09
  9
$DIMJUST
 70
     0
  9
$DIMSD1
 70
     0
  9
$DIMSD2
 70
     0
  9
$DIMTOLJ
 70
     1
  9
$DIMTZIN
 70
     0
  9
$DIMALTZ
 70
     0
  9
$DIMALTTZ
 70
     0
  9
$DIMFIT
 70
     3
  9
$DIMUPT
 70
     0
  9
$DIMUNIT
 70
     2
  9
$DIMDEC
 70
     4
  9
$DIMTDEC
 70
     4
  9
$DIMALTU
 70
     2
  9
$DIMALTTD
 70
     2
  9
$DIMTXSTY
  7
STANDARD
  9
$DIMAUNIT
 70
     0
  9
$LUNITS
 70
     2
  9
$LUPREC
 70
     4
  9
$SKETCHINC
 40
0.1
  9
$FILLETRAD
 40
0.5
  9
$AUNITS
 70
     0
  9
$AUPREC
 70
     0
  9
$MENU
  1
.
  9
$ELEVATION
 40
0.0
  9
$PELEVATION
 40
0.0
  9
$THICKNESS
 40
0.0
  9
$LIMCHECK
 70
     0
  9
$CHAMFERA
 40
0.0
  9
$CHAMFERB
 40
0.0
  9
$CHAMFERC
 40
0.0
  9
$CHAMFERD
 40
0.0
  9
$SKPOLY
 70
     0
  9
$TDCREATE
 40
2459145.692818831
  9
$TDUPDATE
 40
2459145.69282596
  9
$TDINDWG
 40
0.0
  9
$TDUSRTIMER
 40
0.0
  9
$USRTIMER
 70
     1
  9
$ANGBASE
 50
0.0
  9
$ANGDIR
 70
     0
  9
$PDMODE
 70
     0
  9
$PDSIZE
 40
0.0
  9
$PLINEWID
 40
0.0
  9
$COORDS
 70
     1
  9
$SPLFRAME
 70
     0
  9
$SPLINETYPE
 70
     6
  9
$SPLINESEGS
 70
     8
  9
$ATTDIA
 70
     0
  9
$ATTREQ
 70
     1
  9
$HANDLING
 70
     1
  9
$HANDSEED
  5
4A8
  9
$SURFTAB1
 70
     6
  9
$SURFTAB2
 70
     6
  9
$SURFTYPE
 70
     6
  9
$SURFU
 70
     6
  9
$SURFV
 70
     6
  9
$UCSNAME
  2

  9
$UCSORG
 10
0.0
 20
0.0
 30
0.0
  9
$UCSXDIR
 10
1.0
 20
0.0
 30
0.0
  9
$UCSYDIR
 10
0.0
 20
1.0
 30
0.0
  9
$PUCSNAME
  2

  9
$PUCSORG
 10
0.0
 20
0.0
 30
0.0
  9
$PUCSXDIR
 10
1.0
 20
0.0
 30
0.0
  9
$PUCSYDIR
 10
0.0
 20
1.0
 30
0.0
  9
$USERI1
 70
     0
  9
$USERI2
 70
     0
  9
$USERI3
 70
     0
  9
$USERI4
 70
     0
  9
$USERI5
 70
     0
  9
$USERR1
 40
0.0
  9
$USERR2
 40
0.0
  9
$USERR3
 40
0.0
  9
$USERR4
 40
0.0
  9
$USERR5
 40
0.0
  9
$WORLDVIEW
 70
     1
  9
$SHADEDGE
 70
     3
  9
$SHADEDIF
 70
    70
  9
$TILEMODE
 70
     1
  9
$MAXACTVP
 70
    64
  9
$PINSBASE
 10
0.0
 20
0.0
 30
0.0
  9
$PLIMCHECK
 70
     0
  9
$PEXTMIN
 10
-2.67768595041323
 20
-2.00826446280991
 30
0.0
  9
$PEXTMAX
 10
12.81818181818182
 20
9.61363636363638
 30
0.0
  9
$PLIMMIN
 10
-2.67768595041323
 20
-2.00826446280991
  9
$PLIMMAX
 10
12.81818181818182
 20
9.61363636363638
  9
$UNITMODE
 70
     0
  9
$VISRETAIN
 70
     1
  9
$PLINEGEN
 70
     0
  9
$PSLTSCALE
 70
     1
  9
$TREEDEPTH
 70
  3020
  9
$PICKSTYLE
 70
     1
  9
$CMLSTYLE
  2
STANDARD
  9
$CMLJUST
 70
     0
  9
$CMLSCALE
 40
1.0
  9
$PROXYGRAPHICS
 70
     1
  9
$MEASUREMENT
 70
     0
  0
ENDSEC
  0
SECTION
  2
CLASSES
  0
CLASS
  1
ACDBDICTIONARYWDFLT
  2
AcDbDictionaryWithDefault
  3
ObjectDBX Classes
 90
        0
280
     0
281
     0
  0
CLASS
  1
VISUALSTYLE
  2
AcDbVisualStyle
  3
ObjectDBX Classes
 90
     4095
280
     0
281
     0
  0
CLASS
  1
MATERIAL
  2
AcDbMaterial
  3
ObjectDBX Classes
 90
     1153
280
     0
281
     0
  0
CLASS
  1
SCALE
  2
AcDbScale
  3
ObjectDBX Classes
 90
     1153
280
     0
281
     0
  0
CLASS
  1
TABLESTYLE
  2
AcDbTableStyle
  3
ObjectDBX Classes
 90
     4095
280
     0
281
     0
  0
CLASS
  1
MLEADERSTYLE
  2
AcDbMLeaderStyle
  3
ACDB_MLEADERSTYLE_CLASS
 90
     4095
280
     0
281
     0
  0
CLASS
  1
SUN
  2
AcDbSun
  3
SCENEOE
 90
     1153
280
     0
281
     0
  0
CLASS
  1
AEC_VARS_DWG_SETUP
  2
AecDbVarsDwgSetup
  3
AecBase60
 90
      129
280
     0
281
     0
  0
CLASS
  1
AEC_DISP_REP_2D_SECTION
  2
AecDbDispRep2dSection
  3
AecBase60
 90
      129
280
     0
281
     0
  0
CLASS
  1
AEC_DISP_PROPS_2D_SECTION
  2
AecDbDispProps2dSection
  3
AecBase60
 90
      129
280
     0
281
     0
  0
CLASS
  1
AEC_DISP_REP_CLIP_VOLUME_MODEL
  2
AecDbDispRepClipVolModel
  3
AecBase60
 90
      129
280
     0
281
     0
  0
CLASS
  1
AEC_DISP_PROPS_CLIP_VOLUME
  2
AecDbDispPropsClipVol
  3
AecBase60
 90
      129
280
     0
281
     0
  0
CLASS
  1
AEC_DISP_REP_CLIP_VOLUME_PLAN
  2
AecDbDispRepClipVolPlan
  3
AecBase60
 90
      129
280
     0
281
     0
  0
CLASS
  1
AEC_DISP_REP_CLIP_VOLUME_RESULT
  2
AecDbDispRepClipVolResult
  3
AecBase60
 90
      129
280
     0
281
     0
  0
CLASS
  1
AEC_DISP_REP_CLIP_VOLUME_RESULT_SUBDIV
  2
AecDbDispRepClipVolResSubDiv
  3
AecBase60
 90
      129
280
     0
281
     0
  0
CLASS
  1
AEC_DISP_PROPS_CLIP_VOLUME_RESULT
  2
AecDbDispPropsClipVolResSubDiv
  3
AecBase60
 90
      129
280
     0
281
     0
  0
CLASS
  1
AEC_DISP_REP_DISPLAYTHEME
  2
AecDbDispRepDisplayTheme
  3
AecBase60
 90
      129
280
     0
281
     0
  0
CLASS
  1
AEC_DISP_PROPS_DISPLAYTHEME
  2
AecDbDispPropsDisplayTheme
  3
AecBase60
 90
      129
280
     0
281
     0
  0
CLASS
  1
AEC_DISP_REP_ENT_REF
  2
AecDbDispRepEntRef
  3
AecBase60
 90
      129
280
     0
281
     0
  0
CLASS
  1
AEC_DISP_PROPS_ENT_REF
  2
AecDbDispPropsEntRef
  3
AecBase60
 90
      129
280
     0
281
     0
  0
CLASS
  1
AEC_DISP_REP_LAYOUT_CURVE
  2
AecDbDispRepLayoutCurve
  3
AecBase60
 90
      129
280
     0
281
     0
  0
CLASS
  1
AEC_DISP_PROPS_LAYOUT_CURVE
  2
AecDbDispPropsLayoutCurve
  3
AecBase60
 90
      129
280
     0
281
     0
  0
CLASS
  1
AEC_DISP_REP_LAYOUT_GRID2D
  2
AecDbDispRepLayoutGrid2d
  3
AecBase60
 90
      129
280
     0
281
     0
  0
CLASS
  1
AEC_DISP_PROPS_LAYOUT_GRID2D
  2
AecDbDispPropsLayoutGrid2d
  3
AecBase60
 90
      129
280
     0
281
     0
  0
CLASS
  1
AEC_DISP_REP_LAYOUT_GRID3D
  2
AecDbDispRepLayoutGrid3d
  3
AecBase60
 90
      129
280
     0
281
     0
  0
CLASS
  1
AEC_DISP_PROPS_LAYOUT_GRID3D
  2
AecDbDispPropsLayoutGrid3d
  3
AecBase60
 90
      129
280
     0
281
     0
  0
CLASS
  1
AEC_DISP_REP_MASKBLOCK_REF
  2
AecDbDispRepMaskBlockRef
  3
AecBase60
 90
      129
280
     0
281
     0
  0
CLASS
  1
AEC_DISP_PROPS_MASKBLOCK
  2
AecDbDispPropsMaskBlock
  3
AecBase60
 90
      129
280
     0
281
     0
  0
CLASS
  1
AEC_DISP_REP_MASKBLOCK_REF_RCP
  2
AecDbDispRepMaskBlockRefRcp
  3
AecArchBase60
 90
      129
280
     0
281
     0
  0
CLASS
  1
AEC_DISP_REP_MASS_ELEM_MODEL
  2
AecDbDispRepMassElemModel
  3
AecBase60
 90
      129
280
     0
281
     0
  0
CLASS
  1
AEC_DISP_PROPS_MASS_ELEM_MODEL
  2
AecDbDispPropsMassElem
  3
AecBase60
 90
      129
280
     0
281
     0
  0
CLASS
  1
AEC_DISP_REP_MASS_ELEM_SCHEM
  2
AecDbDispRepMassElemSchem
  3
AecBase60
 90
      129
280
     0
281
     0
  0
CLASS
  1
AEC_DISPREPAECDBDISPREPMASSELEMPLAN50
  2
AecDbDispRepMassElemPlan50
  3
AecArchDACHBase60
 90
      129
280
     0
281
     0
  0
CLASS
  1
AEC_DISPROPSMASSELEMPLANCOMMON
  2
AecDbDispPropsMassElemPlanCommon
  3
AecArchDACHBase60
 90
      129
280
     0
281
     0
  0
CLASS
  1
AEC_DISPREPAECDBDISPREPMASSELEMPLAN100
  2
AecDbDispRepMassElemPlan100
  3
AecArchDACHBase60
 90
      129
280
     0
281
     0
  0
CLASS
  1
AEC_DISP_REP_MASS_ELEM_RCP
  2
AecDbDispRepMassElemRcp
  3
AecArchBase60
 90
      129
280
     0
281
     0
  0
CLASS
  1
AEC_DISP_REP_MASS_GROUP_MODEL
  2
AecDbDispRepMassGroupModel
  3
AecBase60
 90
      129
280
     0
281
     0
  0
CLASS
  1
AEC_DISP_PROPS_MASS_GROUP
  2
AecDbDispPropsMassGroup
  3
AecBase60
 90
      129
280
     0
281
     0
  0
CLASS
  1
AEC_DISP_REP_MASS_GROUP_PLAN
  2
AecDbDispRepMassGroupPlan
  3
AecBase60
 90
      129
280
     0
281
     0
  0
CLASS
  1
AEC_DISPREPAECDBDISPREPMASSGROUPPLAN50
  2
AecDbDispRepMassGroupPlan50
  3
AecArchDACHBase60
 90
      129
280
     0
281
     0
  0
CLASS
  1
AEC_DISPROPSMASSGROUPPLANCOMMON
  2
AecDbDispPropsMassGroupPlanCommon
  3
AecArchDACHBase60
 90
      129
280
     0
281
     0
  0
CLASS
  1
AEC_DISPREPAECDBDISPREPMASSGROUPPLAN100
  2
AecDbDispRepMassGroupPlan100
  3
AecArchDACHBase60
 90
      129
280
     0
281
     0
  0
CLASS
  1
AEC_DISP_REP_MASS_GROUP_RCP
  2
AecDbDispRepMassGroupRcp
  3
AecArchBase60
 90
      129
280
     0
281
     0
  0
CLASS
  1
AEC_DISP_REP_MVBLOCK_REF
  2
AecDbDispRepMvBlockRef
  3
AecBase60
 90
      129
280
     0
281
     0
  0
CLASS
  1
AEC_DISP_REP_MVBLOCK_REF_MODEL
  2
AecDbDispRepMvBlockRefModel
  3
AecBase60
 90
      129
280
     0
281
     0
  0
CLASS
  1
AEC_AECDBDISPREPMVBLOCKREFPLAN100
  2
AecDbDispRepMvBlockRefPlan100
  3
AecBase60
 90
      129
280
     0
281
     0
  0
CLASS
  1
AEC_AECDBDISPREPMVBLOCKREFPLAN50
  2
AecDbDispRepMvBlockRefPlan50
  3
AecBase60
 90
      129
280
     0
281
     0
  0
CLASS
  1
AEC_DISP_REP_POLYGON_MODEL
  2
AecDbDispRepPolygonModel
  3
AecBase60
 90
      129
280
     0
281
     0
  0
CLASS
  1
AEC_DISP_PROPS_POLYGON_MODEL
  2
AecDbDispPropsPolygonModel
  3
AecBase60
 90
      129
280
     0
281
     0
  0
CLASS
  1
AEC_DISP_REP_POLYGON_TRUECOLOUR
  2
AecDbDispRepPolygonTrueColour
  3
AecBase60
 90
      129
280
     0
281
     0
  0
CLASS
  1
AEC_DISP_PROPS_POLYGON_TRUECOLOUR
  2
AecDbDispPropsPolygonTrueColour
  3
AecBase60
 90
      129
280
     0
281
     0
  0
CLASS
  1
AEC_DISP_REP_SLICE
  2
AecDbDispRepSlice
  3
AecBase60
 90
      129
280
     0
281
     0
  0
CLASS
  1
AEC_DISP_PROPS_SLICE
  2
AecDbDispPropsSlice
  3
AecBase60
 90
      129
280
     0
281
     0
  0
CLASS
  1
AEC_DISP_REP_ANCHOR
  2
AecDbDispRepAnchor
  3
AecBase60
 90
      129
280
     0
281
     0
  0
CLASS
  1
AEC_DISP_REP_ANCHOR_ENT_TO_NODE
  2
AecDbDispRepAnchorEntToNode
  3
AecBase60
 90
      129
280
     0
281
     0
  0
CLASS
  1
AEC_DISP_PROPS_ENT
  2
AecDbDispPropsEnt
  3
AecBase60
 90
      129
280
     0
281
     0
  0
CLASS
  1
AEC_DISP_REP_MATERIAL
  2
AecDbDispRepMaterial
  3
AecBase60
 90
      129
280
     0
281
     0
  0
CLASS
  1
AEC_DISP_PROPS_MATERIAL
  2
AecDbDispPropsMaterial
  3
AecBase60
 90
      129
280
     0
281
     0
  0
CLASS
  1
AEC_DISP_REP_EDITINPLACEPROFILE
  2
AecDbDispRepEditInPlaceProfile
  3
AecBase60
 90
      129
280
     0
281
     0
  0
CLASS
  1
AEC_DISP_PROPS_EDITINPLACEPROFILE_MODEL
  2
AecDbDispPropsEditInPlaceProfile
  3
AecBase60
 90
      129
280
     0
281
     0
  0
CLASS
  1
AEC_VARS_ARCHBASE
  2
AecDbVarsArchBase
  3
AecArchBase60
 90
      129
280
     0
281
     0
  0
CLASS
  1
AEC_DISP_REP_BDG_ELEVLINE_PLAN
  2
AecDbDispRepBdgElevLinePlan
  3
AecArchBase60
 90
      129
280
     0
281
     0
  0
CLASS
  1
AEC_DISP_REP_BDG_ELEVLINE_MODEL
  2
AecDbDispRepBdgElevLineModel
  3
AecArchBase60
 90
      129
280
     0
281
     0
  0
CLASS
  1
AEC_DISP_REP_BDG_ELEVLINE_RCP
  2
AecDbDispRepBdgElevLineRcp
  3
AecArchBase60
 90
      129
280
     0
281
     0
  0
CLASS
  1
AEC_AECDBDISPREPBDGELEVLINEPLAN100
  2
AecDbDispRepBdgElevLinePlan100
  3
AecBase60
 90
      129
280
     0
281
     0
  0
CLASS
  1
AEC_AECDBDISPREPBDGELEVLINEPLAN50
  2
AecDbDispRepBdgElevLinePlan50
  3
AecBase60
 90
      129
280
     0
281
     0
  0
CLASS
  1
AEC_DISP_REP_BDG_SECTIONLINE_MODEL
  2
AecDbDispRepBdgSectionLineModel
  3
AecArchBase60
 90
      129
280
     0
281
     0
  0
CLASS
  1
AEC_DISP_REP_BDG_SECTIONLINE_PLAN
  2
AecDbDispRepBdgSectionLinePlan
  3
AecArchBase60
 90
      129
280
     0
281
     0
  0
CLASS
  1
AEC_DISP_REP_BDG_SECTIONLINE_RCP
  2
AecDbDispRepBdgSectionLineRcp
  3
AecArchBase60
 90
      129
280
     0
281
     0
  0
CLASS
  1
AEC_AECDBDISPREPBDGSECTIONLINEPLAN100
  2
AecDbDispRepBdgSectionLinePlan100
  3
AecBase60
 90
      129
280
     0
281
     0
  0
CLASS
  1
AEC_AECDBDISPREPBDGSECTIONLINEPLAN50
  2
AecDbDispRepBdgSectionLinePlan50
  3
AecBase60
 90
      129
280
     0
281
     0
  0
CLASS
  1
AEC_DISP_REP_BDG_SECTION_SUBDIV
  2
AecDbDispRepBdgSectionSubDiv
  3
AecArchBase60
 90
      129
280
     0
281
     0
  0
CLASS
  1
AEC_DISP_REP_BDG_SECTION_MODEL
  2
AecDbDispRepBdgSectionModel
  3
AecArchBase60
 90
      129
280
     0
281
     0
  0
CLASS
  1
AEC_DISP_REP_CEILING_GRID
  2
AecDbDispRepCeilingGrid
  3
AecArchBase60
 90
      893
280
     0
281
     0
  0
CLASS
  1
AEC_DISP_REP_CEILING_GRID_MODEL
  2
AecDbDispRepCeilingGridModel
  3
AecArchBase60
 90
      129
280
     0
281
     0
  0
CLASS
  1
AEC_DISP_REP_CEILING_GRID_RCP
  2
AecDbDispRepCeilingGridRcp
  3
AecArchBase60
 90
      129
280
     0
281
     0
  0
CLASS
  1
AEC_AECDBDISPREPCEILINGGRIDPLAN100
  2
AecDbDispRepCeilingGridPlan100
  3
AecBase60
 90
      129
280
     0
281
     0
  0
CLASS
  1
AEC_AECDBDISPREPCEILINGGRIDPLAN50
  2
AecDbDispRepCeilingGridPlan50
  3
AecBase60
 90
      129
280
     0
281
     0
  0
CLASS
  1
AEC_DISP_REP_CURTAIN_WALL_LAYOUT_MODEL
  2
AecDbDispRepCurtainWallLayoutModel
  3
AecArchBase60
 90
      129
280
     0
281
     0
  0
CLASS
  1
AEC_DISP_PROPS_GRID_ASSEMBLY_MODEL
  2
AecDbDispPropsGridAssemblyModel
  3
AecArchBase60
 90
      129
280
     0
281
     0
  0
CLASS
  1
AEC_DISP_REP_CURTAIN_WALL_LAYOUT_PLAN
  2
AecDbDispRepCurtainWallLayoutPlan
  3
AecArchBase60
 90
      129
280
     0
281
     0
  0
CLASS
  1
AEC_DISP_PROPS_GRID_ASSEMBLY_PLAN
  2
AecDbDispPropsGridAssemblyPlan
  3
AecArchBase60
 90
      129
280
     0
281
     0
  0
CLASS
  1
AEC_AECDBDISPREPCURTAINWALLLAYOUTPLAN100
  2
AecDbDispRepCurtainWallLayoutPlan100
  3
AecBase60
 90
      129
280
     0
281
     0
  0
CLASS
  1
AEC_AECDBDISPREPCURTAINWALLLAYOUTPLAN50
  2
AecDbDispRepCurtainWallLayoutPlan50
  3
AecBase60
 90
      129
280
     0
281
     0
  0
CLASS
  1
AEC_DISP_REP_CURTAIN_WALL_UNIT_MODEL
  2
AecDbDispRepCurtainWallUnitModel
  3
AecArchBase60
 90
      129
280
     0
281
     0
  0
CLASS
  1
AEC_DISP_REP_CURTAIN_WALL_UNIT_PLAN
  2
AecDbDispRepCurtainWallUnitPlan
  3
AecArchBase60
 90
      129
280
     0
281
     0
  0
CLASS
  1
AEC_AECDBDISPREPCURTAINWALLUNITPLAN100
  2
AecDbDispRepCurtainWallUnitPlan100
  3
AecBase60
 90
      129
280
     0
281
     0
  0
CLASS
  1
AEC_AECDBDISPREPCURTAINWALLUNITPLAN50
  2
AecDbDispRepCurtainWallUnitPlan50
  3
AecBase60
 90
      129
280
     0
281
     0
  0
CLASS
  1
AEC_DISP_REP_DOOR_MODEL
  2
AecDbDispRepDoorModel
  3
AecArchBase60
 90
      129
280
     0
281
     0
  0
CLASS
  1
AEC_DISP_PROPS_DOOR
  2
AecDbDispPropsDoor
  3
AecArchBase60
 90
      129
280
     0
281
     0
  0
CLASS
  1
AEC_DISP_REP_DOOR_ELEV
  2
AecDbDispRepDoorElev
  3
AecArchBase60
 90
      129
280
     0
281
     0
  0
CLASS
  1
AEC_DISP_REP_DOOR_PLAN
  2
AecDbDispRepDoorPlan
  3
AecArchBase60
 90
      129
280
     0
281
     0
  0
CLASS
  1
AEC_DISP_REP_DOOR_NOMINAL
  2
AecDbDispRepDoorNominal
  3
AecArchBase60
 90
      129
280
     0
281
     0
  0
CLASS
  1
AEC_DISP_PROPS_DOOR_NOMINAL
  2
AecDbDispPropsDoorNominal
  3
AecArchBase60
 90
      129
280
     0
281
     0
  0
CLASS
  1
AEC_DISP_REP_DOOR_THRESHOLD_PLAN
  2
AecDbDispRepDoorThresholdPlan
  3
AecArchBase60
 90
      129
280
     0
281
     0
  0
CLASS
  1
AEC_DISP_PROPS_DOOR_THRESHOLD_PLAN
  2
AecDbDispPropsDoorThresholdPlan
  3
AecArchBase60
 90
      129
280
     0
281
     0
  0
CLASS
  1
AEC_DISP_REP_DOOR_PLAN_50
  2
AecDbDispRepDoorPlan50
  3
AecArchDACHBase60
 90
      129
280
     0
281
     0
  0
CLASS
  1
AEC_DISP_PROPS_DOOR_PLAN_50
  2
AecDbDispPropsDoorPlan50
  3
AecArchDACHBase60
 90
      129
280
     0
281
     0
  0
CLASS
  1
AEC_DISP_REP_DOOR_PLAN_HEKTO
  2
AecDbDispRepDoorPlanHekto
  3
AecArchDACHBase60
 90
      129
280
     0
281
     0
  0
CLASS
  1
AEC_DISP_PROPS_DOOR_PLAN_100
  2
AecDbDispPropsDoorPlan100
  3
AecArchDACHBase60
 90
      129
280
     0
281
     0
  0
CLASS
  1
AEC_DISP_REP_DOOR_RCP
  2
AecDbDispRepDoorRcp
  3
AecArchBase60
 90
      129
280
     0
281
     0
  0
CLASS
  1
AEC_DISP_REP_DOOR_THRESHOLD_SYMBOL_PLAN
  2
AecDbDispRepDoorThresholdSymbolPlan
  3
AecArchDACHBase60
 90
      129
280
     0
281
     0
  0
CLASS
  1
AEC_DISP_PROPS_DOOR_THRESHOLD_SYMBOL_PLAN
  2
AecDbDispPropsDoorThresholdSymbolPlan
  3
AecArchDACHBase60
 90
      129
280
     0
281
     0
  0
CLASS
  1
AEC_DISP_REP_OPENING
  2
AecDbDispRepOpening
  3
AecArchBase60
 90
      129
280
     0
281
     0
  0
CLASS
  1
AEC_DISP_PROPS_OPENING
  2
AecDbDispPropsOpening
  3
AecArchBase60
 90
      129
280
     0
281
     0
  0
CLASS
  1
AEC_DISP_REP_OPENING_MODEL
  2
AecDbDispRepOpeningModel
  3
AecArchBase60
 90
      129
280
     0
281
     0
  0
CLASS
  1
AEC_DISPREPAECDBDISPREPOPENINGPLAN100
  2
AecDbDispRepOpeningPlan100
  3
AecArchDACHBase60
 90
      129
280
     0
281
     0
  0
CLASS
  1
AEC_DISPROPSOPENINGPLANCOMMONHATCHED
  2
AecDbDispPropsOpeningPlanCommonHatched
  3
AecArchDACHBase60
 90
      129
280
     0
281
     0
  0
CLASS
  1
AEC_DISPREPAECDBDISPREPOPENINGPLAN50
  2
AecDbDispRepOpeningPlan50
  3
AecArchDACHBase60
 90
      129
280
     0
281
     0
  0
CLASS
  1
AEC_DISPREPAECDBDISPREPOPENINGPLANREFLECTED
  2
AecDbDispRepOpeningPlanReflected
  3
AecArchDACHBase60
 90
      129
280
     0
281
     0
  0
CLASS
  1
AEC_DISPROPSOPENINGPLANCOMMON
  2
AecDbDispPropsOpeningPlanCommon
  3
AecArchDACHBase60
 90
      129
280
     0
281
     0
  0
CLASS
  1
AEC_DISPREPAECDBDISPREPOPENINGSILLPLAN
  2
AecDbDispRepOpeningSillPlan
  3
AecArchDACHBase60
 90
      129
280
     0
281
     0
  0
CLASS
  1
AEC_DISPROPSOPENINGSILLPLAN
  2
AecDbDispPropsOpeningSillPlan
  3
AecArchDACHBase60
 90
      129
280
     0
281
     0
  0
CLASS
  1
AEC_DISP_REP_RAILING_MODEL
  2
AecDbDispRepRailingModel
  3
AecArchBase60
 90
      129
280
     0
281
     0
  0
CLASS
  1
AEC_DISP_PROPS_RAILING_MODEL
  2
AecDbDispPropsRailingModel
  3
AecArchBase60
 90
      129
280
     0
281
     0
  0
CLASS
  1
AEC_DISP_REP_RAILING_PLAN
  2
AecDbDispRepRailingPlan
  3
AecArchBase60
 90
      129
280
     0
281
     0
  0
CLASS
  1
AEC_DISP_PROPS_RAILING_PLAN
  2
AecDbDispPropsRailingPlan
  3
AecArchBase60
 90
      129
280
     0
281
     0
  0
CLASS
  1
AEC_DISP_REP_RAILING_PLAN_100
  2
AecDbDispRepRailingPlan100
  3
AecArchDACHBase60
 90
      129
280
     0
281
     0
  0
CLASS
  1
AEC_DISP_ROPS_RAILING_PLAN_100
  2
AecDbDispPropsRailingPlan100
  3
AecArchDACHBase60
 90
      129
280
     0
281
     0
  0
CLASS
  1
AEC_DISP_REP_RAILING_PLAN_50
  2
AecDbDispRepRailingPlan50
  3
AecArchDACHBase60
 90
      129
280
     0
281
     0
  0
CLASS
  1
AEC_DISP_ROPS_RAILING_PLAN_50
  2
AecDbDispPropsRailingPlan50
  3
AecArchDACHBase60
 90
      129
280
     0
281
     0
  0
CLASS
  1
AEC_DISP_REP_ROOF_MODEL
  2
AecDbDispRepRoofModel
  3
AecArchBase60
 90
      129
280
     0
281
     0
  0
CLASS
  1
AEC_DISP_PROPS_ROOF
  2
AecDbDispPropsRoof
  3
AecArchBase60
 90
      129
280
     0
281
     0
  0
CLASS
  1
AEC_DISP_REP_ROOF_PLAN
  2
AecDbDispRepRoofPlan
  3
AecArchBase60
 90
      129
280
     0
281
     0
  0
CLASS
  1
AEC_DISP_REP_ROOF_RCP
  2
AecDbDispRepRoofRcp
  3
AecArchBase60
 90
      129
280
     0
281
     0
  0
CLASS
  1
AEC_AECDBDISPREPROOFPLAN100
  2
AecDbDispRepRoofPlan100
  3
AecBase60
 90
      129
280
     0
281
     0
  0
CLASS
  1
AEC_AECDBDISPREPROOFPLAN50
  2
AecDbDispRepRoofPlan50
  3
AecBase60
 90
      129
280
     0
281
     0
  0
CLASS
  1
AEC_DISP_REP_ROOFSLAB_MODEL
  2
AecDbDispRepRoofSlabModel
  3
AecArchBase60
 90
      129
280
     0
281
     0
  0
CLASS
  1
AEC_DISP_PROPS_ROOFSLAB
  2
AecDbDispPropsRoofSlab
  3
AecArchBase60
 90
      129
280
     0
281
     0
  0
CLASS
  1
AEC_DISP_REP_ROOFSLAB_PLAN
  2
AecDbDispRepRoofSlabPlan
  3
AecArchBase60
 90
      129
280
     0
281
     0
  0
CLASS
  1
AEC_DISP_PROPS_ROOFSLAB_PLAN
  2
AecDbDispPropsRoofSlabPlan
  3
AecArchBase60
 90
      129
280
     0
281
     0
  0
CLASS
  1
AEC_AECDBDISPREPROOFSLABPLAN100
  2
AecDbDispRepRoofSlabPlan100
  3
AecBase60
 90
      129
280
     0
281
     0
  0
CLASS
  1
AEC_AECDBDISPREPROOFSLABPLAN50
  2
AecDbDispRepRoofSlabPlan50
  3
AecBase60
 90
      129
280
     0
281
     0
  0
CLASS
  1
AEC_DISP_REP_SLAB_MODEL
  2
AecDbDispRepSlabModel
  3
AecArchBase60
 90
      129
280
     0
281
     0
  0
CLASS
  1
AEC_DISP_PROPS_SLAB
  2
AecDbDispPropsSlab
  3
AecArchBase60
 90
      129
280
     0
281
     0
  0
CLASS
  1
AEC_DISP_REP_SLAB_PLAN
  2
AecDbDispRepSlabPlan
  3
AecArchBase60
 90
      129
280
     0
281
     0
  0
CLASS
  1
AEC_DISP_PROPS_SLAB_PLAN
  2
AecDbDispPropsSlabPlan
  3
AecArchBase60
 90
      129
280
     0
281
     0
  0
CLASS
  1
AEC_AECDBDISPREPSLABPLAN100
  2
AecDbDispRepSlabPlan100
  3
AecBase60
 90
      129
280
     0
281
     0
  0
CLASS
  1
AEC_AECDBDISPREPSLABPLAN50
  2
AecDbDispRepSlabPlan50
  3
AecBase60
 90
      129
280
     0
281
     0
  0
CLASS
  1
AEC_DISP_REP_SPACE_MODEL
  2
AecDbDispRepSpaceModel
  3
AecArchBase60
 90
      129
280
     0
281
     0
  0
CLASS
  1
AEC_DISP_PROPS_SPACE_MODEL
  2
AecDbDispPropsSpaceModel
  3
AecArchBase60
 90
      129
280
     0
281
     0
  0
CLASS
  1
AEC_DISP_REP_SPACE_PLAN
  2
AecDbDispRepSpacePlan
  3
AecArchBase60
 90
      129
280
     0
281
     0
  0
CLASS
  1
AEC_DISP_PROPS_SPACE_PLAN
  2
AecDbDispPropsSpacePlan
  3
AecArchBase60
 90
      129
280
     0
281
     0
  0
CLASS
  1
AEC_DISP_REP_SPACE_RCP
  2
AecDbDispRepSpaceRcp
  3
AecArchBase60
 90
      129
280
     0
281
     0
  0
CLASS
  1
AEC_DISP_REP_SPACE_VOLUME
  2
AecDbDispRepSpaceVolume
  3
AecArchBase60
 90
      129
280
     0
281
     0
  0
CLASS
  1
AEC_DISP_REP_SPACE_DECOMPOSED
  2
AecDbDispRepSpaceDecomposed
  3
AecArchBase60
 90
      129
280
     0
281
     0
  0
CLASS
  1
AEC_DISP_PROPS_SPACE_DECOMPOSED
  2
AecDbDispPropsSpaceDecomposed
  3
AecArchBase60
 90
      129
280
     0
281
     0
  0
CLASS
  1
AEC_AECDBDISPREPSPACEPLAN100
  2
AecDbDispRepSpacePlan100
  3
AecBase60
 90
      129
280
     0
281
     0
  0
CLASS
  1
AEC_AECDBDISPREPSPACEPLAN50
  2
AecDbDispRepSpacePlan50
  3
AecBase60
 90
      129
280
     0
281
     0
  0
CLASS
  1
AEC_DISP_REP_STAIR_MODEL
  2
AecDbDispRepStairModel
  3
AecArchBase60
 90
      129
280
     0
281
     0
  0
CLASS
  1
AEC_DISP_PROPS_STAIR_MODEL
  2
AecDbDispPropsStairModel
  3
AecArchBase60
 90
      129
280
     0
281
     0
  0
CLASS
  1
AEC_DISP_REP_STAIR_PLAN
  2
AecDbDispRepStairPlan
  3
AecArchBase60
 90
      129
280
     0
281
     0
  0
CLASS
  1
AEC_DISP_PROPS_STAIR_PLAN
  2
AecDbDispPropsStairPlan
  3
AecArchBase60
 90
      129
280
     0
281
     0
  0
CLASS
  1
AEC_DISP_REP_STAIR_RCP
  2
AecDbDispRepStairRcp
  3
AecArchBase60
 90
      129
280
     0
281
     0
  0
CLASS
  1
AEC_DISP_REP_STAIR_PLAN_100
  2
AecDbDispRepStairPlan100
  3
AecArchDACHBase60
 90
      129
280
     0
281
     0
  0
CLASS
  1
AEC_DISP_ROPS_STAIR_PLAN_100
  2
AecDbDispPropsStairPlan100
  3
AecArchDACHBase60
 90
      129
280
     0
281
     0
  0
CLASS
  1
AEC_DISP_REP_STAIR_PLAN_50
  2
AecDbDispRepStairPlan50
  3
AecArchDACHBase60
 90
      129
280
     0
281
     0
  0
CLASS
  1
AEC_DISP_ROPS_STAIR_PLAN_50
  2
AecDbDispPropsStairPlan50
  3
AecArchDACHBase60
 90
      129
280
     0
281
     0
  0
CLASS
  1
AEC_DISP_REP_STAIR_PLAN_OVERLAPPING
  2
AecDbDispRepStairPlanOverlapping
  3
AecArchBase60
 90
      129
280
     0
281
     0
  0
CLASS
  1
AEC_DISP_PROPS_STAIR_PLAN_OVERLAPPING
  2
AecDbDispPropsStairPlanOverlapping
  3
AecArchBase60
 90
      129
280
     0
281
     0
  0
CLASS
  1
AEC_DISP_REP_WALL_GRAPH
  2
AecDbDispRepWallGraph
  3
AecArchBase60
 90
      129
280
     0
281
     0
  0
CLASS
  1
AEC_DISP_PROPS_WALL_GRAPH
  2
AecDbDispPropsWallGraph
  3
AecArchBase60
 90
      129
280
     0
281
     0
  0
CLASS
  1
AEC_DISP_REP_WALL_MODEL
  2
AecDbDispRepWallModel
  3
AecArchBase60
 90
      129
280
     0
281
     0
  0
CLASS
  1
AEC_DISP_PROPS_WALL_MODEL
  2
AecDbDispPropsWallModel
  3
AecArchBase60
 90
      129
280
     0
281
     0
  0
CLASS
  1
AEC_DISP_REP_WALL_PLAN
  2
AecDbDispRepWallPlan
  3
AecArchBase60
 90
      129
280
     0
281
     0
  0
CLASS
  1
AEC_DISP_PROPS_WALL_PLAN
  2
AecDbDispPropsWallPlan
  3
AecArchBase60
 90
      129
280
     0
281
     0
  0
CLASS
  1
AEC_DISP_REP_WALL_RCP
  2
AecDbDispRepWallRcp
  3
AecArchBase60
 90
      129
280
     0
281
     0
  0
CLASS
  1
AEC_DISP_REP_WALL_SCHEM
  2
AecDbDispRepWallSchem
  3
AecArchBase60
 90
      129
280
     0
281
     0
  0
CLASS
  1
AEC_DISP_PROPS_WALL_SCHEM
  2
AecDbDispPropsWallSchem
  3
AecArchBase60
 90
      129
280
     0
281
     0
  0
CLASS
  1
AEC_AECDBDISPREPWALLPLAN100
  2
AecDbDispRepWallPlan100
  3
AecBase60
 90
      129
280
     0
281
     0
  0
CLASS
  1
AEC_AECDBDISPREPWALLPLAN50
  2
AecDbDispRepWallPlan50
  3
AecBase60
 90
      129
280
     0
281
     0
  0
CLASS
  1
AEC_DISP_REP_WINDOW_MODEL
  2
AecDbDispRepWindowModel
  3
AecArchBase60
 90
      129
280
     0
281
     0
  0
CLASS
  1
AEC_DISP_PROPS_WINDOW
  2
AecDbDispPropsWindow
  3
AecArchBase60
 90
      129
280
     0
281
     0
  0
CLASS
  1
AEC_DISP_REP_WINDOW_ELEV
  2
AecDbDispRepWindowElev
  3
AecArchBase60
 90
      129
280
     0
281
     0
  0
CLASS
  1
AEC_DISP_REP_WINDOW_PLAN
  2
AecDbDispRepWindowPlan
  3
AecArchBase60
 90
      129
280
     0
281
     0
  0
CLASS
  1
AEC_DISP_REP_WINDOW_NOMINAL
  2
AecDbDispRepWindowNominal
  3
AecArchBase60
 90
      129
280
     0
281
     0
  0
CLASS
  1
AEC_DISP_PROPS_WINDOW_NOMINAL
  2
AecDbDispPropsWindowNominal
  3
AecArchBase60
 90
      129
280
     0
281
     0
  0
CLASS
  1
AEC_DISP_REP_WINDOW_RCP
  2
AecDbDispRepWindowRcp
  3
AecArchBase60
 90
      129
280
     0
281
     0
  0
CLASS
  1
AEC_DISP_REP_WINDOW_SILL_PLAN
  2
AecDbDispRepWindowSillPlan
  3
AecArchBase60
 90
      129
280
     0
281
     0
  0
CLASS
  1
AEC_DISP_PROPS_WINDOW_SILL_PLAN
  2
AecDbDispPropsWindowSillPlan
  3
AecArchBase60
 90
      129
280
     0
281
     0
  0
CLASS
  1
AEC_DISP_REP_WINDOW_PLAN_100
  2
AecDbDispRepWindowPlan100
  3
AecArchDACHBase60
 90
      129
280
     0
281
     0
  0
CLASS
  1
AEC_DISP_PROPS_WINDOW_PLAN_100
  2
AecDbDispPropsWindowPlan100
  3
AecArchDACHBase60
 90
      129
280
     0
281
     0
  0
CLASS
  1
AEC_DISP_REP_WINDOW_PLAN_50
  2
AecDbDispRepWindowPlan50
  3
AecArchDACHBase60
 90
      129
280
     0
281
     0
  0
CLASS
  1
AEC_DISP_PROPS_WINDOW_PLAN_50
  2
AecDbDispPropsWindowPlan50
  3
AecArchDACHBase60
 90
      129
280
     0
281
     0
  0
CLASS
  1
AEC_DISP_REP_WINDOW_ASSEMBLY_MODEL
  2
AecDbDispRepWindowAssemblyModel
  3
AecArchBase60
 90
      129
280
     0
281
     0
  0
CLASS
  1
AEC_DISP_REP_WINDOW_ASSEMBLY_PLAN
  2
AecDbDispRepWindowAssemblyPlan
  3
AecArchBase60
 90
      129
280
     0
281
     0
  0
CLASS
  1
AEC_DISP_REP_WINDOWASSEMBLY_SILL_PLAN
  2
AecDbDispRepWindowAssemblySillPlan
  3
AecArchBase60
 90
      129
280
     0
281
     0
  0
CLASS
  1
AEC_DISP_PROPS_WINDOW_ASSEMBLY_SILL_PLAN
  2
AecDbDispPropsWindowAssemblySillPlan
  3
AecArchBase60
 90
      129
280
     0
281
     0
  0
CLASS
  1
AEC_AECDBDISPREPWINDOWASSEMBLYPLAN100
  2
AecDbDispRepWindowAssemblyPlan100
  3
AecBase60
 90
      129
280
     0
281
     0
  0
CLASS
  1
AEC_AECDBDISPREPWINDOWASSEMBLYPLAN50
  2
AecDbDispRepWindowAssemblyPlan50
  3
AecBase60
 90
      129
280
     0
281
     0
  0
CLASS
  1
AEC_DB_DISP_REP_DIM_GROUP_PLAN
  2
AecDbDispRepDimGroupPlan
  3
AecArchDACHBase60
 90
      129
280
     0
281
     0
  0
CLASS
  1
AEC_DISP_PROPS_DIM
  2
AecDbDispPropsDimGroup
  3
AecArchDACHBase60
 90
      129
280
     0
281
     0
  0
CLASS
  1
AEC_DB_DISP_REP_DIM_GROUP_PLAN100
  2
AecDbDispRepDimGroupPlan100
  3
AecArchDACHBase60
 90
      129
280
     0
281
     0
  0
CLASS
  1
AEC_DB_DISP_REP_DIM_GROUP_PLAN50
  2
AecDbDispRepDimGroupPlan50
  3
AecArchDACHBase60
 90
      129
280
     0
281
     0
  0
CLASS
  1
AEC_DISP_REP_SCHEDULE_TABLE
  2
AecDbDispRepScheduleTable
  3
AecSchedule50
 90
      129
280
     0
281
     0
  0
CLASS
  1
AEC_DISP_PROPS_SCHEDULE_TABLE
  2
AecDbDispPropsScheduleTable
  3
AecSchedule50
 90
      129
280
     0
281
     0
  0
CLASS
  1
AEC_DISP_REP_ANCHOR_TAG_TO_ENT
  2
AecDbDispRepAnchorTagToEnt
  3
AecScheduleData60
 90
      129
280
     0
281
     0
  0
CLASS
  1
AEC_DISP_REP_ANCHOR_EXT_TAG_TO_ENT
  2
AecDbDispRepAnchorExtendedTagToEnt
  3
AecScheduleData60
 90
      129
280
     0
281
     0
  0
CLASS
  1
AEC_DISP_REP_SET
  2
AecDbDispRepSet
  3
AecBase60
 90
      129
280
     0
281
     0
  0
CLASS
  1
AECS_DISP_REP_MEMBER_MODEL_DESIGN
  2
AecsDbDispRepMemberModelDesign
  3
AecStructureBase60
 90
      129
280
     0
281
     0
  0
CLASS
  1
AECS_DISP_PROPS_MEMBER
  2
AecsDbDispPropsMember
  3
AecStructureBase60
 90
      129
280
     0
281
     0
  0
CLASS
  1
AECS_DISP_REP_MEMBER_PLAN_DESIGN
  2
AecsDbDispRepMemberPlanDesign
  3
AecStructureBase60
 90
      129
280
     0
281
     0
  0
CLASS
  1
AECS_DISP_PROPS_MEMBER_PLAN
  2
AecsDbDispPropsMemberPlan
  3
AecStructureBase60
 90
      129
280
     0
281
     0
  0
CLASS
  1
AEC_DISP_REP_CONFIG
  2
AecDbDispRepConfig
  3
AecBase60
 90
      129
280
     0
281
     0
  0
CLASS
  1
GEODATA
  2
AcDbGeoData
  3
ObjectDBX Classes
 90
     4095
280
     0
281
     0
  0
CLASS
  1
AEC_WALL_STYLE
  2
AecDbWallStyle
  3
AecArchBase60
 90
      129
280
     0
281
     0
  0
CLASS
  1
AEC_CLEANUP_GROUP_DEF
  2
AecDbCleanupGroupDef
  3
AecArchBase60
 90
      129
280
     0
281
     0
  0
CLASS
  1
AEC_ENDCAP_STYLE
  2
AecDbEndcapStyle
  3
AecArchBase60
 90
      129
280
     0
281
     0
  0
CLASS
  1
AEC_FRAME_DEF
  2
AecDbOpeningEndcapStyle
  3
AecArchBase60
 90
      129
280
     0
281
     0
  0
CLASS
  1
AEC_MATERIAL_DEF
  2
AecDbMaterialDef
  3
AecBase60
 90
      129
280
     0
281
     0
  0
CLASS
  1
TCOPTIONALDATA
  2
TcOptionalData
  3
ExTcadCustObjs|Description: TurboCAD extension data object
 90
     4095
280
     0
281
     0
  0
CLASS
  1
DIMASSOC
  2
AcDbDimAssoc
  3
"AcDbDimAssoc|Product Desc:     AcDim ARX App For Dimension|Company:          Autodesk, Inc.|WEB Address:      www.autodesk.com"
 90
        0
280
     0
281
     0
  0
CLASS
  1
DICTIONARYVAR
  2
AcDbDictionaryVar
  3
ObjectDBX Classes
 90
        0
280
     0
281
     0
  0
CLASS
  1
XRECORD
  2
AcDbXrecord
  3
ObjectDBX Classes
 90
        0
280
     0
281
     0
  0
CLASS
  1
LWPOLYLINE
  2
AcDbPolyline
  3
ObjectDBX Classes
 90
        0
280
     0
281
     1
  0
CLASS
  1
HATCH
  2
AcDbHatch
  3
ObjectDBX Classes
 90
        0
280
     0
281
     1
  0
CLASS
  1
ACDBPLACEHOLDER
  2
AcDbPlaceHolder
  3
ObjectDBX Classes
 90
        0
280
     0
281
     0
  0
CLASS
  1
LAYOUT
  2
AcDbLayout
  3
ObjectDBX Classes
 90
        0
280
     0
281
     0
  0
ENDSEC
  0
SECTION
  2
TABLES
  0
TABLE
  2
VPORT
  5
8
102
{ACAD_XDICTIONARY
360
49D
102
}
330
0
100
AcDbSymbolTable
 70
     1
  0
VPORT
  5
29
330
8
100
AcDbSymbolTableRecord
100
AcDbViewportTableRecord
  2
*ACTIVE
 70
     0
 10
0.0
 20
0.0
 11
1.0
 21
1.0
 12
0.0
 22
0.0
 13
0.0
 23
0.0
 14
0.5
 24
0.5
 15
0.5
 25
0.5
 16
0.0
 26
0.0
 36
1.0
 17
8.67891888531979
 27
1.33667221924351
 37
13.37436867076458
 40
22.31250000000024
 41
2.221542227662179
 42
50.0
 43
0.0
 44
0.0
 50
0.0
 51
0.0
 71
     0
 72
   100
 73
     1
 74
     3
 75
     0
 76
     0
 77
     0
 78
     0
  0
ENDTAB
  0
TABLE
  2
LTYPE
  5
5
330
0
100
AcDbSymbolTable
 70
    14
  0
LTYPE
  5
14
330
5
100
AcDbSymbolTableRecord
100
AcDbLinetypeTableRecord
  2
BYBLOCK
 70
     0
  3

 72
    65
 73
     0
 40
0.0
  0
LTYPE
  5
15
330
5
100
AcDbSymbolTableRecord
100
AcDbLinetypeTableRecord
  2
BYLAYER
 70
     0
  3

 72
    65
 73
     0
 40
0.0
  0
LTYPE
  5
16
330
5
100
AcDbSymbolTableRecord
100
AcDbLinetypeTableRecord
  2
CONTINUOUS
 70
     0
  3
Solid line
 72
    65
 73
     0
 40
0.0
  0
LTYPE
  5
17F
330
5
100
AcDbSymbolTableRecord
100
AcDbLinetypeTableRecord
  2
BORDER
 70
     0
  3
BORDER
 72
    65
 73
     6
 40
1.75
 49
0.5
 74
     0
 49
-0.25
 74
     0
 49
0.5
 74
     0
 49
-0.25
 74
     0
 49
0.0
 74
     0
 49
-0.25
 74
     0
  0
LTYPE
  5
180
330
5
100
AcDbSymbolTableRecord
100
AcDbLinetypeTableRecord
  2
CENTER
 70
     0
  3
CENTER
 72
    65
 73
     4
 40
2.0
 49
1.25
 74
     0
 49
-0.25
 74
     0
 49
0.25
 74
     0
 49
-0.25
 74
     0
  0
LTYPE
  5
181
330
5
100
AcDbSymbolTableRecord
100
AcDbLinetypeTableRecord
  2
DASHDOT
 70
     0
  3
DASHDOT
 72
    65
 73
     4
 40
1.0
 49
0.5
 74
     0
 49
-0.25
 74
     0
 49
0.0
 74
     0
 49
-0.25
 74
     0
  0
LTYPE
  5
182
330
5
100
AcDbSymbolTableRecord
100
AcDbLinetypeTableRecord
  2
DASHED
 70
     0
  3
DASHED
 72
    65
 73
     2
 40
0.75
 49
0.5
 74
     0
 49
-0.25
 74
     0
  0
LTYPE
  5
183
330
5
100
AcDbSymbolTableRecord
100
AcDbLinetypeTableRecord
  2
DIVIDE
 70
     0
  3
DIVIDE
 72
    65
 73
     6
 40
1.25
 49
0.5
 74
     0
 49
-0.25
 74
     0
 49
0.0
 74
     0
 49
-0.25
 74
     0
 49
0.0
 74
     0
 49
-0.25
 74
     0
  0
LTYPE
  5
184
330
5
100
AcDbSymbolTableRecord
100
AcDbLinetypeTableRecord
  2
DOT
 70
     0
  3
DOT
 72
    65
 73
     2
 40
0.25
 49
0.0
 74
     0
 49
-0.25
 74
     0
  0
LTYPE
  5
185
330
5
100
AcDbSymbolTableRecord
100
AcDbLinetypeTableRecord
  2
HIDDEN
 70
     0
  3
HIDDEN
 72
    65
 73
     2
 40
0.375
 49
0.25
 74
     0
 49
-0.125
 74
     0
  0
LTYPE
  5
186
330
5
100
AcDbSymbolTableRecord
100
AcDbLinetypeTableRecord
  2
PHANTOM
 70
     0
  3
PHANTOM
 72
    65
 73
     6
 40
2.5
 49
1.25
 74
     0
 49
-0.25
 74
     0
 49
0.25
 74
     0
 49
-0.25
 74
     0
 49
0.25
 74
     0
 49
-0.25
 74
     0
  0
LTYPE
  5
187
330
5
100
AcDbSymbolTableRecord
100
AcDbLinetypeTableRecord
  2
$INVISIBLE
 70
     0
  3
$INVISIBLE
 72
    65
 73
     2
 40
200.0
 49
-100.0
 74
     0
 49
-100.0
 74
     0
  0
LTYPE
  5
188
330
5
100
AcDbSymbolTableRecord
100
AcDbLinetypeTableRecord
  2
CONTINUOUS2
 70
     0
  3
CONTINUOUS2
 72
    65
 73
     0
 40
0.0
  0
LTYPE
  5
189
330
5
100
AcDbSymbolTableRecord
100
AcDbLinetypeTableRecord
  2
$CONSTRUCTION
 70
     0
  3
$CONSTRUCTION
 72
    65
 73
     4
 40
0.3
 49
0.2
 74
     0
 49
-0.05
 74
     0
 49
0.0
 74
     0
 49
-0.05
 74
     0
  0
LTYPE
  5
18A
330
5
100
AcDbSymbolTableRecord
100
AcDbLinetypeTableRecord
  2
$AUXILIARY
 70
     0
  3
$AUXILIARY
 72
    65
 73
     2
 40
0.1
 49
0.05
 74
     0
 49
-0.05
 74
     0
  0
LTYPE
  5
18B
330
5
100
AcDbSymbolTableRecord
100
AcDbLinetypeTableRecord
  2
$SNAPEXT
 70
     0
  3
$SNAPEXT
 72
    65
 73
     2
 40
0.04
 49
0.02
 74
     0
 49
-0.02
 74
     0
  0
ENDTAB
  0
TABLE
  2
LAYER
  5
2
330
0
100
AcDbSymbolTable
 70
     8
  0
LAYER
  5
10
330
2
100
AcDbSymbolTableRecord
100
AcDbLayerTableRecord
  2
0
 70
     0
 62
     7
  6
CONTINUOUS
  0
LAYER
  5
18C
330
2
100
AcDbSymbolTableRecord
100
AcDbLayerTableRecord
  2
DOWEL_HOLES
 70
     0
 62
     7
  6
CONTINUOUS
  0
LAYER
  5
18D
330
2
100
AcDbSymbolTableRecord
100
AcDbLayerTableRecord
  2
DAYS_GRAPHICS_-_CRYPTIC
 70
     0
 62
    18
  6
CONTINUOUS
  0
LAYER
  5
18E
330
2
100
AcDbSymbolTableRecord
100
AcDbLayerTableRecord
  2
MONTHS_GRAPHICS_-_CRYPTIC
 70
     0
 62
    30
  6
CONTINUOUS
  0
LAYER
  5
18F
330
2
100
AcDbSymbolTableRecord
100
AcDbLayerTableRecord
  2
NUMBERS_GRAPHICS_-_CRYPTIC
 70
     0
 62
    24
  6
CONTINUOUS
  0
LAYER
  5
190
330
2
100
AcDbSymbolTableRecord
100
AcDbLayerTableRecord
  2
MATERIAL
 70
     0
 62
     7
  6
CONTINUOUS
  0
LAYER
  5
191
330
2
100
AcDbSymbolTableRecord
100
AcDbLayerTableRecord
  2
DIMENSIONS
 70
     0
 62
    18
  6
CONTINUOUS
  0
LAYER
  5
440
330
2
100
AcDbSymbolTableRecord
100
AcDbLayerTableRecord
  2
DEFPOINTS
 70
     0
 62
     7
  6
CONTINUOUS
  0
ENDTAB
  0
TABLE
  2
STYLE
  5
3
330
0
100
AcDbSymbolTable
 70
     1
  0
STYLE
  5
11
330
3
100
AcDbSymbolTableRecord
100
AcDbTextStyleTableRecord
  2
STANDARD
 70
     0
 40
0.0
 41
1.0
 50
0.0
 71
     0
 42
0.2000000327825546
  3
TXT.SHX
  4

  0
ENDTAB
  0
TABLE
  2
VIEW
  5
6
330
0
100
AcDbSymbolTable
 70
     1
  0
VIEW
  5
192
330
6
100
AcDbSymbolTableRecord
100
AcDbViewTableRecord
  2
VIEW_0
 70
     0
 40
8.267716535433072
 10
5.846456692913386
 20
4.133858267716536
 41
11.69291338582677
 11
0.0
 21
0.0
 31
1.0
 12
0.0
 22
0.0
 32
0.0
 42
50.0
 43
0.0
 44
0.0
 50
0.0
 71
     0
  0
ENDTAB
  0
TABLE
  2
UCS
  5
7
330
0
100
AcDbSymbolTable
 70
     0
  0
ENDTAB
  0
TABLE
  2
APPID
  5
9
330
0
100
AcDbSymbolTable
 70
     6
  0
APPID
  5
12
330
9
100
AcDbSymbolTableRecord
100
AcDbRegAppTableRecord
  2
ACAD
 70
     0
  0
APPID
  5
6E
330
9
100
AcDbSymbolTableRecord
100
AcDbRegAppTableRecord
  2
TCAD
 70
     0
  0
APPID
  5
4A7
330
9
100
AcDbSymbolTableRecord
100
AcDbRegAppTableRecord
  2
ACAD_MLEADERVER
 70
     0
  0
ENDTAB
  0
TABLE
  2
DIMSTYLE
  5
A
330
0
100
AcDbSymbolTable
 70
     1
  0
DIMSTYLE
105
27
102
{ACAD_REACTORS
330
43C
330
452
330
463
102
}
330
A
100
AcDbSymbolTableRecord
100
AcDbDimStyleTableRecord
  2
STANDARD
 70
     0
  3

  4
^B2147483648l^B^B2147483648l^B^B2147483648l^B
  5

  6

  7

 40
1.0
 41
0.18
 42
0.0625
 43
0.38
 44
0.18
 45
0.0
 46
0.0
 47
0.0
 48
0.0
140
0.18
141
0.09
142
0.0
143
25.4
144
1.0
145
0.0
146
1.0
147
0.09
 71
     0
 72
     0
 73
     1
 74
     1
 75
     0
 76
     0
 77
     0
 78
     0
170
     0
171
     2
172
     0
173
     0
174
     0
175
     0
176
     0
177
     0
178
     0
270
     2
271
     4
272
     4
273
     2
274
     2
340
11
275
     0
280
     0
281
     0
282
     0
283
     1
284
     0
285
     0
286
     0
287
     3
288
     0
  0
ENDTAB
  0
TABLE
  2
BLOCK_RECORD
  5
1
330
0
100
AcDbSymbolTable
 70
     5
  0
BLOCK_RECORD
  5
1F
102
{ACAD_XDICTIONARY
360
193
102
}
330
1
100
AcDbSymbolTableRecord
100
AcDbBlockTableRecord
  2
*MODEL_SPACE
  0
BLOCK_RECORD
  5
1B
330
1
100
AcDbSymbolTableRecord
100
AcDbBlockTableRecord
  2
*PAPER_SPACE
  0
BLOCK_RECORD
  5
441
330
1
100
AcDbSymbolTableRecord
100
AcDbBlockTableRecord
  2
*D2
  0
BLOCK_RECORD
  5
456
330
1
100
AcDbSymbolTableRecord
100
AcDbBlockTableRecord
  2
*D3
  0
BLOCK_RECORD
  5
467
330
1
100
AcDbSymbolTableRecord
100
AcDbBlockTableRecord
  2
*D4
  0
ENDTAB
  0
ENDSEC
  0
SECTION
  2
BLOCKS
  0
BLOCK
  5
20
330
1F
100
AcDbEntity
  8
0
100
AcDbBlockBegin
  2
*MODEL_SPACE
 70
     0
 10
0.0
 20
0.0
 30
0.0
  3
*MODEL_SPACE
  1

  0
ENDBLK
  5
21
330
1F
100
AcDbEntity
  8
0
100
AcDbBlockEnd
  0
BLOCK
  5
1C
330
1B
100
AcDbEntity
 67
     1
  8
0
100
AcDbBlockBegin
  2
*PAPER_SPACE
 70
     0
 10
0.0
 20
0.0
 30
0.0
  3
*PAPER_SPACE
  1

  0
ENDBLK
  5
1D
330
1B
100
AcDbEntity
 67
     1
  8
0
100
AcDbBlockEnd
  0
BLOCK
  5
442
330
441
100
AcDbEntity
  8
0
100
AcDbBlockBegin
  2
*D2
 70
     1
 10
0.0
 20
0.0
 30
0.0
  3
*D2
  1

  0
LINE
  5
444
330
441
100
AcDbEntity
  8
DIMENSIONS
  6
BYBLOCK
 62
     0
100
AcDbLine
 10
6.180000000000001
 20
7.0
 30
0.0
 11
6.000000000000002
 21
7.0
 31
0.0
  0
LINE
  5
445
330
441
100
AcDbEntity
  8
DIMENSIONS
  6
BYBLOCK
 62
     0
100
AcDbLine
 10
6.000000000000002
 20
7.0
 30
0.0
 11
5.887957669070069
 21
7.473874020441523
 31
0.0
  0
MTEXT
  5
446
330
441
100
AcDbEntity
  8
DIMENSIONS
 62
     0
100
AcDbMText
 10
7.800671296296297
 20
7.0
 30
0.0
 40
0.1597222222222222
 41
0.0
 71
     5
 72
     1
  1
\A1;(3) %%c0.375 Dowel Holes\PDrilled .375 Deep
  0
SOLID
  5
447
330
441
100
AcDbEntity
  8
DIMENSIONS
 62
     0
100
AcDbTrace
 10
5.917152714404949
 20
7.480776869700652
 30
0.0
 11
5.858762623735188
 21
7.466971171182395
 31
0.0
 12
5.846540573515297
 22
7.649044292450808
 32
0.0
 13
5.846540573515297
 23
7.649044292450808
 33
0.0
  0
LINE
  5
448
330
441
100
AcDbEntity
  8
DIMENSIONS
  6
BYBLOCK
 62
     0
100
AcDbLine
 10
5.713397765645744
 20
7.831513325793808
 30
0.0
 11
5.893397765645743
 21
7.831513325793808
 31
0.0
  0
LINE
  5
449
330
441
100
AcDbEntity
  8
DIMENSIONS
  6
BYBLOCK
 62
     0
100
AcDbLine
 10
5.803397765645744
 20
7.741513325793808
 30
0.0
 11
5.803397765645744
 21
7.921513325793808
 31
0.0
  0
POINT
  5
44A
330
441
100
AcDbEntity
  8
DEFPOINTS
 62
     0
100
AcDbPoint
 10
5.846540573515297
 20
7.649044292450808
 30
0.0
  0
POINT
  5
44B
330
441
100
AcDbEntity
  8
DEFPOINTS
 62
     0
100
AcDbPoint
 10
5.760254957776191
 20
8.013982359136808
 30
0.0
  0
ENDBLK
  5
443
330
441
100
AcDbEntity
  8
0
100
AcDbBlockEnd
  0
BLOCK
  5
457
330
456
100
AcDbEntity
  8
0
100
AcDbBlockBegin
  2
*D3
 70
     1
 10
0.0
 20
0.0
 30
0.0
  3
*D3
  1

  0
LINE
  5
459
330
456
100
AcDbEntity
  8
DIMENSIONS
  6
BYBLOCK
 62
     0
100
AcDbLine
 10
-8.749999999999998
 20
8.6875
 30
0.0
 11
-8.749999999999998
 21
4.038210123260148
 31
0.0
  0
LINE
  5
45A
330
456
100
AcDbEntity
  8
DIMENSIONS
  6
BYBLOCK
 62
     0
100
AcDbLine
 10
8.750000000000002
 20
8.6875
 30
0.0
 11
8.750000000000002
 21
4.038210123260148
 31
0.0
  0
LINE
  5
45B
330
456
100
AcDbEntity
  8
DIMENSIONS
  6
BYBLOCK
 62
     0
100
AcDbLine
 10
-8.569999999999999
 20
4.218210123260148
 30
0.0
 11
-1.930077287884576
 21
4.218210123260148
 31
0.0
  0
LINE
  5
45C
330
456
100
AcDbEntity
  8
DIMENSIONS
  6
BYBLOCK
 62
     0
100
AcDbLine
 10
8.570000000000002
 20
4.218210123260148
 30
0.0
 11
-1.324151361958648
 21
4.218210123260148
 31
0.0
  0
SOLID
  5
45D
330
456
100
AcDbEntity
  8
DIMENSIONS
 62
     0
100
AcDbTrace
 10
-8.569999999999999
 20
4.248210123260148
 30
0.0
 11
-8.569999999999999
 21
4.188210123260148
 31
0.0
 12
-8.749999999999998
 22
4.218210123260148
 32
0.0
 13
-8.749999999999998
 23
4.218210123260148
 33
0.0
  0
SOLID
  5
45E
330
456
100
AcDbEntity
  8
DIMENSIONS
 62
     0
100
AcDbTrace
 10
8.570000000000002
 20
4.188210123260148
 30
0.0
 11
8.570000000000002
 21
4.248210123260148
 31
0.0
 12
8.750000000000002
 22
4.218210123260148
 32
0.0
 13
8.750000000000002
 23
4.218210123260148
 33
0.0
  0
MTEXT
  5
45F
330
456
100
AcDbEntity
  8
DIMENSIONS
 62
     0
100
AcDbMText
 10
-1.627114324921612
 20
4.218210123260148
 30
0.0
 40
0.1597222222222222
 41
0.0
 71
     5
 72
     1
  1
\A1;17.5
  0
POINT
  5
460
330
456
100
AcDbEntity
  8
DEFPOINTS
 62
     0
100
AcDbPoint
 10
-8.749999999999998
 20
8.75
 30
0.0
  0
POINT
  5
461
330
456
100
AcDbEntity
  8
DEFPOINTS
 62
     0
100
AcDbPoint
 10
8.750000000000002
 20
8.75
 30
0.0
  0
POINT
  5
462
330
456
100
AcDbEntity
  8
DEFPOINTS
 62
     0
100
AcDbPoint
 10
8.750000000000002
 20
4.218210123260148
 30
0.0
  0
ENDBLK
  5
458
330
456
100
AcDbEntity
  8
0
100
AcDbBlockEnd
  0
BLOCK
  5
468
330
467
100
AcDbEntity
  8
0
100
AcDbBlockBegin
  2
*D4
 70
     1
 10
0.0
 20
0.0
 30
0.0
  3
*D4
  1

  0
LINE
  5
46A
330
467
100
AcDbEntity
  8
DIMENSIONS
  6
BYBLOCK
 62
     0
100
AcDbLine
 10
-8.6875
 20
8.75
 30
0.0
 11
-4.319999999999999
 21
8.75
 31
0.0
  0
LINE
  5
46B
330
467
100
AcDbEntity
  8
DIMENSIONS
  6
BYBLOCK
 62
     0
100
AcDbLine
 10
-8.687499999999998
 20
-8.75
 30
0.0
 11
-4.32
 21
-8.75
 31
0.0
  0
LINE
  5
46C
330
467
100
AcDbEntity
  8
DIMENSIONS
  6
BYBLOCK
 62
     0
100
AcDbLine
 10
-4.499999999999999
 20
8.57
 30
0.0
 11
-4.5
 21
-0.8301388888888894
 31
0.0
  0
LINE
  5
46D
330
467
100
AcDbEntity
  8
DIMENSIONS
  6
BYBLOCK
 62
     0
100
AcDbLine
 10
-4.5
 20
-8.57
 30
0.0
 11
-4.5
 21
-1.169861111111109
 31
0.0
  0
SOLID
  5
46E
330
467
100
AcDbEntity
  8
DIMENSIONS
 62
     0
100
AcDbTrace
 10
-4.469999999999999
 20
8.57
 30
0.0
 11
-4.529999999999999
 21
8.57
 31
0.0
 12
-4.499999999999999
 22
8.75
 32
0.0
 13
-4.499999999999999
 23
8.75
 33
0.0
  0
SOLID
  5
46F
330
467
100
AcDbEntity
  8
DIMENSIONS
 62
     0
100
AcDbTrace
 10
-4.53
 20
-8.57
 30
0.0
 11
-4.47
 21
-8.57
 31
0.0
 12
-4.5
 22
-8.75
 32
0.0
 13
-4.5
 23
-8.75
 33
0.0
  0
MTEXT
  5
470
330
467
100
AcDbEntity
  8
DIMENSIONS
 62
     0
100
AcDbMText
 10
-4.5
 20
-1.0
 30
0.0
 40
0.1597222222222222
 41
0.0
 71
     5
 72
     1
  1
\A1;17.5
  0
POINT
  5
471
330
467
100
AcDbEntity
  8
DEFPOINTS
 62
     0
100
AcDbPoint
 10
-8.75
 20
8.75
 30
0.0
  0
POINT
  5
472
330
467
100
AcDbEntity
  8
DEFPOINTS
 62
     0
100
AcDbPoint
 10
-8.749999999999998
 20
-8.75
 30
0.0
  0
POINT
  5
473
330
467
100
AcDbEntity
  8
DEFPOINTS
 62
     0
100
AcDbPoint
 10
-4.5
 20
-8.75
 30
0.0
  0
ENDBLK
  5
469
330
467
100
AcDbEntity
  8
0
100
AcDbBlockEnd
  0
ENDSEC
  0
SECTION
  2
ENTITIES
  0
LWPOLYLINE
  5
19F
102
{ACAD_REACTORS
330
43F
102
}
102
{ACAD_XDICTIONARY
360
1A0
102
}
330
1F
100
AcDbEntity
  8
DOWEL_HOLES
100
AcDbPolyline
 90
        4
 70
     1
 43
0.0
 10
5.803397765645744
 20
8.019013325793807
 42
0.4142135623730951
 10
5.615897765645744
 20
7.831513325793807
 42
0.4142135623730951
 10
5.803397765645744
 20
7.644013325793807
 42
0.4142135623730951
 10
5.990897765645744
 20
7.831513325793807
 42
0.4142135623730951
  0
LWPOLYLINE
  5
1A2
102
{ACAD_XDICTIONARY
360
1A3
102
}
330
1F
100
AcDbEntity
  8
DOWEL_HOLES
100
AcDbPolyline
 90
        4
 70
     1
 43
0.0
 10
7.074239927945758
 20
-5.936716345389669
 42
0.4142135623730951
 10
6.886739927945758
 20
-6.124216345389669
 42
0.4142135623730951
 10
7.074239927945758
 20
-6.311716345389669
 42
0.4142135623730951
 10
7.261739927945758
 20
-6.124216345389669
 42
0.4142135623730951
  0
LWPOLYLINE
  5
1A5
102
{ACAD_XDICTIONARY
360
1A6
102
}
330
1F
100
AcDbEntity
  8
DOWEL_HOLES
100
AcDbPolyline
 90
        4
 70
     1
 43
0.0
 10
-5.914389644407766
 20
7.417331479112253
 42
0.4142135623730951
 10
-6.101889644407766
 20
7.229831479112253
 42
0.4142135623730951
 10
-5.914389644407766
 20
7.042331479112253
 42
0.4142135623730951
 10
-5.726889644407766
 20
7.229831479112253
 42
0.4142135623730951
  0
LWPOLYLINE
  5
1A8
102
{ACAD_XDICTIONARY
360
1A9
102
}
330
1F
100
AcDbEntity
  8
DAYS_GRAPHICS_-_CRYPTIC
100
AcDbPolyline
 90
        4
 70
     1
 43
0.0
 10
-0.0508631912908571
 20
3.599499984979631
 10
-0.0508631912908573
 20
3.077900027036667
 10
0.0508631912908802
 20
3.077900027036667
 10
0.0508631912908804
 20
3.599499984979631
  0
LWPOLYLINE
  5
1AB
102
{ACAD_XDICTIONARY
360
1AC
102
}
330
1F
100
AcDbEntity
  8
DAYS_GRAPHICS_-_CRYPTIC
100
AcDbPolyline
 90
        4
 70
     1
 43
0.0
 10
-0.4859318725958327
 20
3.334221439179165
 10
-0.7755341924437189
 20
3.257517048928428
 10
-0.7502381552731962
 20
3.162010246467779
 10
-0.4606358354253093
 20
3.238714636718513
  0
LWPOLYLINE
  5
1AE
102
{ACAD_XDICTIONARY
360
1AF
102
}
330
1F
100
AcDbEntity
  8
DAYS_GRAPHICS_-_CRYPTIC
100
AcDbPolyline
 90
        4
 70
     1
 43
0.0
 10
-1.672230992753029
 20
2.896511231977391
 10
-1.834839600306361
 20
2.775676753453386
 10
-1.508700911624053
 20
2.336787467185942
 10
-1.346092304070721
 20
2.457621945709946
  0
LWPOLYLINE
  5
1B1
102
{ACAD_XDICTIONARY
360
1B2
102
}
330
1F
100
AcDbEntity
  8
DAYS_GRAPHICS_-_CRYPTIC
100
AcDbPolyline
 90
        4
 70
     1
 43
0.0
 10
2.610974403728519
 20
2.016614954050448
 10
2.547445208996987
 20
2.096064927807078
 10
2.376246389780571
 20
1.959172206393181
 10
2.439775584512105
 20
1.879722232636549
  0
LWPOLYLINE
  5
1B4
102
{ACAD_XDICTIONARY
360
1B5
102
}
330
1F
100
AcDbEntity
  8
DAYS_GRAPHICS_-_CRYPTIC
100
AcDbPolyline
 90
        3
 70
     1
 43
0.0
 10
2.308810366258643
 20
2.769589322340166
 10
1.979265033673361
 20
3.013608667303316
 10
2.027356605439333
 20
2.734022512071963
  0
LWPOLYLINE
  5
1B7
102
{ACAD_XDICTIONARY
360
1B8
102
}
330
1F
100
AcDbEntity
  8
DAYS_GRAPHICS_-_CRYPTIC
100
AcDbPolyline
 90
        3
 70
     1
 43
0.0
 10
0.9735991973035643
 20
3.465746594771149
 10
0.7027816502837059
 20
3.537475629346113
 10
0.9052707674548719
 20
3.20776824788565
  0
LWPOLYLINE
  5
1BA
102
{ACAD_XDICTIONARY
360
1BB
102
}
330
1F
100
AcDbEntity
  8
DAYS_GRAPHICS_-_CRYPTIC
100
AcDbPolyline
 90
        3
 70
     1
 43
0.0
 10
0.7269382291060789
 20
2.954740883267465
 10
0.6586097992573854
 20
2.696762536381963
 10
0.9294273462772449
 20
2.625033501807
  0
LWPOLYLINE
  5
1BD
102
{ACAD_XDICTIONARY
360
1BE
102
}
330
1F
100
AcDbEntity
  8
DAYS_GRAPHICS_-_CRYPTIC
100
AcDbPolyline
 90
        4
 70
     1
 43
0.0
 10
-1.79981514757804
 20
2.120460438612883
 10
-2.125953836260349
 20
2.559349724880328
 10
-2.288562446010931
 20
2.438515244723546
 10
-1.962423757328623
 20
1.999625958456101
  0
LWPOLYLINE
  5
1C0
102
{ACAD_XDICTIONARY
360
1C1
102
}
330
1F
100
AcDbEntity
  8
DAYS_GRAPHICS_-_CRYPTIC
100
AcDbPolyline
 90
        5
 70
     1
 43
0.0
 10
1.735642356721572
 20
2.168695691083904
 10
1.861616422358209
 20
2.338822224960202
 10
1.724632849491383
 20
2.323056458456167
 10
1.701075563301738
 20
2.458425237235712
 10
1.574753869132713
 20
2.287829235005014
  0
LWPOLYLINE
  5
1C3
102
{ACAD_XDICTIONARY
360
1C4
102
}
330
1F
100
AcDbEntity
  8
DAYS_GRAPHICS_-_CRYPTIC
100
AcDbPolyline
 90
        4
 70
     1
 43
0.0
 10
-0.8566747829472796
 20
2.904992087831777
 10
-0.8819708201178025
 20
3.000498890292426
 10
-1.17157313996569
 20
2.923794500041689
 10
-1.146277102795169
 20
2.82828769758104
  0
LWPOLYLINE
  5
1C6
102
{ACAD_XDICTIONARY
360
1C7
102
}
330
1F
100
AcDbEntity
  8
DAYS_GRAPHICS_-_CRYPTIC
100
AcDbPolyline
 90
        4
 70
     1
 43
0.0
 10
-3.308302892390377
 20
0.4982385841327613
 10
-3.315532032713017
 20
0.2943074141652321
 10
-3.046101260097155
 20
0.2847563834778331
 10
-3.038872119774516
 20
0.4886875534453616
  0
LWPOLYLINE
  5
1C9
102
{ACAD_XDICTIONARY
360
1CA
102
}
330
1F
100
AcDbEntity
  8
DAYS_GRAPHICS_-_CRYPTIC
100
AcDbPolyline
 90
        4
 70
     1
 43
0.0
 10
-3.32832890665542
 20
-0.0666873042286992
 10
-3.335505980468395
 20
-0.2691496986906357
 10
-3.066075207852534
 20
-0.2787007293780353
 10
-3.05889813403956
 20
-0.0762383349160998
  0
LWPOLYLINE
  5
1CC
102
{ACAD_XDICTIONARY
360
1CD
102
}
330
1F
100
AcDbEntity
  8
DAYS_GRAPHICS_-_CRYPTIC
100
AcDbPolyline
 90
        3
 70
     1
 43
0.0
 10
-3.371286004769819
 20
-0.3753759556234801
 10
-3.15327002373168
 20
-0.5202724343675443
 10
-3.019124931630132
 20
-0.2954813050818936
  0
LWPOLYLINE
  5
1CF
102
{ACAD_XDICTIONARY
360
1D0
102
}
330
1F
100
AcDbEntity
  8
DAYS_GRAPHICS_-_CRYPTIC
100
AcDbPolyline
 90
        4
 70
     1
 43
0.0
 10
-2.201685972393264
 20
1.690729510173974
 10
-2.138260610273571
 20
1.770262398673963
 10
-2.294314185656621
 20
1.8947109722819
 10
-2.357739547776313
 20
1.815178083781909
  0
LWPOLYLINE
  5
1D2
102
{ACAD_XDICTIONARY
360
1D3
102
}
330
1F
100
AcDbEntity
  8
DAYS_GRAPHICS_-_CRYPTIC
100
AcDbPolyline
 90
        3
 70
     1
 43
0.0
 10
-2.57482276144039
 20
2.544424116610818
 10
-2.778479999715485
 20
2.289046017335925
 10
-2.331551892891874
 20
2.35042207265307
  0
LWPOLYLINE
  5
1D5
102
{ACAD_XDICTIONARY
360
1D6
102
}
330
1F
100
AcDbEntity
  8
DAYS_GRAPHICS_-_CRYPTIC
100
AcDbPolyline
 90
        3
 70
     1
 43
0.0
 10
-2.849924819085058
 20
2.199457047515002
 10
-3.053582057360155
 20
1.944078948240109
 10
-2.810311188811636
 20
1.750076904282355
  0
LWPOLYLINE
  5
1D8
102
{ACAD_XDICTIONARY
360
1D9
102
}
330
1F
100
AcDbEntity
  8
DAYS_GRAPHICS_-_CRYPTIC
100
AcDbPolyline
 90
        4
 70
     1
 43
0.0
 10
-3.030739965907593
 20
1.424726634860552
 10
-2.940313381102705
 20
1.384921213454486
 10
-2.819612634300204
 20
1.65911894660765
 10
-2.910039219105093
 20
1.698924368013715
  0
LWPOLYLINE
  5
1DB
102
{ACAD_XDICTIONARY
360
1DC
102
}
330
1F
100
AcDbEntity
  8
DAYS_GRAPHICS_-_CRYPTIC
100
AcDbPolyline
 90
        4
 70
     1
 43
0.0
 10
-2.438111822086312
 20
1.879272833748089
 10
-2.374686459966619
 20
1.95880572224808
 10
-2.546063943888481
 20
2.095474705129387
 10
-2.609489306008173
 20
2.015941816629396
  0
LWPOLYLINE
  5
1DE
102
{ACAD_XDICTIONARY
360
1DF
102
}
330
1F
100
AcDbEntity
  8
DAYS_GRAPHICS_-_CRYPTIC
100
AcDbPolyline
 90
        4
 70
     1
 43
0.0
 10
-3.016952595511504
 20
0.9070129147339432
 10
-2.926526010706616
 20
0.8672074933278758
 10
-2.805825263904116
 20
1.141405226481042
 10
-2.896251848709003
 20
1.181210647887108
  0
LWPOLYLINE
  5
1E1
102
{ACAD_XDICTIONARY
360
1E2
102
}
330
1F
100
AcDbEntity
  8
DAYS_GRAPHICS_-_CRYPTIC
100
AcDbPolyline
 90
        3
 70
     1
 43
0.0
 10
-2.758716163921193
 20
-0.3972241284153805
 10
-2.957760144791092
 20
-0.7274069433804476
 10
-2.697217782778667
 20
-0.6682977954593629
  0
LWPOLYLINE
  5
1E4
102
{ACAD_XDICTIONARY
360
1E5
102
}
330
1F
100
AcDbEntity
  8
DAYS_GRAPHICS_-_CRYPTIC
100
AcDbPolyline
 90
        4
 70
     1
 43
0.0
 10
-3.156622071243373
 20
-0.6682112177873624
 10
-3.283010223256341
 20
-0.6968848504170199
 10
-3.260503537527558
 20
-0.7960902233091753
 10
-3.134115385514591
 20
-0.767416590679518
  0
LWPOLYLINE
  5
1E7
102
{ACAD_XDICTIONARY
360
1E8
102
}
330
1F
100
AcDbEntity
  8
DAYS_GRAPHICS_-_CRYPTIC
100
AcDbPolyline
 90
        4
 70
     1
 43
0.0
 10
-2.987109988737921
 20
-1.471271015576564
 10
-2.899566777171011
 20
-1.425471270197044
 10
-3.038443985599038
 20
-1.160016588331657
 10
-3.125987197165947
 20
-1.205816333711179
  0
LWPOLYLINE
  5
1EA
102
{ACAD_XDICTIONARY
360
1EB
102
}
330
1F
100
AcDbEntity
  8
DAYS_GRAPHICS_-_CRYPTIC
100
AcDbPolyline
 90
        4
 70
     1
 43
0.0
 10
-2.778707483156921
 20
-1.362241640011917
 10
-2.5001285114646
 20
-1.216498232348085
 10
-2.639005719892627
 20
-0.9510435504826982
 10
-2.917584691584947
 20
-1.09678695814653
  0
LWPOLYLINE
  5
1ED
102
{ACAD_XDICTIONARY
360
1EE
102
}
330
1F
100
AcDbEntity
  8
DAYS_GRAPHICS_-_CRYPTIC
100
AcDbPolyline
 90
        3
 70
     1
 43
0.0
 10
0.2938230549408103
 20
-3.618149489207353
 10
0.6148086002998879
 20
-3.557630699053971
 10
0.2361734025785985
 20
-3.312381560662417
  0
LWPOLYLINE
  5
1F0
102
{ACAD_XDICTIONARY
360
1F1
102
}
330
1F
100
AcDbEntity
  8
DAYS_GRAPHICS_-_CRYPTIC
100
AcDbPolyline
 90
        5
 70
     1
 43
0.0
 10
2.258320733184845
 20
-2.81930485183561
 10
2.410997676036385
 20
-2.689814894391549
 10
2.274072565845721
 20
-2.528371430850747
 10
2.258192184896715
 20
-2.665341725560602
 10
2.121017769186958
 20
-2.657415874486086
  0
LWPOLYLINE
  5
1F3
102
{ACAD_XDICTIONARY
360
1F4
102
}
330
1F
100
AcDbEntity
  8
DAYS_GRAPHICS_-_CRYPTIC
100
AcDbPolyline
 90
        4
 70
     1
 43
0.0
 10
-2.384969845337651
 20
-2.704669140937544
 10
-2.307846143111041
 20
-2.771003079973509
 10
-1.967720219695358
 20
-2.375552865222361
 10
-2.044843921921967
 20
-2.309218926186395
  0
LWPOLYLINE
  5
1F6
102
{ACAD_XDICTIONARY
360
1F7
102
}
330
1F
100
AcDbEntity
  8
DAYS_GRAPHICS_-_CRYPTIC
100
AcDbPolyline
 90
        4
 70
     1
 43
0.0
 10
-1.615238685333878
 20
-3.225638694401771
 10
-1.523701999796656
 20
-3.27001540128754
 10
-1.434186386190093
 20
-3.085369825975517
 10
-1.525723071727316
 20
-3.040993119089749
  0
LWPOLYLINE
  5
1F9
102
{ACAD_XDICTIONARY
360
1FA
102
}
330
1F
100
AcDbEntity
  8
DAYS_GRAPHICS_-_CRYPTIC
100
AcDbPolyline
 90
        4
 70
     1
 43
0.0
 10
-0.8128204144174334
 20
-3.235124451930268
 10
-0.7082127467018728
 20
-2.698423896954896
 10
-0.907060457612875
 20
-2.659666725798378
 10
-1.011668125328438
 20
-3.19636728077375
  0
LWPOLYLINE
  5
1FC
102
{ACAD_XDICTIONARY
360
1FD
102
}
330
1F
100
AcDbEntity
  8
DAYS_GRAPHICS_-_CRYPTIC
100
AcDbPolyline
 90
        4
 70
     1
 43
0.0
 10
-0.4568281929474185
 20
-3.304510472994787
 10
-0.2579804793494817
 20
-3.34326764467501
 10
-0.1533728116339201
 20
-2.806567089699636
 10
-0.352220525231856
 20
-2.767809918019414
  0
LWPOLYLINE
  5
1FF
102
{ACAD_XDICTIONARY
360
200
102
}
330
1F
100
AcDbEntity
  8
DAYS_GRAPHICS_-_CRYPTIC
100
AcDbPolyline
 90
        3
 70
     1
 43
0.0
 10
0.1995832736092014
 20
-3.118311215365797
 10
0.4664735784851423
 20
-2.74708020063509
 10
0.1411554341945994
 20
-2.808415861358949
  0
LWPOLYLINE
  5
202
102
{ACAD_XDICTIONARY
360
203
102
}
330
1F
100
AcDbEntity
  8
DAYS_GRAPHICS_-_CRYPTIC
100
AcDbPolyline
 90
        4
 70
     1
 43
0.0
 10
0.5244882787273553
 20
-3.043869942715322
 10
0.5651008371884391
 20
-3.259274847423744
 10
0.6650659777452749
 20
-3.240427365188227
 10
0.624453419284191
 20
-3.025022460479806
  0
LWPOLYLINE
  5
205
102
{ACAD_XDICTIONARY
360
206
102
}
330
1F
100
AcDbEntity
  8
DAYS_GRAPHICS_-_CRYPTIC
100
AcDbPolyline
 90
        4
 70
     1
 43
0.0
 10
1.099689322128192
 20
-3.196463044349898
 10
1.370116225281325
 20
-3.067535323529196
 10
1.327597662686273
 20
-2.97835230582044
 10
1.057170759533141
 20
-3.107280026641142
  0
LWPOLYLINE
  5
208
102
{ACAD_XDICTIONARY
360
209
102
}
330
1F
100
AcDbEntity
  8
DAYS_GRAPHICS_-_CRYPTIC
100
AcDbPolyline
 90
        4
 70
     1
 43
0.0
 10
1.274922843056487
 20
-2.86786645951867
 10
1.232404280461435
 20
-2.778683441809913
 10
0.961977377308302
 20
-2.907611162630614
 10
1.004495939903352
 20
-2.996794180339372
  0
LWPOLYLINE
  5
20B
102
{ACAD_XDICTIONARY
360
20C
102
}
330
1F
100
AcDbEntity
  8
DAYS_GRAPHICS_-_CRYPTIC
100
AcDbPolyline
 90
        3
 70
     1
 43
0.0
 10
1.64388047779508
 20
-2.259976497401897
 10
1.927067635813817
 20
-2.276894551836055
 10
1.956606051711718
 20
-1.994744429600329
  0
LWPOLYLINE
  5
20E
102
{ACAD_XDICTIONARY
360
20F
102
}
330
1F
100
AcDbEntity
  8
DAYS_GRAPHICS_-_CRYPTIC
100
AcDbPolyline
 90
        4
 70
     1
 43
0.0
 10
2.511419894951748
 20
-1.748006862298527
 10
2.599022892953882
 20
-1.793692238009225
 10
2.73755324312859
 20
-1.528056379689067
 10
2.649950245126456
 20
-1.482371003978368
  0
LWPOLYLINE
  5
211
102
{ACAD_XDICTIONARY
360
212
102
}
330
1F
100
AcDbEntity
  8
DAYS_GRAPHICS_-_CRYPTIC
100
AcDbPolyline
 90
        4
 70
     1
 43
0.0
 10
2.707551305890595
 20
-1.850290316081605
 10
2.795154303892732
 20
-1.895975691792302
 10
2.933684654067438
 20
-1.630339833472143
 10
2.846081656065303
 20
-1.584654457761445
  0
LWPOLYLINE
  5
214
102
{ACAD_XDICTIONARY
360
215
102
}
330
1F
100
AcDbEntity
  8
DAYS_GRAPHICS_-_CRYPTIC
100
AcDbPolyline
 90
        4
 70
     1
 43
0.0
 10
-1.255780261543154
 20
-2.484176900336334
 10
-1.345295893350901
 20
-2.668822513192286
 10
-1.253759207813678
 20
-2.713199220078055
 10
-1.16424357600593
 20
-2.528553607222103
  0
LWPOLYLINE
  5
217
102
{ACAD_XDICTIONARY
360
218
102
}
330
1F
100
AcDbEntity
  8
DAYS_GRAPHICS_-_CRYPTIC
100
AcDbPolyline
 90
        4
 70
     1
 43
0.0
 10
3.504703796681437
 20
-0.8490702013949993
 10
3.527080880078293
 20
-0.749835514657871
 10
3.018257041906526
 20
-0.6350974746090203
 10
2.99587995850967
 20
-0.7343321613461482
  0
LWPOLYLINE
  5
21A
102
{ACAD_XDICTIONARY
360
21B
102
}
330
1F
100
AcDbEntity
  8
DAYS_GRAPHICS_-_CRYPTIC
100
AcDbPolyline
 90
        4
 70
     1
 43
0.0
 10
3.339055111555245
 20
-0.2678680401576158
 10
3.331613585394968
 20
-0.0654151959222045
 10
2.785182583701827
 20
-0.0855002710874473
 10
2.792624109862103
 20
-0.2879531153228583
  0
LWPOLYLINE
  5
21D
102
{ACAD_XDICTIONARY
360
21E
102
}
330
1F
100
AcDbEntity
  8
DAYS_GRAPHICS_-_CRYPTIC
100
AcDbPolyline
 90
        4
 70
     1
 43
0.0
 10
3.3182912020656
 20
0.2970312080725765
 10
3.31084967580477
 20
0.4994840550436344
 10
2.764418674111629
 20
0.4793989798783906
 10
2.771860200372461
 20
0.2769461329073337
  0
LWPOLYLINE
  5
220
102
{ACAD_XDICTIONARY
360
221
102
}
330
1F
100
AcDbEntity
  8
DAYS_GRAPHICS_-_CRYPTIC
100
AcDbPolyline
 90
        3
 70
     1
 43
0.0
 10
3.318948447736819
 20
1.401264529735953
 10
3.205841597038319
 20
1.657573012818305
 10
3.074791303984729
 20
1.293519966336284
  0
LWPOLYLINE
  5
223
102
{ACAD_XDICTIONARY
360
224
102
}
330
1F
100
AcDbEntity
  8
DAYS_GRAPHICS_-_CRYPTIC
100
AcDbPolyline
 90
        3
 70
     1
 43
0.0
 10
2.521645093319771
 20
1.167037793487673
 10
2.634751944018272
 20
0.9107293104053206
 10
2.765802237071862
 20
1.274782356887344
  0
LWPOLYLINE
  5
226
102
{ACAD_XDICTIONARY
360
227
102
}
330
1F
100
AcDbEntity
  8
MONTHS_GRAPHICS_-_CRYPTIC
100
AcDbPolyline
 90
        4
 70
     1
 43
0.0
 10
2.077525794540797
 20
5.168271616074342
 10
2.042090062068919
 20
5.076045050311222
 10
2.321745939846196
 20
4.968594330585227
 10
2.357181672318077
 20
5.060820896348346
  0
LWPOLYLINE
  5
229
102
{ACAD_XDICTIONARY
360
22A
102
}
330
1F
100
AcDbEntity
  8
MONTHS_GRAPHICS_-_CRYPTIC
100
AcDbPolyline
 90
        3
 70
     1
 43
0.0
 10
0.9656070678165464
 20
5.763718236503953
 10
0.6888868167735828
 20
5.807457244696099
 10
0.9239416840480641
 20
5.500117027131185
  0
LWPOLYLINE
  5
22C
102
{ACAD_XDICTIONARY
360
22D
102
}
330
1F
100
AcDbEntity
  8
MONTHS_GRAPHICS_-_CRYPTIC
100
AcDbPolyline
 90
        3
 70
     1
 43
0.0
 10
0.3831524031359525
 20
5.843847759913923
 10
0.0565115540507725
 20
5.843847759913927
 10
0.3831524031359493
 20
5.532692640167962
  0
LWPOLYLINE
  5
22F
102
{ACAD_XDICTIONARY
360
230
102
}
330
1F
100
AcDbEntity
  8
MONTHS_GRAPHICS_-_CRYPTIC
100
AcDbPolyline
 90
        3
 70
     1
 43
0.0
 10
-0.05807703930969
 20
5.843847759913924
 10
-0.3847178883948764
 20
5.843847759913924
 10
-0.3847178883948789
 20
5.532692640167945
  0
LWPOLYLINE
  5
232
102
{ACAD_XDICTIONARY
360
233
102
}
330
1F
100
AcDbEntity
  8
MONTHS_GRAPHICS_-_CRYPTIC
100
AcDbPolyline
 90
        4
 70
     1
 43
0.0
 10
-0.9987940921312631
 20
5.758720066870196
 10
-1.293256889541373
 20
5.712176632988283
 10
-1.207888321272093
 20
5.172081815591496
 10
-0.9134255238619836
 20
5.2186252494734
  0
LWPOLYLINE
  5
235
102
{ACAD_XDICTIONARY
360
236
102
}
330
1F
100
AcDbEntity
  8
MONTHS_GRAPHICS_-_CRYPTIC
100
AcDbPolyline
 90
        8
 70
     1
 43
0.0
 10
-1.942834451475817
 20
5.190629258862711
 10
-2.037792745458725
 20
5.154143928700821
 10
-1.959174148785942
 20
4.949527777983446
 10
-1.864215854803035
 20
4.986013108145332
 10
-1.885807264456704
 20
5.042207842201497
 10
-1.574895347923726
 20
5.161667906722164
 10
-1.610331095360125
 20
5.253894511432588
 10
-1.921243011893102
 20
5.134434446911921
  0
LWPOLYLINE
  5
238
102
{ACAD_XDICTIONARY
360
239
102
}
330
1F
100
AcDbEntity
  8
MONTHS_GRAPHICS_-_CRYPTIC
100
AcDbPolyline
 90
        4
 70
     1
 43
0.0
 10
-2.467035148818609
 20
5.03389253827373
 10
-2.726486108267132
 20
4.884098456994619
 10
-2.677086111271205
 20
4.79853515230393
 10
-2.417635151822684
 20
4.948329233583036
  0
LWPOLYLINE
  5
23B
102
{ACAD_XDICTIONARY
360
23C
102
}
330
1F
100
AcDbEntity
  8
MONTHS_GRAPHICS_-_CRYPTIC
100
AcDbPolyline
 90
        3
 70
     1
 43
0.0
 10
-3.382113429081438
 20
4.782944548446212
 10
-3.636025658249861
 20
4.577462616953898
 10
-3.18637319886163
 20
4.541070054508472
  0
LWPOLYLINE
  5
23E
102
{ACAD_XDICTIONARY
360
23F
102
}
330
1F
100
AcDbEntity
  8
MONTHS_GRAPHICS_-_CRYPTIC
100
AcDbPolyline
 90
        4
 70
     1
 43
0.0
 10
3.130464842836759
 20
4.649957392508312
 10
2.871013883388234
 20
4.799751473787424
 10
2.82161388639231
 20
4.714188169096731
 10
3.081064845840831
 20
4.564394087817621
  0
LWPOLYLINE
  5
241
102
{ACAD_XDICTIONARY
360
242
102
}
330
1F
100
AcDbEntity
  8
MONTHS_GRAPHICS_-_CRYPTIC
100
AcDbPolyline
 90
        4
 70
     1
 43
0.0
 10
2.272824526834635
 20
4.841269350978374
 10
1.993168649057353
 20
4.948720070704368
 10
1.880405480600423
 20
4.655237784720754
 10
2.160061358377703
 20
4.547787064994759
  0
LWPOLYLINE
  5
244
102
{ACAD_XDICTIONARY
360
245
102
}
330
1F
100
AcDbEntity
  8
MONTHS_GRAPHICS_-_CRYPTIC
100
AcDbPolyline
 90
        3
 70
     1
 43
0.0
 10
1.00739562645105
 20
4.92288331009349
 10
0.7723407591765786
 20
5.230223527658412
 10
0.7306753754080964
 20
4.966622318285639
  0
LWPOLYLINE
  5
247
102
{ACAD_XDICTIONARY
360
248
102
}
330
1F
100
AcDbEntity
  8
MONTHS_GRAPHICS_-_CRYPTIC
100
AcDbPolyline
 90
        4
 70
     1
 43
0.0
 10
0.0500804486614118
 20
5.219447804641256
 10
-0.051645933920326
 20
5.219447804641256
 10
-0.0516459339203252
 20
5.019847789954675
 10
0.05008044866141
 20
5.019847789954675
  0
LWPOLYLINE
  5
24A
102
{ACAD_XDICTIONARY
360
24B
102
}
330
1F
100
AcDbEntity
  8
MONTHS_GRAPHICS_-_CRYPTIC
100
AcDbPolyline
 90
        4
 70
     1
 43
0.0
 10
-2.30703515716326
 20
4.756764423516069
 10
-2.356435154159186
 20
4.842327728206756
 10
-2.615886113607707
 20
4.692533646927649
 10
-2.566486116611783
 20
4.606970342236953
  0
LWPOLYLINE
  5
24D
102
{ACAD_XDICTIONARY
360
24E
102
}
330
1F
100
AcDbEntity
  8
MONTHS_GRAPHICS_-_CRYPTIC
100
AcDbPolyline
 90
        3
 70
     1
 43
0.0
 10
-3.062137232558787
 20
4.387552755358358
 10
-3.12109427775145
 20
3.934157819395339
 10
-2.863754791908427
 20
4.14241330505447
  0
LWPOLYLINE
  5
250
102
{ACAD_XDICTIONARY
360
251
102
}
330
1F
100
AcDbEntity
  8
MONTHS_GRAPHICS_-_CRYPTIC
100
AcDbPolyline
 90
        4
 70
     1
 43
0.0
 10
-3.312898802516415
 20
4.167954484743509
 10
-3.450792288725865
 20
4.338348262030717
 10
-3.529868658502973
 20
4.274354632222431
 10
-3.391975172293525
 20
4.10396085493522
  0
LWPOLYLINE
  5
253
102
{ACAD_XDICTIONARY
360
254
102
}
330
1F
100
AcDbEntity
  8
MONTHS_GRAPHICS_-_CRYPTIC
100
AcDbPolyline
 90
        4
 70
     1
 43
0.0
 10
3.019864848177333
 20
4.458392582441343
 10
2.76041388872881
 20
4.608186663720454
 10
2.711013891732886
 20
4.522623359029764
 10
2.970464851181409
 20
4.37282927775065
  0
LWPOLYLINE
  5
256
102
{ACAD_XDICTIONARY
360
257
102
}
330
1F
100
AcDbEntity
  8
MONTHS_GRAPHICS_-_CRYPTIC
100
AcDbPolyline
 90
        4
 70
     1
 43
0.0
 10
0.0500804486614127
 20
5.322247801970975
 10
0.0500804486614118
 20
5.541447831344143
 10
-0.051645933920326
 20
5.541447831344146
 10
-0.0516459339203251
 20
5.322247801970976
  0
LWPOLYLINE
  5
259
102
{ACAD_XDICTIONARY
360
25A
102
}
330
1F
100
AcDbEntity
  8
MONTHS_GRAPHICS_-_CRYPTIC
100
AcDbPolyline
 90
        4
 70
     1
 43
0.0
 10
-4.515858300536559
 20
3.71366624004251
 10
-4.579851930344842
 20
3.634589870265407
 10
-4.174389452438671
 20
3.306463834821268
 10
-4.110395822630387
 20
3.385540204598373
  0
LWPOLYLINE
  5
25C
102
{ACAD_XDICTIONARY
360
25D
102
}
330
1F
100
AcDbEntity
  8
MONTHS_GRAPHICS_-_CRYPTIC
100
AcDbPolyline
 90
        4
 70
     1
 43
0.0
 10
-4.779280713169039
 20
2.811946618914662
 10
-4.830143904459909
 20
2.723848987363783
 10
-4.640311110512448
 20
2.614248972677197
 10
-4.589447919221575
 20
2.70234660422808
  0
LWPOLYLINE
  5
25F
102
{ACAD_XDICTIONARY
360
260
102
}
330
1F
100
AcDbEntity
  8
MONTHS_GRAPHICS_-_CRYPTIC
100
AcDbPolyline
 90
        3
 70
     1
 43
0.0
 10
-5.441805232685317
 20
2.142560765136316
 10
-5.542286265976061
 20
1.881044493895438
 10
-5.19268719701596
 20
2.046843441251863
  0
LWPOLYLINE
  5
262
102
{ACAD_XDICTIONARY
360
263
102
}
330
1F
100
AcDbEntity
  8
MONTHS_GRAPHICS_-_CRYPTIC
100
AcDbPolyline
 90
        4
 70
     1
 43
0.0
 10
-5.533064669438255
 20
0.6851954137509739
 10
-5.564693751523979
 20
0.4850901096578721
 10
-5.02459889291556
 20
0.3997215348745887
 10
-4.992969810829837
 20
0.5998268389676926
  0
LWPOLYLINE
  5
265
102
{ACAD_XDICTIONARY
360
266
102
}
330
1F
100
AcDbEntity
  8
MONTHS_GRAPHICS_-_CRYPTIC
100
AcDbPolyline
 90
        4
 70
     1
 43
0.0
 10
-4.890533424689791
 20
-2.73135559070337
 10
-4.804970119999099
 20
-2.681955593707447
 10
-4.954764201278208
 20
-2.422504634258925
 10
-5.040327505968906
 20
-2.471904631254847
  0
LWPOLYLINE
  5
268
102
{ACAD_XDICTIONARY
360
269
102
}
330
1F
100
AcDbEntity
  8
MONTHS_GRAPHICS_-_CRYPTIC
100
AcDbPolyline
 90
        4
 70
     1
 43
0.0
 10
-4.593488891210056
 20
-3.228455753909127
 10
-4.4050251566003
 20
-3.461338745735395
 10
-4.328223596763069
 20
-3.399186036869572
 10
-4.516687331372825
 20
-3.166303045043304
  0
LWPOLYLINE
  5
26B
102
{ACAD_XDICTIONARY
360
26C
102
}
330
1F
100
AcDbEntity
  8
MONTHS_GRAPHICS_-_CRYPTIC
100
AcDbPolyline
 90
        6
 70
     1
 43
0.0
 10
-3.789660762497861
 20
-4.077219763824552
 10
-3.451672983841627
 20
-4.350740979429377
 10
-3.31289880251644
 20
-4.179258934874916
 10
-3.391975172293551
 20
-4.115265305066629
 10
-3.468596644752926
 20
-4.209945789783866
 10
-3.727508053632046
 20
-4.000418203987326
  0
LWPOLYLINE
  5
26E
102
{ACAD_XDICTIONARY
360
26F
102
}
330
1F
100
AcDbEntity
  8
MONTHS_GRAPHICS_-_CRYPTIC
100
AcDbPolyline
 90
        3
 70
     1
 43
0.0
 10
-3.907674027467074
 20
3.64995929228929
 10
-3.87128137613549
 20
3.200306815579427
 10
-3.665799471348269
 20
3.454219011748604
  0
LWPOLYLINE
  5
271
102
{ACAD_XDICTIONARY
360
272
102
}
330
1F
100
AcDbEntity
  8
MONTHS_GRAPHICS_-_CRYPTIC
100
AcDbPolyline
 90
        3
 70
     1
 43
0.0
 10
-3.94336636796241
 20
3.111232020382428
 10
-4.390722828868433
 20
3.053060104753934
 10
-4.148848272749632
 20
2.857319824213253
  0
LWPOLYLINE
  5
274
102
{ACAD_XDICTIONARY
360
275
102
}
330
1F
100
AcDbEntity
  8
MONTHS_GRAPHICS_-_CRYPTIC
100
AcDbPolyline
 90
        3
 70
     1
 43
0.0
 10
-4.610740620511142
 20
2.008094161489814
 10
-4.96033968947125
 20
1.842295214133382
 10
-4.711221653801892
 20
1.746577890248929
  0
LWPOLYLINE
  5
277
102
{ACAD_XDICTIONARY
360
278
102
}
330
1F
100
AcDbEntity
  8
MONTHS_GRAPHICS_-_CRYPTIC
100
AcDbPolyline
 90
        4
 70
     1
 43
0.0
 10
-4.904715953402033
 20
1.158175795479159
 10
-5.444810812010453
 20
1.243544370262441
 10
-5.476439893668788
 20
1.043439068873266
 10
-4.93634503506037
 20
0.9580704940899836
  0
LWPOLYLINE
  5
27A
102
{ACAD_XDICTIONARY
360
27B
102
}
330
1F
100
AcDbEntity
  8
MONTHS_GRAPHICS_-_CRYPTIC
100
AcDbPolyline
 90
        4
 70
     1
 43
0.0
 10
-5.271290208672916
 20
-0.7872255183056229
 10
-5.487802291555151
 20
-0.821447891735799
 10
-5.471920367349354
 20
-0.9219268517059729
 10
-5.255408284467118
 20
-0.8877044782757968
  0
LWPOLYLINE
  5
27D
102
{ACAD_XDICTIONARY
360
27E
102
}
330
1F
100
AcDbEntity
  8
MONTHS_GRAPHICS_-_CRYPTIC
100
AcDbPolyline
 90
        4
 70
     1
 43
0.0
 10
-5.24933836878887
 20
-1.967788955011641
 10
-5.21285303862699
 20
-2.062747248994548
 10
-5.091875686847358
 20
-2.016264751924992
 10
-5.128361017009244
 20
-1.921306457942086
  0
LWPOLYLINE
  5
280
102
{ACAD_XDICTIONARY
360
281
102
}
330
1F
100
AcDbEntity
  8
MONTHS_GRAPHICS_-_CRYPTIC
100
AcDbPolyline
 90
        4
 70
     1
 43
0.0
 10
-4.848762695901935
 20
-2.361304636595423
 10
-4.698968614622821
 20
-2.620755596043944
 10
-4.613405309932132
 20
-2.57135559904802
 10
-4.76319939121124
 20
-2.311904639599501
  0
LWPOLYLINE
  5
283
102
{ACAD_XDICTIONARY
360
284
102
}
330
1F
100
AcDbEntity
  8
MONTHS_GRAPHICS_-_CRYPTIC
100
AcDbPolyline
 90
        4
 70
     1
 43
0.0
 10
-4.050153830889364
 20
-3.391167627662302
 10
-4.126955390726586
 20
-3.453320336528117
 10
-3.938491656116826
 20
-3.686203328354392
 10
-3.861690096279601
 20
-3.624050619488577
  0
LWPOLYLINE
  5
286
102
{ACAD_XDICTIONARY
360
287
102
}
330
1F
100
AcDbEntity
  8
MONTHS_GRAPHICS_-_CRYPTIC
100
AcDbPolyline
 90
        4
 70
     1
 43
0.0
 10
-4.829627491893143
 20
-1.449714199023975
 10
-5.123109777876767
 20
-1.562477367480908
 10
-5.015659058150776
 20
-1.842133245258179
 10
-4.722176772167152
 20
-1.729370076801246
  0
LWPOLYLINE
  5
289
102
{ACAD_XDICTIONARY
360
28A
102
}
330
1F
100
AcDbEntity
  8
MONTHS_GRAPHICS_-_CRYPTIC
100
AcDbPolyline
 90
        8
 70
     1
 43
0.0
 10
-5.328682769666145
 20
-0.056515416356564
 10
-5.328682769666146
 20
0.0452109662251738
 10
-5.388882745633545
 20
0.0452109662251746
 10
-5.388882745633544
 20
0.3782829206997155
 10
-5.487682739625393
 20
0.3782829206997141
 10
-5.487682739625393
 20
0.0452109662251749
 10
-5.547882799039304
 20
0.0452109662251739
 10
-5.547882799039302
 20
-0.056515416356563
  0
LWPOLYLINE
  5
28C
102
{ACAD_XDICTIONARY
360
28D
102
}
330
1F
100
AcDbEntity
  8
MONTHS_GRAPHICS_-_CRYPTIC
100
AcDbPolyline
 90
        4
 70
     1
 43
0.0
 10
0.9972286068723354
 20
-5.770024517001604
 10
1.291691404282446
 20
-5.723481083119694
 10
1.206322836013165
 20
-5.183386265722904
 10
0.9118600386030545
 20
-5.229929699604813
  0
LWPOLYLINE
  5
28F
102
{ACAD_XDICTIONARY
360
290
102
}
330
1F
100
AcDbEntity
  8
MONTHS_GRAPHICS_-_CRYPTIC
100
AcDbPolyline
 90
        3
 70
     1
 43
0.0
 10
2.046984362350692
 20
-5.485268513851586
 10
2.308500633591577
 20
-5.384787480560838
 10
1.951267038466239
 20
-5.236150478182223
  0
LWPOLYLINE
  5
292
102
{ACAD_XDICTIONARY
360
293
102
}
330
1F
100
AcDbEntity
  8
MONTHS_GRAPHICS_-_CRYPTIC
100
AcDbPolyline
 90
        4
 70
     1
 43
0.0
 10
2.968016065635775
 20
-5.046036215849337
 10
2.707216086664291
 20
-4.59431740165783
 10
2.619118455113416
 20
-4.645180592948695
 10
2.8799184340849
 20
-5.096899407140204
  0
LWPOLYLINE
  5
295
102
{ACAD_XDICTIONARY
360
296
102
}
330
1F
100
AcDbEntity
  8
MONTHS_GRAPHICS_-_CRYPTIC
100
AcDbPolyline
 90
        4
 70
     1
 43
0.0
 10
3.745706585272232
 20
-4.498739392002422
 10
3.977447131357862
 20
-4.311200197176271
 10
3.633468373853565
 20
-3.886148648992975
 10
3.401727827767936
 20
-4.073687843819124
  0
LWPOLYLINE
  5
298
102
{ACAD_XDICTIONARY
360
299
102
}
330
1F
100
AcDbEntity
  8
MONTHS_GRAPHICS_-_CRYPTIC
100
AcDbPolyline
 90
        4
 70
     1
 43
0.0
 10
-2.969581550894729
 20
-5.046036215849321
 10
-2.881483919343857
 20
-5.096899407140188
 10
-2.620683940372373
 20
-4.64518059294868
 10
-2.708781571923245
 20
-4.594317401657817
  0
LWPOLYLINE
  5
29B
102
{ACAD_XDICTIONARY
360
29C
102
}
330
1F
100
AcDbEntity
  8
MONTHS_GRAPHICS_-_CRYPTIC
100
AcDbPolyline
 90
        3
 70
     1
 43
0.0
 10
-2.457163853744987
 20
-5.328268884884958
 10
-2.152255166469734
 20
-5.445422359930196
 10
-2.345564512577315
 20
-5.037815626003148
  0
LWPOLYLINE
  5
29E
102
{ACAD_XDICTIONARY
360
29F
102
}
330
1F
100
AcDbEntity
  8
MONTHS_GRAPHICS_-_CRYPTIC
100
AcDbPolyline
 90
        3
 70
     1
 43
0.0
 10
-1.740381726696115
 20
-5.603674344088179
 10
-1.62878238552844
 20
-5.313221085206354
 10
-2.045290413971373
 20
-5.486520869042939
  0
LWPOLYLINE
  5
2A1
102
{ACAD_XDICTIONARY
360
2A2
102
}
330
1F
100
AcDbEntity
  8
MONTHS_GRAPHICS_-_CRYPTIC
100
AcDbPolyline
 90
        4
 70
     1
 43
0.0
 10
-1.293256889541387
 20
-5.723481083119693
 10
-0.9973424352056367
 20
-5.770253969070695
 10
-0.9119738669363536
 20
-5.230159151673906
 10
-1.207888321272104
 20
-5.183386265722901
  0
LWPOLYLINE
  5
2A4
102
{ACAD_XDICTIONARY
360
2A5
102
}
330
1F
100
AcDbEntity
  8
MONTHS_GRAPHICS_-_CRYPTIC
100
AcDbPolyline
 90
        4
 70
     1
 43
0.0
 10
-0.0516459339203438
 20
-5.855152210045342
 10
0.0500804486613825
 20
-5.855152210045335
 10
0.0500804486613834
 20
-5.333552252102369
 10
-0.051645933920342
 20
-5.333552252102372
  0
LWPOLYLINE
  5
2A7
102
{ACAD_XDICTIONARY
360
2A8
102
}
330
1F
100
AcDbEntity
  8
MONTHS_GRAPHICS_-_CRYPTIC
100
AcDbPolyline
 90
        3
 70
     1
 43
0.0
 10
1.590376945780444
 20
-4.77797838650816
 10
1.947610540905778
 20
-4.92661538888678
 10
1.851893217021324
 20
-4.677497353217416
  0
LWPOLYLINE
  5
2AA
102
{ACAD_XDICTIONARY
360
2AB
102
}
330
1F
100
AcDbEntity
  8
MONTHS_GRAPHICS_-_CRYPTIC
100
AcDbPolyline
 90
        4
 70
     1
 43
0.0
 10
-1.850714927103636
 20
-4.678551579646836
 10
-1.922303754419948
 20
-4.864871749425518
 10
-1.827345460437041
 20
-4.901357079587404
 10
-1.755756633120729
 20
-4.715036909808719
  0
LWPOLYLINE
  5
2AD
102
{ACAD_XDICTIONARY
360
2AE
102
}
330
1F
100
AcDbEntity
  8
MONTHS_GRAPHICS_-_CRYPTIC
100
AcDbPolyline
 90
        4
 70
     1
 43
0.0
 10
-1.959174148785955
 20
-4.96083222811485
 10
-2.037792745458742
 20
-5.165448378832238
 10
-1.942834451475832
 20
-5.201933708994122
 10
-1.864215854803046
 20
-4.997317558276738
  0
LWPOLYLINE
  5
2B0
102
{ACAD_XDICTIONARY
360
2B1
102
}
330
1F
100
AcDbEntity
  8
MONTHS_GRAPHICS_-_CRYPTIC
100
AcDbPolyline
 90
        3
 70
     1
 43
0.0
 10
4.673620871675049
 20
3.516785951468558
 10
4.415664740679673
 20
3.835540090934824
 10
4.392226275908244
 20
3.552817867115879
  0
LWPOLYLINE
  5
2B3
102
{ACAD_XDICTIONARY
360
2B4
102
}
330
1F
100
AcDbEntity
  8
MONTHS_GRAPHICS_-_CRYPTIC
100
AcDbPolyline
 90
        4
 70
     1
 43
0.0
 10
4.549718216057026
 20
2.562848974012324
 10
4.498855024766154
 20
2.650946605563206
 10
4.325996341451829
 20
2.551146598219917
 10
4.3768595327427
 20
2.463048966669034
  0
LWPOLYLINE
  5
2B6
102
{ACAD_XDICTIONARY
360
2B7
102
}
330
1F
100
AcDbEntity
  8
MONTHS_GRAPHICS_-_CRYPTIC
100
AcDbPolyline
 90
        5
 70
     1
 43
0.0
 10
4.132820580613099
 20
3.211699470559164
 10
3.996252517015201
 20
3.230731617940451
 10
4.007337004576994
 20
3.367687034541548
 10
3.842327288126639
 20
3.234150672932413
 10
3.968264959446505
 20
3.078530591746327
  0
LWPOLYLINE
  5
2B9
102
{ACAD_XDICTIONARY
360
2BA
102
}
330
1F
100
AcDbEntity
  8
MONTHS_GRAPHICS_-_CRYPTIC
100
AcDbPolyline
 90
        4
 70
     1
 43
0.0
 10
3.482003186438424
 20
4.217142142662338
 10
3.563531397827375
 20
4.317885841845721
 10
3.484455028050264
 20
4.381879471654004
 10
3.402926816661316
 20
4.281135772470622
  0
LWPOLYLINE
  5
2BC
102
{ACAD_XDICTIONARY
360
2BD
102
}
330
1F
100
AcDbEntity
  8
MONTHS_GRAPHICS_-_CRYPTIC
100
AcDbPolyline
 90
        4
 70
     1
 43
0.0
 10
3.355181462451341
 20
4.060429645311936
 10
3.436709673840286
 20
4.16117334449532
 10
3.357633304063172
 20
4.225166974303604
 10
3.276105092674227
 20
4.124423275120218
  0
LWPOLYLINE
  5
2BF
102
{ACAD_XDICTIONARY
360
2C0
102
}
330
1F
100
AcDbEntity
  8
MONTHS_GRAPHICS_-_CRYPTIC
100
AcDbPolyline
 90
       13
 70
     1
 43
0.0
 10
3.459088494184857
 20
3.659364503653104
 10
3.629615003780013
 20
3.870082623096312
 10
3.63063904707268
 20
3.872245532124683
 10
3.632540867836999
 20
3.873698087772731
 10
3.804700327550152
 20
4.086434029608784
 10
3.805847372688806
 20
4.089756177849794
 10
3.808857299677085
 20
4.091570763533426
 10
3.977447131357884
 20
4.299895747044859
 10
3.723534902189466
 20
4.505377678537167
 10
3.774255784590484
 20
4.115322101013924
 10
3.570929276890629
 20
4.098865896952795
 10
3.596841227056688
 20
3.899596873853723
 10
3.201749008341835
 20
3.867619989312238
  0
LWPOLYLINE
  5
2C2
102
{ACAD_XDICTIONARY
360
2C3
102
}
330
1F
100
AcDbEntity
  8
MONTHS_GRAPHICS_-_CRYPTIC
100
AcDbPolyline
 90
        3
 70
     1
 43
0.0
 10
4.417764394461459
 20
-3.844250017215182
 10
4.676663982188868
 20
-3.52433005650023
 10
4.394837722756234
 20
-3.560977376116178
  0
LWPOLYLINE
  5
2C5
102
{ACAD_XDICTIONARY
360
2C6
102
}
330
1F
100
AcDbEntity
  8
MONTHS_GRAPHICS_-_CRYPTIC
100
AcDbPolyline
 90
        3
 70
     1
 43
0.0
 10
4.873065270916877
 20
-3.262899807194054
 10
5.036385695459465
 20
-2.980020533972568
 10
4.603597032699286
 20
-3.107322247321067
  0
LWPOLYLINE
  5
2C8
102
{ACAD_XDICTIONARY
360
2C9
102
}
330
1F
100
AcDbEntity
  8
MONTHS_GRAPHICS_-_CRYPTIC
100
AcDbPolyline
 90
        3
 70
     1
 43
0.0
 10
5.093679992139697
 20
-2.880783901138488
 10
5.257000416682295
 20
-2.597904627916991
 10
4.987532178464687
 20
-2.44232706804401
  0
LWPOLYLINE
  5
2CB
102
{ACAD_XDICTIONARY
360
2CC
102
}
330
1F
100
AcDbEntity
  8
MONTHS_GRAPHICS_-_CRYPTIC
100
AcDbPolyline
 90
        3
 70
     1
 43
0.0
 10
5.386940008661597
 20
-2.292585414328083
 10
5.534011125503143
 20
-1.909811782091007
 10
5.277447265075795
 20
-2.030874588082713
  0
LWPOLYLINE
  5
2CE
102
{ACAD_XDICTIONARY
360
2CF
102
}
330
1F
100
AcDbEntity
  8
MONTHS_GRAPHICS_-_CRYPTIC
100
AcDbPolyline
 90
        3
 70
     1
 43
0.0
 10
5.48843937108377
 20
-1.261992289900824
 10
5.339690231092192
 20
-1.046586507963076
 10
5.131757294907098
 20
-1.205614340715384
  0
LWPOLYLINE
  5
2D1
102
{ACAD_XDICTIONARY
360
2D2
102
}
330
1F
100
AcDbEntity
  8
MONTHS_GRAPHICS_-_CRYPTIC
100
AcDbPolyline
 90
        4
 70
     1
 43
0.0
 10
5.525668127773296
 20
-0.9306697843137081
 10
5.541550051979091
 20
-0.8301908243435341
 10
5.413539343520588
 20
-0.8099571717472891
 10
5.397657419314791
 20
-0.9104361317174605
  0
LWPOLYLINE
  5
2D4
102
{ACAD_XDICTIONARY
360
2D5
102
}
330
1F
100
AcDbEntity
  8
MONTHS_GRAPHICS_-_CRYPTIC
100
AcDbPolyline
 90
        4
 70
     1
 43
0.0
 10
5.602317260374609
 20
-0.0565154163565861
 10
5.602317260374602
 20
0.0452109662251491
 10
5.472717329134526
 20
0.0452109662251524
 10
5.472717329134529
 20
-0.0565154163565869
  0
LWPOLYLINE
  5
2D7
102
{ACAD_XDICTIONARY
360
2D8
102
}
330
1F
100
AcDbEntity
  8
MONTHS_GRAPHICS_-_CRYPTIC
100
AcDbPolyline
 90
        3
 70
     1
 43
0.0
 10
5.836929054938044
 20
0.5283676612416257
 10
5.785932596831223
 20
0.8510030677791754
 10
5.529589483550581
 20
0.4797888962975318
  0
LWPOLYLINE
  5
2DA
102
{ACAD_XDICTIONARY
360
2DB
102
}
330
1F
100
AcDbEntity
  8
MONTHS_GRAPHICS_-_CRYPTIC
100
AcDbPolyline
 90
        3
 70
     1
 43
0.0
 10
5.768042573531345
 20
0.9641865153086516
 10
5.717046115424519
 20
1.286821921846206
 10
5.409706544037045
 20
1.238243156902106
  0
LWPOLYLINE
  5
2DD
102
{ACAD_XDICTIONARY
360
2DE
102
}
330
1F
100
AcDbEntity
  8
MONTHS_GRAPHICS_-_CRYPTIC
100
AcDbPolyline
 90
        3
 70
     1
 43
0.0
 10
5.381193087279081
 20
1.650936419851508
 10
5.1446696622864
 20
1.763108729135861
 10
5.044108373642773
 20
1.52142011797103
  0
LWPOLYLINE
  5
2E0
102
{ACAD_XDICTIONARY
360
2E1
102
}
330
1F
100
AcDbEntity
  8
MONTHS_GRAPHICS_-_CRYPTIC
100
AcDbPolyline
 90
        4
 70
     1
 43
0.0
 10
5.247772883529946
 20
1.956484504880229
 10
5.211287553368066
 20
2.051442798863138
 10
5.090310201588431
 20
2.004960301793581
 10
5.126795531750321
 20
1.910002007810676
  0
LWPOLYLINE
  5
2E3
102
{ACAD_XDICTIONARY
360
2E4
102
}
330
1F
100
AcDbEntity
  8
MONTHS_GRAPHICS_-_CRYPTIC
100
AcDbPolyline
 90
        3
 70
     1
 43
0.0
 10
5.257000416682295
 20
2.586600177785576
 10
5.093679992139706
 20
2.869479451007064
 10
4.987532178464701
 20
2.431022617912598
  0
LWPOLYLINE
  5
2E6
102
{ACAD_XDICTIONARY
360
2E7
102
}
330
1F
100
AcDbEntity
  8
MONTHS_GRAPHICS_-_CRYPTIC
100
AcDbPolyline
 90
        3
 70
     1
 43
0.0
 10
5.036385695459477
 20
2.968716083841143
 10
4.873065270916883
 20
3.251595357062636
 10
4.603597032699281
 20
3.096017797189648
  0
LWPOLYLINE
  5
2E9
102
{ACAD_XDICTIONARY
360
2EA
102
}
330
1F
100
AcDbEntity
  8
MONTHS_GRAPHICS_-_CRYPTIC
100
AcDbPolyline
 90
        4
 70
     1
 43
0.0
 10
3.664233986089346
 20
-3.465523461880021
 10
4.124853022443938
 20
-3.838285693861721
 10
4.104737737372139
 20
-3.589748993061981
 10
3.77781014977038
 20
-3.32517838778416
  0
LWPOLYLINE
  5
2EC
102
{ACAD_XDICTIONARY
360
2ED
102
}
330
1F
100
AcDbEntity
  8
MONTHS_GRAPHICS_-_CRYPTIC
100
AcDbPolyline
 90
        4
 70
     1
 43
0.0
 10
4.362483269569375
 20
-3.271255087170396
 10
4.605725301759593
 20
-3.239625126169245
 10
4.147282787490711
 20
-2.86862427434467
 10
4.035555682711856
 20
-3.00668448249486
  0
LWPOLYLINE
  5
2EF
102
{ACAD_XDICTIONARY
360
2F0
102
}
330
1F
100
AcDbEntity
  8
MONTHS_GRAPHICS_-_CRYPTIC
100
AcDbPolyline
 90
        4
 70
     1
 43
0.0
 10
4.587882433962657
 20
-2.713651054359491
 10
4.777715227910118
 20
-2.823251069046078
 10
4.828578419200984
 20
-2.735153437495195
 10
4.638745625253529
 20
-2.625553422808611
  0
LWPOLYLINE
  5
2F2
102
{ACAD_XDICTIONARY
360
2F3
102
}
330
1F
100
AcDbEntity
  8
MONTHS_GRAPHICS_-_CRYPTIC
100
AcDbPolyline
 90
        4
 70
     1
 43
0.0
 10
4.549718216057018
 20
-2.574153424143747
 10
4.376859532742694
 20
-2.474353416800458
 10
4.325996341451821
 20
-2.562451048351341
 10
4.498855024766148
 20
-2.662251055694631
  0
LWPOLYLINE
  5
2F5
102
{ACAD_XDICTIONARY
360
2F6
102
}
330
1F
100
AcDbEntity
  8
MONTHS_GRAPHICS_-_CRYPTIC
100
AcDbPolyline
 90
        5
 70
     1
 43
0.0
 10
4.852327220311891
 20
-1.976781864349105
 10
4.800525511633705
 20
-1.848994378237037
 10
4.924674625377036
 20
-1.790116117752933
 10
4.726523885669401
 20
-1.713981692240231
 10
4.654721777683188
 20
-1.90085695548973
  0
LWPOLYLINE
  5
2F8
102
{ACAD_XDICTIONARY
360
2F9
102
}
330
1F
100
AcDbEntity
  8
MONTHS_GRAPHICS_-_CRYPTIC
100
AcDbPolyline
 90
        3
 70
     1
 43
0.0
 10
4.927636344870019
 20
-1.014567314683787
 10
5.234920074658514
 20
-0.7817242193898568
 10
4.971032900002777
 20
-0.7400136353232136
  0
LWPOLYLINE
  5
2FB
102
{ACAD_XDICTIONARY
360
2FC
102
}
330
1F
100
AcDbEntity
  8
MONTHS_GRAPHICS_-_CRYPTIC
100
AcDbPolyline
 90
        4
 70
     1
 43
0.0
 10
5.339117311110087
 20
-0.3895873708311281
 10
5.339117311110086
 20
-0.0899992082729103
 10
5.024717272390909
 20
-0.0899992082729103
 10
5.02471727239091
 20
-0.3895873708311272
  0
LWPOLYLINE
  5
2FE
102
{ACAD_XDICTIONARY
360
2FF
102
}
330
1F
100
AcDbEntity
  8
MONTHS_GRAPHICS_-_CRYPTIC
100
AcDbPolyline
 90
        4
 70
     1
 43
0.0
 10
4.971032900002788
 20
0.7287091851917825
 10
5.168185313926713
 20
0.7598715269980592
 10
5.152303389720917
 20
0.8603504869682337
 10
4.955150975796989
 20
0.829188145161955
  0
LWPOLYLINE
  5
301
102
{ACAD_XDICTIONARY
360
302
102
}
330
1F
100
AcDbEntity
  8
MONTHS_GRAPHICS_-_CRYPTIC
100
AcDbPolyline
 90
        3
 70
     1
 43
0.0
 10
4.77181093245026
 20
1.584811220813317
 10
4.92150490096976
 20
1.940101121327919
 10
4.672116611951669
 20
1.844279959408447
  0
LWPOLYLINE
  5
304
102
{ACAD_XDICTIONARY
360
305
102
}
330
1F
100
AcDbEntity
  8
MONTHS_GRAPHICS_-_CRYPTIC
100
AcDbPolyline
 90
        4
 70
     1
 43
0.0
 10
4.638745625253535
 20
2.614248972677184
 10
4.828578419200999
 20
2.723848987363771
 10
4.77771522791013
 20
2.811946618914653
 10
4.587882433962664
 20
2.702346604228069
  0
LWPOLYLINE
  5
307
102
{ACAD_XDICTIONARY
360
308
102
}
330
1F
100
AcDbEntity
  8
MONTHS_GRAPHICS_-_CRYPTIC
100
AcDbPolyline
 90
        4
 70
     1
 43
0.0
 10
5.269724723413995
 20
0.7759210681742155
 10
5.486236806296231
 20
0.8101434416043917
 10
5.470354882090436
 20
0.9106224015745654
 10
5.253842799208194
 20
0.876400028144389
  0
LWPOLYLINE
  5
30A
102
{ACAD_XDICTIONARY
360
30B
102
}
330
1F
100
AcDbEntity
  8
MONTHS_GRAPHICS_-_CRYPTIC
100
AcDbPolyline
 90
        4
 70
     1
 43
0.0
 10
0.0
 20
0.125
 42
0.4142135623730949
 10
-0.125
 20
0.0
 42
0.4142135623730951
 10
0.0
 20
-0.125
 42
0.4142135623730949
 10
0.125
 20
0.0
 42
0.4142135623730951
  0
LWPOLYLINE
  5
30D
102
{ACAD_XDICTIONARY
360
30E
102
}
330
1F
100
AcDbEntity
  8
NUMBERS_GRAPHICS_-_CRYPTIC
100
AcDbPolyline
 90
        4
 70
     1
 43
0.0
 10
1.885341360320474
 20
-7.618126967153544
 10
1.860576891639261
 20
-7.522480953625903
 10
1.57055244638348
 20
-7.597573485205863
 10
1.59531691506469
 20
-7.693219498733502
  0
LWPOLYLINE
  5
310
102
{ACAD_XDICTIONARY
360
311
102
}
330
1F
100
AcDbEntity
  8
NUMBERS_GRAPHICS_-_CRYPTIC
100
AcDbPolyline
 90
        4
 70
     1
 43
0.0
 10
1.36376787065724
 20
-7.704635038784366
 10
1.564021237798721
 20
-7.6739573513181
 10
1.523196308023139
 20
-7.40746628481044
 10
1.322942940881663
 20
-7.438143972276712
  0
LWPOLYLINE
  5
313
102
{ACAD_XDICTIONARY
360
314
102
}
330
1F
100
AcDbEntity
  8
NUMBERS_GRAPHICS_-_CRYPTIC
100
AcDbPolyline
 90
        4
 70
     1
 43
0.0
 10
2.886783093357457
 20
-7.272396252804596
 10
3.076761889222461
 20
-7.202035832954645
 10
2.98312839085291
 20
-6.949217852180634
 10
2.7931495949879
 20
-7.019578272030583
  0
LWPOLYLINE
  5
316
102
{ACAD_XDICTIONARY
360
317
102
}
330
1F
100
AcDbEntity
  8
NUMBERS_GRAPHICS_-_CRYPTIC
100
AcDbPolyline
 90
        4
 70
     1
 43
0.0
 10
3.521307219888218
 20
-7.29416770674191
 10
3.612637627964216
 20
-7.249368002793802
 10
3.480959782528376
 20
-6.980924457449135
 10
3.389629374452384
 20
-7.025724161397251
  0
LWPOLYLINE
  5
319
102
{ACAD_XDICTIONARY
360
31A
102
}
330
1F
100
AcDbEntity
  8
NUMBERS_GRAPHICS_-_CRYPTIC
100
AcDbPolyline
 90
        4
 70
     1
 43
0.0
 10
3.958519636993838
 20
-7.076682025241312
 10
4.131693358182654
 20
-6.968742019480008
 10
3.842455854638821
 20
-6.504703367241905
 10
3.66928213345001
 20
-6.61264337300321
  0
LWPOLYLINE
  5
31C
102
{ACAD_XDICTIONARY
360
31D
102
}
330
1F
100
AcDbEntity
  8
NUMBERS_GRAPHICS_-_CRYPTIC
100
AcDbPolyline
 90
        4
 70
     1
 43
0.0
 10
4.463539547397256
 20
-6.435262121386751
 10
4.32093084685846
 20
-6.206467624184121
 10
4.149004376494199
 20
-6.313630212562099
 10
4.291613077033002
 20
-6.542424709764724
  0
LWPOLYLINE
  5
31F
102
{ACAD_XDICTIONARY
360
320
102
}
330
1F
100
AcDbEntity
  8
NUMBERS_GRAPHICS_-_CRYPTIC
100
AcDbPolyline
 90
        4
 70
     1
 43
0.0
 10
6.428443534296656
 20
-4.942106831018406
 10
6.545016104877528
 20
-4.774622448635156
 10
6.096222682073398
 20
-4.462253007308094
 10
5.979650111492532
 20
-4.629737389691346
  0
LWPOLYLINE
  5
322
102
{ACAD_XDICTIONARY
360
323
102
}
330
1F
100
AcDbEntity
  8
NUMBERS_GRAPHICS_-_CRYPTIC
100
AcDbPolyline
 90
        4
 70
     1
 43
0.0
 10
7.259878403775112
 20
-2.9181208762319
 10
7.339770784638276
 20
-2.731949613573577
 10
7.092019752797503
 20
-2.625631272534049
 10
7.012127371934331
 20
-2.811802535192369
  0
LWPOLYLINE
  5
325
102
{ACAD_XDICTIONARY
360
326
102
}
330
1F
100
AcDbEntity
  8
NUMBERS_GRAPHICS_-_CRYPTIC
100
AcDbPolyline
 90
        4
 70
     1
 43
0.0
 10
7.424292686110478
 20
-2.382694790538958
 10
7.454745813688927
 20
-2.285633655506146
 10
7.245598460659922
 20
-2.220013250157144
 10
7.215145333081471
 20
-2.31707438518995
  0
LWPOLYLINE
  5
328
102
{ACAD_XDICTIONARY
360
329
102
}
330
1F
100
AcDbEntity
  8
NUMBERS_GRAPHICS_-_CRYPTIC
100
AcDbPolyline
 90
        4
 70
     1
 43
0.0
 10
7.320810227973675
 20
-1.896423307011033
 10
7.856417167809109
 20
-2.006493331210828
 10
7.897493995332176
 20
-1.806611173941169
 10
7.361887055496741
 20
-1.696541149741377
  0
LWPOLYLINE
  5
32B
102
{ACAD_XDICTIONARY
360
32C
102
}
330
1F
100
AcDbEntity
  8
NUMBERS_GRAPHICS_-_CRYPTIC
100
AcDbPolyline
 90
        4
 70
     1
 43
0.0
 10
7.698681680175396
 20
-1.396983991759556
 10
7.739462659652657
 20
-1.19854144775083
 10
7.475381381278869
 20
-1.144271365458307
 10
7.434600401801612
 20
-1.342713909467035
  0
LWPOLYLINE
  5
32E
102
{ACAD_XDICTIONARY
360
32F
102
}
330
1F
100
AcDbEntity
  8
NUMBERS_GRAPHICS_-_CRYPTIC
100
AcDbPolyline
 90
        4
 70
     1
 43
0.0
 10
7.807662542803758
 20
-0.8450871784084746
 10
7.817954030231407
 20
-0.7438827209982708
 10
7.689019034326946
 20
-0.730771313425031
 10
7.678727546899304
 20
-0.8319757708352256
  0
LWPOLYLINE
  5
331
102
{ACAD_XDICTIONARY
360
332
102
}
330
1F
100
AcDbEntity
  8
NUMBERS_GRAPHICS_-_CRYPTIC
100
AcDbPolyline
 90
        4
 70
     1
 43
0.0
 10
7.595705166063929
 20
-0.6876257480956008
 10
7.626013997757243
 20
-0.3895746755150719
 10
7.527720914583444
 20
-0.3795792459105523
 10
7.497412082890132
 20
-0.6776303184910792
  0
LWPOLYLINE
  5
334
102
{ACAD_XDICTIONARY
360
335
102
}
330
1F
100
AcDbEntity
  8
NUMBERS_GRAPHICS_-_CRYPTIC
100
AcDbPolyline
 90
        4
 70
     1
 43
0.0
 10
7.797100056409853
 20
-0.0508631912908267
 10
7.797100056409863
 20
0.0508631912909083
 10
7.57790002703668
 20
0.0508631912909049
 10
7.577900027036681
 20
-0.0508631912908267
  0
LWPOLYLINE
  5
337
102
{ACAD_XDICTIONARY
360
338
102
}
330
1F
100
AcDbEntity
  8
NUMBERS_GRAPHICS_-_CRYPTIC
100
AcDbPolyline
 90
        3
 70
     1
 43
0.0
 10
7.866528769757784
 20
0.4140326373041112
 10
7.667724488556347
 20
0.5843347668164325
 10
7.507271309309157
 20
0.377499724306911
  0
LWPOLYLINE
  5
33A
102
{ACAD_XDICTIONARY
360
33B
102
}
330
1F
100
AcDbEntity
  8
NUMBERS_GRAPHICS_-_CRYPTIC
100
AcDbPolyline
 90
        4
 70
     1
 43
0.0
 10
7.817954030231378
 20
0.7438827209983843
 10
7.807662542803738
 20
0.8450871784085768
 10
7.678727546899286
 20
0.8319757708353368
 10
7.689019034326926
 20
0.7307713134251286
  0
LWPOLYLINE
  5
33D
102
{ACAD_XDICTIONARY
360
33E
102
}
330
1F
100
AcDbEntity
  8
NUMBERS_GRAPHICS_-_CRYPTIC
100
AcDbPolyline
 90
        3
 70
     1
 43
0.0
 10
7.628391444305424
 20
0.9711281656999775
 10
7.788844590322562
 20
1.177963231586813
 10
7.429587190947994
 20
1.141430324800236
  0
LWPOLYLINE
  5
340
102
{ACAD_XDICTIONARY
360
341
102
}
330
1F
100
AcDbEntity
  8
NUMBERS_GRAPHICS_-_CRYPTIC
100
AcDbPolyline
 90
        4
 70
     1
 43
0.0
 10
7.64773164532879
 20
1.519722683561491
 10
7.627254275061126
 20
1.61936672111561
 10
7.412541283166668
 20
1.575242079599401
 10
7.433018653434341
 20
1.47559804204528
  0
LWPOLYLINE
  5
343
102
{ACAD_XDICTIONARY
360
344
102
}
330
1F
100
AcDbEntity
  8
NUMBERS_GRAPHICS_-_CRYPTIC
100
AcDbPolyline
 90
        4
 70
     1
 43
0.0
 10
7.441451446526411
 20
2.412184254859639
 10
7.34862744429828
 20
2.708035739779885
 10
6.826904150014505
 20
2.544344000175728
 10
6.848679568392003
 20
2.474940724006843
  0
LWPOLYLINE
  5
346
102
{ACAD_XDICTIONARY
360
347
102
}
330
1F
100
AcDbEntity
  8
NUMBERS_GRAPHICS_-_CRYPTIC
100
AcDbPolyline
 90
        4
 70
     1
 43
0.0
 10
7.185264202117662
 20
3.028090933188971
 10
7.145147807527058
 20
3.121573187110329
 10
6.943712228227191
 20
3.035130372085999
 10
6.983828622817802
 20
2.941648118164651
  0
LWPOLYLINE
  5
349
102
{ACAD_XDICTIONARY
360
34A
102
}
330
1F
100
AcDbEntity
  8
NUMBERS_GRAPHICS_-_CRYPTIC
100
AcDbPolyline
 90
        4
 70
     1
 43
0.0
 10
7.047759542623095
 20
3.472714751394075
 10
6.902368819382505
 20
3.734658647563831
 10
6.815983378960618
 20
3.68671081658152
 10
6.961374102201203
 20
3.42476692041177
  0
LWPOLYLINE
  5
34C
102
{ACAD_XDICTIONARY
360
34D
102
}
330
1F
100
AcDbEntity
  8
NUMBERS_GRAPHICS_-_CRYPTIC
100
AcDbPolyline
 90
        4
 70
     1
 43
0.0
 10
6.428631198239134
 20
4.412488784226115
 10
6.370518149233618
 20
4.495982080055476
 10
6.190606778812553
 20
4.37076007052673
 10
6.248719827818071
 20
4.287266774697377
  0
LWPOLYLINE
  5
34F
102
{ACAD_XDICTIONARY
360
350
102
}
330
1F
100
AcDbEntity
  8
NUMBERS_GRAPHICS_-_CRYPTIC
100
AcDbPolyline
 90
        4
 70
     1
 43
0.0
 10
6.204439150601618
 20
4.820331642290478
 10
6.009295665361879
 20
5.047646594094134
 10
5.934330367398553
 20
4.983290996714715
 10
6.129473852638295
 20
4.755976044911054
  0
LWPOLYLINE
  5
352
102
{ACAD_XDICTIONARY
360
353
102
}
330
1F
100
AcDbEntity
  8
NUMBERS_GRAPHICS_-_CRYPTIC
100
AcDbPolyline
 90
        4
 70
     1
 43
0.0
 10
5.408809277772597
 20
5.616238825991631
 10
5.335078729406447
 20
5.686324938387686
 10
5.184057160507908
 20
5.527450338137593
 10
5.257787708874067
 20
5.457364225741541
  0
LWPOLYLINE
  5
355
102
{ACAD_XDICTIONARY
360
356
102
}
330
1F
100
AcDbEntity
  8
NUMBERS_GRAPHICS_-_CRYPTIC
100
AcDbPolyline
 90
        4
 70
     1
 43
0.0
 10
4.997973774026744
 20
6.373754405768585
 10
4.917531018874658
 20
6.436021733129804
 10
4.734511338265404
 20
6.199579798343425
 10
4.814954093417489
 20
6.137312470982216
  0
LWPOLYLINE
  5
358
102
{ACAD_XDICTIONARY
360
359
102
}
330
1F
100
AcDbEntity
  8
NUMBERS_GRAPHICS_-_CRYPTIC
100
AcDbPolyline
 90
        4
 70
     1
 43
0.0
 10
4.167550069965955
 20
6.590059390340997
 10
4.081220559552249
 20
6.643868985627488
 10
3.965271632951225
 20
6.457846139457257
 10
4.051601143364931
 20
6.404036544170774
  0
LWPOLYLINE
  5
35B
102
{ACAD_XDICTIONARY
360
35C
102
}
330
1F
100
AcDbEntity
  8
NUMBERS_GRAPHICS_-_CRYPTIC
100
AcDbPolyline
 90
        4
 70
     1
 43
0.0
 10
3.380265996251049
 20
7.082667034895552
 10
3.111294383904609
 20
7.214603909562091
 10
3.067783444376667
 20
7.125900826446631
 10
3.336755056723105
 20
6.993963951780088
  0
LWPOLYLINE
  5
35E
102
{ACAD_XDICTIONARY
360
35F
102
}
330
1F
100
AcDbEntity
  8
NUMBERS_GRAPHICS_-_CRYPTIC
100
AcDbPolyline
 90
        4
 70
     1
 43
0.0
 10
2.755670872628553
 20
7.294082148950703
 10
2.660276740466923
 20
7.329412255974249
 10
2.58414741884188
 20
7.123856961062848
 10
2.679541551003513
 20
7.088526854039302
  0
LWPOLYLINE
  5
361
102
{ACAD_XDICTIONARY
360
362
102
}
330
1F
100
AcDbEntity
  8
NUMBERS_GRAPHICS_-_CRYPTIC
100
AcDbPolyline
 90
        3
 70
     1
 43
0.0
 10
2.326802690404559
 20
7.454898947531425
 10
2.007030093453157
 20
7.276313729373444
 10
2.263378557543421
 20
7.209940513425415
  0
LWPOLYLINE
  5
364
102
{ACAD_XDICTIONARY
360
365
102
}
330
1F
100
AcDbEntity
  8
NUMBERS_GRAPHICS_-_CRYPTIC
100
AcDbPolyline
 90
        4
 70
     1
 43
0.0
 10
1.885341360320387
 20
7.618126967153573
 10
1.595316915064588
 20
7.693219498733528
 10
1.570552446383384
 20
7.597573485205892
 10
1.860576891639173
 20
7.522480953625941
  0
LWPOLYLINE
  5
367
102
{ACAD_XDICTIONARY
360
368
102
}
330
1F
100
AcDbEntity
  8
NUMBERS_GRAPHICS_-_CRYPTIC
100
AcDbPolyline
 90
        4
 70
     1
 43
0.0
 10
1.230974185988163
 20
7.69948432736411
 10
1.130420879057635
 20
7.714888527392039
 10
1.097227905780716
 20
7.498216241664867
 10
1.197781212711247
 20
7.482812041636932
  0
LWPOLYLINE
  5
36A
102
{ACAD_XDICTIONARY
360
36B
102
}
330
1F
100
AcDbEntity
  8
NUMBERS_GRAPHICS_-_CRYPTIC
100
AcDbPolyline
 90
        4
 70
     1
 43
0.0
 10
0.7659803461431394
 20
7.523560185357804
 10
0.7936753100073651
 20
8.06965833880989
 10
0.589877956249185
 20
8.079993770842165
 10
0.5621829923849598
 20
7.533895617390073
  0
LWPOLYLINE
  5
36D
102
{ACAD_XDICTIONARY
360
36E
102
}
330
1F
100
AcDbEntity
  8
NUMBERS_GRAPHICS_-_CRYPTIC
100
AcDbPolyline
 90
        4
 70
     1
 43
0.0
 10
0.2150801689036055
 20
7.821445161020126
 10
0.0127506268651943
 20
7.831706154066874
 10
-0.0009043893749372
 20
7.562452177399764
 10
0.2014251526634738
 20
7.552191184353017
  0
LWPOLYLINE
  5
370
102
{ACAD_XDICTIONARY
360
371
102
}
330
1F
100
AcDbEntity
  8
NUMBERS_GRAPHICS_-_CRYPTIC
100
AcDbPolyline
 90
        4
 70
     1
 43
0.0
 10
-0.3441187284599128
 20
7.789668712764231
 10
-0.4457145459590889
 20
7.784516356037498
 10
-0.4346122466619133
 20
7.565597668330126
 10
-0.3330164291627366
 20
7.570750025056861
  0
LWPOLYLINE
  5
373
102
{ACAD_XDICTIONARY
360
374
102
}
330
1F
100
AcDbEntity
  8
NUMBERS_GRAPHICS_-_CRYPTIC
100
AcDbPolyline
 90
        4
 70
     1
 43
0.0
 10
-0.7641808476522758
 20
7.523743176468737
 10
-0.8469815514384214
 20
8.06423762387753
 10
-1.048687668565162
 20
8.03333738329942
 10
-0.9658869647790171
 20
7.492842935890623
  0
LWPOLYLINE
  5
376
102
{ACAD_XDICTIONARY
360
377
102
}
330
1F
100
AcDbEntity
  8
NUMBERS_GRAPHICS_-_CRYPTIC
100
AcDbPolyline
 90
        4
 70
     1
 43
0.0
 10
-1.363767870657181
 20
7.704635038784353
 10
-1.564021237798663
 20
7.673957351318085
 10
-1.523196308023084
 20
7.407466284810432
 10
-1.322942940881602
 20
7.438143972276698
  0
LWPOLYLINE
  5
379
102
{ACAD_XDICTIONARY
360
37A
102
}
330
1F
100
AcDbEntity
  8
NUMBERS_GRAPHICS_-_CRYPTIC
100
AcDbPolyline
 90
        4
 70
     1
 43
0.0
 10
-2.048650129296973
 20
7.575843397295013
 10
-2.338674574552765
 20
7.500750865715053
 10
-2.313910105871559
 20
7.405104852187412
 10
-2.023885660615766
 20
7.480197383767369
  0
LWPOLYLINE
  5
37C
102
{ACAD_XDICTIONARY
360
37D
102
}
330
1F
100
AcDbEntity
  8
NUMBERS_GRAPHICS_-_CRYPTIC
100
AcDbPolyline
 90
        4
 70
     1
 43
0.0
 10
-2.660276740466969
 20
7.329412255974229
 10
-2.755670872628606
 20
7.29408214895069
 10
-2.679541551003555
 20
7.088526854039278
 10
-2.584147418841919
 20
7.123856961062813
  0
LWPOLYLINE
  5
37F
102
{ACAD_XDICTIONARY
360
380
102
}
330
1F
100
AcDbEntity
  8
NUMBERS_GRAPHICS_-_CRYPTIC
100
AcDbPolyline
 90
        4
 70
     1
 43
0.0
 10
-3.531720205096117
 20
7.008375198683557
 10
-3.800691817442553
 20
6.876438324017013
 10
-3.757180877914607
 20
6.787735240901559
 10
-3.48820926556817
 20
6.919672115568101
  0
LWPOLYLINE
  5
382
102
{ACAD_XDICTIONARY
360
383
102
}
330
1F
100
AcDbEntity
  8
NUMBERS_GRAPHICS_-_CRYPTIC
100
AcDbPolyline
 90
        4
 70
     1
 43
0.0
 10
-4.11084251588087
 20
6.69139301872467
 10
-4.197172026294581
 20
6.637583423438176
 10
-4.128618326927725
 20
6.52759918601957
 10
-4.042288816514017
 20
6.581408781306062
  0
LWPOLYLINE
  5
385
102
{ACAD_XDICTIONARY
360
386
102
}
330
1F
100
AcDbEntity
  8
NUMBERS_GRAPHICS_-_CRYPTIC
100
AcDbPolyline
 90
        4
 70
     1
 43
0.0
 10
-4.870201240739137
 20
6.153983295988882
 10
-5.107108290763927
 20
5.970603589386523
 10
-5.046632223365848
 20
5.892474951328177
 10
-4.80972517334105
 20
6.075854657930535
  0
LWPOLYLINE
  5
388
102
{ACAD_XDICTIONARY
360
389
102
}
330
1F
100
AcDbEntity
  8
NUMBERS_GRAPHICS_-_CRYPTIC
100
AcDbPolyline
 90
        3
 70
     1
 43
0.0
 10
-5.14255628573242
 20
5.967228230783014
 10
-5.155537787820099
 20
5.705775676494479
 10
-4.893763303719087
 20
5.705498162351844
  0
LWPOLYLINE
  5
38B
102
{ACAD_XDICTIONARY
360
38C
102
}
330
1F
100
AcDbEntity
  8
NUMBERS_GRAPHICS_-_CRYPTIC
100
AcDbPolyline
 90
        4
 70
     1
 43
0.0
 10
-5.373660840079914
 20
5.726913295764354
 10
-5.447391388446066
 20
5.656827183368292
 10
-5.358101323107168
 20
5.562894087980098
 10
-5.284370774741017
 20
5.632980200376154
  0
LWPOLYLINE
  5
38E
102
{ACAD_XDICTIONARY
360
38F
102
}
330
1F
100
AcDbEntity
  8
NUMBERS_GRAPHICS_-_CRYPTIC
100
AcDbPolyline
 90
        4
 70
     1
 43
0.0
 10
-6.009295665361927
 20
5.047646594094071
 10
-6.204439150601671
 20
4.820331642290411
 10
-6.129473852638353
 20
4.755976044910994
 10
-5.934330367398608
 20
4.983290996714664
  0
LWPOLYLINE
  5
391
102
{ACAD_XDICTIONARY
360
392
102
}
330
1F
100
AcDbEntity
  8
NUMBERS_GRAPHICS_-_CRYPTIC
100
AcDbPolyline
 90
        4
 70
     1
 43
0.0
 10
-6.902368819382541
 20
3.734658647563762
 10
-7.04775954262313
 20
3.472714751394005
 10
-6.961374102201251
 20
3.424766920411696
 10
-6.81598337896066
 20
3.686710816581456
  0
LWPOLYLINE
  5
394
102
{ACAD_XDICTIONARY
360
395
102
}
330
1F
100
AcDbEntity
  8
NUMBERS_GRAPHICS_-_CRYPTIC
100
AcDbPolyline
 90
        4
 70
     1
 43
0.0
 10
-7.060114346305009
 20
3.447527771067675
 10
-7.178258692332481
 20
3.172218888815847
 10
-7.087465666065632
 20
3.133256532699994
 10
-6.969321320038161
 20
3.408565414951823
  0
LWPOLYLINE
  5
397
102
{ACAD_XDICTIONARY
360
398
102
}
330
1F
100
AcDbEntity
  8
NUMBERS_GRAPHICS_-_CRYPTIC
100
AcDbPolyline
 90
        3
 70
     1
 43
0.0
 10
-7.327480015871061
 20
2.701400691306138
 10
-7.16532022681292
 20
2.372993327323242
 10
-7.086048363772341
 20
2.625651021777206
  0
LWPOLYLINE
  5
39A
102
{ACAD_XDICTIONARY
360
39B
102
}
330
1F
100
AcDbEntity
  8
NUMBERS_GRAPHICS_-_CRYPTIC
100
AcDbPolyline
 90
        4
 70
     1
 43
0.0
 10
-7.512858182943731
 20
2.268773337198438
 10
-7.602543830893016
 20
1.982924510548868
 10
-7.5082748780933
 20
1.953347435797715
 10
-7.418589230144017
 20
2.239196262447285
  0
LWPOLYLINE
  5
39D
102
{ACAD_XDICTIONARY
360
39E
102
}
330
1F
100
AcDbEntity
  8
NUMBERS_GRAPHICS_-_CRYPTIC
100
AcDbPolyline
 90
        4
 70
     1
 43
0.0
 10
-7.609575629152525
 20
1.955766105492341
 10
-7.669882282911574
 20
1.662310530221744
 10
-7.57310473060098
 20
1.642422237646415
 10
-7.512798076841928
 20
1.935877812917012
  0
LWPOLYLINE
  5
3A0
102
{ACAD_XDICTIONARY
360
3A1
102
}
330
1F
100
AcDbEntity
  8
NUMBERS_GRAPHICS_-_CRYPTIC
100
AcDbPolyline
 90
        4
 70
     1
 43
0.0
 10
-7.815770249771851
 20
0.710004179838653
 10
-7.846079081465167
 20
0.4119531072581236
 10
-7.74778599829137
 20
0.401957677653606
 10
-7.717477166598051
 20
0.7000087502341349
  0
LWPOLYLINE
  5
3A3
102
{ACAD_XDICTIONARY
360
3A4
102
}
330
1F
100
AcDbEntity
  8
NUMBERS_GRAPHICS_-_CRYPTIC
100
AcDbPolyline
 90
        4
 70
     1
 43
0.0
 10
-7.800499998331075
 20
0.0508631912908551
 10
-8.099499984979634
 20
0.0508631912908565
 10
-8.099499984979632
 20
-0.0508631912908852
 10
-7.800499998331074
 20
-0.0508631912908853
  0
LWPOLYLINE
  5
3A6
102
{ACAD_XDICTIONARY
360
3A7
102
}
330
1F
100
AcDbEntity
  8
NUMBERS_GRAPHICS_-_CRYPTIC
100
AcDbPolyline
 90
        3
 70
     1
 43
0.0
 10
-7.798958179699582
 20
-0.4071613798925146
 10
-7.520430807964931
 20
-0.6450052301391815
 10
-7.547220351329449
 20
-0.3815621448189708
  0
LWPOLYLINE
  5
3A9
102
{ACAD_XDICTIONARY
360
3AA
102
}
330
1F
100
AcDbEntity
  8
NUMBERS_GRAPHICS_-_CRYPTIC
100
AcDbPolyline
 90
        4
 70
     1
 43
0.0
 10
-7.798703764260297
 20
-0.8778326320656683
 10
-7.768394932566983
 20
-1.175883704646192
 10
-7.670101849393189
 20
-1.165888275041672
 10
-7.700410681086502
 20
-0.8678372024611406
  0
LWPOLYLINE
  5
3AC
102
{ACAD_XDICTIONARY
360
3AD
102
}
330
1F
100
AcDbEntity
  8
NUMBERS_GRAPHICS_-_CRYPTIC
100
AcDbPolyline
 90
        4
 70
     1
 43
0.0
 10
-7.669882282911569
 20
-1.662310530221775
 10
-7.609575629152515
 20
-1.955766105492382
 10
-7.51279807684192
 20
-1.935877812917054
 10
-7.573104730600973
 20
-1.642422237646445
  0
LWPOLYLINE
  5
3AF
102
{ACAD_XDICTIONARY
360
3B0
102
}
330
1F
100
AcDbEntity
  8
NUMBERS_GRAPHICS_-_CRYPTIC
100
AcDbPolyline
 90
        4
 70
     1
 43
0.0
 10
-7.462357430331148
 20
-2.429730872872268
 10
-7.372671782381859
 20
-2.715579699521832
 10
-7.278402829582149
 20
-2.686002624770686
 10
-7.36808847753143
 20
-2.400153798121119
  0
LWPOLYLINE
  5
3B2
102
{ACAD_XDICTIONARY
360
3B3
102
}
330
1F
100
AcDbEntity
  8
NUMBERS_GRAPHICS_-_CRYPTIC
100
AcDbPolyline
 90
        4
 70
     1
 43
0.0
 10
-7.178258692332476
 20
-3.17221888881588
 10
-7.060114346304994
 20
-3.447527771067719
 10
-6.969321320038155
 20
-3.408565414951869
 10
-7.087465666065632
 20
-3.133256532700033
  0
LWPOLYLINE
  5
3B5
102
{ACAD_XDICTIONARY
360
3B6
102
}
330
1F
100
AcDbEntity
  8
NUMBERS_GRAPHICS_-_CRYPTIC
100
AcDbPolyline
 90
        4
 70
     1
 43
0.0
 10
-6.820501306414466
 20
-3.882155646262219
 10
-6.67511058317387
 20
-4.144099542431984
 10
-6.588725142751994
 20
-4.096151711449677
 10
-6.734115865992583
 20
-3.834207815279918
  0
LWPOLYLINE
  5
3B8
102
{ACAD_XDICTIONARY
360
3B9
102
}
330
1F
100
AcDbEntity
  8
NUMBERS_GRAPHICS_-_CRYPTIC
100
AcDbPolyline
 90
        4
 70
     1
 43
0.0
 10
-6.86710342516372
 20
-4.311866968140807
 10
-6.750530854582845
 20
-4.479351350524058
 10
-6.301737431778727
 20
-4.166981909196998
 10
-6.4183100023596
 20
-3.999497526813744
  0
LWPOLYLINE
  5
3BB
102
{ACAD_XDICTIONARY
360
3BC
102
}
330
1F
100
AcDbEntity
  8
NUMBERS_GRAPHICS_-_CRYPTIC
100
AcDbPolyline
 90
        4
 70
     1
 43
0.0
 10
-5.899413057638298
 20
-5.17564451136028
 10
-5.704269572398552
 20
-5.402959463163945
 10
-5.629304274435241
 20
-5.338603865784536
 10
-5.824447759674983
 20
-5.111288913980867
  0
LWPOLYLINE
  5
3BE
102
{ACAD_XDICTIONARY
360
3BF
102
}
330
1F
100
AcDbEntity
  8
NUMBERS_GRAPHICS_-_CRYPTIC
100
AcDbPolyline
 90
        4
 70
     1
 43
0.0
 10
-5.408809277772622
 20
-5.616238825991617
 10
-5.335078729406468
 20
-5.686324938387677
 10
-5.184057160507923
 20
-5.527450338137572
 10
-5.257787708874076
 20
-5.457364225741515
  0
LWPOLYLINE
  5
3C1
102
{ACAD_XDICTIONARY
360
3C2
102
}
330
1F
100
AcDbEntity
  8
NUMBERS_GRAPHICS_-_CRYPTIC
100
AcDbPolyline
 90
        3
 70
     1
 43
0.0
 10
-5.078116557683389
 20
-5.933149358018955
 10
-4.713832905355527
 20
-5.89514127266535
 10
-4.9232316625963
 20
-5.733054569624253
  0
LWPOLYLINE
  5
3C4
102
{ACAD_XDICTIONARY
360
3C5
102
}
330
1F
100
AcDbEntity
  8
NUMBERS_GRAPHICS_-_CRYPTIC
100
AcDbPolyline
 90
        4
 70
     1
 43
0.0
 10
-4.736802145130814
 20
-6.257241882050838
 10
-4.499895095106019
 20
-6.440621588653194
 10
-4.439419027707936
 20
-6.362492950594849
 10
-4.676326077732734
 20
-6.179113243992489
  0
LWPOLYLINE
  5
3C7
102
{ACAD_XDICTIONARY
360
3C8
102
}
330
1F
100
AcDbEntity
  8
NUMBERS_GRAPHICS_-_CRYPTIC
100
AcDbPolyline
 90
        4
 70
     1
 43
0.0
 10
-4.19717202629456
 20
-6.637583423438198
 10
-4.11084251588085
 20
-6.691393018724688
 10
-4.042288816513998
 20
-6.581408781306083
 10
-4.128618326927708
 20
-6.52759918601959
  0
LWPOLYLINE
  5
3CA
102
{ACAD_XDICTIONARY
360
3CB
102
}
330
1F
100
AcDbEntity
  8
NUMBERS_GRAPHICS_-_CRYPTIC
100
AcDbPolyline
 90
        4
 70
     1
 43
0.0
 10
-2.775119948239778
 20
-7.346596218269559
 10
-2.679725816078142
 20
-7.381926325293101
 10
-2.634715079190134
 20
-7.260393713446599
 10
-2.730109211351774
 20
-7.225063606423062
  0
LWPOLYLINE
  5
3CD
102
{ACAD_XDICTIONARY
360
3CE
102
}
330
1F
100
AcDbEntity
  8
NUMBERS_GRAPHICS_-_CRYPTIC
100
AcDbPolyline
 90
        4
 70
     1
 43
0.0
 10
-1.785122801078691
 20
-7.618044399382939
 10
-1.589000479367117
 20
-7.668823986681769
 10
-1.521424555080544
 20
-7.407830389295957
 10
-1.71754687679212
 20
-7.357050801997134
  0
LWPOLYLINE
  5
3D0
102
{ACAD_XDICTIONARY
360
3D1
102
}
330
1F
100
AcDbEntity
  8
NUMBERS_GRAPHICS_-_CRYPTIC
100
AcDbPolyline
 90
        4
 70
     1
 43
0.0
 10
-0.2150801689036096
 20
-7.821445161020127
 10
-0.0127506268651918
 20
-7.831706154066882
 10
0.0009043893749422
 20
-7.562452177399775
 10
-0.2014251526634742
 20
-7.552191184353022
  0
LWPOLYLINE
  5
3D3
102
{ACAD_XDICTIONARY
360
3D4
102
}
330
1F
100
AcDbEntity
  8
NUMBERS_GRAPHICS_-_CRYPTIC
100
AcDbPolyline
 90
        4
 70
     1
 43
0.0
 10
0.014026984280137
 20
-7.856873777711899
 10
0.3132306275800769
 20
-7.841699886284403
 10
0.3082264900031211
 20
-7.743026701376333
 10
0.0090228467031837
 20
-7.758200592803822
  0
LWPOLYLINE
  5
3D6
102
{ACAD_XDICTIONARY
360
3D7
102
}
330
1F
100
AcDbEntity
  8
NUMBERS_GRAPHICS_-_CRYPTIC
100
AcDbPolyline
 90
        4
 70
     1
 43
0.0
 10
0.7641808476523321
 20
-7.523743176468753
 10
0.8469815514384776
 20
-8.064237623877544
 10
1.048687668565223
 20
-8.033337383299433
 10
0.9658869647790738
 20
-7.492842935890638
  0
LWPOLYLINE
  5
3D9
102
{ACAD_XDICTIONARY
360
3DA
102
}
330
1F
100
AcDbEntity
  8
NUMBERS_GRAPHICS_-_CRYPTIC
100
AcDbPolyline
 90
        4
 70
     1
 43
0.0
 10
3.15842245223449
 20
-6.554376793106338
 10
3.248791343599917
 20
-6.738606308000874
 10
3.639155264406862
 20
-6.547123663254291
 10
3.548786373041436
 20
-6.362894148359762
  0
LWPOLYLINE
  5
3DC
102
{ACAD_XDICTIONARY
360
3DD
102
}
330
1F
100
AcDbEntity
  8
NUMBERS_GRAPHICS_-_CRYPTIC
100
AcDbPolyline
 90
        4
 70
     1
 43
0.0
 10
6.009295665361947
 20
-5.047646594094047
 10
6.204439150601686
 20
-4.820331642290379
 10
6.129473852638371
 20
-4.755976044910964
 10
5.934330367398631
 20
-4.983290996714632
  0
LWPOLYLINE
  5
3DF
102
{ACAD_XDICTIONARY
360
3E0
102
}
330
1F
100
AcDbEntity
  8
NUMBERS_GRAPHICS_-_CRYPTIC
100
AcDbPolyline
 90
        4
 70
     1
 43
0.0
 10
6.60143188886654
 20
3.605920811809977
 10
6.714747150198882
 20
3.66881591278468
 10
6.665379137090767
 20
3.757760031167657
 10
6.552063875758437
 20
3.694864930192948
  0
LWPOLYLINE
  5
3E2
102
{ACAD_XDICTIONARY
360
3E3
102
}
330
1F
100
AcDbEntity
  8
NUMBERS_GRAPHICS_-_CRYPTIC
100
AcDbPolyline
 90
        4
 70
     1
 43
0.0
 10
5.656610471039734
 20
4.96720532776015
 10
5.731575769003047
 20
5.03156092513956
 10
5.536432283763302
 20
5.258875876943225
 10
5.461466985799985
 20
5.194520279563813
  0
LWPOLYLINE
  5
3E5
102
{ACAD_XDICTIONARY
360
3E6
102
}
330
1F
100
AcDbEntity
  8
NUMBERS_GRAPHICS_-_CRYPTIC
100
AcDbPolyline
 90
        4
 70
     1
 43
0.0
 10
4.493598462795591
 20
5.722155222287408
 10
4.619202626350737
 20
5.884422424095114
 10
4.275374650945764
 20
6.150565087409043
 10
4.149770487390615
 20
5.988297885601341
  0
LWPOLYLINE
  5
3E8
102
{ACAD_XDICTIONARY
360
3E9
102
}
330
1F
100
AcDbEntity
  8
NUMBERS_GRAPHICS_-_CRYPTIC
100
AcDbPolyline
 90
        4
 70
     1
 43
0.0
 10
3.239339875102479
 20
6.795369597216635
 10
3.282850814630415
 20
6.884072680332085
 10
3.013879202283979
 20
7.016009554998624
 10
2.970368262756037
 20
6.927306471883178
  0
LWPOLYLINE
  5
3EB
102
{ACAD_XDICTIONARY
360
3EC
102
}
330
1F
100
AcDbEntity
  8
NUMBERS_GRAPHICS_-_CRYPTIC
100
AcDbPolyline
 90
        4
 70
     1
 43
0.0
 10
-1.968441323157398
 20
7.266058735414352
 10
-1.993205791838601
 20
7.361704748941982
 10
-2.283230237094393
 20
7.286612217362022
 10
-2.258465768413191
 20
7.190966203834394
  0
LWPOLYLINE
  5
3EE
102
{ACAD_XDICTIONARY
360
3EF
102
}
330
1F
100
AcDbEntity
  8
NUMBERS_GRAPHICS_-_CRYPTIC
100
AcDbPolyline
 90
        4
 70
     1
 43
0.0
 10
-3.390794083947541
 20
6.721077761004647
 10
-3.434305023475483
 20
6.809780844120092
 10
-3.70327663582192
 20
6.677843969453548
 10
-3.659765696293978
 20
6.589140886338103
  0
LWPOLYLINE
  5
3F1
102
{ACAD_XDICTIONARY
360
3F2
102
}
330
1F
100
AcDbEntity
  8
NUMBERS_GRAPHICS_-_CRYPTIC
100
AcDbPolyline
 90
        4
 70
     1
 43
0.0
 10
-5.145475049834505
 20
5.486861980760825
 10
-5.234765115173407
 20
5.580795076149023
 10
-5.308495663539563
 20
5.510708963752968
 10
-5.219205598200662
 20
5.41677586836477
  0
LWPOLYLINE
  5
3F4
102
{ACAD_XDICTIONARY
360
3F5
102
}
330
1F
100
AcDbEntity
  8
NUMBERS_GRAPHICS_-_CRYPTIC
100
AcDbPolyline
 90
        4
 70
     1
 43
0.0
 10
-7.275500015020373
 20
0.0508631912908577
 10
-7.480700041055683
 20
0.050863191290857
 10
-7.480700041055682
 20
-0.3839351457654341
 10
-7.275500015020373
 20
-0.3839351457654325
  0
LWPOLYLINE
  5
3F7
102
{ACAD_XDICTIONARY
360
3F8
102
}
330
1F
100
AcDbEntity
  8
NUMBERS_GRAPHICS_-_CRYPTIC
100
AcDbPolyline
 90
        3
 70
     1
 43
0.0
 10
-7.086873578623374
 20
-2.62342287527005
 10
-7.319403056034862
 20
-2.72320913285895
 10
-6.982447478891052
 20
-2.866764463436585
  0
LWPOLYLINE
  5
3FA
102
{ACAD_XDICTIONARY
360
3FB
102
}
330
1F
100
AcDbEntity
  8
NUMBERS_GRAPHICS_-_CRYPTIC
100
AcDbPolyline
 90
        3
 70
     1
 43
0.0
 10
-6.785105831974418
 20
-3.326930048977131
 10
-7.006347067597795
 20
-3.44972895259074
 10
-6.656597048644714
 20
-3.558458516867863
  0
LWPOLYLINE
  5
3FD
102
{ACAD_XDICTIONARY
360
3FE
102
}
330
1F
100
AcDbEntity
  8
NUMBERS_GRAPHICS_-_CRYPTIC
100
AcDbPolyline
 90
        4
 70
     1
 43
0.0
 10
-2.660092475392323
 20
-7.036012784720427
 10
-2.705103212280327
 20
-7.157545396566925
 10
-2.609709080118691
 20
-7.192875503590466
 10
-2.564698343230684
 20
-7.071342891743961
  0
LWPOLYLINE
  5
400
102
{ACAD_XDICTIONARY
360
401
102
}
330
1F
100
AcDbEntity
  8
NUMBERS_GRAPHICS_-_CRYPTIC
100
AcDbPolyline
 90
        4
 70
     1
 43
0.0
 10
0.330180078412695
 20
-7.514821953992501
 10
0.3367442072115597
 20
-7.644255544650201
 10
0.4383400247107435
 20
-7.639103187923466
 10
0.4317758959118768
 20
-7.509669597265766
  0
LWPOLYLINE
  5
403
102
{ACAD_XDICTIONARY
360
404
102
}
330
1F
100
AcDbEntity
  8
NUMBERS_GRAPHICS_-_CRYPTIC
100
AcDbPolyline
 90
        4
 70
     1
 43
0.0
 10
-6.892250639854113
 20
3.013046465260485
 10
-7.011347509052633
 20
3.064154956967297
 10
-7.051463903643237
 20
2.970672703045936
 10
-6.932367034444717
 20
2.919564211339124
  0
LWPOLYLINE
  5
406
102
{ACAD_XDICTIONARY
360
407
102
}
330
1F
100
AcDbEntity
  8
NUMBERS_GRAPHICS_-_CRYPTIC
100
AcDbPolyline
 90
        4
 70
     1
 43
0.0
 10
7.488453387365028
 20
0.7103757805904506
 10
7.617388383269482
 20
0.7234871881636904
 10
7.607096895841836
 20
0.8246916455738963
 10
7.478161899937375
 20
0.8115802380006464
  0
LWPOLYLINE
  5
409
102
{ACAD_XDICTIONARY
360
40A
102
}
330
1F
100
AcDbEntity
  8
NUMBERS_GRAPHICS_-_CRYPTIC
100
AcDbPolyline
 90
        4
 70
     1
 43
0.0
 10
4.809725173341063
 20
-6.075854657930507
 10
4.870201240739153
 20
-6.153983295988867
 10
5.107108290763952
 20
-5.970603589386502
 10
5.046632223365855
 20
-5.892474951328158
  0
LWPOLYLINE
  5
40C
102
{ACAD_XDICTIONARY
360
40D
102
}
330
1F
100
AcDbEntity
  8
NUMBERS_GRAPHICS_-_CRYPTIC
100
AcDbPolyline
 90
        9
 70
     1
 43
0.0
 10
-4.470903362025579
 20
6.403167357285573
 10
-4.525417224179269
 20
6.040985865849778
 10
-4.320346315071295
 20
6.199722565078273
 10
-4.325249965525764
 20
6.213397009138367
 10
-4.307600948854472
 20
6.185081780963841
 10
-4.053357175086028
 20
6.343553136877129
 10
-4.105618816128234
 20
6.427399184418834
 10
-4.359862589896679
 20
6.268927828505541
 10
-4.330376005418771
 20
6.221620979453854
  0
LWPOLYLINE
  5
40F
102
{ACAD_XDICTIONARY
360
410
102
}
330
1F
100
AcDbEntity
  8
NUMBERS_GRAPHICS_-_CRYPTIC
100
AcDbPolyline
 90
        8
 70
     1
 43
0.0
 10
-5.648823182415421
 20
5.006366740271944
 10
-5.479903549502756
 20
5.203134560458517
 10
-5.487459467296651
 20
5.215541990265839
 10
-5.450310173695659
 20
5.176460955593257
 10
-5.437328631167073
 20
5.437913505974379
 10
-5.699103113413974
 20
5.438190979530086
 10
-5.494136049905728
 20
5.222565751181513
 10
-5.668331820452096
 20
5.372107915076668
  0
LWPOLYLINE
  5
412
102
{ACAD_XDICTIONARY
360
413
102
}
330
1F
100
AcDbEntity
  8
NUMBERS_GRAPHICS_-_CRYPTIC
100
AcDbPolyline
 90
        9
 70
     1
 43
0.0
 10
-6.540965655854936
 20
3.766786372124284
 10
-6.415112888756219
 20
3.993529615591281
 10
-6.425011733727341
 20
4.004162069511721
 10
-6.190794374265284
 20
3.841141976063974
 10
-6.149240811268281
 20
3.900843609129946
 10
-6.462453731022888
 20
4.408006838106199
 10
-6.639587779946944
 20
4.153511405473446
 10
-6.432965518975843
 20
4.009698067430288
 10
-6.633698108148599
 20
4.121113743628636
  0
LWPOLYLINE
  5
415
102
{ACAD_XDICTIONARY
360
416
102
}
330
1F
100
AcDbEntity
  8
NUMBERS_GRAPHICS_-_CRYPTIC
100
AcDbPolyline
 90
        9
 70
     1
 43
0.0
 10
-7.721274030801416
 20
1.171091977280478
 10
-7.496325745795806
 20
0.8820496568867172
 10
-7.470089888025012
 20
1.140047907290379
 10
-7.483379479394946
 20
1.145915016404055
 10
-7.450697217604596
 20
1.139198640870768
 10
-7.390390563845541
 20
1.432654216141376
 10
-7.487168116156129
 20
1.452542508716708
 10
-7.547474769915179
 20
1.159086933446101
 10
-7.492871825674231
 20
1.147865743153403
  0
LWPOLYLINE
  5
418
102
{ACAD_XDICTIONARY
360
419
102
}
330
1F
100
AcDbEntity
  8
NUMBERS_GRAPHICS_-_CRYPTIC
100
AcDbPolyline
 90
        9
 70
     1
 43
0.0
 10
-7.338300672369019
 20
-1.900017684706175
 10
-7.557352064382171
 20
-1.968745502333274
 10
-7.236648549242873
 20
-2.145653527258298
 10
-7.314282023455528
 20
-1.898217755539669
 10
-7.328808326089736
 20
-1.898066957956827
 10
-7.296126064299381
 20
-1.891350582423542
 10
-7.356432718058438
 20
-1.597895007152933
 10
-7.45321027036902
 20
-1.617783299728265
 10
-7.392903616609969
 20
-1.911238874998868
  0
LWPOLYLINE
  5
41B
102
{ACAD_XDICTIONARY
360
41C
102
}
330
1F
100
AcDbEntity
  8
NUMBERS_GRAPHICS_-_CRYPTIC
100
AcDbPolyline
 90
        8
 70
     1
 43
0.0
 10
6.78956271695766
 20
-3.330439511490359
 10
6.691685069808675
 20
-3.506781245479193
 10
6.927408923066293
 20
-3.63761865765532
 10
7.025726036205227
 20
-3.460485157650932
 10
6.805614478425042
 20
-3.338313276392308
 10
7.291691708698646
 20
-3.546905443923577
 10
7.372163673599659
 20
-3.359383590746138
 10
6.869677572265776
 20
-3.143749822069968
  0
LWPOLYLINE
  5
41E
102
{ACAD_XDICTIONARY
360
41F
102
}
330
1F
100
AcDbEntity
  8
NUMBERS_GRAPHICS_-_CRYPTIC
100
AcDbPolyline
 90
        8
 70
     1
 43
0.0
 10
6.432965518974211
 20
-4.009698067429338
 10
6.895445924605466
 20
-4.266395633749996
 10
6.994476285100496
 20
-4.087977108214231
 10
6.516383583993415
 20
-3.822614010976966
 10
6.417792689488426
 20
-4.000240770497014
 10
6.30257702357008
 20
-4.165775634754165
 10
6.523854852524783
 20
-4.319789549166662
 10
6.639587831314361
 20
-4.153511441226169
  0
LWPOLYLINE
  5
421
102
{ACAD_XDICTIONARY
360
422
102
}
330
1F
100
AcDbEntity
  8
NUMBERS_GRAPHICS_-_CRYPTIC
100
AcDbPolyline
 90
        8
 70
     1
 43
0.0
 10
5.494136049905775
 20
-5.222565751181514
 10
5.668331820452123
 20
-5.372107915076635
 10
5.648823182415435
 20
-5.006366740271928
 10
5.476338643485257
 20
-5.207287178920558
 10
5.48051782688502
 20
-5.210874890189062
 10
5.33499843133951
 20
-5.349201390371271
 10
5.520743917091691
 20
-5.544605530404827
 10
5.667579372057989
 20
-5.405028022458094
  0
LWPOLYLINE
  5
424
102
{ACAD_XDICTIONARY
360
425
102
}
330
1F
100
AcDbEntity
  8
NUMBERS_GRAPHICS_-_CRYPTIC
100
AcDbPolyline
 90
        9
 70
     1
 43
0.0
 10
4.937589201076635
 20
-5.751602980187171
 10
5.302014126290517
 20
-6.134977783778443
 10
5.449914807814965
 20
-5.994387702482727
 10
5.073187719001187
 20
-5.598071030134569
 10
4.926603096897558
 20
-5.737410103665814
 10
4.911234386564311
 20
-5.717555366763931
 10
4.674327336539518
 20
-5.900935073366289
 10
4.734803403937606
 20
-5.979063711424637
 10
4.971710453962398
 20
-5.795684004822277
  0
LWPOLYLINE
  5
427
102
{ACAD_XDICTIONARY
360
428
102
}
330
1F
100
AcDbEntity
  8
NUMBERS_GRAPHICS_-_CRYPTIC
100
AcDbPolyline
 90
        9
 70
     1
 43
0.0
 10
2.269257855376938
 20
-7.232647699569766
 10
2.452962888652325
 20
-7.728666073115962
 10
2.644319897012992
 20
-7.657795219407357
 10
2.454413396118155
 20
-7.145032384224173
 10
2.264759133079483
 20
-7.215272610313473
 10
2.25846576841323
 20
-7.190966203834392
 10
1.968441323157436
 20
-7.266058735414355
 10
1.993205791838644
 20
-7.36170474894198
 10
2.283230237094433
 20
-7.286612217362019
  0
LWPOLYLINE
  5
42A
102
{ACAD_XDICTIONARY
360
42B
102
}
330
1F
100
AcDbEntity
  8
NUMBERS_GRAPHICS_-_CRYPTIC
100
AcDbPolyline
 90
        9
 70
     1
 43
0.0
 10
-0.7668847355180092
 20
-7.541393224246625
 10
-0.793675310007366
 20
-8.069658338809893
 10
-0.5898779562491797
 20
-8.079993770842167
 10
-0.5621829923849563
 20
-7.533895617390082
 10
-0.7641669033342267
 20
-7.523652152768328
 10
-0.7222050673236103
 20
-7.249739754325497
 10
-0.7941054106302876
 20
-7.238725026872149
 10
-1.111501721856305
 20
-7.743280728006263
 10
-0.8050057679507219
 20
-7.790234181113233
  0
LWPOLYLINE
  5
42D
102
{ACAD_XDICTIONARY
360
42E
102
}
330
1F
100
AcDbEntity
  8
NUMBERS_GRAPHICS_-_CRYPTIC
100
AcDbPolyline
 90
        8
 70
     1
 43
0.0
 10
-2.269257855376918
 20
-7.232647699570016
 10
-2.401839011008618
 20
-7.744706293206767
 10
-2.204293908227027
 20
-7.79585426404767
 10
-2.06723711178706
 20
-7.266509727118426
 10
-2.263024405944192
 20
-7.215816884463448
 10
-2.24716542017167
 20
-7.172996346622286
 10
-2.487615702193979
 20
-7.276483632907164
 10
-2.372580868203336
 20
-7.511628149143369
  0
LWPOLYLINE
  5
430
102
{ACAD_XDICTIONARY
360
431
102
}
330
1F
100
AcDbEntity
  8
NUMBERS_GRAPHICS_-_CRYPTIC
100
AcDbPolyline
 90
        8
 70
     1
 43
0.0
 10
-2.989329858472118
 20
-6.965962313817222
 10
-3.09265288195915
 20
-7.244942792175073
 10
-2.852202614238686
 20
-7.141455467861373
 10
-2.967237412606745
 20
-6.906310932086311
 10
-2.983096409039637
 20
-6.949131498711308
 10
-3.163352029981704
 20
-6.860711895390716
 10
-3.282082296034591
 20
-7.102760004952796
 10
-3.100196465544114
 20
-7.191979264233343
  0
LWPOLYLINE
  5
433
102
{ACAD_XDICTIONARY
360
434
102
}
330
1F
100
AcDbEntity
  8
NUMBERS_GRAPHICS_-_CRYPTIC
100
AcDbPolyline
 90
        8
 70
     1
 43
0.0
 10
-5.994305628107371
 20
-4.639937930306862
 10
-6.168501398655132
 20
-4.7894800942032
 10
-5.80402368275809
 20
-4.825579796695749
 10
-5.976508221688269
 20
-4.624659358047122
 10
-5.980687405088002
 20
-4.628247069315595
 10
-6.095383090282048
 20
-4.463459281750922
 10
-6.316660919236749
 20
-4.617473196163421
 10
-6.200927940447174
 20
-4.783751304103915
  0
LWPOLYLINE
  5
436
102
{ACAD_XDICTIONARY
360
437
102
}
330
1F
100
AcDbEntity
  8
NUMBERS_GRAPHICS_-_CRYPTIC
100
AcDbPolyline
 90
        9
 70
     1
 43
0.0
 10
-3.678727292010247
 20
-6.627796728272942
 10
-3.911671140695073
 20
-7.102685061995403
 10
-3.728465808608516
 20
-7.192551567709069
 10
-3.487658300942547
 20
-6.701632074839901
 10
-3.669233423480759
 20
-6.612565225086188
 10
-3.655952235445989
 20
-6.591257529782947
 10
-3.910196009214434
 20
-6.432786173869657
 10
-3.962457650256642
 20
-6.516632221411362
 10
-3.708213876488196
 20
-6.675103577324647
  0
LWPOLYLINE
  5
439
102
{ACAD_REACTORS
330
455
330
466
102
}
102
{ACAD_XDICTIONARY
360
43A
102
}
330
1F
100
AcDbEntity
  8
MATERIAL
100
AcDbPolyline
 90
        4
 70
     1
 43
0.0
 10
-8.75
 20
-8.75
 10
8.75
 20
-8.75
 10
8.75
 20
8.75
 10
-8.75
 20
8.75
  0
DIMENSION
  5
43C
102
{ACAD_REACTORS
330
43F
102
}
102
{ACAD_XDICTIONARY
360
43D
102
}
330
1F
100
AcDbEntity
  8
DIMENSIONS
  6
CONTINUOUS
 62
     7
100
AcDbDimension
  2
*D2
 10
5.760254957776191
 20
8.013982359136808
 30
0.0
 11
7.800671296296297
 21
7.0
 31
0.0
 70
   163
  1
(3) <> Dowel Holes\PDrilled .375 Deep
  3
STANDARD
100
AcDbDiametricDimension
 15
5.846540573515297
 25
7.649044292450808
 35
0.0
 40
0.0
1001
ACAD
1000
DSTYLE
1002
{
1070
     4
1000
  in
1070
   271
1070
     3
1070
   140
1040
0.1597222222222222
1070
    78
1070
     8
1002
}
  0
LEADER
  5
44C
102
{ACAD_XDICTIONARY
360
44D
102
}
330
1F
100
AcDbEntity
  8
DIMENSIONS
  6
CONTINUOUS
 62
     7
100
AcDbLeader
  3
STANDARD
 73
     0
 74
     0
 75
     1
 40
0.4791666626930237
 41
3.194444417953491
 76
     3
 10
-1.577648395907548
 20
2.580811143281876
 30
0.0
 10
-0.7173819274535334
 20
1.064738918145449
 30
0.0
 10
-0.5373819274535333
 20
1.064738918145449
 30
0.0
340
44F
1001
ACAD
1000
DSTYLE
1002
{
1070
     5
1000

1070
     4
1000
  in
1070
   178
1070
     7
1070
     3
1000
   in
1070
   140
1040
0.1597222208976745
1070
   345
1005
16
1002
}
  0
MTEXT
  5
44F
102
{ACAD_REACTORS
330
44C
102
}
102
{ACAD_XDICTIONARY
360
450
102
}
330
1F
100
AcDbEntity
  8
DIMENSIONS
  6
BYBLOCK
 62
     7
100
AcDbMText
 10
-0.4473819274535333
 20
1.064738918145449
 30
0.0
 40
0.1597222208976745
 41
0.0
 71
     4
 72
     1
  1
\A1;V-Carve or Pocket All\PCharacters 0.050 Deep
  0
DIMENSION
  5
452
102
{ACAD_REACTORS
330
455
102
}
102
{ACAD_XDICTIONARY
360
453
102
}
330
1F
100
AcDbEntity
  8
DIMENSIONS
  6
CONTINUOUS
 62
     7
100
AcDbDimension
  2
*D3
 10
8.750000000000002
 20
4.218210123260148
 30
0.0
 11
-1.627114324921612
 21
4.218210123260148
 31
0.0
 70
   161
  1
<>
  3
STANDARD
100
AcDbAlignedDimension
 13
-8.749999999999998
 23
8.75
 33
0.0
 14
8.750000000000002
 24
8.75
 34
0.0
1001
ACAD
1000
DSTYLE
1002
{
1070
    49
1040
1.0
1070
   290
1070
     0
1070
     4
1000
  in
1070
   271
1070
     3
1070
   140
1040
0.1597222222222222
1070
    78
1070
     8
1002
}
  0
DIMENSION
  5
463
102
{ACAD_REACTORS
330
466
102
}
102
{ACAD_XDICTIONARY
360
464
102
}
330
1F
100
AcDbEntity
  8
DIMENSIONS
  6
CONTINUOUS
 62
     7
100
AcDbDimension
  2
*D4
 10
-4.5
 20
-8.75
 30
0.0
 11
-4.5
 21
-1.0
 31
0.0
 70
   160
  1
<>
  3
STANDARD
100
AcDbAlignedDimension
 13
-8.75
 23
8.75
 33
0.0
 14
-8.749999999999998
 24
-8.75
 34
0.0
 50
90.0
100
AcDbRotatedDimension
1001
ACAD
1000
DSTYLE
1002
{
1070
    49
1040
1.0
1070
   290
1070
     0
1070
     4
1000
  in
1070
   271
1070
     3
1070
   140
1040
0.1597222222222222
1070
    78
1070
     8
1002
}
  0
VIEWPORT
  5
474
330
1B
100
AcDbEntity
 67
     1
  8
0
100
AcDbViewport
 10
5.5
 20
4.25
 30
0.0
 40
11.0
 41
8.5
 68
     1
 69
     1
1001
ACAD
1000
MVIEW
1002
{
1070
    16
1010
0.0
1020
0.0
1030
0.0
1010
0.0
1020
0.0
1030
1.0
1040
0.0
1040
8.5
1040
5.5
1040
4.25
1040
50.0
1040
0.0
1040
0.0
1070
     0
1070
  1000
1070
     0
1070
     1
1070
     0
1070
     1
1070
     0
1070
     0
1040
0.0
1040
0.0
1040
0.0
1040
0.25
1040
0.25
1040
0.25
1040
0.25
1070
     0
1002
{
1002
}
1002
}
  0
ENDSEC
  0
SECTION
  2
OBJECTS
  0
DICTIONARY
  5
C
330
0
100
AcDbDictionary
  3
ACAD_GROUP
350
D
  3
ACAD_LAYOUT
350
1A
  3
ACAD_MATERIAL
350
43
  3
ACAD_MLEADERSTYLE
350
6B
  3
ACAD_MLINESTYLE
350
17
  3
ACAD_PLOTSETTINGS
350
19
  3
ACAD_SCALELIST
350
47
  3
ACAD_VISUALSTYLE
350
2A
  3
ACDBHEADERROUNDTRIPXREC
350
475
  3
ACDBVARIABLEDICTIONARY
350
496
  0
DICTIONARY
  5
49D
330
8
100
AcDbDictionary
280
     1
  3
ACAD_XREC_ROUNDTRIP
360
49E
  0
DICTIONARY
  5
193
330
1F
100
AcDbDictionary
280
     1
  3
ACAD_GEOGRAPHICDATA
360
194
  0
DICTIONARY
  5
1A0
330
19F
100
AcDbDictionary
280
     1
  3
TC_EXTENDED_DATA
360
1A1
  0
DICTIONARY
  5
1A3
330
1A2
100
AcDbDictionary
280
     1
  3
TC_EXTENDED_DATA
360
1A4
  0
DICTIONARY
  5
1A6
330
1A5
100
AcDbDictionary
280
     1
  3
TC_EXTENDED_DATA
360
1A7
  0
DICTIONARY
  5
1A9
330
1A8
100
AcDbDictionary
280
     1
  3
TC_EXTENDED_DATA
360
1AA
  0
DICTIONARY
  5
1AC
330
1AB
100
AcDbDictionary
280
     1
  3
TC_EXTENDED_DATA
360
1AD
  0
DICTIONARY
  5
1AF
330
1AE
100
AcDbDictionary
280
     1
  3
TC_EXTENDED_DATA
360
1B0
  0
DICTIONARY
  5
1B2
330
1B1
100
AcDbDictionary
280
     1
  3
TC_EXTENDED_DATA
360
1B3
  0
DICTIONARY
  5
1B5
330
1B4
100
AcDbDictionary
280
     1
  3
TC_EXTENDED_DATA
360
1B6
  0
DICTIONARY
  5
1B8
330
1B7
100
AcDbDictionary
280
     1
  3
TC_EXTENDED_DATA
360
1B9
  0
DICTIONARY
  5
1BB
330
1BA
100
AcDbDictionary
280
     1
  3
TC_EXTENDED_DATA
360
1BC
  0
DICTIONARY
  5
1BE
330
1BD
100
AcDbDictionary
280
     1
  3
TC_EXTENDED_DATA
360
1BF
  0
DICTIONARY
  5
1C1
330
1C0
100
AcDbDictionary
280
     1
  3
TC_EXTENDED_DATA
360
1C2
  0
DICTIONARY
  5
1C4
330
1C3
100
AcDbDictionary
280
     1
  3
TC_EXTENDED_DATA
360
1C5
  0
DICTIONARY
  5
1C7
330
1C6
100
AcDbDictionary
280
     1
  3
TC_EXTENDED_DATA
360
1C8
  0
DICTIONARY
  5
1CA
330
1C9
100
AcDbDictionary
280
     1
  3
TC_EXTENDED_DATA
360
1CB
  0
DICTIONARY
  5
1CD
330
1CC
100
AcDbDictionary
280
     1
  3
TC_EXTENDED_DATA
360
1CE
  0
DICTIONARY
  5
1D0
330
1CF
100
AcDbDictionary
280
     1
  3
TC_EXTENDED_DATA
360
1D1
  0
DICTIONARY
  5
1D3
330
1D2
100
AcDbDictionary
280
     1
  3
TC_EXTENDED_DATA
360
1D4
  0
DICTIONARY
  5
1D6
330
1D5
100
AcDbDictionary
280
     1
  3
TC_EXTENDED_DATA
360
1D7
  0
DICTIONARY
  5
1D9
330
1D8
100
AcDbDictionary
280
     1
  3
TC_EXTENDED_DATA
360
1DA
  0
DICTIONARY
  5
1DC
330
1DB
100
AcDbDictionary
280
     1
  3
TC_EXTENDED_DATA
360
1DD
  0
DICTIONARY
  5
1DF
330
1DE
100
AcDbDictionary
280
     1
  3
TC_EXTENDED_DATA
360
1E0
  0
DICTIONARY
  5
1E2
330
1E1
100
AcDbDictionary
280
     1
  3
TC_EXTENDED_DATA
360
1E3
  0
DICTIONARY
  5
1E5
330
1E4
100
AcDbDictionary
280
     1
  3
TC_EXTENDED_DATA
360
1E6
  0
DICTIONARY
  5
1E8
330
1E7
100
AcDbDictionary
280
     1
  3
TC_EXTENDED_DATA
360
1E9
  0
DICTIONARY
  5
1EB
330
1EA
100
AcDbDictionary
280
     1
  3
TC_EXTENDED_DATA
360
1EC
  0
DICTIONARY
  5
1EE
330
1ED
100
AcDbDictionary
280
     1
  3
TC_EXTENDED_DATA
360
1EF
  0
DICTIONARY
  5
1F1
330
1F0
100
AcDbDictionary
280
     1
  3
TC_EXTENDED_DATA
360
1F2
  0
DICTIONARY
  5
1F4
330
1F3
100
AcDbDictionary
280
     1
  3
TC_EXTENDED_DATA
360
1F5
  0
DICTIONARY
  5
1F7
330
1F6
100
AcDbDictionary
280
     1
  3
TC_EXTENDED_DATA
360
1F8
  0
DICTIONARY
  5
1FA
330
1F9
100
AcDbDictionary
280
     1
  3
TC_EXTENDED_DATA
360
1FB
  0
DICTIONARY
  5
1FD
330
1FC
100
AcDbDictionary
280
     1
  3
TC_EXTENDED_DATA
360
1FE
  0
DICTIONARY
  5
200
330
1FF
100
AcDbDictionary
280
     1
  3
TC_EXTENDED_DATA
360
201
  0
DICTIONARY
  5
203
330
202
100
AcDbDictionary
280
     1
  3
TC_EXTENDED_DATA
360
204
  0
DICTIONARY
  5
206
330
205
100
AcDbDictionary
280
     1
  3
TC_EXTENDED_DATA
360
207
  0
DICTIONARY
  5
209
330
208
100
AcDbDictionary
280
     1
  3
TC_EXTENDED_DATA
360
20A
  0
DICTIONARY
  5
20C
330
20B
100
AcDbDictionary
280
     1
  3
TC_EXTENDED_DATA
360
20D
  0
DICTIONARY
  5
20F
330
20E
100
AcDbDictionary
280
     1
  3
TC_EXTENDED_DATA
360
210
  0
DICTIONARY
  5
212
330
211
100
AcDbDictionary
280
     1
  3
TC_EXTENDED_DATA
360
213
  0
DICTIONARY
  5
215
330
214
100
AcDbDictionary
280
     1
  3
TC_EXTENDED_DATA
360
216
  0
DICTIONARY
  5
218
330
217
100
AcDbDictionary
280
     1
  3
TC_EXTENDED_DATA
360
219
  0
DICTIONARY
  5
21B
330
21A
100
AcDbDictionary
280
     1
  3
TC_EXTENDED_DATA
360
21C
  0
DICTIONARY
  5
21E
330
21D
100
AcDbDictionary
280
     1
  3
TC_EXTENDED_DATA
360
21F
  0
DICTIONARY
  5
221
330
220
100
AcDbDictionary
280
     1
  3
TC_EXTENDED_DATA
360
222
  0
DICTIONARY
  5
224
330
223
100
AcDbDictionary
280
     1
  3
TC_EXTENDED_DATA
360
225
  0
DICTIONARY
  5
227
330
226
100
AcDbDictionary
280
     1
  3
TC_EXTENDED_DATA
360
228
  0
DICTIONARY
  5
22A
330
229
100
AcDbDictionary
280
     1
  3
TC_EXTENDED_DATA
360
22B
  0
DICTIONARY
  5
22D
330
22C
100
AcDbDictionary
280
     1
  3
TC_EXTENDED_DATA
360
22E
  0
DICTIONARY
  5
230
330
22F
100
AcDbDictionary
280
     1
  3
TC_EXTENDED_DATA
360
231
  0
DICTIONARY
  5
233
330
232
100
AcDbDictionary
280
     1
  3
TC_EXTENDED_DATA
360
234
  0
DICTIONARY
  5
236
330
235
100
AcDbDictionary
280
     1
  3
TC_EXTENDED_DATA
360
237
  0
DICTIONARY
  5
239
330
238
100
AcDbDictionary
280
     1
  3
TC_EXTENDED_DATA
360
23A
  0
DICTIONARY
  5
23C
330
23B
100
AcDbDictionary
280
     1
  3
TC_EXTENDED_DATA
360
23D
  0
DICTIONARY
  5
23F
330
23E
100
AcDbDictionary
280
     1
  3
TC_EXTENDED_DATA
360
240
  0
DICTIONARY
  5
242
330
241
100
AcDbDictionary
280
     1
  3
TC_EXTENDED_DATA
360
243
  0
DICTIONARY
  5
245
330
244
100
AcDbDictionary
280
     1
  3
TC_EXTENDED_DATA
360
246
  0
DICTIONARY
  5
248
330
247
100
AcDbDictionary
280
     1
  3
TC_EXTENDED_DATA
360
249
  0
DICTIONARY
  5
24B
330
24A
100
AcDbDictionary
280
     1
  3
TC_EXTENDED_DATA
360
24C
  0
DICTIONARY
  5
24E
330
24D
100
AcDbDictionary
280
     1
  3
TC_EXTENDED_DATA
360
24F
  0
DICTIONARY
  5
251
330
250
100
AcDbDictionary
280
     1
  3
TC_EXTENDED_DATA
360
252
  0
DICTIONARY
  5
254
330
253
100
AcDbDictionary
280
     1
  3
TC_EXTENDED_DATA
360
255
  0
DICTIONARY
  5
257
330
256
100
AcDbDictionary
280
     1
  3
TC_EXTENDED_DATA
360
258
  0
DICTIONARY
  5
25A
330
259
100
AcDbDictionary
280
     1
  3
TC_EXTENDED_DATA
360
25B
  0
DICTIONARY
  5
25D
330
25C
100
AcDbDictionary
280
     1
  3
TC_EXTENDED_DATA
360
25E
  0
DICTIONARY
  5
260
330
25F
100
AcDbDictionary
280
     1
  3
TC_EXTENDED_DATA
360
261
  0
DICTIONARY
  5
263
330
262
100
AcDbDictionary
280
     1
  3
TC_EXTENDED_DATA
360
264
  0
DICTIONARY
  5
266
330
265
100
AcDbDictionary
280
     1
  3
TC_EXTENDED_DATA
360
267
  0
DICTIONARY
  5
269
330
268
100
AcDbDictionary
280
     1
  3
TC_EXTENDED_DATA
360
26A
  0
DICTIONARY
  5
26C
330
26B
100
AcDbDictionary
280
     1
  3
TC_EXTENDED_DATA
360
26D
  0
DICTIONARY
  5
26F
330
26E
100
AcDbDictionary
280
     1
  3
TC_EXTENDED_DATA
360
270
  0
DICTIONARY
  5
272
330
271
100
AcDbDictionary
280
     1
  3
TC_EXTENDED_DATA
360
273
  0
DICTIONARY
  5
275
330
274
100
AcDbDictionary
280
     1
  3
TC_EXTENDED_DATA
360
276
  0
DICTIONARY
  5
278
330
277
100
AcDbDictionary
280
     1
  3
TC_EXTENDED_DATA
360
279
  0
DICTIONARY
  5
27B
330
27A
100
AcDbDictionary
280
     1
  3
TC_EXTENDED_DATA
360
27C
  0
DICTIONARY
  5
27E
330
27D
100
AcDbDictionary
280
     1
  3
TC_EXTENDED_DATA
360
27F
  0
DICTIONARY
  5
281
330
280
100
AcDbDictionary
280
     1
  3
TC_EXTENDED_DATA
360
282
  0
DICTIONARY
  5
284
330
283
100
AcDbDictionary
280
     1
  3
TC_EXTENDED_DATA
360
285
  0
DICTIONARY
  5
287
330
286
100
AcDbDictionary
280
     1
  3
TC_EXTENDED_DATA
360
288
  0
DICTIONARY
  5
28A
330
289
100
AcDbDictionary
280
     1
  3
TC_EXTENDED_DATA
360
28B
  0
DICTIONARY
  5
28D
330
28C
100
AcDbDictionary
280
     1
  3
TC_EXTENDED_DATA
360
28E
  0
DICTIONARY
  5
290
330
28F
100
AcDbDictionary
280
     1
  3
TC_EXTENDED_DATA
360
291
  0
DICTIONARY
  5
293
330
292
100
AcDbDictionary
280
     1
  3
TC_EXTENDED_DATA
360
294
  0
DICTIONARY
  5
296
330
295
100
AcDbDictionary
280
     1
  3
TC_EXTENDED_DATA
360
297
  0
DICTIONARY
  5
299
330
298
100
AcDbDictionary
280
     1
  3
TC_EXTENDED_DATA
360
29A
  0
DICTIONARY
  5
29C
330
29B
100
AcDbDictionary
280
     1
  3
TC_EXTENDED_DATA
360
29D
  0
DICTIONARY
  5
29F
330
29E
100
AcDbDictionary
280
     1
  3
TC_EXTENDED_DATA
360
2A0
  0
DICTIONARY
  5
2A2
330
2A1
100
AcDbDictionary
280
     1
  3
TC_EXTENDED_DATA
360
2A3
  0
DICTIONARY
  5
2A5
330
2A4
100
AcDbDictionary
280
     1
  3
TC_EXTENDED_DATA
360
2A6
  0
DICTIONARY
  5
2A8
330
2A7
100
AcDbDictionary
280
     1
  3
TC_EXTENDED_DATA
360
2A9
  0
DICTIONARY
  5
2AB
330
2AA
100
AcDbDictionary
280
     1
  3
TC_EXTENDED_DATA
360
2AC
  0
DICTIONARY
  5
2AE
330
2AD
100
AcDbDictionary
280
     1
  3
TC_EXTENDED_DATA
360
2AF
  0
DICTIONARY
  5
2B1
330
2B0
100
AcDbDictionary
280
     1
  3
TC_EXTENDED_DATA
360
2B2
  0
DICTIONARY
  5
2B4
330
2B3
100
AcDbDictionary
280
     1
  3
TC_EXTENDED_DATA
360
2B5
  0
DICTIONARY
  5
2B7
330
2B6
100
AcDbDictionary
280
     1
  3
TC_EXTENDED_DATA
360
2B8
  0
DICTIONARY
  5
2BA
330
2B9
100
AcDbDictionary
280
     1
  3
TC_EXTENDED_DATA
360
2BB
  0
DICTIONARY
  5
2BD
330
2BC
100
AcDbDictionary
280
     1
  3
TC_EXTENDED_DATA
360
2BE
  0
DICTIONARY
  5
2C0
330
2BF
100
AcDbDictionary
280
     1
  3
TC_EXTENDED_DATA
360
2C1
  0
DICTIONARY
  5
2C3
330
2C2
100
AcDbDictionary
280
     1
  3
TC_EXTENDED_DATA
360
2C4
  0
DICTIONARY
  5
2C6
330
2C5
100
AcDbDictionary
280
     1
  3
TC_EXTENDED_DATA
360
2C7
  0
DICTIONARY
  5
2C9
330
2C8
100
AcDbDictionary
280
     1
  3
TC_EXTENDED_DATA
360
2CA
  0
DICTIONARY
  5
2CC
330
2CB
100
AcDbDictionary
280
     1
  3
TC_EXTENDED_DATA
360
2CD
  0
DICTIONARY
  5
2CF
330
2CE
100
AcDbDictionary
280
     1
  3
TC_EXTENDED_DATA
360
2D0
  0
DICTIONARY
  5
2D2
330
2D1
100
AcDbDictionary
280
     1
  3
TC_EXTENDED_DATA
360
2D3
  0
DICTIONARY
  5
2D5
330
2D4
100
AcDbDictionary
280
     1
  3
TC_EXTENDED_DATA
360
2D6
  0
DICTIONARY
  5
2D8
330
2D7
100
AcDbDictionary
280
     1
  3
TC_EXTENDED_DATA
360
2D9
  0
DICTIONARY
  5
2DB
330
2DA
100
AcDbDictionary
280
     1
  3
TC_EXTENDED_DATA
360
2DC
  0
DICTIONARY
  5
2DE
330
2DD
100
AcDbDictionary
280
     1
  3
TC_EXTENDED_DATA
360
2DF
  0
DICTIONARY
  5
2E1
330
2E0
100
AcDbDictionary
280
     1
  3
TC_EXTENDED_DATA
360
2E2
  0
DICTIONARY
  5
2E4
330
2E3
100
AcDbDictionary
280
     1
  3
TC_EXTENDED_DATA
360
2E5
  0
DICTIONARY
  5
2E7
330
2E6
100
AcDbDictionary
280
     1
  3
TC_EXTENDED_DATA
360
2E8
  0
DICTIONARY
  5
2EA
330
2E9
100
AcDbDictionary
280
     1
  3
TC_EXTENDED_DATA
360
2EB
  0
DICTIONARY
  5
2ED
330
2EC
100
AcDbDictionary
280
     1
  3
TC_EXTENDED_DATA
360
2EE
  0
DICTIONARY
  5
2F0
330
2EF
100
AcDbDictionary
280
     1
  3
TC_EXTENDED_DATA
360
2F1
  0
DICTIONARY
  5
2F3
330
2F2
100
AcDbDictionary
280
     1
  3
TC_EXTENDED_DATA
360
2F4
  0
DICTIONARY
  5
2F6
330
2F5
100
AcDbDictionary
280
     1
  3
TC_EXTENDED_DATA
360
2F7
  0
DICTIONARY
  5
2F9
330
2F8
100
AcDbDictionary
280
     1
  3
TC_EXTENDED_DATA
360
2FA
  0
DICTIONARY
  5
2FC
330
2FB
100
AcDbDictionary
280
     1
  3
TC_EXTENDED_DATA
360
2FD
  0
DICTIONARY
  5
2FF
330
2FE
100
AcDbDictionary
280
     1
  3
TC_EXTENDED_DATA
360
300
  0
DICTIONARY
  5
302
330
301
100
AcDbDictionary
280
     1
  3
TC_EXTENDED_DATA
360
303
  0
DICTIONARY
  5
305
330
304
100
AcDbDictionary
280
     1
  3
TC_EXTENDED_DATA
360
306
  0
DICTIONARY
  5
308
330
307
100
AcDbDictionary
280
     1
  3
TC_EXTENDED_DATA
360
309
  0
DICTIONARY
  5
30B
330
30A
100
AcDbDictionary
280
     1
  3
TC_EXTENDED_DATA
360
30C
  0
DICTIONARY
  5
30E
330
30D
100
AcDbDictionary
280
     1
  3
TC_EXTENDED_DATA
360
30F
  0
DICTIONARY
  5
311
330
310
100
AcDbDictionary
280
     1
  3
TC_EXTENDED_DATA
360
312
  0
DICTIONARY
  5
314
330
313
100
AcDbDictionary
280
     1
  3
TC_EXTENDED_DATA
360
315
  0
DICTIONARY
  5
317
330
316
100
AcDbDictionary
280
     1
  3
TC_EXTENDED_DATA
360
318
  0
DICTIONARY
  5
31A
330
319
100
AcDbDictionary
280
     1
  3
TC_EXTENDED_DATA
360
31B
  0
DICTIONARY
  5
31D
330
31C
100
AcDbDictionary
280
     1
  3
TC_EXTENDED_DATA
360
31E
  0
DICTIONARY
  5
320
330
31F
100
AcDbDictionary
280
     1
  3
TC_EXTENDED_DATA
360
321
  0
DICTIONARY
  5
323
330
322
100
AcDbDictionary
280
     1
  3
TC_EXTENDED_DATA
360
324
  0
DICTIONARY
  5
326
330
325
100
AcDbDictionary
280
     1
  3
TC_EXTENDED_DATA
360
327
  0
DICTIONARY
  5
329
330
328
100
AcDbDictionary
280
     1
  3
TC_EXTENDED_DATA
360
32A
  0
DICTIONARY
  5
32C
330
32B
100
AcDbDictionary
280
     1
  3
TC_EXTENDED_DATA
360
32D
  0
DICTIONARY
  5
32F
330
32E
100
AcDbDictionary
280
     1
  3
TC_EXTENDED_DATA
360
330
  0
DICTIONARY
  5
332
330
331
100
AcDbDictionary
280
     1
  3
TC_EXTENDED_DATA
360
333
  0
DICTIONARY
  5
335
330
334
100
AcDbDictionary
280
     1
  3
TC_EXTENDED_DATA
360
336
  0
DICTIONARY
  5
338
330
337
100
AcDbDictionary
280
     1
  3
TC_EXTENDED_DATA
360
339
  0
DICTIONARY
  5
33B
330
33A
100
AcDbDictionary
280
     1
  3
TC_EXTENDED_DATA
360
33C
  0
DICTIONARY
  5
33E
330
33D
100
AcDbDictionary
280
     1
  3
TC_EXTENDED_DATA
360
33F
  0
DICTIONARY
  5
341
330
340
100
AcDbDictionary
280
     1
  3
TC_EXTENDED_DATA
360
342
  0
DICTIONARY
  5
344
330
343
100
AcDbDictionary
280
     1
  3
TC_EXTENDED_DATA
360
345
  0
DICTIONARY
  5
347
330
346
100
AcDbDictionary
280
     1
  3
TC_EXTENDED_DATA
360
348
  0
DICTIONARY
  5
34A
330
349
100
AcDbDictionary
280
     1
  3
TC_EXTENDED_DATA
360
34B
  0
DICTIONARY
  5
34D
330
34C
100
AcDbDictionary
280
     1
  3
TC_EXTENDED_DATA
360
34E
  0
DICTIONARY
  5
350
330
34F
100
AcDbDictionary
280
     1
  3
TC_EXTENDED_DATA
360
351
  0
DICTIONARY
  5
353
330
352
100
AcDbDictionary
280
     1
  3
TC_EXTENDED_DATA
360
354
  0
DICTIONARY
  5
356
330
355
100
AcDbDictionary
280
     1
  3
TC_EXTENDED_DATA
360
357
  0
DICTIONARY
  5
359
330
358
100
AcDbDictionary
280
     1
  3
TC_EXTENDED_DATA
360
35A
  0
DICTIONARY
  5
35C
330
35B
100
AcDbDictionary
280
     1
  3
TC_EXTENDED_DATA
360
35D
  0
DICTIONARY
  5
35F
330
35E
100
AcDbDictionary
280
     1
  3
TC_EXTENDED_DATA
360
360
  0
DICTIONARY
  5
362
330
361
100
AcDbDictionary
280
     1
  3
TC_EXTENDED_DATA
360
363
  0
DICTIONARY
  5
365
330
364
100
AcDbDictionary
280
     1
  3
TC_EXTENDED_DATA
360
366
  0
DICTIONARY
  5
368
330
367
100
AcDbDictionary
280
     1
  3
TC_EXTENDED_DATA
360
369
  0
DICTIONARY
  5
36B
330
36A
100
AcDbDictionary
280
     1
  3
TC_EXTENDED_DATA
360
36C
  0
DICTIONARY
  5
36E
330
36D
100
AcDbDictionary
280
     1
  3
TC_EXTENDED_DATA
360
36F
  0
DICTIONARY
  5
371
330
370
100
AcDbDictionary
280
     1
  3
TC_EXTENDED_DATA
360
372
  0
DICTIONARY
  5
374
330
373
100
AcDbDictionary
280
     1
  3
TC_EXTENDED_DATA
360
375
  0
DICTIONARY
  5
377
330
376
100
AcDbDictionary
280
     1
  3
TC_EXTENDED_DATA
360
378
  0
DICTIONARY
  5
37A
330
379
100
AcDbDictionary
280
     1
  3
TC_EXTENDED_DATA
360
37B
  0
DICTIONARY
  5
37D
330
37C
100
AcDbDictionary
280
     1
  3
TC_EXTENDED_DATA
360
37E
  0
DICTIONARY
  5
380
330
37F
100
AcDbDictionary
280
     1
  3
TC_EXTENDED_DATA
360
381
  0
DICTIONARY
  5
383
330
382
100
AcDbDictionary
280
     1
  3
TC_EXTENDED_DATA
360
384
  0
DICTIONARY
  5
386
330
385
100
AcDbDictionary
280
     1
  3
TC_EXTENDED_DATA
360
387
  0
DICTIONARY
  5
389
330
388
100
AcDbDictionary
280
     1
  3
TC_EXTENDED_DATA
360
38A
  0
DICTIONARY
  5
38C
330
38B
100
AcDbDictionary
280
     1
  3
TC_EXTENDED_DATA
360
38D
  0
DICTIONARY
  5
38F
330
38E
100
AcDbDictionary
280
     1
  3
TC_EXTENDED_DATA
360
390
  0
DICTIONARY
  5
392
330
391
100
AcDbDictionary
280
     1
  3
TC_EXTENDED_DATA
360
393
  0
DICTIONARY
  5
395
330
394
100
AcDbDictionary
280
     1
  3
TC_EXTENDED_DATA
360
396
  0
DICTIONARY
  5
398
330
397
100
AcDbDictionary
280
     1
  3
TC_EXTENDED_DATA
360
399
  0
DICTIONARY
  5
39B
330
39A
100
AcDbDictionary
280
     1
  3
TC_EXTENDED_DATA
360
39C
  0
DICTIONARY
  5
39E
330
39D
100
AcDbDictionary
280
     1
  3
TC_EXTENDED_DATA
360
39F
  0
DICTIONARY
  5
3A1
330
3A0
100
AcDbDictionary
280
     1
  3
TC_EXTENDED_DATA
360
3A2
  0
DICTIONARY
  5
3A4
330
3A3
100
AcDbDictionary
280
     1
  3
TC_EXTENDED_DATA
360
3A5
  0
DICTIONARY
  5
3A7
330
3A6
100
AcDbDictionary
280
     1
  3
TC_EXTENDED_DATA
360
3A8
  0
DICTIONARY
  5
3AA
330
3A9
100
AcDbDictionary
280
     1
  3
TC_EXTENDED_DATA
360
3AB
  0
DICTIONARY
  5
3AD
330
3AC
100
AcDbDictionary
280
     1
  3
TC_EXTENDED_DATA
360
3AE
  0
DICTIONARY
  5
3B0
330
3AF
100
AcDbDictionary
280
     1
  3
TC_EXTENDED_DATA
360
3B1
  0
DICTIONARY
  5
3B3
330
3B2
100
AcDbDictionary
280
     1
  3
TC_EXTENDED_DATA
360
3B4
  0
DICTIONARY
  5
3B6
330
3B5
100
AcDbDictionary
280
     1
  3
TC_EXTENDED_DATA
360
3B7
  0
DICTIONARY
  5
3B9
330
3B8
100
AcDbDictionary
280
     1
  3
TC_EXTENDED_DATA
360
3BA
  0
DICTIONARY
  5
3BC
330
3BB
100
AcDbDictionary
280
     1
  3
TC_EXTENDED_DATA
360
3BD
  0
DICTIONARY
  5
3BF
330
3BE
100
AcDbDictionary
280
     1
  3
TC_EXTENDED_DATA
360
3C0
  0
DICTIONARY
  5
3C2
330
3C1
100
AcDbDictionary
280
     1
  3
TC_EXTENDED_DATA
360
3C3
  0
DICTIONARY
  5
3C5
330
3C4
100
AcDbDictionary
280
     1
  3
TC_EXTENDED_DATA
360
3C6
  0
DICTIONARY
  5
3C8
330
3C7
100
AcDbDictionary
280
     1
  3
TC_EXTENDED_DATA
360
3C9
  0
DICTIONARY
  5
3CB
330
3CA
100
AcDbDictionary
280
     1
  3
TC_EXTENDED_DATA
360
3CC
  0
DICTIONARY
  5
3CE
330
3CD
100
AcDbDictionary
280
     1
  3
TC_EXTENDED_DATA
360
3CF
  0
DICTIONARY
  5
3D1
330
3D0
100
AcDbDictionary
280
     1
  3
TC_EXTENDED_DATA
360
3D2
  0
DICTIONARY
  5
3D4
330
3D3
100
AcDbDictionary
280
     1
  3
TC_EXTENDED_DATA
360
3D5
  0
DICTIONARY
  5
3D7
330
3D6
100
AcDbDictionary
280
     1
  3
TC_EXTENDED_DATA
360
3D8
  0
DICTIONARY
  5
3DA
330
3D9
100
AcDbDictionary
280
     1
  3
TC_EXTENDED_DATA
360
3DB
  0
DICTIONARY
  5
3DD
330
3DC
100
AcDbDictionary
280
     1
  3
TC_EXTENDED_DATA
360
3DE
  0
DICTIONARY
  5
3E0
330
3DF
100
AcDbDictionary
280
     1
  3
TC_EXTENDED_DATA
360
3E1
  0
DICTIONARY
  5
3E3
330
3E2
100
AcDbDictionary
280
     1
  3
TC_EXTENDED_DATA
360
3E4
  0
DICTIONARY
  5
3E6
330
3E5
100
AcDbDictionary
280
     1
  3
TC_EXTENDED_DATA
360
3E7
  0
DICTIONARY
  5
3E9
330
3E8
100
AcDbDictionary
280
     1
  3
TC_EXTENDED_DATA
360
3EA
  0
DICTIONARY
  5
3EC
330
3EB
100
AcDbDictionary
280
     1
  3
TC_EXTENDED_DATA
360
3ED
  0
DICTIONARY
  5
3EF
330
3EE
100
AcDbDictionary
280
     1
  3
TC_EXTENDED_DATA
360
3F0
  0
DICTIONARY
  5
3F2
330
3F1
100
AcDbDictionary
280
     1
  3
TC_EXTENDED_DATA
360
3F3
  0
DICTIONARY
  5
3F5
330
3F4
100
AcDbDictionary
280
     1
  3
TC_EXTENDED_DATA
360
3F6
  0
DICTIONARY
  5
3F8
330
3F7
100
AcDbDictionary
280
     1
  3
TC_EXTENDED_DATA
360
3F9
  0
DICTIONARY
  5
3FB
330
3FA
100
AcDbDictionary
280
     1
  3
TC_EXTENDED_DATA
360
3FC
  0
DICTIONARY
  5
3FE
330
3FD
100
AcDbDictionary
280
     1
  3
TC_EXTENDED_DATA
360
3FF
  0
DICTIONARY
  5
401
330
400
100
AcDbDictionary
280
     1
  3
TC_EXTENDED_DATA
360
402
  0
DICTIONARY
  5
404
330
403
100
AcDbDictionary
280
     1
  3
TC_EXTENDED_DATA
360
405
  0
DICTIONARY
  5
407
330
406
100
AcDbDictionary
280
     1
  3
TC_EXTENDED_DATA
360
408
  0
DICTIONARY
  5
40A
330
409
100
AcDbDictionary
280
     1
  3
TC_EXTENDED_DATA
360
40B
  0
DICTIONARY
  5
40D
330
40C
100
AcDbDictionary
280
     1
  3
TC_EXTENDED_DATA
360
40E
  0
DICTIONARY
  5
410
330
40F
100
AcDbDictionary
280
     1
  3
TC_EXTENDED_DATA
360
411
  0
DICTIONARY
  5
413
330
412
100
AcDbDictionary
280
     1
  3
TC_EXTENDED_DATA
360
414
  0
DICTIONARY
  5
416
330
415
100
AcDbDictionary
280
     1
  3
TC_EXTENDED_DATA
360
417
  0
DICTIONARY
  5
419
330
418
100
AcDbDictionary
280
     1
  3
TC_EXTENDED_DATA
360
41A
  0
DICTIONARY
  5
41C
330
41B
100
AcDbDictionary
280
     1
  3
TC_EXTENDED_DATA
360
41D
  0
DICTIONARY
  5
41F
330
41E
100
AcDbDictionary
280
     1
  3
TC_EXTENDED_DATA
360
420
  0
DICTIONARY
  5
422
330
421
100
AcDbDictionary
280
     1
  3
TC_EXTENDED_DATA
360
423
  0
DICTIONARY
  5
425
330
424
100
AcDbDictionary
280
     1
  3
TC_EXTENDED_DATA
360
426
  0
DICTIONARY
  5
428
330
427
100
AcDbDictionary
280
     1
  3
TC_EXTENDED_DATA
360
429
  0
DICTIONARY
  5
42B
330
42A
100
AcDbDictionary
280
     1
  3
TC_EXTENDED_DATA
360
42C
  0
DICTIONARY
  5
42E
330
42D
100
AcDbDictionary
280
     1
  3
TC_EXTENDED_DATA
360
42F
  0
DICTIONARY
  5
431
330
430
100
AcDbDictionary
280
     1
  3
TC_EXTENDED_DATA
360
432
  0
DICTIONARY
  5
434
330
433
100
AcDbDictionary
280
     1
  3
TC_EXTENDED_DATA
360
435
  0
DICTIONARY
  5
437
330
436
100
AcDbDictionary
280
     1
  3
TC_EXTENDED_DATA
360
438
  0
DICTIONARY
  5
43A
330
439
100
AcDbDictionary
280
     1
  3
TC_EXTENDED_DATA
360
43B
  0
DICTIONARY
  5
43D
330
43C
100
AcDbDictionary
280
     1
  3
ACAD_DIMASSOC
360
43F
  3
TC_EXTENDED_DATA
360
43E
  0
DICTIONARY
  5
44D
330
44C
100
AcDbDictionary
280
     1
  3
TC_EXTENDED_DATA
360
44E
  0
DICTIONARY
  5
450
330
44F
100
AcDbDictionary
280
     1
  3
TC_EXTENDED_DATA
360
451
  0
DICTIONARY
  5
453
330
452
100
AcDbDictionary
280
     1
  3
ACAD_DIMASSOC
360
455
  3
TC_EXTENDED_DATA
360
454
  0
DICTIONARY
  5
464
330
463
100
AcDbDictionary
280
     1
  3
ACAD_DIMASSOC
360
466
  3
TC_EXTENDED_DATA
360
465
  0
DICTIONARY
  5
D
102
{ACAD_REACTORS
330
C
102
}
330
C
100
AcDbDictionary
  0
DICTIONARY
  5
1A
102
{ACAD_REACTORS
330
C
102
}
330
C
100
AcDbDictionary
  0
DICTIONARY
  5
43
102
{ACAD_REACTORS
330
C
102
}
330
C
100
AcDbDictionary
  3
BYBLOCK
350
45
  3
BYLAYER
350
44
  3
GLOBAL
350
46
  0
DICTIONARY
  5
6B
102
{ACAD_REACTORS
330
C
102
}
330
C
100
AcDbDictionary
  3
STANDARD
350
6C
  0
DICTIONARY
  5
17
102
{ACAD_REACTORS
330
C
102
}
330
C
100
AcDbDictionary
  3
STANDARD
350
18
  0
DICTIONARY
  5
19
102
{ACAD_REACTORS
330
C
102
}
330
C
100
AcDbDictionary
  0
DICTIONARY
  5
47
102
{ACAD_REACTORS
330
C
102
}
330
C
100
AcDbDictionary
  3
A0
350
48
  3
A1
350
49
  3
A2
350
4A
  3
A3
350
4B
  3
A4
350
4C
  3
A5
350
4D
  3
A6
350
4E
  3
A7
350
4F
  3
A8
350
50
  3
A9
350
51
  3
B0
350
52
  3
B1
350
53
  3
B2
350
54
  3
B3
350
55
  3
B4
350
56
  3
B5
350
57
  3
B6
350
58
  3
B7
350
59
  3
B8
350
5A
  3
B9
350
5B
  3
C0
350
5C
  3
C1
350
5D
  3
C2
350
5E
  3
C3
350
5F
  3
C4
350
60
  3
C5
350
61
  3
C6
350
62
  3
C7
350
63
  3
C8
350
64
  3
C9
350
65
  3
D0
350
66
  3
D1
350
67
  3
D2
350
68
  0
DICTIONARY
  5
2A
102
{ACAD_REACTORS
330
C
102
}
330
C
100
AcDbDictionary
  3
2DWIREFRAME
350
2F
  3
BASIC
350
32
  3
BRIGHTEN
350
36
  3
COLORCHANGE
350
3A
  3
CONCEPTUAL
350
34
  3
DIM
350
35
  3
EDGECOLOROFF
350
3D
  3
FACEPATTERN
350
39
  3
FLAT
350
2B
  3
FLATWITHEDGES
350
2C
  3
GOURAUD
350
2D
  3
GOURAUDWITHEDGES
350
2E
  3
HIDDEN
350
31
  3
JITTEROFF
350
3B
  3
LINEPATTERN
350
38
  3
OVERHANGOFF
350
3C
  3
REALISTIC
350
33
  3
SHADED
350
42
  3
SHADED_WITH_EDGES
350
41
  3
SHADES_OF_GRAY
350
3E
  3
SKETCHY
350
3F
  3
THICKEN
350
37
  3
WIREFRAME
350
30
  3
X-RAY
350
40
  0
DICTIONARY
  5
475
102
{ACAD_REACTORS
330
C
102
}
330
C
100
AcDbDictionary
  3
CEPSNID
350
47F
  3
CEPSNTYPE
350
47E
  3
DIMSTYLEDATA
350
495
  3
FINGERPRINTGUID
350
480
  3
HYPERLINKBASE
350
478
  3
INSUNITS
350
47D
  3
LAYOUTDICT
350
47A
  3
LWETCUNION
350
47C
  3
PLOTSETDICT
350
47B
  3
PSVPSCALE
350
482
  3
PUCSBASE
350
485
  3
PUCSORGBACK
350
48B
  3
PUCSORGBOTTOM
350
487
  3
PUCSORGFRONT
350
48A
  3
PUCSORGLEFT
350
488
  3
PUCSORGRIGHT
350
489
  3
PUCSORGTOP
350
486
  3
PUCSORTHOREF
350
483
  3
PUCSORTHOVIEW
350
484
  3
STYLESHEET
350
479
  3
TSTACKALIGN
350
476
  3
TSTACKSIZE
350
477
  3
UCSBASE
350
48E
  3
UCSORGBACK
350
494
  3
UCSORGBOTTOM
350
490
  3
UCSORGFRONT
350
493
  3
UCSORGLEFT
350
491
  3
UCSORGRIGHT
350
492
  3
UCSORGTOP
350
48F
  3
UCSORTHOREF
350
48C
  3
UCSORTHOVIEW
350
48D
  3
VERSIONGUID
350
481
  0
DICTIONARY
  5
496
102
{ACAD_REACTORS
330
C
102
}
330
C
100
AcDbDictionary
  3
CANNOSCALE
350
49F
  3
CMLEADERSTYLE
350
498
  3
CTABLESTYLE
350
497
  3
DIMASSOC
350
49B
  3
HIDETEXT
350
49C
  3
MSLTSCALE
350
4A0
  0
XRECORD
  5
49E
102
{ACAD_REACTORS
330
49D
102
}
330
49D
100
AcDbXrecord
102
VTR_0.000_0.000_1.000_1.000_VISUALSTYLE
340
2F
102
VTR_0.000_0.000_1.000_1.000_GRIDDISPLAY
 70
     3
102
VTR_0.000_0.000_1.000_1.000_GRIDMAJOR
 70
     5
102
VTR_0.000_0.000_1.000_1.000_DEFAULTLIGHTING
280
     1
102
VTR_0.000_0.000_1.000_1.000_DEFAULTLIGHTINGTYPE
 70
     1
102
VTR_0.000_0.000_1.000_1.000_BRIGHTNESS
141
0.0
102
VTR_0.000_0.000_1.000_1.000_CONTRAST
142
0.0
  0
GEODATA
  5
194
102
{ACAD_REACTORS
330
193
102
}
330
193
100
AcDbGeoData
 90
        1
 70
     1
330
1F
 40
-122.394
 41
37.795
 42
0.0
 91
        6
 10
0.0
 20
0.0
 30
0.0
 11
0.0
 21
0.0
 31
0.0
210
0.0
220
0.0
230
1.0
 52
0.0
 43
1.0
 44
1.0
 45
1.0
301

302
<georss:point>37.7950 -122.3940</georss:point>
 46
1.0
303

304

305

306

307

 93
        0
 96
        0
  3
CIVIL3D_DATA_BEGIN
292
     0
 14
37.795
 24
-122.394
 15
37.795
 25
-122.394
 93
        0
 94
        0
293
     0
 16
0.0
 26
0.0
 17
0.0
 27
0.0
 54
0.0
140
0.0
 95
        3
141
1.0
294
     0
142
0.0
143
0.0
  4
CIVIL3D_DATA_END
  0
TCOPTIONALDATA
  5
1A1
102
{ACAD_REACTORS
330
1A0
102
}
330
1A0
100
TcOptionalData
 70
     2
 70
   160
 90
        1
  1
#$AUX@_UniqueName
 70
     8
 90
        8
310
3445443644343930
 40
3.0
  0
TCOPTIONALDATA
  5
1A4
102
{ACAD_REACTORS
330
1A3
102
}
330
1A3
100
TcOptionalData
 70
     2
 70
    32
 40
3.0
  0
TCOPTIONALDATA
  5
1A7
102
{ACAD_REACTORS
330
1A6
102
}
330
1A6
100
TcOptionalData
 70
     2
 70
    32
 40
3.0
  0
TCOPTIONALDATA
  5
1AA
102
{ACAD_REACTORS
330
1A9
102
}
330
1A9
100
TcOptionalData
 70
     2
 70
    32
 40
3.0
  0
TCOPTIONALDATA
  5
1AD
102
{ACAD_REACTORS
330
1AC
102
}
330
1AC
100
TcOptionalData
 70
     2
 70
    32
 40
3.0
  0
TCOPTIONALDATA
  5
1B0
102
{ACAD_REACTORS
330
1AF
102
}
330
1AF
100
TcOptionalData
 70
     2
 70
    32
 40
3.0
  0
TCOPTIONALDATA
  5
1B3
102
{ACAD_REACTORS
330
1B2
102
}
330
1B2
100
TcOptionalData
 70
     2
 70
    32
 40
3.0
  0
TCOPTIONALDATA
  5
1B6
102
{ACAD_REACTORS
330
1B5
102
}
330
1B5
100
TcOptionalData
 70
     2
 70
    32
 40
3.0
  0
TCOPTIONALDATA
  5
1B9
102
{ACAD_REACTORS
330
1B8
102
}
330
1B8
100
TcOptionalData
 70
     2
 70
    32
 40
3.0
  0
TCOPTIONALDATA
  5
1BC
102
{ACAD_REACTORS
330
1BB
102
}
330
1BB
100
TcOptionalData
 70
     2
 70
    32
 40
3.0
  0
TCOPTIONALDATA
  5
1BF
102
{ACAD_REACTORS
330
1BE
102
}
330
1BE
100
TcOptionalData
 70
     2
 70
    32
 40
3.0
  0
TCOPTIONALDATA
  5
1C2
102
{ACAD_REACTORS
330
1C1
102
}
330
1C1
100
TcOptionalData
 70
     2
 70
    32
 40
3.0
  0
TCOPTIONALDATA
  5
1C5
102
{ACAD_REACTORS
330
1C4
102
}
330
1C4
100
TcOptionalData
 70
     2
 70
    32
 40
3.0
  0
TCOPTIONALDATA
  5
1C8
102
{ACAD_REACTORS
330
1C7
102
}
330
1C7
100
TcOptionalData
 70
     2
 70
    32
 40
3.0
  0
TCOPTIONALDATA
  5
1CB
102
{ACAD_REACTORS
330
1CA
102
}
330
1CA
100
TcOptionalData
 70
     2
 70
    32
 40
3.0
  0
TCOPTIONALDATA
  5
1CE
102
{ACAD_REACTORS
330
1CD
102
}
330
1CD
100
TcOptionalData
 70
     2
 70
    32
 40
3.0
  0
TCOPTIONALDATA
  5
1D1
102
{ACAD_REACTORS
330
1D0
102
}
330
1D0
100
TcOptionalData
 70
     2
 70
    32
 40
3.0
  0
TCOPTIONALDATA
  5
1D4
102
{ACAD_REACTORS
330
1D3
102
}
330
1D3
100
TcOptionalData
 70
     2
 70
    32
 40
3.0
  0
TCOPTIONALDATA
  5
1D7
102
{ACAD_REACTORS
330
1D6
102
}
330
1D6
100
TcOptionalData
 70
     2
 70
    32
 40
3.0
  0
TCOPTIONALDATA
  5
1DA
102
{ACAD_REACTORS
330
1D9
102
}
330
1D9
100
TcOptionalData
 70
     2
 70
    32
 40
3.0
  0
TCOPTIONALDATA
  5
1DD
102
{ACAD_REACTORS
330
1DC
102
}
330
1DC
100
TcOptionalData
 70
     2
 70
    32
 40
3.0
  0
TCOPTIONALDATA
  5
1E0
102
{ACAD_REACTORS
330
1DF
102
}
330
1DF
100
TcOptionalData
 70
     2
 70
    32
 40
3.0
  0
TCOPTIONALDATA
  5
1E3
102
{ACAD_REACTORS
330
1E2
102
}
330
1E2
100
TcOptionalData
 70
     2
 70
    32
 40
3.0
  0
TCOPTIONALDATA
  5
1E6
102
{ACAD_REACTORS
330
1E5
102
}
330
1E5
100
TcOptionalData
 70
     2
 70
    32
 40
3.0
  0
TCOPTIONALDATA
  5
1E9
102
{ACAD_REACTORS
330
1E8
102
}
330
1E8
100
TcOptionalData
 70
     2
 70
    32
 40
3.0
  0
TCOPTIONALDATA
  5
1EC
102
{ACAD_REACTORS
330
1EB
102
}
330
1EB
100
TcOptionalData
 70
     2
 70
    32
 40
3.0
  0
TCOPTIONALDATA
  5
1EF
102
{ACAD_REACTORS
330
1EE
102
}
330
1EE
100
TcOptionalData
 70
     2
 70
    32
 40
3.0
  0
TCOPTIONALDATA
  5
1F2
102
{ACAD_REACTORS
330
1F1
102
}
330
1F1
100
TcOptionalData
 70
     2
 70
    32
 40
3.0
  0
TCOPTIONALDATA
  5
1F5
102
{ACAD_REACTORS
330
1F4
102
}
330
1F4
100
TcOptionalData
 70
     2
 70
    32
 40
3.0
  0
TCOPTIONALDATA
  5
1F8
102
{ACAD_REACTORS
330
1F7
102
}
330
1F7
100
TcOptionalData
 70
     2
 70
    32
 40
3.0
  0
TCOPTIONALDATA
  5
1FB
102
{ACAD_REACTORS
330
1FA
102
}
330
1FA
100
TcOptionalData
 70
     2
 70
    32
 40
3.0
  0
TCOPTIONALDATA
  5
1FE
102
{ACAD_REACTORS
330
1FD
102
}
330
1FD
100
TcOptionalData
 70
     2
 70
    32
 40
3.0
  0
TCOPTIONALDATA
  5
201
102
{ACAD_REACTORS
330
200
102
}
330
200
100
TcOptionalData
 70
     2
 70
    32
 40
3.0
  0
TCOPTIONALDATA
  5
204
102
{ACAD_REACTORS
330
203
102
}
330
203
100
TcOptionalData
 70
     2
 70
    32
 40
3.0
  0
TCOPTIONALDATA
  5
207
102
{ACAD_REACTORS
330
206
102
}
330
206
100
TcOptionalData
 70
     2
 70
    32
 40
3.0
  0
TCOPTIONALDATA
  5
20A
102
{ACAD_REACTORS
330
209
102
}
330
209
100
TcOptionalData
 70
     2
 70
    32
 40
3.0
  0
TCOPTIONALDATA
  5
20D
102
{ACAD_REACTORS
330
20C
102
}
330
20C
100
TcOptionalData
 70
     2
 70
    32
 40
3.0
  0
TCOPTIONALDATA
  5
210
102
{ACAD_REACTORS
330
20F
102
}
330
20F
100
TcOptionalData
 70
     2
 70
    32
 40
3.0
  0
TCOPTIONALDATA
  5
213
102
{ACAD_REACTORS
330
212
102
}
330
212
100
TcOptionalData
 70
     2
 70
    32
 40
3.0
  0
TCOPTIONALDATA
  5
216
102
{ACAD_REACTORS
330
215
102
}
330
215
100
TcOptionalData
 70
     2
 70
    32
 40
3.0
  0
TCOPTIONALDATA
  5
219
102
{ACAD_REACTORS
330
218
102
}
330
218
100
TcOptionalData
 70
     2
 70
    32
 40
3.0
  0
TCOPTIONALDATA
  5
21C
102
{ACAD_REACTORS
330
21B
102
}
330
21B
100
TcOptionalData
 70
     2
 70
    32
 40
3.0
  0
TCOPTIONALDATA
  5
21F
102
{ACAD_REACTORS
330
21E
102
}
330
21E
100
TcOptionalData
 70
     2
 70
    32
 40
3.0
  0
TCOPTIONALDATA
  5
222
102
{ACAD_REACTORS
330
221
102
}
330
221
100
TcOptionalData
 70
     2
 70
    32
 40
3.0
  0
TCOPTIONALDATA
  5
225
102
{ACAD_REACTORS
330
224
102
}
330
224
100
TcOptionalData
 70
     2
 70
    32
 40
3.0
  0
TCOPTIONALDATA
  5
228
102
{ACAD_REACTORS
330
227
102
}
330
227
100
TcOptionalData
 70
     2
 70
    32
 40
3.0
  0
TCOPTIONALDATA
  5
22B
102
{ACAD_REACTORS
330
22A
102
}
330
22A
100
TcOptionalData
 70
     2
 70
    32
 40
3.0
  0
TCOPTIONALDATA
  5
22E
102
{ACAD_REACTORS
330
22D
102
}
330
22D
100
TcOptionalData
 70
     2
 70
    32
 40
3.0
  0
TCOPTIONALDATA
  5
231
102
{ACAD_REACTORS
330
230
102
}
330
230
100
TcOptionalData
 70
     2
 70
    32
 40
3.0
  0
TCOPTIONALDATA
  5
234
102
{ACAD_REACTORS
330
233
102
}
330
233
100
TcOptionalData
 70
     2
 70
    32
 40
3.0
  0
TCOPTIONALDATA
  5
237
102
{ACAD_REACTORS
330
236
102
}
330
236
100
TcOptionalData
 70
     2
 70
    32
 40
3.0
  0
TCOPTIONALDATA
  5
23A
102
{ACAD_REACTORS
330
239
102
}
330
239
100
TcOptionalData
 70
     2
 70
    32
 40
3.0
  0
TCOPTIONALDATA
  5
23D
102
{ACAD_REACTORS
330
23C
102
}
330
23C
100
TcOptionalData
 70
     2
 70
    32
 40
3.0
  0
TCOPTIONALDATA
  5
240
102
{ACAD_REACTORS
330
23F
102
}
330
23F
100
TcOptionalData
 70
     2
 70
    32
 40
3.0
  0
TCOPTIONALDATA
  5
243
102
{ACAD_REACTORS
330
242
102
}
330
242
100
TcOptionalData
 70
     2
 70
    32
 40
3.0
  0
TCOPTIONALDATA
  5
246
102
{ACAD_REACTORS
330
245
102
}
330
245
100
TcOptionalData
 70
     2
 70
    32
 40
3.0
  0
TCOPTIONALDATA
  5
249
102
{ACAD_REACTORS
330
248
102
}
330
248
100
TcOptionalData
 70
     2
 70
    32
 40
3.0
  0
TCOPTIONALDATA
  5
24C
102
{ACAD_REACTORS
330
24B
102
}
330
24B
100
TcOptionalData
 70
     2
 70
    32
 40
3.0
  0
TCOPTIONALDATA
  5
24F
102
{ACAD_REACTORS
330
24E
102
}
330
24E
100
TcOptionalData
 70
     2
 70
    32
 40
3.0
  0
TCOPTIONALDATA
  5
252
102
{ACAD_REACTORS
330
251
102
}
330
251
100
TcOptionalData
 70
     2
 70
    32
 40
3.0
  0
TCOPTIONALDATA
  5
255
102
{ACAD_REACTORS
330
254
102
}
330
254
100
TcOptionalData
 70
     2
 70
    32
 40
3.0
  0
TCOPTIONALDATA
  5
258
102
{ACAD_REACTORS
330
257
102
}
330
257
100
TcOptionalData
 70
     2
 70
    32
 40
3.0
  0
TCOPTIONALDATA
  5
25B
102
{ACAD_REACTORS
330
25A
102
}
330
25A
100
TcOptionalData
 70
     2
 70
    32
 40
3.0
  0
TCOPTIONALDATA
  5
25E
102
{ACAD_REACTORS
330
25D
102
}
330
25D
100
TcOptionalData
 70
     2
 70
    32
 40
3.0
  0
TCOPTIONALDATA
  5
261
102
{ACAD_REACTORS
330
260
102
}
330
260
100
TcOptionalData
 70
     2
 70
    32
 40
3.0
  0
TCOPTIONALDATA
  5
264
102
{ACAD_REACTORS
330
263
102
}
330
263
100
TcOptionalData
 70
     2
 70
    32
 40
3.0
  0
TCOPTIONALDATA
  5
267
102
{ACAD_REACTORS
330
266
102
}
330
266
100
TcOptionalData
 70
     2
 70
    32
 40
3.0
  0
TCOPTIONALDATA
  5
26A
102
{ACAD_REACTORS
330
269
102
}
330
269
100
TcOptionalData
 70
     2
 70
    32
 40
3.0
  0
TCOPTIONALDATA
  5
26D
102
{ACAD_REACTORS
330
26C
102
}
330
26C
100
TcOptionalData
 70
     2
 70
    32
 40
3.0
  0
TCOPTIONALDATA
  5
270
102
{ACAD_REACTORS
330
26F
102
}
330
26F
100
TcOptionalData
 70
     2
 70
    32
 40
3.0
  0
TCOPTIONALDATA
  5
273
102
{ACAD_REACTORS
330
272
102
}
330
272
100
TcOptionalData
 70
     2
 70
    32
 40
3.0
  0
TCOPTIONALDATA
  5
276
102
{ACAD_REACTORS
330
275
102
}
330
275
100
TcOptionalData
 70
     2
 70
    32
 40
3.0
  0
TCOPTIONALDATA
  5
279
102
{ACAD_REACTORS
330
278
102
}
330
278
100
TcOptionalData
 70
     2
 70
    32
 40
3.0
  0
TCOPTIONALDATA
  5
27C
102
{ACAD_REACTORS
330
27B
102
}
330
27B
100
TcOptionalData
 70
     2
 70
    32
 40
3.0
  0
TCOPTIONALDATA
  5
27F
102
{ACAD_REACTORS
330
27E
102
}
330
27E
100
TcOptionalData
 70
     2
 70
    32
 40
3.0
  0
TCOPTIONALDATA
  5
282
102
{ACAD_REACTORS
330
281
102
}
330
281
100
TcOptionalData
 70
     2
 70
    32
 40
3.0
  0
TCOPTIONALDATA
  5
285
102
{ACAD_REACTORS
330
284
102
}
330
284
100
TcOptionalData
 70
     2
 70
    32
 40
3.0
  0
TCOPTIONALDATA
  5
288
102
{ACAD_REACTORS
330
287
102
}
330
287
100
TcOptionalData
 70
     2
 70
    32
 40
3.0
  0
TCOPTIONALDATA
  5
28B
102
{ACAD_REACTORS
330
28A
102
}
330
28A
100
TcOptionalData
 70
     2
 70
    32
 40
3.0
  0
TCOPTIONALDATA
  5
28E
102
{ACAD_REACTORS
330
28D
102
}
330
28D
100
TcOptionalData
 70
     2
 70
    32
 40
3.0
  0
TCOPTIONALDATA
  5
291
102
{ACAD_REACTORS
330
290
102
}
330
290
100
TcOptionalData
 70
     2
 70
    32
 40
3.0
  0
TCOPTIONALDATA
  5
294
102
{ACAD_REACTORS
330
293
102
}
330
293
100
TcOptionalData
 70
     2
 70
    32
 40
3.0
  0
TCOPTIONALDATA
  5
297
102
{ACAD_REACTORS
330
296
102
}
330
296
100
TcOptionalData
 70
     2
 70
    32
 40
3.0
  0
TCOPTIONALDATA
  5
29A
102
{ACAD_REACTORS
330
299
102
}
330
299
100
TcOptionalData
 70
     2
 70
    32
 40
3.0
  0
TCOPTIONALDATA
  5
29D
102
{ACAD_REACTORS
330
29C
102
}
330
29C
100
TcOptionalData
 70
     2
 70
    32
 40
3.0
  0
TCOPTIONALDATA
  5
2A0
102
{ACAD_REACTORS
330
29F
102
}
330
29F
100
TcOptionalData
 70
     2
 70
    32
 40
3.0
  0
TCOPTIONALDATA
  5
2A3
102
{ACAD_REACTORS
330
2A2
102
}
330
2A2
100
TcOptionalData
 70
     2
 70
    32
 40
3.0
  0
TCOPTIONALDATA
  5
2A6
102
{ACAD_REACTORS
330
2A5
102
}
330
2A5
100
TcOptionalData
 70
     2
 70
    32
 40
3.0
  0
TCOPTIONALDATA
  5
2A9
102
{ACAD_REACTORS
330
2A8
102
}
330
2A8
100
TcOptionalData
 70
     2
 70
    32
 40
3.0
  0
TCOPTIONALDATA
  5
2AC
102
{ACAD_REACTORS
330
2AB
102
}
330
2AB
100
TcOptionalData
 70
     2
 70
    32
 40
3.0
  0
TCOPTIONALDATA
  5
2AF
102
{ACAD_REACTORS
330
2AE
102
}
330
2AE
100
TcOptionalData
 70
     2
 70
    32
 40
3.0
  0
TCOPTIONALDATA
  5
2B2
102
{ACAD_REACTORS
330
2B1
102
}
330
2B1
100
TcOptionalData
 70
     2
 70
    32
 40
3.0
  0
TCOPTIONALDATA
  5
2B5
102
{ACAD_REACTORS
330
2B4
102
}
330
2B4
100
TcOptionalData
 70
     2
 70
    32
 40
3.0
  0
TCOPTIONALDATA
  5
2B8
102
{ACAD_REACTORS
330
2B7
102
}
330
2B7
100
TcOptionalData
 70
     2
 70
    32
 40
3.0
  0
TCOPTIONALDATA
  5
2BB
102
{ACAD_REACTORS
330
2BA
102
}
330
2BA
100
TcOptionalData
 70
     2
 70
    32
 40
3.0
  0
TCOPTIONALDATA
  5
2BE
102
{ACAD_REACTORS
330
2BD
102
}
330
2BD
100
TcOptionalData
 70
     2
 70
    32
 40
3.0
  0
TCOPTIONALDATA
  5
2C1
102
{ACAD_REACTORS
330
2C0
102
}
330
2C0
100
TcOptionalData
 70
     2
 70
    32
 40
3.0
  0
TCOPTIONALDATA
  5
2C4
102
{ACAD_REACTORS
330
2C3
102
}
330
2C3
100
TcOptionalData
 70
     2
 70
    32
 40
3.0
  0
TCOPTIONALDATA
  5
2C7
102
{ACAD_REACTORS
330
2C6
102
}
330
2C6
100
TcOptionalData
 70
     2
 70
    32
 40
3.0
  0
TCOPTIONALDATA
  5
2CA
102
{ACAD_REACTORS
330
2C9
102
}
330
2C9
100
TcOptionalData
 70
     2
 70
    32
 40
3.0
  0
TCOPTIONALDATA
  5
2CD
102
{ACAD_REACTORS
330
2CC
102
}
330
2CC
100
TcOptionalData
 70
     2
 70
    32
 40
3.0
  0
TCOPTIONALDATA
  5
2D0
102
{ACAD_REACTORS
330
2CF
102
}
330
2CF
100
TcOptionalData
 70
     2
 70
    32
 40
3.0
  0
TCOPTIONALDATA
  5
2D3
102
{ACAD_REACTORS
330
2D2
102
}
330
2D2
100
TcOptionalData
 70
     2
 70
    32
 40
3.0
  0
TCOPTIONALDATA
  5
2D6
102
{ACAD_REACTORS
330
2D5
102
}
330
2D5
100
TcOptionalData
 70
     2
 70
    32
 40
3.0
  0
TCOPTIONALDATA
  5
2D9
102
{ACAD_REACTORS
330
2D8
102
}
330
2D8
100
TcOptionalData
 70
     2
 70
    32
 40
3.0
  0
TCOPTIONALDATA
  5
2DC
102
{ACAD_REACTORS
330
2DB
102
}
330
2DB
100
TcOptionalData
 70
     2
 70
    32
 40
3.0
  0
TCOPTIONALDATA
  5
2DF
102
{ACAD_REACTORS
330
2DE
102
}
330
2DE
100
TcOptionalData
 70
     2
 70
    32
 40
3.0
  0
TCOPTIONALDATA
  5
2E2
102
{ACAD_REACTORS
330
2E1
102
}
330
2E1
100
TcOptionalData
 70
     2
 70
    32
 40
3.0
  0
TCOPTIONALDATA
  5
2E5
102
{ACAD_REACTORS
330
2E4
102
}
330
2E4
100
TcOptionalData
 70
     2
 70
    32
 40
3.0
  0
TCOPTIONALDATA
  5
2E8
102
{ACAD_REACTORS
330
2E7
102
}
330
2E7
100
TcOptionalData
 70
     2
 70
    32
 40
3.0
  0
TCOPTIONALDATA
  5
2EB
102
{ACAD_REACTORS
330
2EA
102
}
330
2EA
100
TcOptionalData
 70
     2
 70
    32
 40
3.0
  0
TCOPTIONALDATA
  5
2EE
102
{ACAD_REACTORS
330
2ED
102
}
330
2ED
100
TcOptionalData
 70
     2
 70
    32
 40
3.0
  0
TCOPTIONALDATA
  5
2F1
102
{ACAD_REACTORS
330
2F0
102
}
330
2F0
100
TcOptionalData
 70
     2
 70
    32
 40
3.0
  0
TCOPTIONALDATA
  5
2F4
102
{ACAD_REACTORS
330
2F3
102
}
330
2F3
100
TcOptionalData
 70
     2
 70
    32
 40
3.0
  0
TCOPTIONALDATA
  5
2F7
102
{ACAD_REACTORS
330
2F6
102
}
330
2F6
100
TcOptionalData
 70
     2
 70
    32
 40
3.0
  0
TCOPTIONALDATA
  5
2FA
102
{ACAD_REACTORS
330
2F9
102
}
330
2F9
100
TcOptionalData
 70
     2
 70
    32
 40
3.0
  0
TCOPTIONALDATA
  5
2FD
102
{ACAD_REACTORS
330
2FC
102
}
330
2FC
100
TcOptionalData
 70
     2
 70
    32
 40
3.0
  0
TCOPTIONALDATA
  5
300
102
{ACAD_REACTORS
330
2FF
102
}
330
2FF
100
TcOptionalData
 70
     2
 70
    32
 40
3.0
  0
TCOPTIONALDATA
  5
303
102
{ACAD_REACTORS
330
302
102
}
330
302
100
TcOptionalData
 70
     2
 70
    32
 40
3.0
  0
TCOPTIONALDATA
  5
306
102
{ACAD_REACTORS
330
305
102
}
330
305
100
TcOptionalData
 70
     2
 70
    32
 40
3.0
  0
TCOPTIONALDATA
  5
309
102
{ACAD_REACTORS
330
308
102
}
330
308
100
TcOptionalData
 70
     2
 70
    32
 40
3.0
  0
TCOPTIONALDATA
  5
30C
102
{ACAD_REACTORS
330
30B
102
}
330
30B
100
TcOptionalData
 70
     2
 70
   160
 90
        1
  1
#$AUX@_UniqueName
 70
     8
 90
        8
310
3233333937303538
 40
3.0
  0
TCOPTIONALDATA
  5
30F
102
{ACAD_REACTORS
330
30E
102
}
330
30E
100
TcOptionalData
 70
     2
 70
    32
 40
3.0
  0
TCOPTIONALDATA
  5
312
102
{ACAD_REACTORS
330
311
102
}
330
311
100
TcOptionalData
 70
     2
 70
    32
 40
3.0
  0
TCOPTIONALDATA
  5
315
102
{ACAD_REACTORS
330
314
102
}
330
314
100
TcOptionalData
 70
     2
 70
    32
 40
3.0
  0
TCOPTIONALDATA
  5
318
102
{ACAD_REACTORS
330
317
102
}
330
317
100
TcOptionalData
 70
     2
 70
    32
 40
3.0
  0
TCOPTIONALDATA
  5
31B
102
{ACAD_REACTORS
330
31A
102
}
330
31A
100
TcOptionalData
 70
     2
 70
    32
 40
3.0
  0
TCOPTIONALDATA
  5
31E
102
{ACAD_REACTORS
330
31D
102
}
330
31D
100
TcOptionalData
 70
     2
 70
    32
 40
3.0
  0
TCOPTIONALDATA
  5
321
102
{ACAD_REACTORS
330
320
102
}
330
320
100
TcOptionalData
 70
     2
 70
    32
 40
3.0
  0
TCOPTIONALDATA
  5
324
102
{ACAD_REACTORS
330
323
102
}
330
323
100
TcOptionalData
 70
     2
 70
    32
 40
3.0
  0
TCOPTIONALDATA
  5
327
102
{ACAD_REACTORS
330
326
102
}
330
326
100
TcOptionalData
 70
     2
 70
    32
 40
3.0
  0
TCOPTIONALDATA
  5
32A
102
{ACAD_REACTORS
330
329
102
}
330
329
100
TcOptionalData
 70
     2
 70
    32
 40
3.0
  0
TCOPTIONALDATA
  5
32D
102
{ACAD_REACTORS
330
32C
102
}
330
32C
100
TcOptionalData
 70
     2
 70
    32
 40
3.0
  0
TCOPTIONALDATA
  5
330
102
{ACAD_REACTORS
330
32F
102
}
330
32F
100
TcOptionalData
 70
     2
 70
    32
 40
3.0
  0
TCOPTIONALDATA
  5
333
102
{ACAD_REACTORS
330
332
102
}
330
332
100
TcOptionalData
 70
     2
 70
    32
 40
3.0
  0
TCOPTIONALDATA
  5
336
102
{ACAD_REACTORS
330
335
102
}
330
335
100
TcOptionalData
 70
     2
 70
    32
 40
3.0
  0
TCOPTIONALDATA
  5
339
102
{ACAD_REACTORS
330
338
102
}
330
338
100
TcOptionalData
 70
     2
 70
    32
 40
3.0
  0
TCOPTIONALDATA
  5
33C
102
{ACAD_REACTORS
330
33B
102
}
330
33B
100
TcOptionalData
 70
     2
 70
    32
 40
3.0
  0
TCOPTIONALDATA
  5
33F
102
{ACAD_REACTORS
330
33E
102
}
330
33E
100
TcOptionalData
 70
     2
 70
    32
 40
3.0
  0
TCOPTIONALDATA
  5
342
102
{ACAD_REACTORS
330
341
102
}
330
341
100
TcOptionalData
 70
     2
 70
    32
 40
3.0
  0
TCOPTIONALDATA
  5
345
102
{ACAD_REACTORS
330
344
102
}
330
344
100
TcOptionalData
 70
     2
 70
    32
 40
3.0
  0
TCOPTIONALDATA
  5
348
102
{ACAD_REACTORS
330
347
102
}
330
347
100
TcOptionalData
 70
     2
 70
    32
 40
3.0
  0
TCOPTIONALDATA
  5
34B
102
{ACAD_REACTORS
330
34A
102
}
330
34A
100
TcOptionalData
 70
     2
 70
    32
 40
3.0
  0
TCOPTIONALDATA
  5
34E
102
{ACAD_REACTORS
330
34D
102
}
330
34D
100
TcOptionalData
 70
     2
 70
    32
 40
3.0
  0
TCOPTIONALDATA
  5
351
102
{ACAD_REACTORS
330
350
102
}
330
350
100
TcOptionalData
 70
     2
 70
    32
 40
3.0
  0
TCOPTIONALDATA
  5
354
102
{ACAD_REACTORS
330
353
102
}
330
353
100
TcOptionalData
 70
     2
 70
    32
 40
3.0
  0
TCOPTIONALDATA
  5
357
102
{ACAD_REACTORS
330
356
102
}
330
356
100
TcOptionalData
 70
     2
 70
    32
 40
3.0
  0
TCOPTIONALDATA
  5
35A
102
{ACAD_REACTORS
330
359
102
}
330
359
100
TcOptionalData
 70
     2
 70
    32
 40
3.0
  0
TCOPTIONALDATA
  5
35D
102
{ACAD_REACTORS
330
35C
102
}
330
35C
100
TcOptionalData
 70
     2
 70
    32
 40
3.0
  0
TCOPTIONALDATA
  5
360
102
{ACAD_REACTORS
330
35F
102
}
330
35F
100
TcOptionalData
 70
     2
 70
    32
 40
3.0
  0
TCOPTIONALDATA
  5
363
102
{ACAD_REACTORS
330
362
102
}
330
362
100
TcOptionalData
 70
     2
 70
    32
 40
3.0
  0
TCOPTIONALDATA
  5
366
102
{ACAD_REACTORS
330
365
102
}
330
365
100
TcOptionalData
 70
     2
 70
    32
 40
3.0
  0
TCOPTIONALDATA
  5
369
102
{ACAD_REACTORS
330
368
102
}
330
368
100
TcOptionalData
 70
     2
 70
    32
 40
3.0
  0
TCOPTIONALDATA
  5
36C
102
{ACAD_REACTORS
330
36B
102
}
330
36B
100
TcOptionalData
 70
     2
 70
    32
 40
3.0
  0
TCOPTIONALDATA
  5
36F
102
{ACAD_REACTORS
330
36E
102
}
330
36E
100
TcOptionalData
 70
     2
 70
    32
 40
3.0
  0
TCOPTIONALDATA
  5
372
102
{ACAD_REACTORS
330
371
102
}
330
371
100
TcOptionalData
 70
     2
 70
    32
 40
3.0
  0
TCOPTIONALDATA
  5
375
102
{ACAD_REACTORS
330
374
102
}
330
374
100
TcOptionalData
 70
     2
 70
    32
 40
3.0
  0
TCOPTIONALDATA
  5
378
102
{ACAD_REACTORS
330
377
102
}
330
377
100
TcOptionalData
 70
     2
 70
    32
 40
3.0
  0
TCOPTIONALDATA
  5
37B
102
{ACAD_REACTORS
330
37A
102
}
330
37A
100
TcOptionalData
 70
     2
 70
    32
 40
3.0
  0
TCOPTIONALDATA
  5
37E
102
{ACAD_REACTORS
330
37D
102
}
330
37D
100
TcOptionalData
 70
     2
 70
    32
 40
3.0
  0
TCOPTIONALDATA
  5
381
102
{ACAD_REACTORS
330
380
102
}
330
380
100
TcOptionalData
 70
     2
 70
    32
 40
3.0
  0
TCOPTIONALDATA
  5
384
102
{ACAD_REACTORS
330
383
102
}
330
383
100
TcOptionalData
 70
     2
 70
    32
 40
3.0
  0
TCOPTIONALDATA
  5
387
102
{ACAD_REACTORS
330
386
102
}
330
386
100
TcOptionalData
 70
     2
 70
    32
 40
3.0
  0
TCOPTIONALDATA
  5
38A
102
{ACAD_REACTORS
330
389
102
}
330
389
100
TcOptionalData
 70
     2
 70
    32
 40
3.0
  0
TCOPTIONALDATA
  5
38D
102
{ACAD_REACTORS
330
38C
102
}
330
38C
100
TcOptionalData
 70
     2
 70
    32
 40
3.0
  0
TCOPTIONALDATA
  5
390
102
{ACAD_REACTORS
330
38F
102
}
330
38F
100
TcOptionalData
 70
     2
 70
    32
 40
3.0
  0
TCOPTIONALDATA
  5
393
102
{ACAD_REACTORS
330
392
102
}
330
392
100
TcOptionalData
 70
     2
 70
    32
 40
3.0
  0
TCOPTIONALDATA
  5
396
102
{ACAD_REACTORS
330
395
102
}
330
395
100
TcOptionalData
 70
     2
 70
    32
 40
3.0
  0
TCOPTIONALDATA
  5
399
102
{ACAD_REACTORS
330
398
102
}
330
398
100
TcOptionalData
 70
     2
 70
    32
 40
3.0
  0
TCOPTIONALDATA
  5
39C
102
{ACAD_REACTORS
330
39B
102
}
330
39B
100
TcOptionalData
 70
     2
 70
    32
 40
3.0
  0
TCOPTIONALDATA
  5
39F
102
{ACAD_REACTORS
330
39E
102
}
330
39E
100
TcOptionalData
 70
     2
 70
    32
 40
3.0
  0
TCOPTIONALDATA
  5
3A2
102
{ACAD_REACTORS
330
3A1
102
}
330
3A1
100
TcOptionalData
 70
     2
 70
    32
 40
3.0
  0
TCOPTIONALDATA
  5
3A5
102
{ACAD_REACTORS
330
3A4
102
}
330
3A4
100
TcOptionalData
 70
     2
 70
    32
 40
3.0
  0
TCOPTIONALDATA
  5
3A8
102
{ACAD_REACTORS
330
3A7
102
}
330
3A7
100
TcOptionalData
 70
     2
 70
    32
 40
3.0
  0
TCOPTIONALDATA
  5
3AB
102
{ACAD_REACTORS
330
3AA
102
}
330
3AA
100
TcOptionalData
 70
     2
 70
    32
 40
3.0
  0
TCOPTIONALDATA
  5
3AE
102
{ACAD_REACTORS
330
3AD
102
}
330
3AD
100
TcOptionalData
 70
     2
 70
    32
 40
3.0
  0
TCOPTIONALDATA
  5
3B1
102
{ACAD_REACTORS
330
3B0
102
}
330
3B0
100
TcOptionalData
 70
     2
 70
    32
 40
3.0
  0
TCOPTIONALDATA
  5
3B4
102
{ACAD_REACTORS
330
3B3
102
}
330
3B3
100
TcOptionalData
 70
     2
 70
    32
 40
3.0
  0
TCOPTIONALDATA
  5
3B7
102
{ACAD_REACTORS
330
3B6
102
}
330
3B6
100
TcOptionalData
 70
     2
 70
    32
 40
3.0
  0
TCOPTIONALDATA
  5
3BA
102
{ACAD_REACTORS
330
3B9
102
}
330
3B9
100
TcOptionalData
 70
     2
 70
    32
 40
3.0
  0
TCOPTIONALDATA
  5
3BD
102
{ACAD_REACTORS
330
3BC
102
}
330
3BC
100
TcOptionalData
 70
     2
 70
    32
 40
3.0
  0
TCOPTIONALDATA
  5
3C0
102
{ACAD_REACTORS
330
3BF
102
}
330
3BF
100
TcOptionalData
 70
     2
 70
    32
 40
3.0
  0
TCOPTIONALDATA
  5
3C3
102
{ACAD_REACTORS
330
3C2
102
}
330
3C2
100
TcOptionalData
 70
     2
 70
    32
 40
3.0
  0
TCOPTIONALDATA
  5
3C6
102
{ACAD_REACTORS
330
3C5
102
}
330
3C5
100
TcOptionalData
 70
     2
 70
    32
 40
3.0
  0
TCOPTIONALDATA
  5
3C9
102
{ACAD_REACTORS
330
3C8
102
}
330
3C8
100
TcOptionalData
 70
     2
 70
    32
 40
3.0
  0
TCOPTIONALDATA
  5
3CC
102
{ACAD_REACTORS
330
3CB
102
}
330
3CB
100
TcOptionalData
 70
     2
 70
    32
 40
3.0
  0
TCOPTIONALDATA
  5
3CF
102
{ACAD_REACTORS
330
3CE
102
}
330
3CE
100
TcOptionalData
 70
     2
 70
    32
 40
3.0
  0
TCOPTIONALDATA
  5
3D2
102
{ACAD_REACTORS
330
3D1
102
}
330
3D1
100
TcOptionalData
 70
     2
 70
    32
 40
3.0
  0
TCOPTIONALDATA
  5
3D5
102
{ACAD_REACTORS
330
3D4
102
}
330
3D4
100
TcOptionalData
 70
     2
 70
    32
 40
3.0
  0
TCOPTIONALDATA
  5
3D8
102
{ACAD_REACTORS
330
3D7
102
}
330
3D7
100
TcOptionalData
 70
     2
 70
    32
 40
3.0
  0
TCOPTIONALDATA
  5
3DB
102
{ACAD_REACTORS
330
3DA
102
}
330
3DA
100
TcOptionalData
 70
     2
 70
    32
 40
3.0
  0
TCOPTIONALDATA
  5
3DE
102
{ACAD_REACTORS
330
3DD
102
}
330
3DD
100
TcOptionalData
 70
     2
 70
    32
 40
3.0
  0
TCOPTIONALDATA
  5
3E1
102
{ACAD_REACTORS
330
3E0
102
}
330
3E0
100
TcOptionalData
 70
     2
 70
    32
 40
3.0
  0
TCOPTIONALDATA
  5
3E4
102
{ACAD_REACTORS
330
3E3
102
}
330
3E3
100
TcOptionalData
 70
     2
 70
    32
 40
3.0
  0
TCOPTIONALDATA
  5
3E7
102
{ACAD_REACTORS
330
3E6
102
}
330
3E6
100
TcOptionalData
 70
     2
 70
    32
 40
3.0
  0
TCOPTIONALDATA
  5
3EA
102
{ACAD_REACTORS
330
3E9
102
}
330
3E9
100
TcOptionalData
 70
     2
 70
    32
 40
3.0
  0
TCOPTIONALDATA
  5
3ED
102
{ACAD_REACTORS
330
3EC
102
}
330
3EC
100
TcOptionalData
 70
     2
 70
    32
 40
3.0
  0
TCOPTIONALDATA
  5
3F0
102
{ACAD_REACTORS
330
3EF
102
}
330
3EF
100
TcOptionalData
 70
     2
 70
    32
 40
3.0
  0
TCOPTIONALDATA
  5
3F3
102
{ACAD_REACTORS
330
3F2
102
}
330
3F2
100
TcOptionalData
 70
     2
 70
    32
 40
3.0
  0
TCOPTIONALDATA
  5
3F6
102
{ACAD_REACTORS
330
3F5
102
}
330
3F5
100
TcOptionalData
 70
     2
 70
    32
 40
3.0
  0
TCOPTIONALDATA
  5
3F9
102
{ACAD_REACTORS
330
3F8
102
}
330
3F8
100
TcOptionalData
 70
     2
 70
    32
 40
3.0
  0
TCOPTIONALDATA
  5
3FC
102
{ACAD_REACTORS
330
3FB
102
}
330
3FB
100
TcOptionalData
 70
     2
 70
    32
 40
3.0
  0
TCOPTIONALDATA
  5
3FF
102
{ACAD_REACTORS
330
3FE
102
}
330
3FE
100
TcOptionalData
 70
     2
 70
    32
 40
3.0
  0
TCOPTIONALDATA
  5
402
102
{ACAD_REACTORS
330
401
102
}
330
401
100
TcOptionalData
 70
     2
 70
    32
 40
3.0
  0
TCOPTIONALDATA
  5
405
102
{ACAD_REACTORS
330
404
102
}
330
404
100
TcOptionalData
 70
     2
 70
    32
 40
3.0
  0
TCOPTIONALDATA
  5
408
102
{ACAD_REACTORS
330
407
102
}
330
407
100
TcOptionalData
 70
     2
 70
    32
 40
3.0
  0
TCOPTIONALDATA
  5
40B
102
{ACAD_REACTORS
330
40A
102
}
330
40A
100
TcOptionalData
 70
     2
 70
    32
 40
3.0
  0
TCOPTIONALDATA
  5
40E
102
{ACAD_REACTORS
330
40D
102
}
330
40D
100
TcOptionalData
 70
     2
 70
    32
 40
3.0
  0
TCOPTIONALDATA
  5
411
102
{ACAD_REACTORS
330
410
102
}
330
410
100
TcOptionalData
 70
     2
 70
    32
 40
3.0
  0
TCOPTIONALDATA
  5
414
102
{ACAD_REACTORS
330
413
102
}
330
413
100
TcOptionalData
 70
     2
 70
    32
 40
3.0
  0
TCOPTIONALDATA
  5
417
102
{ACAD_REACTORS
330
416
102
}
330
416
100
TcOptionalData
 70
     2
 70
    32
 40
3.0
  0
TCOPTIONALDATA
  5
41A
102
{ACAD_REACTORS
330
419
102
}
330
419
100
TcOptionalData
 70
     2
 70
    32
 40
3.0
  0
TCOPTIONALDATA
  5
41D
102
{ACAD_REACTORS
330
41C
102
}
330
41C
100
TcOptionalData
 70
     2
 70
    32
 40
3.0
  0
TCOPTIONALDATA
  5
420
102
{ACAD_REACTORS
330
41F
102
}
330
41F
100
TcOptionalData
 70
     2
 70
    32
 40
3.0
  0
TCOPTIONALDATA
  5
423
102
{ACAD_REACTORS
330
422
102
}
330
422
100
TcOptionalData
 70
     2
 70
    32
 40
3.0
  0
TCOPTIONALDATA
  5
426
102
{ACAD_REACTORS
330
425
102
}
330
425
100
TcOptionalData
 70
     2
 70
    32
 40
3.0
  0
TCOPTIONALDATA
  5
429
102
{ACAD_REACTORS
330
428
102
}
330
428
100
TcOptionalData
 70
     2
 70
    32
 40
3.0
  0
TCOPTIONALDATA
  5
42C
102
{ACAD_REACTORS
330
42B
102
}
330
42B
100
TcOptionalData
 70
     2
 70
    32
 40
3.0
  0
TCOPTIONALDATA
  5
42F
102
{ACAD_REACTORS
330
42E
102
}
330
42E
100
TcOptionalData
 70
     2
 70
    32
 40
3.0
  0
TCOPTIONALDATA
  5
432
102
{ACAD_REACTORS
330
431
102
}
330
431
100
TcOptionalData
 70
     2
 70
    32
 40
3.0
  0
TCOPTIONALDATA
  5
435
102
{ACAD_REACTORS
330
434
102
}
330
434
100
TcOptionalData
 70
     2
 70
    32
 40
3.0
  0
TCOPTIONALDATA
  5
438
102
{ACAD_REACTORS
330
437
102
}
330
437
100
TcOptionalData
 70
     2
 70
    32
 40
3.0
  0
TCOPTIONALDATA
  5
43B
102
{ACAD_REACTORS
330
43A
102
}
330
43A
100
TcOptionalData
 70
     2
 70
   160
 90
        1
  1
#$AUX@_UniqueName
 70
     8
 90
        8
310
3538383132314130
 40
3.0
  0
ACAD_PROXY_OBJECT
  5
43F
102
{ACAD_REACTORS
330
43D
102
}
330
43D
100
AcDbProxyObject
 90
      499
 91
      711
 93
      214
310
4080288A0B1A23127B9B730B82837B4B73A2932B301A0281203550
330
43C
330
19F
 94
        0
  0
TCOPTIONALDATA
  5
43E
102
{ACAD_REACTORS
330
43D
102
}
330
43D
100
TcOptionalData
 70
     2
 70
   160
 90
        1
  1
#$AUX@_ToolInfo Properties
 70
     8
 90
       16
310
434D445F4449414D4554455244494D40
 40
3.0
  0
TCOPTIONALDATA
  5
44E
102
{ACAD_REACTORS
330
44D
102
}
330
44D
100
TcOptionalData
 70
     2
 70
   128
 90
        1
  1
#$AUX@_ToolInfo Properties
 70
     8
 90
       14
310
434D445F535452494E4744494D40
  0
TCOPTIONALDATA
  5
451
102
{ACAD_REACTORS
330
450
102
}
330
450
100
TcOptionalData
 70
     2
 70
     2
 10
-0.4473819274535333
 20
1.357562989791186
 30
0.0
  0
ACAD_PROXY_OBJECT
  5
455
102
{ACAD_REACTORS
330
453
102
}
330
453
100
AcDbProxyObject
 90
      499
 91
      711
 93
      537
310
40C0288A0B1A23127B9B730B82837B4B73A2932B300A0281207344D323F62870DB0A5111416344624F736E6170506F696E74526566014050240A689A647EC50E1B614A00
330
452
330
439
330
439
 94
        0
  0
TCOPTIONALDATA
  5
454
102
{ACAD_REACTORS
330
453
102
}
330
453
100
TcOptionalData
 70
     2
 70
   160
 90
        1
  1
#$AUX@_ToolInfo Properties
 70
     8
 90
       18
310
434D445F4F5254484F474F4E414C44494D40
 40
3.0
  0
ACAD_PROXY_OBJECT
  5
466
102
{ACAD_REACTORS
330
464
102
}
330
464
100
AcDbProxyObject
 90
      499
 91
      711
 93
      537
310
40C0288A0B1A23127B9B730B82837B4B73A2932B300A0281207344D323F62870DB0A5111416344624F736E6170506F696E745265660D40502406A89A647EC50E1B614A00
330
463
330
439
330
439
 94
        0
  0
TCOPTIONALDATA
  5
465
102
{ACAD_REACTORS
330
464
102
}
330
464
100
TcOptionalData
 70
     2
 70
   160
 90
        1
  1
#$AUX@_ToolInfo Properties
 70
     8
 90
       18
310
434D445F4F5254484F474F4E414C44494D40
 40
3.0
  0
MATERIAL
  5
45
102
{ACAD_REACTORS
330
43
102
}
102
{ACAD_XDICTIONARY
360
4A3
102
}
330
43
100
AcDbMaterial
  1
BYBLOCK
  0
MATERIAL
  5
44
102
{ACAD_REACTORS
330
43
102
}
102
{ACAD_XDICTIONARY
360
4A1
102
}
330
43
100
AcDbMaterial
  1
BYLAYER
  0
MATERIAL
  5
46
102
{ACAD_REACTORS
330
43
102
}
102
{ACAD_XDICTIONARY
360
4A5
102
}
330
43
100
AcDbMaterial
  1
GLOBAL
  0
ACAD_PROXY_OBJECT
  5
6C
102
{ACAD_REACTORS
330
6B
102
}
330
6B
100
AcDbProxyObject
 90
      499
 91
      505
 93
      610
310
40901902A4063FBFFFFFE056BD1B81E855B9FC0AD7A3703D0AD73F4214DD185B99185C9900AD7A3703D0AC73F90141901A02B5E8DC0F42B1CFC02B5E8DC0F42B1CFE5764000000000000300FC0
340
14
340
0
340
11
340
0
 94
        0
1001
ACAD_MLEADERVER
1070
     2
  0
MLINESTYLE
  5
18
102
{ACAD_REACTORS
330
17
102
}
330
17
100
AcDbMlineStyle
  2
Standard
 70
     0
  3

 62
     0
 51
90.0
 52
90.0
 71
     2
 49
0.5
 62
   256
  6
BYLAYER
 49
-0.5
 62
   256
  6
BYLAYER
  0
ACAD_PROXY_OBJECT
  5
48
102
{ACAD_REACTORS
330
47
102
}
330
47
100
AcDbProxyObject
 90
      499
 91
      503
 93
       41
310
903313A31580
  0
ACAD_PROXY_OBJECT
  5
49
102
{ACAD_REACTORS
330
47
102
}
330
47
100
AcDbProxyObject
 90
      499
 91
      503
 93
      105
310
903313A324000000000000004000
  0
ACAD_PROXY_OBJECT
  5
4A
102
{ACAD_REACTORS
330
47
102
}
330
47
100
AcDbProxyObject
 90
      499
 91
      503
 93
      105
310
903313A344000000000000104000
  0
ACAD_PROXY_OBJECT
  5
4B
102
{ACAD_REACTORS
330
47
102
}
330
47
100
AcDbProxyObject
 90
      499
 91
      503
 93
      105
310
903313A354000000000000144000
  0
ACAD_PROXY_OBJECT
  5
4C
102
{ACAD_REACTORS
330
47
102
}
330
47
100
AcDbProxyObject
 90
      499
 91
      503
 93
      105
310
903313A384000000000000204000
  0
ACAD_PROXY_OBJECT
  5
4D
102
{ACAD_REACTORS
330
47
102
}
330
47
100
AcDbProxyObject
 90
      499
 91
      503
 93
      113
310
904313A31304000000000000244000
  0
ACAD_PROXY_OBJECT
  5
4E
102
{ACAD_REACTORS
330
47
102
}
330
47
100
AcDbProxyObject
 90
      499
 91
      503
 93
      113
310
904313A31364000000000000304000
  0
ACAD_PROXY_OBJECT
  5
4F
102
{ACAD_REACTORS
330
47
102
}
330
47
100
AcDbProxyObject
 90
      499
 91
      503
 93
      113
310
904313A32304000000000000344000
  0
ACAD_PROXY_OBJECT
  5
50
102
{ACAD_REACTORS
330
47
102
}
330
47
100
AcDbProxyObject
 90
      499
 91
      503
 93
      113
310
904313A333040000000000003E4000
  0
ACAD_PROXY_OBJECT
  5
51
102
{ACAD_REACTORS
330
47
102
}
330
47
100
AcDbProxyObject
 90
      499
 91
      503
 93
      113
310
904313A34304000000000000444000
  0
ACAD_PROXY_OBJECT
  5
52
102
{ACAD_REACTORS
330
47
102
}
330
47
100
AcDbProxyObject
 90
      499
 91
      503
 93
      113
310
904313A35304000000000000494000
  0
ACAD_PROXY_OBJECT
  5
53
102
{ACAD_REACTORS
330
47
102
}
330
47
100
AcDbProxyObject
 90
      499
 91
      503
 93
      121
310
905313A3130304000000000000594000
  0
ACAD_PROXY_OBJECT
  5
54
102
{ACAD_REACTORS
330
47
102
}
330
47
100
AcDbProxyObject
 90
      499
 91
      503
 93
      105
310
903323A310000000000000010100
  0
ACAD_PROXY_OBJECT
  5
55
102
{ACAD_REACTORS
330
47
102
}
330
47
100
AcDbProxyObject
 90
      499
 91
      503
 93
      105
310
903343A310000000000000410100
  0
ACAD_PROXY_OBJECT
  5
56
102
{ACAD_REACTORS
330
47
102
}
330
47
100
AcDbProxyObject
 90
      499
 91
      503
 93
      105
310
903383A310000000000000810100
  0
ACAD_PROXY_OBJECT
  5
57
102
{ACAD_REACTORS
330
47
102
}
330
47
100
AcDbProxyObject
 90
      499
 91
      503
 93
      113
310
90431303A310000000000000910100
  0
ACAD_PROXY_OBJECT
  5
58
102
{ACAD_REACTORS
330
47
102
}
330
47
100
AcDbProxyObject
 90
      499
 91
      503
 93
      121
310
9053130303A310000000000001650100
  0
ACAD_PROXY_OBJECT
  5
59
102
{ACAD_REACTORS
330
47
102
}
330
47
100
AcDbProxyObject
 90
      499
 91
      503
 93
      257
310
90E312F31323822203D2031272D3022000000000000200FC000000000000284000
  0
ACAD_PROXY_OBJECT
  5
5A
102
{ACAD_REACTORS
330
47
102
}
330
47
100
AcDbProxyObject
 90
      499
 91
      503
 93
      249
310
90D312F363422203D2031272D3022000000000000240FC000000000000284000
  0
ACAD_PROXY_OBJECT
  5
5B
102
{ACAD_REACTORS
330
47
102
}
330
47
100
AcDbProxyObject
 90
      499
 91
      503
 93
      249
310
90D312F333222203D2031272D3022000000000000280FC000000000000284000
  0
ACAD_PROXY_OBJECT
  5
5C
102
{ACAD_REACTORS
330
47
102
}
330
47
100
AcDbProxyObject
 90
      499
 91
      503
 93
      249
310
90D312F313622203D2031272D30220000000000002C0FC000000000000284000
  0
ACAD_PROXY_OBJECT
  5
5D
102
{ACAD_REACTORS
330
47
102
}
330
47
100
AcDbProxyObject
 90
      499
 91
      503
 93
      249
310
90D332F333222203D2031272D30220000000000002E0FC000000000000284000
  0
ACAD_PROXY_OBJECT
  5
5E
102
{ACAD_REACTORS
330
47
102
}
330
47
100
AcDbProxyObject
 90
      499
 91
      503
 93
      241
310
90C312F3822203D2031272D3022000000000000300FC000000000000284000
  0
ACAD_PROXY_OBJECT
  5
5F
102
{ACAD_REACTORS
330
47
102
}
330
47
100
AcDbProxyObject
 90
      499
 91
      503
 93
      249
310
90D332F313622203D2031272D3022000000000000320FC000000000000284000
  0
ACAD_PROXY_OBJECT
  5
60
102
{ACAD_REACTORS
330
47
102
}
330
47
100
AcDbProxyObject
 90
      499
 91
      503
 93
      241
310
90C312F3422203D2031272D3022000000000000340FC000000000000284000
  0
ACAD_PROXY_OBJECT
  5
61
102
{ACAD_REACTORS
330
47
102
}
330
47
100
AcDbProxyObject
 90
      499
 91
      503
 93
      241
310
90C332F3822203D2031272D3022000000000000360FC000000000000284000
  0
ACAD_PROXY_OBJECT
  5
62
102
{ACAD_REACTORS
330
47
102
}
330
47
100
AcDbProxyObject
 90
      499
 91
      503
 93
      241
310
90C312F3222203D2031272D3022000000000000380FC000000000000284000
  0
ACAD_PROXY_OBJECT
  5
63
102
{ACAD_REACTORS
330
47
102
}
330
47
100
AcDbProxyObject
 90
      499
 91
      503
 93
      241
310
90C332F3422203D2031272D30220000000000003A0FC000000000000284000
  0
ACAD_PROXY_OBJECT
  5
64
102
{ACAD_REACTORS
330
47
102
}
330
47
100
AcDbProxyObject
 90
      499
 91
      503
 93
      161
310
90A3122203D2031272D30224000000000000284000
  0
ACAD_PROXY_OBJECT
  5
65
102
{ACAD_REACTORS
330
47
102
}
330
47
100
AcDbProxyObject
 90
      499
 91
      503
 93
      257
310
90E312D312F3222203D2031272D30220000000000003E0FC000000000000284000
  0
ACAD_PROXY_OBJECT
  5
66
102
{ACAD_REACTORS
330
47
102
}
330
47
100
AcDbProxyObject
 90
      499
 91
      503
 93
      225
310
90A3322203D2031272D302200000000000002100000000000000284000
  0
ACAD_PROXY_OBJECT
  5
67
102
{ACAD_REACTORS
330
47
102
}
330
47
100
AcDbProxyObject
 90
      499
 91
      503
 93
      225
310
90A3622203D2031272D302200000000000006100000000000000284000
  0
ACAD_PROXY_OBJECT
  5
68
102
{ACAD_REACTORS
330
47
102
}
330
47
100
AcDbProxyObject
 90
      499
 91
      503
 93
      249
310
90D31272D3022203D2031272D30220000000000000A100000000000000284000
  0
ACAD_PROXY_OBJECT
  5
2F
102
{ACAD_REACTORS
330
2A
102
}
330
2A
100
AcDbProxyObject
 90
      499
 91
      501
 93
      436
310
42CC9915DA5C99599C985B595049028333333333333E33F0000000000000F90107901411070040501600405405064090741402480A0340
1001
ACAD
1000
AcDbSavedByObjectVersion
1070
     0
  0
ACAD_PROXY_OBJECT
  5
32
102
{ACAD_REACTORS
330
2A
102
}
330
2A
100
AcDbProxyObject
 90
      499
 91
      501
 93
      388
310
4150985CDA58D07406404333333333333E33F0000000000000F90107A41107004050150841D405064090741402480A0350
1001
ACAD
1000
AcDbSavedByObjectVersion
1070
     0
  0
ACAD_PROXY_OBJECT
  5
36
102
{ACAD_REACTORS
330
2A
102
}
330
2A
100
AcDbProxyObject
 90
      499
 91
      501
 93
      428
310
42109C9A59DA1D195B90C409028333333333333E33F0000000000000F9010790141107004050150841D405064090741402480A029950
1001
ACAD
1000
AcDbSavedByObjectVersion
1070
     0
  0
ACAD_PROXY_OBJECT
  5
3A
102
{ACAD_REACTORS
330
2A
102
}
330
2A
100
AcDbProxyObject
 90
      499
 91
      501
 93
      452
310
42D0DBDB1BDC90DA185B99D95104090240C333333333333E33F0000000000000F90108901411070040501508421405064090741402480A0350
1001
ACAD
1000
AcDbSavedByObjectVersion
1070
     0
  0
ACAD_PROXY_OBJECT
  5
34
102
{ACAD_REACTORS
330
2A
102
}
330
2A
100
AcDbProxyObject
 90
      499
 91
      501
 93
      500
310
4290DBDB98D95C1D1D585B10940D028333333333333E33F0000000000000F90107902409070040501000000000018199010841D405064090740C02480A0340
1001
ACAD
1000
AcDbSavedByObjectVersion
1070
     0
  0
ACAD_PROXY_OBJECT
  5
35
102
{ACAD_REACTORS
330
2A
102
}
330
2A
100
AcDbProxyObject
 90
      499
 91
      501
 93
      412
310
40D11A5B50B409028333333333333E33F0000000000000F9010790141107004050150841D405064090741402480A02677FFFFFD0
1001
ACAD
1000
AcDbSavedByObjectVersion
1070
     0
  0
ACAD_PROXY_OBJECT
  5
3D
102
{ACAD_REACTORS
330
2A
102
}
330
2A
100
AcDbProxyObject
 90
      499
 91
      501
 93
      452
310
43115919D950DBDB1BDC93D999916409028333333333333E33F0000000000000F9010790141107004050150841D405064090741402480A0350
1001
ACAD
1000
AcDbSavedByObjectVersion
1070
     0
  0
ACAD_PROXY_OBJECT
  5
39
102
{ACAD_REACTORS
330
2A
102
}
330
2A
100
AcDbProxyObject
 90
      499
 91
      501
 93
      444
310
42D19858D95C185D1D195C9B90F409028333333333333E33F0000000000000F9010790141107004050150841D405064090741402480A0350
1001
ACAD
1000
AcDbSavedByObjectVersion
1070
     0
  0
ACAD_PROXY_OBJECT
  5
2B
102
{ACAD_REACTORS
330
2A
102
}
330
2A
100
AcDbProxyObject
 90
      499
 91
      501
 93
      380
310
41119B185D240901404333333333333E33F0000000000000F9010740A907004050150841D405064090741402480A1B50
1001
ACAD
1000
AcDbSavedByObjectVersion
1070
     0
  0
ACAD_PROXY_OBJECT
  5
2C
102
{ACAD_REACTORS
330
2A
102
}
330
2A
100
AcDbProxyObject
 90
      499
 91
      501
 93
      468
310
43519B185D15DA5D1A115919D95CD0140901404333333333333E33F0000000000000F90107409019070040501600405405064090741402480A1B50
1001
ACAD
1000
AcDbSavedByObjectVersion
1070
     0
  0
ACAD_PROXY_OBJECT
  5
2D
102
{ACAD_REACTORS
330
2A
102
}
330
2A
100
AcDbProxyObject
 90
      499
 91
      501
 93
      404
310
41D1DBDD5C985D5910240902404333333333333E33F0000000000000F9010740A9070040501641D405064090741402480A1B50
1001
ACAD
1000
AcDbSavedByObjectVersion
1070
     0
  0
ACAD_PROXY_OBJECT
  5
2E
102
{ACAD_REACTORS
330
2A
102
}
330
2A
100
AcDbProxyObject
 90
      499
 91
      501
 93
      492
310
4411DBDD5C985D5915DA5D1A115919D95CD0340902404333333333333E33F0000000000000F90107409019070040501600405405064090741402480A1B50
1001
ACAD
1000
AcDbSavedByObjectVersion
1070
     0
  0
ACAD_PROXY_OBJECT
  5
31
102
{ACAD_REACTORS
330
2A
102
}
330
2A
100
AcDbProxyObject
 90
      499
 91
      501
 93
      476
310
41921A5919195B90640502408333333333333E33F0000000000000F901079024090700405020000000000001110200405405064090740C02480A0340
1001
ACAD
1000
AcDbSavedByObjectVersion
1070
     0
  0
ACAD_PROXY_OBJECT
  5
3B
102
{ACAD_REACTORS
330
2A
102
}
330
2A
100
AcDbProxyObject
 90
      499
 91
      501
 93
      428
310
42529A5D1D195C93D999914409028333333333333E33F0000000000000F9010790141107004050150A41D405064090741402480A0350
1001
ACAD
1000
AcDbSavedByObjectVersion
1070
     0
  0
ACAD_PROXY_OBJECT
  5
38
102
{ACAD_REACTORS
330
2A
102
}
330
2A
100
AcDbProxyObject
 90
      499
 91
      501
 93
      444
310
42D31A5B995C185D1D195C9B90E409028333333333333E33F0000000000000F9010790141107004050750841D405064090741402483A0350
1001
ACAD
1000
AcDbSavedByObjectVersion
1070
     0
  0
ACAD_PROXY_OBJECT
  5
3C
102
{ACAD_REACTORS
330
2A
102
}
330
2A
100
AcDbProxyObject
 90
      499
 91
      501
 93
      444
310
42D3DD995C9A185B99D3D999915409028333333333333E33F0000000000000F9010790141107004050150941D405064090741402480A0350
1001
ACAD
1000
AcDbSavedByObjectVersion
1070
     0
  0
ACAD_PROXY_OBJECT
  5
33
102
{ACAD_REACTORS
330
2A
102
}
330
2A
100
AcDbProxyObject
 90
      499
 91
      501
 93
      428
310
425499585B1A5CDD1A58D08409038333333333333E33F0000000000000F9010740A907004050150800405405064090740C02480A1B40
1001
ACAD
1000
AcDbSavedByObjectVersion
1070
     0
  0
ACAD_PROXY_OBJECT
  5
42
102
{ACAD_REACTORS
330
2A
102
}
330
2A
100
AcDbProxyObject
 90
      499
 91
      501
 93
      420
310
4194DA1859195911B40902404333333333333E33F0000000000000F9010740A41107004050150800405405064090840C02480A0B40
1001
ACAD
1000
AcDbSavedByObjectVersion
1070
     0
  0
ACAD_PROXY_OBJECT
  5
41
102
{ACAD_REACTORS
330
2A
102
}
330
2A
100
AcDbProxyObject
 90
      499
 91
      501
 93
      516
310
4454DA18591959081DDA5D1A08195919D95CD1A40902404333333333333E33F0000000000000F901074090142907004050250800405405064090740C02480A0B40
1001
ACAD
1000
AcDbSavedByObjectVersion
1070
     0
  0
ACAD_PROXY_OBJECT
  5
3E
102
{ACAD_REACTORS
330
2A
102
}
330
2A
100
AcDbProxyObject
 90
      499
 91
      501
 93
      532
310
4394DA1859195CC81BD98811DC985E5174090240C333333333333E33F0000000000000F901079024090741D01000000000000111010841D405064090740C02480A0340
1001
ACAD
1000
AcDbSavedByObjectVersion
1070
     0
  0
ACAD_PROXY_OBJECT
  5
3F
102
{ACAD_REACTORS
330
2A
102
}
330
2A
100
AcDbProxyObject
 90
      499
 91
      501
 93
      476
310
41D4DAD95D18DA1E51840502408333333333333E33F0000000000000F901079024090741D01000000000000111010B41D405064090741802480A0340
1001
ACAD
1000
AcDbSavedByObjectVersion
1070
     0
  0
ACAD_PROXY_OBJECT
  5
37
102
{ACAD_REACTORS
330
2A
102
}
330
2A
100
AcDbProxyObject
 90
      499
 91
      501
 93
      412
310
41D51A1A58DAD95B90D409028333333333333E33F0000000000000F9010790141107004050150C41D405064090741402480A0350
1001
ACAD
1000
AcDbSavedByObjectVersion
1070
     0
  0
ACAD_PROXY_OBJECT
  5
30
102
{ACAD_REACTORS
330
2A
102
}
330
2A
100
AcDbProxyObject
 90
      499
 91
      501
 93
      420
310
4255DA5C99599C985B595059028333333333333E33F0000000000000F90107901411070040501600405405064090740C02480A0340
1001
ACAD
1000
AcDbSavedByObjectVersion
1070
     0
  0
ACAD_PROXY_OBJECT
  5
40
102
{ACAD_REACTORS
330
2A
102
}
330
2A
100
AcDbProxyObject
 90
      499
 91
      501
 93
      404
310
41560B54985E51940902404000000000000E03F0000000000000F9010740501907004050150841D405064090740C02480A1B40
1001
ACAD
1000
AcDbSavedByObjectVersion
1070
     0
  0
XRECORD
  5
47F
102
{ACAD_REACTORS
330
475
102
}
330
475
100
AcDbXrecord
340
0
  0
XRECORD
  5
47E
102
{ACAD_REACTORS
330
475
102
}
330
475
100
AcDbXrecord
 90
        0
  0
XRECORD
  5
495
102
{ACAD_REACTORS
330
475
102
}
330
475
100
AcDbXrecord
1000
DSTYLE
1002
{
1070
     4
  1
^B2147483648l^B^B2147483648l^B^B2147483648l^B
1070
   340
340
11
1070
   345
340
14
1070
   346
340
14
1070
   347
340
14
1002
}
  0
XRECORD
  5
480
102
{ACAD_REACTORS
330
475
102
}
330
475
100
AcDbXrecord
  1
{C701FC82-E5FB-44FF-9040-34B9FA6B11FF}
  0
XRECORD
  5
478
102
{ACAD_REACTORS
330
475
102
}
330
475
100
AcDbXrecord
  1

  0
XRECORD
  5
47D
102
{ACAD_REACTORS
330
475
102
}
330
475
100
AcDbXrecord
 90
        0
  0
XRECORD
  5
47A
102
{ACAD_REACTORS
330
475
102
}
330
475
100
AcDbXrecord
340
1A
  0
XRECORD
  5
47C
102
{ACAD_REACTORS
330
475
102
}
330
475
100
AcDbXrecord
 90
    10781
  0
XRECORD
  5
47B
102
{ACAD_REACTORS
330
475
102
}
330
475
100
AcDbXrecord
340
19
  0
XRECORD
  5
482
102
{ACAD_REACTORS
330
475
102
}
330
475
100
AcDbXrecord
 40
0.0
  0
XRECORD
  5
485
102
{ACAD_REACTORS
330
475
102
}
330
475
100
AcDbXrecord
340
0
  0
XRECORD
  5
48B
102
{ACAD_REACTORS
330
475
102
}
330
475
100
AcDbXrecord
 10
0.0
 20
0.0
 30
0.0
  0
XRECORD
  5
487
102
{ACAD_REACTORS
330
475
102
}
330
475
100
AcDbXrecord
 10
0.0
 20
0.0
 30
0.0
  0
XRECORD
  5
48A
102
{ACAD_REACTORS
330
475
102
}
330
475
100
AcDbXrecord
 10
0.0
 20
0.0
 30
0.0
  0
XRECORD
  5
488
102
{ACAD_REACTORS
330
475
102
}
330
475
100
AcDbXrecord
 10
0.0
 20
0.0
 30
0.0
  0
XRECORD
  5
489
102
{ACAD_REACTORS
330
475
102
}
330
475
100
AcDbXrecord
 10
0.0
 20
0.0
 30
0.0
  0
XRECORD
  5
486
102
{ACAD_REACTORS
330
475
102
}
330
475
100
AcDbXrecord
 10
0.0
 20
0.0
 30
0.0
  0
XRECORD
  5
483
102
{ACAD_REACTORS
330
475
102
}
330
475
100
AcDbXrecord
340
0
  0
XRECORD
  5
484
102
{ACAD_REACTORS
330
475
102
}
330
475
100
AcDbXrecord
 70
     0
  0
XRECORD
  5
479
102
{ACAD_REACTORS
330
475
102
}
330
475
100
AcDbXrecord
  1

  0
XRECORD
  5
476
102
{ACAD_REACTORS
330
475
102
}
330
475
100
AcDbXrecord
 90
        1
  0
XRECORD
  5
477
102
{ACAD_REACTORS
330
475
102
}
330
475
100
AcDbXrecord
 90
       70
  0
XRECORD
  5
48E
102
{ACAD_REACTORS
330
475
102
}
330
475
100
AcDbXrecord
340
0
  0
XRECORD
  5
494
102
{ACAD_REACTORS
330
475
102
}
330
475
100
AcDbXrecord
 10
0.0
 20
0.0
 30
0.0
  0
XRECORD
  5
490
102
{ACAD_REACTORS
330
475
102
}
330
475
100
AcDbXrecord
 10
0.0
 20
0.0
 30
0.0
  0
XRECORD
  5
493
102
{ACAD_REACTORS
330
475
102
}
330
475
100
AcDbXrecord
 10
0.0
 20
0.0
 30
0.0
  0
XRECORD
  5
491
102
{ACAD_REACTORS
330
475
102
}
330
475
100
AcDbXrecord
 10
0.0
 20
0.0
 30
0.0
  0
XRECORD
  5
492
102
{ACAD_REACTORS
330
475
102
}
330
475
100
AcDbXrecord
 10
0.0
 20
0.0
 30
0.0
  0
XRECORD
  5
48F
102
{ACAD_REACTORS
330
475
102
}
330
475
100
AcDbXrecord
 10
0.0
 20
0.0
 30
0.0
  0
XRECORD
  5
48C
102
{ACAD_REACTORS
330
475
102
}
330
475
100
AcDbXrecord
340
0
  0
XRECORD
  5
48D
102
{ACAD_REACTORS
330
475
102
}
330
475
100
AcDbXrecord
 70
     0
  0
XRECORD
  5
481
102
{ACAD_REACTORS
330
475
102
}
330
475
100
AcDbXrecord
  1
{FAEB1C32-E019-11D5-929B-00C0DF256EC4}
  0
DICTIONARYVAR
  5
49F
102
{ACAD_REACTORS
330
496
102
}
330
496
100
DictionaryVariables
280
     0
  1
1:1
  0
DICTIONARYVAR
  5
498
102
{ACAD_REACTORS
330
496
102
}
330
496
100
DictionaryVariables
280
     0
  1
Standard
  0
DICTIONARYVAR
  5
497
102
{ACAD_REACTORS
330
496
102
}
330
496
100
DictionaryVariables
280
     0
  1
Standard
  0
DICTIONARYVAR
  5
49B
102
{ACAD_REACTORS
330
496
102
}
330
496
100
DictionaryVariables
280
     0
  1
2
  0
DICTIONARYVAR
  5
49C
102
{ACAD_REACTORS
330
496
102
}
330
496
100
DictionaryVariables
280
     0
  1
1
  0
DICTIONARYVAR
  5
4A0
102
{ACAD_REACTORS
330
496
102
}
330
496
100
DictionaryVariables
280
     0
  1
1
  0
DICTIONARY
  5
4A3
330
45
100
AcDbDictionary
280
     1
  3
ACAD_XREC_ROUNDTRIP
360
4A4
  0
DICTIONARY
  5
4A1
330
44
100
AcDbDictionary
280
     1
  3
ACAD_XREC_ROUNDTRIP
360
4A2
  0
DICTIONARY
  5
4A5
330
46
100
AcDbDictionary
280
     1
  3
ACAD_XREC_ROUNDTRIP
360
4A6
  0
XRECORD
  5
4A4
102
{ACAD_REACTORS
330
4A3
102
}
330
4A3
100
AcDbXrecord
102
MATERIAL
148
0.0
149
0.0
149
0.0
 93
        0
 94
      127
282
     0
 72
     1
 77
     1
171
     1
175
     1
179
     1
273
     0
  0
XRECORD
  5
4A2
102
{ACAD_REACTORS
330
4A1
102
}
330
4A1
100
AcDbXrecord
102
MATERIAL
148
0.0
149
0.0
149
0.0
 93
        0
 94
      127
282
     0
 72
     1
 77
     1
171
     1
175
     1
179
     1
273
     0
  0
XRECORD
  5
4A6
102
{ACAD_REACTORS
330
4A5
102
}
330
4A5
100
AcDbXrecord
102
MATERIAL
148
0.0
149
0.0
149
0.0
 93
        0
 94
      127
282
     0
 72
     1
 77
     1
171
     1
175
     1
179
     1
273
     0
  0
ENDSEC
  0
EOF
